  0
SECTION
  2
HEADER
  9
$ACADVER
  1
AC1009
  9
$INSBASE
 10
0
 20
0
  9
$EXTMIN
 10
-235.752371662105
 20
-811.2799137924451
  9
$EXTMAX
 10
396.2841239712924
 20
-399.7796257928498
  9
$LIMMIN
 10
-235.752371662105
 20
-811.2799137924451
  9
$LIMMAX
 10
396.2841239712924
 20
-399.7796257928498
  9
$VIEWCTR
 10
10
 20
10
  9
$VIEWSIZE
 40
10
  9
$SNAPMODE
 70
0
  9
$SNAPUNIT
 10
1
 20
1
  9
$SNAPBASE
 10
0
 20
0
  9
$SNAPANG
 50
0
  9
$SNAPSTYLE
 70
0
  9
$SNAPISOPAIR
 70
0
  9
$GRIDMODE
 70
0
  9
$GRIDUNIT
 10
0
 20
0
  9
$ORTHOMODE
 70
0
  9
$REGENMODE
 70
1
  9
$FILLMODE
 70
1
  9
$QTEXTMODE
 70
0
  9
$DRAGMODE
 70
2
  9
$LTSCALE
 40
1
  9
$OSMODE
 70
0
  9
$ATTMODE
 70
1
  9
$TEXTSIZE
 40
3.5
  9
$TRACEWID
 40
0.5
  9
$TEXTSTYLE
  7
STANDARD
  9
$CLAYER
  8
0
  9
$CELTYPE
  6
BYLAYER
  9
$CECOLOR
 62
256
  9
$DIMSCALE
 40
1
  9
$DIMASZ
 40
0.18
  9
$DIMEXO
 40
0.0625
  9
$DIMDLI
 40
0.38
  9
$DIMRND
 40
0
  9
$DIMDLE
 40
0
  9
$DIMEXE
 40
0.18
  9
$DIMTP
 40
0
  9
$DIMTM
 40
0
  9
$DIMTXT
 40
0.18
  9
$DIMCEN
 40
0.09
  9
$DIMTSZ
 40
0
  9
$DIMTOL
 70
0
  9
$DIMLIM
 70
0
  9
$DIMTIH
 70
1
  9
$DIMTOH
 70
1
  9
$DIMSE1
 70
0
  9
$DIMSE2
 70
0
  9
$DIMTAD
 70
0
  9
$DIMZIN
 70
0
  9
$DIMBLK
  1

  9
$DIMASO
 70
1
  9
$DIMSHO
 70
1
  9
$DIMPOST
  1

  9
$DIMAPOST
  1

  9
$DIMALT
 70
0
  9
$DIMALTD
 70
2
  9
$DIMALTF
 40
25.4
  9
$DIMLFAC
 40
1
  9
$DIMTOFL
 70
0
  9
$DIMTVP
 40
0
  9
$DIMTIX
 70
0
  9
$DIMSOXD
 70
0
  9
$DIMSAH
 70
0
  9
$DIMBLK1
  1

  9
$DIMBLK2
  1

  9
$DIMSTYLE
  2
*UNNAMED
  9
$DIMCLRD
 70
0
  9
$DIMCLRE
 70
0
  9
$DIMCLRT
 70
0
  9
$DIMTFAC
 40
1
  9
$DIMGAP
 40
0.09
  9
$LUNITS
 70
2
  9
$LUPREC
 70
4
  9
$AXISMODE
 70
0
  9
$AXISUNIT
 10
0
 20
0
  9
$SKETCHINC
 40
0.1
  9
$FILLETRAD
 40
2
  9
$AUNITS
 70
0
  9
$AUPREC
 70
0
  9
$MENU
  1
ACAD
  9
$ELEVATION
 40
0
  9
$THICKNESS
 40
0
  9
$VIEWDIR
 10
0
 20
0
 30
1
  9
$LIMCHECK
 70
0
  9
$BLIPMODE
 70
1
  9
$CHAMFERA
 40
0
  9
$CHAMFERB
 40
0
  9
$FASTZOOM
 70
1
  9
$SKPOLY
 70
0
  9
$ANGBASE
 50
0
  9
$ANGDIR
 70
0
  9
$PDMODE
 70
0
  9
$PDSIZE
 40
0
  9
$PLINEWID
 40
0
  9
$COORDS
 70
2
  0
ENDSEC
  0
SECTION
  2
TABLES
  0
TABLE
  2
DIMSTYLE
 70
8
  0
DIMSTYLE
  2
DMST_1
 70
0
  3

  4

  5

  6

  7

 40
1
 41
9.600000000000001
 42
2
 43
7
 44
3
 45
0
 46
0
 47
0
 48
0
140
6.4
141
0
142
0
143
25.4
144
1
145
0
146
1
147
0.09
 71
0
 72
0
 73
1
 74
1
 75
0
 76
0
 77
1
 78
9
170
0
171
2
172
0
173
0
174
0
175
0
176
2
177
2
178
2
  0
DIMSTYLE
  2
DMST_2
 70
0
  3

  4

  5

  6

  7

 40
1
 41
9.600000000000001
 42
2
 43
7
 44
3
 45
0
 46
0
 47
0.8
 48
0.8
140
6.4
141
0
142
0
143
25.4
144
1
145
0
146
0.6
147
0.09
 71
1
 72
0
 73
0
 74
0
 75
0
 76
0
 77
1
 78
9
170
0
171
2
172
0
173
0
174
0
175
0
176
2
177
2
178
2
  0
DIMSTYLE
  2
DMST_3
 70
0
  3

  4

  5

  6

  7

 40
1
 41
9.600000000000001
 42
2
 43
7
 44
3
 45
0
 46
0
 47
0
 48
0
140
6.4
141
0
142
0
143
25.4
144
1
145
0
146
1
147
0.09
 71
0
 72
0
 73
0
 74
0
 75
0
 76
0
 77
1
 78
9
170
0
171
2
172
0
173
0
174
0
175
0
176
2
177
2
178
2
  0
DIMSTYLE
  2
DMST_4
 70
0
  3
)
  4

  5

  6

  7

 40
1
 41
9.600000000000001
 42
2
 43
7
 44
3
 45
0
 46
0
 47
0
 48
0
140
6.4
141
0
142
0
143
25.4
144
1
145
0
146
1
147
0.09
 71
0
 72
0
 73
0
 74
0
 75
0
 76
0
 77
1
 78
9
170
0
171
2
172
0
173
0
174
0
175
0
176
2
177
2
178
2
  0
DIMSTYLE
  2
DMST_5
 70
0
  3

  4

  5

  6

  7

 40
1
 41
9.600000000000001
 42
2
 43
7
 44
3
 45
0
 46
0
 47
1
 48
1
140
6.4
141
0
142
0
143
25.4
144
1
145
0
146
0.6
147
0.09
 71
1
 72
0
 73
0
 74
0
 75
0
 76
0
 77
1
 78
9
170
0
171
2
172
0
173
0
174
0
175
0
176
2
177
2
178
2
  0
DIMSTYLE
  2
DMST_6
 70
0
  3
)
  4

  5

  6

  7

 40
1
 41
9.600000000000001
 42
2
 43
7
 44
3
 45
0
 46
0
 47
0
 48
0
140
6.4
141
0
142
0
143
25.4
144
1
145
0
146
1
147
0.09
 71
0
 72
0
 73
0
 74
0
 75
0
 76
0
 77
1
 78
9
170
0
171
2
172
1
173
0
174
0
175
0
176
2
177
2
178
2
  0
DIMSTYLE
  2
DMST_7
 70
0
  3
貫通穴
  4

  5

  6

  7

 40
1
 41
9.600000000000001
 42
2
 43
7
 44
3
 45
0
 46
0
 47
0.5
 48
0.5
140
6.4
141
0
142
0
143
25.4
144
1
145
0
146
0.6
147
0.09
 71
1
 72
0
 73
1
 74
1
 75
0
 76
0
 77
1
 78
9
170
0
171
2
172
0
173
0
174
0
175
0
176
2
177
2
178
2
  0
DIMSTYLE
  2
DMST_8
 70
0
  3

  4

  5

  6

  7

 40
1
 41
9.600000000000001
 42
2
 43
7
 44
3
 45
0
 46
0
 47
0.8
 48
0.8
140
6.4
141
0
142
0
143
25.4
144
1
145
0
146
0.6
147
0.09
 71
1
 72
0
 73
0
 74
0
 75
0
 76
0
 77
1
 78
9
170
0
171
2
172
0
173
0
174
1
175
0
176
2
177
2
178
2
  0
ENDTAB
  0
TABLE
  2
LTYPE
 70
9
  0
LTYPE
  2
CONTINUOUS
 70
64
  3
Solid line
 72
65
 73
0
 40
0
  0
LTYPE
  2
BORDER
 70
64
  3
__ __ . __ __ .
 72
65
 73
6
 40
29.10694387785383
 49
8.316269679386808
 49
-4.158134839693404
 49
8.316269679386808
 49
-4.158134839693404
 49
0
 49
-4.158134839693404
  0
LTYPE
  2
CENTER
 70
64
  3
____ _ ____ _
 72
65
 73
4
 40
33.26507871754723
 49
20.79067419846702
 49
-4.158134839693404
 49
4.158134839693404
 49
-4.158134839693404
  0
LTYPE
  2
DASHDOT
 70
64
  3
__ . __ . __ .
 72
65
 73
4
 40
16.63253935877362
 49
8.316269679386808
 49
-4.158134839693404
 49
0
 49
-4.158134839693404
  0
LTYPE
  2
DASHED
 70
64
  3
__ __ __ __ __
 72
65
 73
2
 40
12.47440451908021
 49
8.316269679386808
 49
-4.158134839693404
  0
LTYPE
  2
DIVIDE
 70
64
  3
__ . . __ . . 
 72
65
 73
6
 40
20.79067419846702
 49
8.316269679386808
 49
-4.158134839693404
 49
0
 49
-4.158134839693404
 49
0
 49
-4.158134839693404
  0
LTYPE
  2
DOT
 70
64
  3
..............
 72
65
 73
4
 40
8.316269679386808
 49
0
 49
-4.158134839693404
 49
0
 49
-4.158134839693404
  0
LTYPE
  2
HIDDEN
 70
64
  3
_ _ _ _ _ _ _
 72
65
 73
2
 40
6.237202259540107
 49
4.158134839693404
 49
-2.079067419846702
  0
LTYPE
  2
PHANTOM
 70
64
  3
_____ _ _ _____ _ _ 
 72
65
 73
6
 40
41.58134839693404
 49
20.79067419846702
 49
-4.158134839693404
 49
4.158134839693404
 49
-4.158134839693404
 49
4.158134839693404
 49
-4.158134839693404
  0
ENDTAB
  0
TABLE
  2
LAYER
 70
3
  0
LAYER
  2
1
 70
0
 62
7
  6
CONTINUOUS
  0
LAYER
  2
0
 70
0
 62
7
  6
CONTINUOUS
  0
ENDTAB
  0
TABLE
  2
STYLE
 70
4
  0
STYLE
  2
STANDARD
 70
0
 40
0
 41
1
 50
0
 71
0
 42
3.5
  3
txt
  4

  0
STYLE
  2
SIMPLEX
 70
0
 40
0
 41
1
 50
0
 71
0
 42
3.5
  3
simplex
  4

  0
STYLE
  2
COMPLEX
 70
0
 40
0
 41
1
 50
0
 71
0
 42
3.5
  3
complex
  4

  0
STYLE
  2
ITALIC
 70
0
 40
0
 41
1
 50
0
 71
0
 42
3.5
  3
italic
  4

  0
ENDTAB
  0
TABLE
  2
VIEW
 70
0
  0
ENDTAB
  0
ENDSEC
  0
SECTION
  2
BLOCKS
  0
BLOCK
  8
1
  2
*X0
 70
1
 10
0
 20
0
 30
0
  0
LINE
  8
1
 62
2
 10
-112.5981415762435
 20
-720.7099733966743
 30
0
 11
-111.848966514932
 21
-719.9607983353627
 31
0
  0
LINE
  8
1
 62
2
 10
-110.0617267811678
 20
-721.0019857263449
 30
0
 11
-109.3780442435261
 21
-720.3183031887031
 31
0
  0
LINE
  8
1
 62
2
 10
-107.7714538568686
 20
-721.5401399267919
 30
0
 11
-107.1305807077472
 21
-720.8992667776704
 31
0
  0
LINE
  8
1
 62
2
 10
-105.6792354742138
 20
-722.2763486688832
 30
0
 11
-105.0682477177679
 21
-721.6653609124373
 31
0
  0
LINE
  8
1
 62
2
 10
-103.757177967418
 20
-723.1827182868336
 30
0
 11
-103.1672194331797
 21
-722.5927597525954
 31
0
  0
LINE
  8
1
 62
2
 10
-101.9884284299699
 20
-724.2423958741316
 30
0
 11
-101.4117623828348
 21
-723.6657298269965
 31
0
  0
LINE
  8
1
 62
2
 10
-100.3611838365998
 20
-725.4435784055078
 30
0
 11
-99.79290370220758
 21
-724.8752982711155
 31
0
  0
LINE
  8
1
 62
2
 10
-98.87014448586615
 20
-726.7809661795202
 30
0
 11
-98.30445906091683
 21
-726.215280754571
 31
0
  0
LINE
  8
1
 62
2
 10
-97.51205593813131
 20
-728.2513047565317
 30
0
 11
-96.94463942104221
 21
-727.6838882394426
 31
0
  0
LINE
  8
1
 62
2
 10
-96.29036017055154
 20
-729.8580361136981
 30
0
 11
-95.71506287884193
 21
-729.2827388219885
 31
0
  0
LINE
  8
1
 62
2
 10
-95.20821491133216
 20
-731.6043179792248
 30
0
 11
-94.62114191266187
 21
-731.0172449805546
 31
0
  0
LINE
  8
1
 62
2
 10
-94.27782183855578
 20
-733.5023520311947
 30
0
 11
-93.6703654482755
 21
-732.8948956409145
 31
0
  0
LINE
  8
1
 62
2
 10
-93.51424983601339
 20
-735.5672071533984
 30
0
 11
-92.87870406023637
 21
-734.9316613776214
 31
0
  0
LINE
  8
1
 62
2
 10
-92.94353245558608
 20
-737.8249168977175
 30
0
 11
-92.26753818005238
 21
-737.1489226221837
 31
0
  0
LINE
  8
1
 62
2
 10
-92.61025868271025
 20
-740.3200702495878
 30
0
 11
-91.87253121521042
 21
-739.582342782088
 31
0
  0
LINE
  8
1
 62
2
 10
-92.55237729340468
 20
-743.0906159850282
 30
0
 11
-91.75237729340461
 21
-742.2906159850281
 31
0
  0
LINE
  8
1
 62
2
 10
-92.55237729340468
 20
-745.9190431097744
 30
0
 11
-91.75237729340461
 21
-745.1190431097743
 31
0
  0
LINE
  8
1
 62
2
 10
-92.55237729340468
 20
-748.7474702345206
 30
0
 11
-91.75237729340461
 21
-747.9474702345206
 31
0
  0
LINE
  8
1
 62
2
 10
-92.55237729340468
 20
-751.5758973592668
 30
0
 11
-91.75237729340461
 21
-750.7758973592668
 31
0
  0
LINE
  8
1
 62
2
 10
-92.55237729340468
 20
-754.4043244840131
 30
0
 11
-91.75237729340461
 21
-753.604324484013
 31
0
  0
LINE
  8
1
 62
2
 10
-92.55237729340468
 20
-757.2327516087593
 30
0
 11
-91.75237729340461
 21
-756.4327516087592
 31
0
  0
LINE
  8
1
 62
2
 10
-92.55237729340468
 20
-760.0611787335055
 30
0
 11
-91.75237729340461
 21
-759.2611787335054
 31
0
  0
ENDBLK
  8
0
  0
BLOCK
  8
1
  2
*X1
 70
1
 10
0
 20
0
 30
0
  0
LINE
  8
1
 62
2
 10
-92.40684095185543
 20
-768.4009237661948
 30
0
 11
-91.75237729340455
 21
-767.7464601077438
 31
0
  0
ENDBLK
  8
0
  0
BLOCK
  8
1
  2
*X2
 70
1
 10
0
 20
0
 30
0
  0
LINE
  8
1
 62
2
 10
-92.55237729340462
 20
-525.3017273795715
 30
0
 11
-91.75237729340461
 21
-524.5017273795716
 31
0
  0
LINE
  8
1
 62
2
 10
-92.55237729340462
 20
-528.1301545043177
 30
0
 11
-91.75237729340461
 21
-527.3301545043178
 31
0
  0
LINE
  8
1
 62
2
 10
-92.55237729340462
 20
-530.9585816290639
 30
0
 11
-91.75237729340461
 21
-530.158581629064
 31
0
  0
LINE
  8
1
 62
2
 10
-92.55237729340462
 20
-533.7870087538101
 30
0
 11
-91.75237729340461
 21
-532.9870087538102
 31
0
  0
LINE
  8
1
 62
2
 10
-92.55237729340462
 20
-536.6154358785564
 30
0
 11
-91.75237729340461
 21
-535.8154358785564
 31
0
  0
LINE
  8
1
 62
2
 10
-92.55237729340462
 20
-539.4438630033026
 30
0
 11
-91.75237729340461
 21
-538.6438630033026
 31
0
  0
LINE
  8
1
 62
2
 10
-92.55237729340462
 20
-542.2722901280488
 30
0
 11
-91.75237729340461
 21
-541.4722901280488
 31
0
  0
LINE
  8
1
 62
2
 10
-92.67843827263047
 20
-545.2267782320209
 30
0
 11
-91.75237729340469
 21
-544.300717252795
 31
0
  0
LINE
  8
1
 62
2
 10
-112.3288785401354
 20
-564.8772184995257
 30
0
 11
-111.4492618517425
 21
-563.9976018111329
 31
0
  0
LINE
  8
1
 62
2
 10
-93.36719071323691
 20
-548.7439577973735
 30
0
 11
-92.26716724915573
 21
-547.6439343332922
 31
0
  0
LINE
  8
1
 62
2
 10
-109.0291920495172
 20
-564.4059591336537
 30
0
 11
-107.9320822863899
 21
-563.3088493705266
 31
0
  0
LINE
  8
1
 62
2
 10
-95.49895100573707
 20
-553.7041452146198
 30
0
 11
-93.65113363712015
 21
-551.8563278460028
 31
0
  0
LINE
  8
1
 62
2
 10
-104.8178899417264
 20
-563.0230841506091
 30
0
 11
-102.9718948691437
 21
-561.1770890780265
 31
0
  0
ENDBLK
  8
0
  0
BLOCK
  8
1
  2
*X3
 70
1
 10
0
 20
0
 30
0
  0
LINE
  8
1
 62
2
 10
-92.55237729340459
 20
-516.8164460053331
 30
0
 11
-92.13685505426631
 21
-516.4009237661948
 31
0
  0
ENDBLK
  8
0
  0
BLOCK
  8
1
  2
*D0
 70
1
 10
0
 20
0
 30
0
  0
LINE
  8
1
 62
2
 10
72.984788408767
 20
-496.4009237661948
 30
0
 11
190.984788408767
 21
-496.4009237661948
 31
0
  0
LINE
  8
1
 62
2
 10
190.984788408767
 20
-480.6009237661948
 30
0
 11
190.984788408767
 21
-499.4009237661948
 31
0
  0
LINE
  8
1
 62
2
 10
72.984788408767
 20
-596.2194796974458
 30
0
 11
72.984788408767
 21
-493.4009237661948
 31
0
  0
SOLID
  8
1
 62
2
 10
72.984788408767
 20
-496.4009237661948
 30
0
 11
82.584788408767
 21
-495.1529237661948
 31
0
 12
82.584788408767
 22
-497.6489237661948
 32
0
 13
82.584788408767
 23
-497.6489237661948
 33
0
  0
SOLID
  8
1
 62
2
 10
190.984788408767
 20
-496.4009237661948
 30
0
 11
181.384788408767
 21
-497.6489237661948
 31
0
 12
181.384788408767
 22
-495.1529237661948
 32
0
 13
181.384788408767
 23
-495.1529237661948
 33
0
  0
TEXT
  8
1
 62
2
 10
123.082989200777
 20
-492.868872335062
 30
0
 40
6.4
  1
118
 41
0.9
  0
ENDBLK
  8
0
  0
BLOCK
  8
1
  2
*D1
 70
1
 10
0
 20
0
 30
0
  0
LINE
  8
1
 62
2
 10
-132.7523772934054
 20
-719.9009237661948
 30
0
 11
-132.7523772934054
 21
-564.9009237661948
 31
0
  0
LINE
  8
1
 62
2
 10
-114.7523772934063
 20
-719.9009237661948
 30
0
 11
-135.7523772934054
 21
-719.9009237661948
 31
0
  0
LINE
  8
1
 62
2
 10
-114.7523772934063
 20
-564.9009237661948
 30
0
 11
-135.7523772934054
 21
-564.9009237661948
 31
0
  0
SOLID
  8
1
 62
2
 10
-132.7523772934054
 20
-719.9009237661948
 30
0
 11
-134.0003772934054
 21
-710.3009237661947
 31
0
 12
-131.5043772934054
 22
-710.3009237661947
 32
0
 13
-131.5043772934054
 23
-710.3009237661947
 33
0
  0
SOLID
  8
1
 62
2
 10
-132.7523772934054
 20
-564.9009237661948
 30
0
 11
-131.5043772934054
 21
-574.5009237661948
 31
0
 12
-134.0003772934054
 22
-574.5009237661948
 32
0
 13
-134.0003772934054
 23
-574.5009237661948
 33
0
  0
TEXT
  8
1
 62
2
 10
-136.7523772934054
 20
-651.5416199696615
 30
0
 40
6.4
  1
155
 50
90
 41
0.9
  0
TEXT
  8
1
 62
2
 10
-138.0323772934054
 20
-634.9016199696615
 30
0
 40
3.84
  1
%%p0.8
 50
90
 41
0.9
  0
TEXT
  8
1
 62
2
 10
-136.7523772934054
 20
-659.2216199696616
 30
0
 40
6.4
  1
%%c
 50
90
 41
0.9
  0
ENDBLK
  8
0
  0
BLOCK
  8
1
  2
*D2
 70
1
 10
0
 20
0
 30
0
  0
LINE
  8
1
 62
2
 10
-11.7523772934046
 20
-768.4009237661948
 30
0
 11
-11.7523772934046
 21
-516.4009237661948
 31
0
  0
LINE
  8
1
 62
2
 10
-89.75237729340461
 20
-768.4009237661948
 30
0
 11
-8.752377293404599
 21
-768.4009237661948
 31
0
  0
LINE
  8
1
 62
2
 10
-89.75237729340461
 20
-516.4009237661948
 30
0
 11
-8.752377293404599
 21
-516.4009237661948
 31
0
  0
SOLID
  8
1
 62
2
 10
-11.7523772934046
 20
-768.4009237661948
 30
0
 11
-13.0003772934046
 21
-758.8009237661947
 31
0
 12
-10.5043772934046
 22
-758.8009237661947
 32
0
 13
-10.5043772934046
 23
-758.8009237661947
 33
0
  0
SOLID
  8
1
 62
2
 10
-11.7523772934046
 20
-516.4009237661948
 30
0
 11
-10.5043772934046
 21
-526.0009237661948
 31
0
 12
-13.0003772934046
 22
-526.0009237661948
 32
0
 13
-13.0003772934046
 23
-526.0009237661948
 33
0
  0
TEXT
  8
1
 62
2
 10
-15.7523772934046
 20
-638.5731991918116
 30
0
 40
6.4
  1
252
 50
90
 41
0.9
  0
TEXT
  8
1
 62
2
 10
-15.7523772934046
 20
-646.2531991918115
 30
0
 40
6.4
  1
%%c
 50
90
 41
0.9
  0
ENDBLK
  8
0
  0
BLOCK
  8
1
  2
*D3
 70
1
 10
0
 20
0
 30
0
  0
LINE
  8
1
 62
2
 10
-91.75237729340461
 20
-506.4009237661948
 30
0
 11
-56.61212061939861
 21
-506.4009237661948
 31
0
  0
LINE
  8
1
 62
2
 10
-92.55237729340462
 20
-506.4009237661948
 30
0
 11
-91.75237729340461
 21
-506.4009237661948
 31
0
  0
LINE
  8
1
 62
2
 10
-111.7523772934046
 20
-506.4009237661948
 30
0
 11
-92.55237729340462
 21
-506.4009237661948
 31
0
  0
LINE
  8
1
 62
2
 10
-91.75237729340461
 20
-514.4009237661949
 30
0
 11
-91.75237729340461
 21
-503.4009237661948
 31
0
  0
LINE
  8
1
 62
2
 10
-92.55237729340462
 20
-514.4009237661949
 30
0
 11
-92.55237729340462
 21
-503.4009237661948
 31
0
  0
SOLID
  8
1
 62
2
 10
-92.55237729340462
 20
-506.4009237661948
 30
0
 11
-102.1523772934046
 21
-507.6489237661948
 31
0
 12
-102.1523772934046
 22
-505.1529237661948
 32
0
 13
-102.1523772934046
 23
-505.1529237661948
 33
0
  0
SOLID
  8
1
 62
2
 10
-91.75237729340461
 20
-506.4009237661948
 30
0
 11
-82.15237729340461
 21
-505.1529237661948
 31
0
 12
-82.15237729340461
 22
-507.6489237661948
 32
0
 13
-82.15237729340461
 23
-507.6489237661948
 33
0
  0
TEXT
  8
1
 62
2
 10
-72.77212061939861
 20
-502.4009237661948
 30
0
 40
6.4
  1
0.8
 41
0.9
  0
TEXT
  8
1
 62
2
 10
-76.9321206193986
 20
-502.4009237661948
 30
0
 40
6.4
  1
(
 41
0.9
  0
TEXT
  8
1
 62
2
 10
-57.5721206193986
 20
-502.4009237661948
 30
0
 40
6.4
  1
)
 41
0.9
  0
ENDBLK
  8
0
  0
BLOCK
  8
1
  2
*D4
 70
1
 10
0
 20
0
 30
0
  0
LINE
  8
1
 62
2
 10
-91.75237729340461
 20
-486.4009237661948
 30
0
 11
-64.39237729340461
 21
-486.4009237661948
 31
0
  0
LINE
  8
1
 62
2
 10
-112.7523772934046
 20
-486.4009237661948
 30
0
 11
-91.75237729340461
 21
-486.4009237661948
 31
0
  0
LINE
  8
1
 62
2
 10
-131.9523772934046
 20
-486.4009237661948
 30
0
 11
-112.7523772934046
 21
-486.4009237661948
 31
0
  0
LINE
  8
1
 62
2
 10
-91.75237729340461
 20
-514.4009237661948
 30
0
 11
-91.75237729340461
 21
-483.4009237661948
 31
0
  0
LINE
  8
1
 62
2
 10
-112.7523772934046
 20
-562.1000647510318
 30
0
 11
-112.7523772934046
 21
-483.4009237661948
 31
0
  0
SOLID
  8
1
 62
2
 10
-112.7523772934046
 20
-486.4009237661948
 30
0
 11
-122.3523772934046
 21
-487.6489237661948
 31
0
 12
-122.3523772934046
 22
-485.1529237661948
 32
0
 13
-122.3523772934046
 23
-485.1529237661948
 33
0
  0
SOLID
  8
1
 62
2
 10
-91.75237729340461
 20
-486.4009237661948
 30
0
 11
-82.15237729340461
 21
-485.1529237661948
 31
0
 12
-82.15237729340461
 22
-487.6489237661948
 32
0
 13
-82.15237729340461
 23
-487.6489237661948
 33
0
  0
TEXT
  8
1
 62
2
 10
-79.11237729340461
 20
-482.4009237661948
 30
0
 40
6.4
  1
21
 41
0.9
  0
TEXT
  8
1
 62
2
 10
-68.23237729340461
 20
-481.1209237661948
 30
0
 40
3.84
  1
%%p1
 41
0.9
  0
ENDBLK
  8
0
  0
BLOCK
  8
1
  2
*D5
 70
1
 10
0
 20
0
 30
0
  0
LINE
  8
1
 62
2
 10
-113.7523772934046
 20
-542.9236627903588
 30
0
 11
-63.01061092588155
 21
-591.9871883356052
 31
0
  0
SOLID
  8
1
 62
2
 10
-97.93668156268855
 20
-558.2162678187184
 30
0
 11
-90.16777928585823
 21
-563.9922232732783
 31
0
 12
-91.90279483816667
 22
-565.7865858434541
 32
0
 13
-91.90279483816667
 23
-565.7865858434541
 33
0
  0
TEXT
  8
1
 62
2
 10
-70.12213606866403
 20
-579.5467779668282
 30
0
 40
6.4
  1
22
 50
315.9633462627925
 41
0.9
  0
TEXT
  8
1
 62
2
 10
-77.71367001940774
 20
-572.2063275532156
 30
0
 40
6.4
  1
(R
 50
315.9633462627925
 41
0.9
  0
TEXT
  8
1
 62
2
 10
-60.92027673442924
 20
-588.444293619692
 30
0
 40
6.4
  1
)
 50
315.9633462627925
 41
0.9
  0
ENDBLK
  8
0
  0
BLOCK
  8
1
  2
*D6
 70
1
 10
0
 20
0
 30
0
  0
LINE
  8
1
 62
2
 10
79.86408536442835
 20
-767.314788181671
 30
0
 11
5.120968961079448
 21
-767.314788181671
 31
0
  0
LINE
  8
1
 62
2
 10
85.92669689697729
 20
-705.6377338622563
 30
0
 11
79.86408536442835
 21
-767.314788181671
 31
0
  0
SOLID
  8
1
 62
2
 10
85.92669689697729
 20
-705.6377338622563
 30
0
 11
86.22959490523483
 21
-715.3137742092471
 31
0
 12
83.74556654168217
 22
-715.0696040041322
 32
0
 13
83.74556654168217
 23
-715.0696040041322
 33
0
  0
TEXT
  8
1
 62
2
 10
26.09038072578533
 20
-763.544692571572
 30
0
 40
6.4
  1
5.5
 41
0.9
  0
TEXT
  8
1
 62
2
 10
41.29038072578533
 20
-762.2646925715719
 30
0
 40
3.84
  1
%%p0.5
 41
0.9
  0
TEXT
  8
1
 62
2
 10
5.120968961079448
 20
-763.544692571572
 30
0
 40
6.4
  1
6×%%c
 41
0.9
  0
TEXT
  8
1
 62
2
 10
54.37838072578533
 20
-763.544692571572
 30
0
 40
6.4
  1
貫通穴
 41
0.9
  0
ENDBLK
  8
0
  0
BLOCK
  8
1
  2
*D7
 70
1
 10
0
 20
0
 30
0
  0
LINE
  8
1
 62
2
 10
323.4771452374147
 20
-569.828745895533
 30
0
 11
396.2841239712924
 21
-569.828745895533
 31
0
  0
LINE
  8
1
 62
2
 10
279.6611234520591
 20
-556.4099255205074
 30
0
 11
323.4771452374147
 21
-569.828745895533
 31
0
  0
SOLID
  8
1
 62
2
 10
279.6611234520591
 20
-556.4099255205074
 30
0
 11
289.2057563066663
 21
-558.0277906789036
 31
0
 12
288.4748550069626
 22
-560.4143780521399
 32
0
 13
288.4748550069626
 23
-560.4143780521399
 33
0
  0
TEXT
  8
1
 62
2
 10
347.1020063242336
 20
-567.2203328871181
 30
0
 40
6.4
  1
4.3
 41
0.9
  0
TEXT
  8
1
 62
2
 10
362.3020063242336
 20
-565.940332887118
 30
0
 40
3.84
  1
%%p0.5
 41
0.9
  0
TEXT
  8
1
 62
2
 10
326.1325945595277
 20
-567.2203328871181
 30
0
 40
6.4
  1
4×%%c
 41
0.9
  0
TEXT
  8
1
 62
2
 10
375.3900063242336
 20
-567.2203328871181
 30
0
 40
6.4
  1
貫通穴
 41
0.9
  0
ENDBLK
  8
0
  0
BLOCK
  8
1
  2
*D8
 70
1
 10
0
 20
0
 30
0
  0
LINE
  8
1
 62
2
 10
107.2930510324067
 20
-731.8545044375481
 30
0
 11
274.6765257851274
 21
-552.9473430948414
 31
0
  0
SOLID
  8
1
 62
2
 10
274.6765257851274
 20
-552.9473430948414
 30
0
 11
269.0291575391256
 21
-560.8102138106838
 31
0
 12
267.2064951933648
 22
-559.1049519617744
 32
0
 13
267.2064951933648
 23
-559.1049519617744
 33
0
  0
SOLID
  8
1
 62
2
 10
107.2930510324067
 20
-731.8545044375481
 30
0
 11
112.9404192784084
 21
-723.9916337217057
 31
0
 12
114.7630816241692
 22
-725.6968955706151
 32
0
 13
114.7630816241692
 23
-725.6968955706151
 33
0
  0
TEXT
  8
1
 62
2
 10
247.3478952834396
 20
-576.3026218176422
 30
0
 40
6.4
  1
245
 50
46.9059569545119
 41
0.9
  0
TEXT
  8
1
 62
2
 10
259.0933488544267
 20
-561.8749982984417
 30
0
 40
3.84
  1
%%p0.8
 50
46.9059569545119
 41
0.9
  0
TEXT
  8
1
 62
2
 10
242.1009357483339
 20
-581.9108136507523
 30
0
 40
6.4
  1
%%c
 50
46.9059569545119
 41
0.9
  0
ENDBLK
  8
0
  0
BLOCK
  8
1
  2
*D9
 70
1
 10
0
 20
0
 30
0
  0
LINE
  8
1
 62
2
 10
197.4023347863658
 20
-521.5712291605584
 30
0
 11
184.5672420311682
 21
-763.2306183718312
 31
0
  0
SOLID
  8
1
 62
2
 10
184.5672420311682
 20
-763.2306183718312
 30
0
 11
183.830159273789
 21
-753.5779393132084
 31
0
 12
186.3226461972243
 22
-753.7103210963364
 32
0
 13
186.3226461972243
 23
-753.7103210963364
 33
0
  0
SOLID
  8
1
 62
2
 10
197.4023347863658
 20
-521.5712291605584
 30
0
 11
198.139417543745
 21
-531.2239082191811
 31
0
 12
195.6469306203097
 22
-531.0915264360531
 32
0
 13
195.6469306203097
 23
-531.0915264360531
 33
0
  0
TEXT
  8
1
 62
2
 10
181.1384352589598
 20
-752.370030734227
 30
0
 40
6.4
  1
242
 50
86.95974438752441
 41
0.9
  0
TEXT
  8
1
 62
2
 10
180.8446141984062
 20
-733.7682655173351
 30
0
 40
3.84
  1
%%p0.8
 50
86.95974438752441
 41
0.9
  0
TEXT
  8
1
 62
2
 10
180.731106695489
 20
-760.0392212678742
 30
0
 40
6.4
  1
%%c
 50
86.95974438752441
 41
0.9
  0
ENDBLK
  8
0
  0
BLOCK
  8
1
  2
*D10
 70
1
 10
0
 20
0
 30
0
  0
LINE
  8
1
 62
2
 10
73.40953664591677
 20
-710.2830270215144
 30
0
 11
64.54507945623895
 21
-715.4009237661948
 31
0
  0
LINE
  8
1
 62
2
 10
64.54507945623895
 20
-715.4009237661948
 30
0
 11
61.94700324488565
 21
-716.9009237661948
 31
0
  0
ARC
  8
1
 62
2
 10
190.984788408767
 20
-642.4009237661948
 30
0
 40
146
 50
210
 51
270
  0
SOLID
  8
1
 62
2
 10
64.54507945623895
 20
-715.4009237661948
 30
0
 11
70.67547247569513
 21
-722.8933055922233
 31
0
 12
68.55606392143706
 22
-724.2116846652284
 32
0
 13
68.55606392143706
 23
-724.2116846652284
 33
0
  0
SOLID
  8
1
 62
2
 10
190.984788408767
 20
-788.4009237661948
 30
0
 11
181.3489534109342
 21
-789.3326897746653
 31
0
 12
181.4309989028454
 22
-786.8380385891772
 32
0
 13
181.4309989028454
 23
-786.8380385891772
 33
0
  0
TEXT
  8
1
 62
2
 10
116.6735428862388
 20
-763.4050354580294
 30
0
 40
6.4
  1
60%%d
 50
328.6045106053663
 41
0.9
  0
TEXT
  8
1
 62
2
 10
105.3298098299588
 20
-756.4820169400877
 30
0
 40
6.4
  1
6×
 50
328.6045106053663
 41
0.9
  0
ENDBLK
  8
0
  0
BLOCK
  8
1
  2
*D11
 70
1
 10
0
 20
0
 30
0
  0
LINE
  8
1
 62
2
 10
283.3990571877707
 20
-549.9866549871911
 30
0
 11
294.222378462003
 21
-539.1633337129588
 31
0
  0
LINE
  8
1
 62
2
 10
283.3990571877707
 20
-734.8151925451984
 30
0
 11
294.222378462003
 21
-745.6385138194307
 31
0
  0
LINE
  8
1
 62
2
 10
294.222378462003
 20
-539.1633337129588
 30
0
 11
296.3436988055626
 21
-537.0420133693992
 31
0
  0
LINE
  8
1
 62
2
 10
294.222378462003
 20
-745.6385138194307
 30
0
 11
296.3436988055626
 21
-747.7598341629903
 31
0
  0
ARC
  8
1
 62
2
 10
190.984788408767
 20
-642.4009237661948
 30
0
 40
146
 50
315
 51
45.00000000000001
  0
SOLID
  8
1
 62
2
 10
294.222378462003
 20
-745.6385138194307
 30
0
 11
299.872801100784
 21
-737.7778377668795
 31
0
 12
301.6948007944338
 22
-739.4838076131372
 32
0
 13
301.6948007944338
 23
-739.4838076131372
 33
0
  0
SOLID
  8
1
 62
2
 10
294.222378462003
 20
-539.1633337129588
 30
0
 11
301.6948007944338
 21
-545.3180399192523
 31
0
 12
299.872801100784
 22
-547.02400976551
 32
0
 13
299.872801100784
 23
-547.02400976551
 33
0
  0
TEXT
  8
1
 62
2
 10
331.5252102545956
 20
-662.712154276334
 30
0
 40
6.4
  1
90%%d
 50
81.93591634298986
 41
0.9
  0
TEXT
  8
1
 62
2
 10
329.6609636037988
 20
-675.8701575244296
 30
0
 40
6.4
  1
4×
 50
81.93591634298986
 41
0.9
  0
ENDBLK
  8
0
  0
BLOCK
  8
1
  2
*D12
 70
1
 10
0
 20
0
 30
0
  0
LINE
  8
1
 62
2
 10
283.3990571877708
 20
-549.9866549871911
 30
0
 11
294.222378462003
 21
-539.1633337129588
 31
0
  0
LINE
  8
1
 62
2
 10
294.222378462003
 20
-539.1633337129588
 30
0
 11
296.3436988055627
 21
-537.0420133693991
 31
0
  0
ARC
  8
1
 62
2
 10
190.9847884087671
 20
-642.4009237661948
 30
0
 40
146
 50
45.00000000000001
 51
90
  0
SOLID
  8
1
 62
2
 10
294.222378462003
 20
-539.1633337129588
 30
0
 11
286.3617024094519
 21
-533.5129110741777
 31
0
 12
288.0676722557094
 22
-531.690911380528
 32
0
 13
288.0676722557094
 23
-531.690911380528
 33
0
  0
SOLID
  8
1
 62
2
 10
190.9847884087671
 20
-496.4009237661947
 30
0
 11
200.6206234065998
 21
-495.4691577577242
 31
0
 12
200.5385779146887
 22
-497.9638089432123
 32
0
 13
200.5385779146887
 23
-497.9638089432123
 33
0
  0
TEXT
  8
1
 62
2
 10
246.8109788915275
 20
-502.9986352046989
 30
0
 40
6.4
  1
45%%d
 50
335.4883559630496
 41
0.9
  0
ENDBLK
  8
0
  0
BLOCK
  8
0
  2
__________TOP_
 70
0
 10
-409.9431012642047
 20
-338.5977833395323
 30
0
  0
INSERT
  8
1
  2
*X0
 10
0
 20
0
 30
0
  0
INSERT
  8
1
  2
*X1
 10
0
 20
0
 30
0
  0
INSERT
  8
1
  2
*X2
 10
0
 20
0
 30
0
  0
INSERT
  8
1
  2
*X3
 10
0
 20
0
 30
0
  0
LINE
  8
1
 62
3
 10
-91.75237729340461
 20
-766.1509237661948
 30
0
 11
-91.75237729340461
 21
-768.4009237661948
 31
0
  0
LINE
  8
1
 62
3
 10
-92.55237729340462
 20
-766.1509237661948
 30
0
 11
-92.55237729340462
 21
-760.6509237661948
 31
0
  0
LINE
  8
1
 62
3
 10
-92.55237729340462
 20
-760.6509237661948
 30
0
 11
-92.55237729340462
 21
-741.8781847420307
 31
0
  0
LINE
  8
1
 62
3
 10
-91.75237729340461
 20
-760.6509237661948
 30
0
 11
-91.75237729340461
 21
-766.1509237661948
 31
0
  0
LINE
  8
1
 62
3
 10
-91.75237729340461
 20
-760.6509237661948
 30
0
 11
-91.75237729340461
 21
-766.1509237661948
 31
0
  0
LINE
  8
1
 62
3
 10
-92.55237729340462
 20
-766.1509237661948
 30
0
 11
-92.55237729340462
 21
-760.6509237661948
 31
0
  0
LINE
  8
1
 62
1
 10
-88.35298111202764
 20
-763.4009237661948
 30
0
 11
-95.36154828744066
 21
-763.4009237661948
 31
0
  0
LINE
  8
1
 62
3
 10
-91.75237729340461
 20
-760.6509237661948
 30
0
 11
-92.55237729340462
 21
-760.6509237661948
 31
0
  0
LINE
  8
1
 62
3
 10
-91.75237729340461
 20
-766.1509237661948
 30
0
 11
-92.55237729340462
 21
-766.1509237661948
 31
0
  0
LINE
  8
1
 62
3
 10
-92.55237729340462
 20
-518.6509237661948
 30
0
 11
-92.55237729340462
 21
-516.4009237661948
 31
0
  0
LINE
  8
1
 62
3
 10
-91.75237729340461
 20
-518.6509237661948
 30
0
 11
-91.75237729340461
 21
-524.1509237661948
 31
0
  0
LINE
  8
1
 62
3
 10
-91.75237729340461
 20
-524.1509237661948
 30
0
 11
-91.75237729340461
 21
-542.9236627903588
 31
0
  0
LINE
  8
1
 62
3
 10
-92.55237729340462
 20
-524.1509237661948
 30
0
 11
-92.55237729340462
 21
-518.6509237661948
 31
0
  0
LINE
  8
1
 62
1
 10
-95.36154828744066
 20
-521.4009237661948
 30
0
 11
-88.35298111202764
 21
-521.4009237661948
 31
0
  0
LINE
  8
1
 62
3
 10
-92.55237729340462
 20
-524.1509237661948
 30
0
 11
-91.75237729340461
 21
-524.1509237661948
 31
0
  0
LINE
  8
1
 62
3
 10
-92.55237729340462
 20
-518.6509237661948
 30
0
 11
-91.75237729340461
 21
-518.6509237661948
 31
0
  0
LINE
  8
1
 62
1
  6
CENTER
 10
273.7872341650713
 20
-725.2033695224991
 30
0
 11
281.9848436253976
 21
-733.4009789828253
 31
0
  0
LINE
  8
1
 62
1
  6
CENTER
 10
108.1823426524627
 20
-725.2033695224991
 30
0
 11
99.98473319213638
 21
-733.4009789828253
 31
0
  0
LINE
  8
1
 62
1
  6
CENTER
 10
108.1823426524627
 20
-559.5984780098904
 30
0
 11
99.98473319213642
 21
-551.4008685495642
 31
0
  0
LINE
  8
1
 62
1
  6
CENTER
 10
273.7872341650713
 20
-559.5984780098904
 30
0
 11
281.9848436253976
 21
-551.4008685495642
 31
0
  0
LINE
  8
1
 62
1
  6
CENTER
 10
75.14158745348567
 20
-575.518820510875
 30
0
 11
94.85593722239335
 21
-586.9009056568524
 31
0
  0
LINE
  8
1
 62
1
  6
CENTER
 10
190.9847884087671
 20
-508.6367172555555
 30
0
 11
190.9847884087671
 21
-531.4008875475101
 31
0
  0
LINE
  8
1
 62
1
  6
CENTER
 10
306.8279893640484
 20
-575.5188205108752
 30
0
 11
287.1136395951407
 21
-586.9009056568525
 31
0
  0
LINE
  8
1
 62
1
  6
CENTER
 10
306.8279893640484
 20
-709.2830270215145
 30
0
 11
287.1136395951407
 21
-697.9009418755372
 31
0
  0
LINE
  8
1
 62
1
  6
CENTER
 10
190.984788408767
 20
-776.1651302768339
 30
0
 11
190.984788408767
 21
-753.4009599848795
 31
0
  0
LINE
  8
1
 62
1
  6
CENTER
 10
75.14158745348564
 20
-709.2830270215144
 30
0
 11
94.85593722239334
 21
-697.9009418755371
 31
0
  0
LINE
  8
1
 62
1
  6
CENTER
 10
190.984788408767
 20
-478.6009237661948
 30
0
 11
190.984788408767
 21
-806.2009237661948
 31
0
  0
LINE
  8
1
 62
1
  6
CENTER
 10
354.784788408767
 20
-642.4009237661948
 30
0
 11
27.18478840876701
 21
-642.4009237661948
 31
0
  0
LINE
  8
1
 62
3
 10
72.984788408767
 20
-598.2194796974458
 30
0
 11
72.984788408767
 21
-686.5823678349437
 31
0
  0
LINE
  8
1
 62
3
 10
-91.75237729340461
 20
-642.4009237661948
 30
0
 11
-91.75237729340461
 21
-741.8781847420307
 31
0
  0
LINE
  8
1
 62
3
 10
-112.7523772934046
 20
-642.4009237661948
 30
0
 11
-112.7523772934063
 21
-719.9009237661948
 31
0
  0
LINE
  8
1
 62
3
 10
-91.75237729340461
 20
-741.8781847420307
 30
0
 11
-91.75237729340461
 21
-760.6509237661948
 31
0
  0
LINE
  8
1
 62
3
 10
-91.75237729340461
 20
-768.4009237661948
 30
0
 11
-92.55237729340462
 21
-768.4009237661948
 31
0
  0
LINE
  8
1
 62
3
 10
-92.55237729340462
 20
-768.4009237661948
 30
0
 11
-92.55237729340462
 21
-766.1509237661948
 31
0
  0
LINE
  8
1
 62
3
 10
-112.7523772934046
 20
-720.7017827813577
 30
0
 11
-112.7523772934046
 21
-719.9009237661949
 31
0
  0
LINE
  8
1
 62
1
  6
CENTER
 10
-113.7523772934046
 20
-547.9236627903588
 30
0
 11
-113.7523772934046
 21
-537.9236627903588
 31
0
  0
LINE
  8
1
 62
1
  6
CENTER
 10
-118.7523772934046
 20
-542.9236627903588
 30
0
 11
-108.7523772934046
 21
-542.9236627903588
 31
0
  0
LINE
  8
1
 62
3
 10
-91.75237729340461
 20
-542.9236627903588
 30
0
 11
-91.75237729340461
 21
-642.4009237661948
 31
0
  0
LINE
  8
1
 62
3
 10
-112.7523772934063
 20
-564.9009237661948
 30
0
 11
-112.7523772934046
 21
-642.4009237661948
 31
0
  0
LINE
  8
1
 62
1
  6
CENTER
 10
-126.7249393043666
 20
-642.4009237661948
 30
0
 11
-78.94836692267063
 21
-642.4009237661948
 31
0
  0
LINE
  8
1
 62
3
 10
-91.75237729340461
 20
-516.4009237661948
 30
0
 11
-91.75237729340461
 21
-518.6509237661948
 31
0
  0
LINE
  8
1
 62
3
 10
-92.55237729340462
 20
-516.4009237661948
 30
0
 11
-91.75237729340461
 21
-516.4009237661948
 31
0
  0
LINE
  8
1
 62
3
 10
-92.55237729340462
 20
-542.9236627903588
 30
0
 11
-92.55237729340462
 21
-524.1509237661948
 31
0
  0
LINE
  8
1
 62
3
 10
-112.7523772934046
 20
-564.9009237661946
 30
0
 11
-112.7523772934046
 21
-564.1000647510318
 31
0
  0
ARC
  8
1
 62
1
  6
CENTER
 10
190.984788408767
 20
-642.4009237661948
 30
0
 40
122.5
 50
311.9390801872
 51
317.8730480033202
  0
ARC
  8
1
 62
1
  6
CENTER
 10
190.984788408767
 20
-642.4009237661948
 30
0
 40
122.5
 50
221.9390801872001
 51
227.8730480033202
  0
ARC
  8
1
 62
1
  6
CENTER
 10
190.984788408767
 20
-642.4009237661948
 30
0
 40
122.5
 50
131.9390801872001
 51
137.8730480033202
  0
ARC
  8
1
 62
1
  6
CENTER
 10
190.984788408767
 20
-642.4009237661948
 30
0
 40
122.5
 50
41.93908018720007
 51
47.87304800332021
  0
ARC
  8
1
 62
1
  6
CENTER
 10
190.984788408767
 20
-642.4009237661948
 30
0
 40
121.0000000000001
 50
205.0695508940892
 51
215.5757820678729
  0
ARC
  8
1
 62
1
  6
CENTER
 10
190.984788408767
 20
-642.4009237661948
 30
0
 40
120.9999999999999
 50
145.0695508940892
 51
155.5757820678728
  0
ARC
  8
1
 62
1
  6
CENTER
 10
190.984788408767
 20
-642.4009237661948
 30
0
 40
121
 50
85.06955089408918
 51
95.57578206787279
  0
ARC
  8
1
 62
1
  6
CENTER
 10
190.984788408767
 20
-642.4009237661948
 30
0
 40
121
 50
25.06955089408919
 51
35.57578206787283
  0
ARC
  8
1
 62
1
  6
CENTER
 10
190.984788408767
 20
-642.4009237661948
 30
0
 40
121
 50
325.0695508940892
 51
335.5757820678729
  0
ARC
  8
1
 62
1
  6
CENTER
 10
190.984788408767
 20
-642.4009237661948
 30
0
 40
121.0000000000001
 50
265.0695508940892
 51
275.5757820678729
  0
ARC
  8
1
 62
3
 10
190.984788408767
 20
-642.4009237661948
 30
0
 40
126
 50
200.5268557839871
 51
159.4731442160129
  0
ARC
  8
1
 62
3
 10
-113.7523772934046
 20
-741.8781847420307
 30
0
 40
21.19999999999999
 50
0
 51
87.29636566439679
  0
ARC
  8
1
 62
3
 10
-113.7523772934046
 20
-741.8781847420307
 30
0
 40
22
 50
0
 51
87.39474873494713
  0
ARC
  8
1
 62
3
 10
-113.7523772934046
 20
-542.9236627903588
 30
0
 40
21.19999999999994
 50
272.7036343356032
 51
0
  0
ARC
  8
1
 62
3
 10
-113.7523772934046
 20
-542.9236627903588
 30
0
 40
21.99999999999999
 50
272.6052512650529
 51
0
  0
CIRCLE
  8
1
 62
4
 10
190.984788408767
 20
-642.4009237661948
 30
0
 40
122.5
  0
CIRCLE
  8
1
 62
4
 10
190.984788408767
 20
-642.4009237661948
 30
0
 40
120.9999999999999
  0
CIRCLE
  8
1
 62
3
 10
277.605369104119
 20
-729.0215044615469
 30
0
 40
2.149999999999977
  0
CIRCLE
  8
1
 62
3
 10
104.3642077134149
 20
-729.0215044615468
 30
0
 40
2.150000000000006
  0
CIRCLE
  8
1
 62
3
 10
104.364207713415
 20
-555.7803430708426
 30
0
 40
2.149999999999977
  0
CIRCLE
  8
1
 62
3
 10
277.6053691041191
 20
-555.7803430708427
 30
0
 40
2.149999999999977
  0
CIRCLE
  8
1
 62
3
 10
86.19571455084986
 20
-702.9009237661946
 30
0
 40
2.750000000000029
  0
CIRCLE
  8
1
 62
3
 10
86.19571455084999
 20
-581.9009237661946
 30
0
 40
2.750000000000029
  0
CIRCLE
  8
1
 62
3
 10
190.9847884087671
 20
-521.4009237661948
 30
0
 40
2.75
  0
CIRCLE
  8
1
 62
3
 10
295.7738622666841
 20
-581.9009237661948
 30
0
 40
2.74999999999993
  0
CIRCLE
  8
1
 62
3
 10
295.7738622666841
 20
-702.9009237661948
 30
0
 40
2.750000000000029
  0
CIRCLE
  8
1
 62
3
 10
190.984788408767
 20
-763.4009237661948
 30
0
 40
2.75
  0
CIRCLE
  8
1
 62
3
 10
190.984788408767
 20
-642.4009237661948
 30
0
 40
77.49999999999997
  0
TEXT
  8
1
 62
2
 10
-76.67312363059168
 20
-811.2799137924451
 30
0
 40
8
  1
使用坑料：電気亜鉛メッキ鋼板
 41
0.9
  0
TEXT
  8
1
 62
2
 10
-235.752371662105
 20
-414.2796257928498
 30
0
 40
16
  1
■ｲﾝﾚｯﾄﾘﾝｸB
 41
0.9
  0
DIMENSION
  8
1
  6
CONTINUOUS
 62
2
  2
*D0
  3
DMST_1
 10
72.984788408767
 20
-496.4009237661948
 30
0
 11
128.842989200777
 21
-489.668872335062
 31
0
 12
0
 22
0
 32
0
 70
0
 13
190.984788408767
 23
-478.6009237661948
 33
0
 14
72.984788408767
 24
-598.2194796974458
 34
0
 53
0
  0
DIMENSION
  8
1
  6
CONTINUOUS
 62
2
  2
*D1
  3
DMST_2
 10
-132.7523772934054
 20
-564.9009237661948
 30
0
 11
-139.9523772934054
 21
-642.1176199696615
 31
0
 12
0
 22
0
 32
0
 70
0
  1
%%c<>
 13
-112.7523772934063
 23
-719.9009237661948
 33
0
 14
-112.7523772934063
 24
-564.9009237661948
 34
0
 50
90
 53
0
  0
DIMENSION
  8
1
  6
CONTINUOUS
 62
2
  2
*D2
  3
DMST_3
 10
-11.7523772934046
 20
-516.4009237661948
 30
0
 11
-18.9523772934046
 21
-634.7331991918115
 31
0
 12
0
 22
0
 32
0
 70
0
  1
%%c<>
 13
-91.75237729340461
 23
-768.4009237661948
 33
0
 14
-91.75237729340461
 24
-516.4009237661948
 34
0
 50
90
 53
0
  0
DIMENSION
  8
1
  6
CONTINUOUS
 62
2
  2
*D3
  3
DMST_4
 10
-91.75237729340461
 20
-506.4009237661948
 30
0
 11
-66.77212061939861
 21
-499.2009237661948
 31
0
 12
0
 22
0
 32
0
 70
0
  1
(<>
 13
-92.55237729340462
 23
-516.4009237661948
 33
0
 14
-91.75237729340461
 24
-516.4009237661948
 34
0
 53
0
  0
DIMENSION
  8
1
  6
CONTINUOUS
 62
2
  2
*D4
  3
DMST_5
 10
-91.75237729340461
 20
-486.4009237661948
 30
0
 11
-71.75237729340461
 21
-479.2009237661948
 31
0
 12
0
 22
0
 32
0
 70
0
 13
-112.7523772934046
 23
-564.1000647510318
 33
0
 14
-91.75237729340461
 24
-516.4009237661948
 34
0
 53
0
  0
DIMENSION
  8
1
  6
CONTINUOUS
 62
2
  2
*D5
  3
DMST_6
 10
-113.7523772934046
 20
-542.9236627903588
 30
0
 11
-66.74752473866874
 21
-578.3585025898775
 31
0
 12
0
 22
0
 32
0
 70
4
  1
(R<>
 15
-97.93668156268856
 25
-558.2162678187184
 35
0
 40
0
 53
0
  0
DIMENSION
  8
1
  6
CONTINUOUS
 62
2
  2
*D6
  3
DMST_7
 10
86.46473220472242
 20
-700.164113670133
 30
0
 11
40.1967336669618
 21
-760.344692571572
 31
0
 12
0
 22
0
 32
0
 70
3
  1
6×%%c<>
 15
85.92669689697729
 25
-705.6377338622563
 35
0
 40
0
 53
0
  0
DIMENSION
  8
1
  6
CONTINUOUS
 62
2
  2
*D7
  3
DMST_7
 10
275.5496147561792
 20
-555.1507606211781
 30
0
 11
361.20835926541
 21
-564.020332887118
 31
0
 12
0
 22
0
 32
0
 70
3
  1
4×%%c<>
 15
279.6611234520591
 25
-556.4099255205074
 35
0
 40
0
 53
0
  0
DIMENSION
  8
1
  6
CONTINUOUS
 62
2
  2
*D8
  3
DMST_8
 10
107.2930510324067
 20
-731.8545044375481
 30
0
 11
252.1054752244012
 21
-566.5336459703304
 31
0
 12
0
 22
0
 32
0
 70
3
 15
274.6765257851273
 25
-552.9473430948414
 35
0
 40
0
 53
0
  0
DIMENSION
  8
1
  6
CONTINUOUS
 62
2
  2
*D9
  3
DMST_8
 10
197.4023347863658
 20
-521.5712291605584
 30
0
 11
178.4936813651329
 21
-741.8309257987457
 31
0
 12
0
 22
0
 32
0
 70
3
 15
184.5672420311682
 25
-763.2306183718312
 35
0
 40
0
 53
0
  0
DIMENSION
  8
1
  6
CONTINUOUS
 62
2
  2
*D10
  3
DMST_3
 10
75.14158745348564
 20
-709.2830270215144
 30
0
 11
118.6779784984654
 21
-760.8794671426033
 31
0
 12
0
 22
0
 32
0
 70
2
  1
6×<>
 13
190.984788408767
 23
-478.6009237661948
 33
0
 14
190.984788408767
 24
-806.2009237661948
 34
0
 15
94.85593722239334
 25
-697.9009418755371
 35
0
 16
117.984788408767
 26
-768.8406327187229
 36
0
 53
0
  0
DIMENSION
  8
1
  6
CONTINUOUS
 62
2
  2
*D11
  3
DMST_3
 10
273.7872341650713
 20
-725.2033695224991
 30
0
 11
328.4123046278115
 21
-661.8718709918503
 31
0
 12
0
 22
0
 32
0
 70
2
  1
4×<>
 13
273.7872341650713
 23
-559.5984780098904
 33
0
 14
281.9848436253976
 24
-551.4008685495642
 34
0
 15
281.9848436253976
 25
-733.4009789828253
 35
0
 16
336.9847884087669
 26
-642.4009237661948
 36
0
 53
0
  0
DIMENSION
  8
1
  6
CONTINUOUS
 62
2
  2
*D12
  3
DMST_3
 10
273.7872341650713
 20
-559.5984780098904
 30
0
 11
254.5441229180237
 21
-503.0077711483548
 31
0
 12
0
 22
0
 32
0
 70
2
 13
190.984788408767
 23
-478.6009237661948
 33
0
 14
190.984788408767
 24
-806.2009237661948
 34
0
 15
281.9848436253976
 25
-551.4008685495642
 35
0
 16
246.8565695340702
 26
-507.5145120195467
 36
0
 53
0
  0
ENDBLK
  8
0
  0
ENDSEC
  0
SECTION
  2
ENTITIES
  0
INSERT
  8
0
  2
__________TOP_
 10
0
 20
0
 30
0
 41
0.5
 42
0.5
 43
0.5
  0
ENDSEC
  0
EOF
