  0
SECTION
  2
HEADER
  9
$ACADVER
  1
AC1009
  9
$INSBASE
 10
0
 20
0
  9
$EXTMIN
 10
-162.373124157626
 20
-75
  9
$EXTMAX
 10
43.6189226248776
 20
30.53718319144688
  9
$LIMMIN
 10
-162.373124157626
 20
-75
  9
$LIMMAX
 10
43.6189226248776
 20
30.53718319144688
  9
$VIEWCTR
 10
10
 20
10
  9
$VIEWSIZE
 40
10
  9
$SNAPMODE
 70
0
  9
$SNAPUNIT
 10
1
 20
1
  9
$SNAPBASE
 10
0
 20
0
  9
$SNAPANG
 50
0
  9
$SNAPSTYLE
 70
0
  9
$SNAPISOPAIR
 70
0
  9
$GRIDMODE
 70
0
  9
$GRIDUNIT
 10
0
 20
0
  9
$ORTHOMODE
 70
0
  9
$REGENMODE
 70
1
  9
$FILLMODE
 70
1
  9
$QTEXTMODE
 70
0
  9
$DRAGMODE
 70
2
  9
$LTSCALE
 40
1
  9
$OSMODE
 70
0
  9
$ATTMODE
 70
1
  9
$TEXTSIZE
 40
3.5
  9
$TRACEWID
 40
0.5
  9
$TEXTSTYLE
  7
STANDARD
  9
$CLAYER
  8
0
  9
$CELTYPE
  6
BYLAYER
  9
$CECOLOR
 62
256
  9
$DIMSCALE
 40
1
  9
$DIMASZ
 40
0.18
  9
$DIMEXO
 40
0.0625
  9
$DIMDLI
 40
0.38
  9
$DIMRND
 40
0
  9
$DIMDLE
 40
0
  9
$DIMEXE
 40
0.18
  9
$DIMTP
 40
0
  9
$DIMTM
 40
0
  9
$DIMTXT
 40
0.18
  9
$DIMCEN
 40
0.09
  9
$DIMTSZ
 40
0
  9
$DIMTOL
 70
0
  9
$DIMLIM
 70
0
  9
$DIMTIH
 70
1
  9
$DIMTOH
 70
1
  9
$DIMSE1
 70
0
  9
$DIMSE2
 70
0
  9
$DIMTAD
 70
0
  9
$DIMZIN
 70
0
  9
$DIMBLK
  1

  9
$DIMASO
 70
1
  9
$DIMSHO
 70
1
  9
$DIMPOST
  1

  9
$DIMAPOST
  1

  9
$DIMALT
 70
0
  9
$DIMALTD
 70
2
  9
$DIMALTF
 40
25.4
  9
$DIMLFAC
 40
1
  9
$DIMTOFL
 70
0
  9
$DIMTVP
 40
0
  9
$DIMTIX
 70
0
  9
$DIMSOXD
 70
0
  9
$DIMSAH
 70
0
  9
$DIMBLK1
  1

  9
$DIMBLK2
  1

  9
$DIMSTYLE
  2
*UNNAMED
  9
$DIMCLRD
 70
0
  9
$DIMCLRE
 70
0
  9
$DIMCLRT
 70
0
  9
$DIMTFAC
 40
1
  9
$DIMGAP
 40
0.09
  9
$LUNITS
 70
2
  9
$LUPREC
 70
4
  9
$AXISMODE
 70
0
  9
$AXISUNIT
 10
0
 20
0
  9
$SKETCHINC
 40
0.1
  9
$FILLETRAD
 40
2
  9
$AUNITS
 70
0
  9
$AUPREC
 70
0
  9
$MENU
  1
ACAD
  9
$ELEVATION
 40
0
  9
$THICKNESS
 40
0
  9
$VIEWDIR
 10
0
 20
0
 30
1
  9
$LIMCHECK
 70
0
  9
$BLIPMODE
 70
1
  9
$CHAMFERA
 40
0
  9
$CHAMFERB
 40
0
  9
$FASTZOOM
 70
1
  9
$SKPOLY
 70
0
  9
$ANGBASE
 50
0
  9
$ANGDIR
 70
0
  9
$PDMODE
 70
0
  9
$PDSIZE
 40
0
  9
$PLINEWID
 40
0
  9
$COORDS
 70
2
  0
ENDSEC
  0
SECTION
  2
TABLES
  0
TABLE
  2
DIMSTYLE
 70
3
  0
DIMSTYLE
  2
DMST_1
 70
0
  3

  4

  5

  6

  7

 40
1
 41
4.800000000000001
 42
1
 43
7
 44
1.5
 45
0
 46
0
 47
0
 48
0
140
3.2
141
0
142
0
143
25.4
144
1
145
0
146
1
147
0.09
 71
0
 72
0
 73
0
 74
0
 75
0
 76
0
 77
1
 78
9
170
0
171
2
172
0
173
0
174
0
175
0
176
7
177
7
178
7
  0
DIMSTYLE
  2
DMST_2
 70
0
  3

  4

  5

  6

  7

 40
1
 41
4.800000000000001
 42
1
 43
7
 44
1.5
 45
0
 46
0
 47
0
 48
0
140
3.2
141
0
142
0
143
25.4
144
1
145
0
146
1
147
0.09
 71
0
 72
0
 73
1
 74
1
 75
0
 76
0
 77
1
 78
9
170
0
171
2
172
1
173
0
174
0
175
0
176
7
177
7
178
7
  0
DIMSTYLE
  2
DMST_3
 70
0
  3

  4

  5

  6

  7

 40
1
 41
0
 42
1
 43
7
 44
2
 45
0
 46
0
 47
0
 48
0
140
3.2
141
0
142
0
143
25.4
144
1
145
0
146
1
147
0.09
 71
0
 72
0
 73
0
 74
0
 75
0
 76
0
 77
1
 78
1
170
0
171
2
172
0
173
0
174
0
175
0
176
7
177
7
178
7
  0
ENDTAB
  0
TABLE
  2
LTYPE
 70
9
  0
LTYPE
  2
CONTINUOUS
 70
64
  3
Solid line
 72
65
 73
0
 40
0
  0
LTYPE
  2
BORDER
 70
64
  3
__ __ . __ __ .
 72
65
 73
6
 40
9.486475838667928
 49
2.710421668190837
 49
-1.355210834095418
 49
2.710421668190837
 49
-1.355210834095418
 49
0
 49
-1.355210834095418
  0
LTYPE
  2
CENTER
 70
64
  3
____ _ ____ _
 72
65
 73
4
 40
10.84168667276335
 49
6.776054170477091
 49
-1.355210834095418
 49
1.355210834095418
 49
-1.355210834095418
  0
LTYPE
  2
DASHDOT
 70
64
  3
__ . __ . __ .
 72
65
 73
4
 40
5.420843336381673
 49
2.710421668190837
 49
-1.355210834095418
 49
0
 49
-1.355210834095418
  0
LTYPE
  2
DASHED
 70
64
  3
__ __ __ __ __
 72
65
 73
2
 40
4.065632502286255
 49
2.710421668190837
 49
-1.355210834095418
  0
LTYPE
  2
DIVIDE
 70
64
  3
__ . . __ . . 
 72
65
 73
6
 40
6.776054170477091
 49
2.710421668190837
 49
-1.355210834095418
 49
0
 49
-1.355210834095418
 49
0
 49
-1.355210834095418
  0
LTYPE
  2
DOT
 70
64
  3
..............
 72
65
 73
4
 40
2.710421668190837
 49
0
 49
-1.355210834095418
 49
0
 49
-1.355210834095418
  0
LTYPE
  2
HIDDEN
 70
64
  3
_ _ _ _ _ _ _
 72
65
 73
2
 40
2.032816251143128
 49
1.355210834095418
 49
-0.6776054170477092
  0
LTYPE
  2
PHANTOM
 70
64
  3
_____ _ _ _____ _ _ 
 72
65
 73
6
 40
13.55210834095418
 49
6.776054170477091
 49
-1.355210834095418
 49
1.355210834095418
 49
-1.355210834095418
 49
1.355210834095418
 49
-1.355210834095418
  0
ENDTAB
  0
TABLE
  2
LAYER
 70
3
  0
LAYER
  2
1
 70
0
 62
7
  6
CONTINUOUS
  0
LAYER
  2
0
 70
0
 62
7
  6
CONTINUOUS
  0
ENDTAB
  0
TABLE
  2
STYLE
 70
4
  0
STYLE
  2
STANDARD
 70
0
 40
0
 41
1
 50
0
 71
0
 42
3.5
  3
txt
  4

  0
STYLE
  2
SIMPLEX
 70
0
 40
0
 41
1
 50
0
 71
0
 42
3.5
  3
simplex
  4

  0
STYLE
  2
COMPLEX
 70
0
 40
0
 41
1
 50
0
 71
0
 42
3.5
  3
complex
  4

  0
STYLE
  2
ITALIC
 70
0
 40
0
 41
1
 50
0
 71
0
 42
3.5
  3
italic
  4

  0
ENDTAB
  0
TABLE
  2
VIEW
 70
0
  0
ENDTAB
  0
ENDSEC
  0
SECTION
  2
BLOCKS
  0
BLOCK
  8
1
  2
*X0
 70
1
 10
0
 20
0
 30
0
  0
LINE
  8
1
 62
7
 10
-70.21862879530053
 20
9.562552606772064
 30
0
 11
-70.21862879530053
 21
10.36855260677258
 31
0
  0
LINE
  8
1
 62
7
 10
-70.11862879530054
 20
9.575552606772064
 30
0
 11
-70.11862879530054
 21
10.35555260677258
 31
0
  0
LINE
  8
1
 62
7
 10
-70.01862879530054
 20
9.588552606772064
 30
0
 11
-70.01862879530054
 21
10.34255260677258
 31
0
  0
LINE
  8
1
 62
7
 10
-69.91862879530055
 20
9.601552606772064
 30
0
 11
-69.91862879530055
 21
10.32955260677258
 31
0
  0
LINE
  8
1
 62
7
 10
-69.81862879530056
 20
9.614552606772064
 30
0
 11
-69.81862879530056
 21
10.31655260677258
 31
0
  0
LINE
  8
1
 62
7
 10
-69.71862879530056
 20
9.627552606772063
 30
0
 11
-69.71862879530056
 21
10.30355260677258
 31
0
  0
LINE
  8
1
 62
7
 10
-69.61862879530057
 20
9.640552606772063
 30
0
 11
-69.61862879530057
 21
10.29055260677258
 31
0
  0
LINE
  8
1
 62
7
 10
-69.51862879530057
 20
9.653552606772063
 30
0
 11
-69.51862879530057
 21
10.27755260677258
 31
0
  0
LINE
  8
1
 62
7
 10
-69.41862879530058
 20
9.666552606772063
 30
0
 11
-69.41862879530058
 21
10.26455260677258
 31
0
  0
LINE
  8
1
 62
7
 10
-69.31862879530058
 20
9.679552606772063
 30
0
 11
-69.31862879530058
 21
10.25155260677258
 31
0
  0
LINE
  8
1
 62
7
 10
-69.21862879530059
 20
9.692552606772063
 30
0
 11
-69.21862879530059
 21
10.23855260677258
 31
0
  0
LINE
  8
1
 62
7
 10
-69.11862879530059
 20
9.705552606772063
 30
0
 11
-69.11862879530059
 21
10.22555260677258
 31
0
  0
LINE
  8
1
 62
7
 10
-69.0186287953006
 20
9.718552606772063
 30
0
 11
-69.0186287953006
 21
10.21255260677258
 31
0
  0
LINE
  8
1
 62
7
 10
-68.91862879530061
 20
9.731552606772063
 30
0
 11
-68.91862879530061
 21
10.19955260677258
 31
0
  0
LINE
  8
1
 62
7
 10
-68.81862879530061
 20
9.744552606772063
 30
0
 11
-68.81862879530061
 21
10.18655260677258
 31
0
  0
LINE
  8
1
 62
7
 10
-68.71862879530062
 20
9.757552606772062
 30
0
 11
-68.71862879530062
 21
10.17355260677258
 31
0
  0
LINE
  8
1
 62
7
 10
-68.61862879530062
 20
9.770552606772062
 30
0
 11
-68.61862879530062
 21
10.16055260677258
 31
0
  0
LINE
  8
1
 62
7
 10
-68.51862879530063
 20
9.783552606772062
 30
0
 11
-68.51862879530063
 21
10.14755260677258
 31
0
  0
LINE
  8
1
 62
7
 10
-68.41862879530063
 20
9.796552606772062
 30
0
 11
-68.41862879530063
 21
10.13455260677258
 31
0
  0
LINE
  8
1
 62
7
 10
-68.31862879530064
 20
9.809552606772062
 30
0
 11
-68.31862879530064
 21
10.12155260677258
 31
0
  0
LINE
  8
1
 62
7
 10
-68.21862879530065
 20
9.822552606772062
 30
0
 11
-68.21862879530065
 21
10.10855260677258
 31
0
  0
LINE
  8
1
 62
7
 10
-68.11862879530065
 20
9.835552606772062
 30
0
 11
-68.11862879530065
 21
10.09555260677258
 31
0
  0
LINE
  8
1
 62
7
 10
-68.01862879530066
 20
9.848552606772062
 30
0
 11
-68.01862879530066
 21
10.08255260677258
 31
0
  0
LINE
  8
1
 62
7
 10
-67.91862879530066
 20
9.861552606772062
 30
0
 11
-67.91862879530066
 21
10.06955260677258
 31
0
  0
LINE
  8
1
 62
7
 10
-67.81862879530067
 20
9.874552606772062
 30
0
 11
-67.81862879530067
 21
10.05655260677258
 31
0
  0
LINE
  8
1
 62
7
 10
-67.71862879530067
 20
9.887552606772061
 30
0
 11
-67.71862879530067
 21
10.04355260677258
 31
0
  0
LINE
  8
1
 62
7
 10
-67.61862879530068
 20
9.900552606772061
 30
0
 11
-67.61862879530068
 21
10.03055260677258
 31
0
  0
LINE
  8
1
 62
7
 10
-67.51862879530069
 20
9.913552606772061
 30
0
 11
-67.51862879530069
 21
10.01755260677258
 31
0
  0
LINE
  8
1
 62
7
 10
-67.41862879530069
 20
9.926552606772061
 30
0
 11
-67.41862879530069
 21
10.00455260677258
 31
0
  0
LINE
  8
1
 62
7
 10
-67.3186287953007
 20
9.939552606772061
 30
0
 11
-67.3186287953007
 21
9.991552606772579
 31
0
  0
LINE
  8
1
 62
7
 10
-67.2186287953007
 20
9.952552606772061
 30
0
 11
-67.2186287953007
 21
9.978552606772579
 31
0
  0
ENDBLK
  8
0
  0
BLOCK
  8
1
  2
*X1
 70
1
 10
0
 20
0
 30
0
  0
LINE
  8
1
 62
7
 10
-65.41862879529865
 20
9.952552606772317
 30
0
 11
-65.41862879529865
 21
9.978552606772324
 31
0
  0
LINE
  8
1
 62
7
 10
-65.31862879529865
 20
9.939552606772317
 30
0
 11
-65.31862879529865
 21
9.991552606772324
 31
0
  0
LINE
  8
1
 62
7
 10
-65.21862879529866
 20
9.926552606772317
 30
0
 11
-65.21862879529866
 21
10.00455260677232
 31
0
  0
LINE
  8
1
 62
7
 10
-65.11862879529866
 20
9.913552606772317
 30
0
 11
-65.11862879529866
 21
10.01755260677232
 31
0
  0
LINE
  8
1
 62
7
 10
-65.01862879529867
 20
9.900552606772317
 30
0
 11
-65.01862879529867
 21
10.03055260677232
 31
0
  0
LINE
  8
1
 62
7
 10
-64.91862879529867
 20
9.887552606772317
 30
0
 11
-64.91862879529867
 21
10.04355260677232
 31
0
  0
LINE
  8
1
 62
7
 10
-64.81862879529868
 20
9.874552606772317
 30
0
 11
-64.81862879529868
 21
10.05655260677232
 31
0
  0
LINE
  8
1
 62
7
 10
-64.71862879529869
 20
9.861552606772317
 30
0
 11
-64.71862879529869
 21
10.06955260677232
 31
0
  0
LINE
  8
1
 62
7
 10
-64.61862879529869
 20
9.848552606772318
 30
0
 11
-64.61862879529869
 21
10.08255260677232
 31
0
  0
LINE
  8
1
 62
7
 10
-64.5186287952987
 20
9.835552606772318
 30
0
 11
-64.5186287952987
 21
10.09555260677232
 31
0
  0
LINE
  8
1
 62
7
 10
-64.4186287952987
 20
9.822552606772318
 30
0
 11
-64.4186287952987
 21
10.10855260677232
 31
0
  0
LINE
  8
1
 62
7
 10
-64.31862879529871
 20
9.809552606772318
 30
0
 11
-64.31862879529871
 21
10.12155260677232
 31
0
  0
LINE
  8
1
 62
7
 10
-64.21862879529871
 20
9.796552606772318
 30
0
 11
-64.21862879529871
 21
10.13455260677232
 31
0
  0
LINE
  8
1
 62
7
 10
-64.11862879529872
 20
9.783552606772318
 30
0
 11
-64.11862879529872
 21
10.14755260677232
 31
0
  0
LINE
  8
1
 62
7
 10
-64.01862879529872
 20
9.770552606772318
 30
0
 11
-64.01862879529872
 21
10.16055260677232
 31
0
  0
LINE
  8
1
 62
7
 10
-63.91862879529872
 20
9.757552606772318
 30
0
 11
-63.91862879529872
 21
10.17355260677232
 31
0
  0
LINE
  8
1
 62
7
 10
-63.81862879529872
 20
9.744552606772318
 30
0
 11
-63.81862879529872
 21
10.18655260677232
 31
0
  0
LINE
  8
1
 62
7
 10
-63.71862879529872
 20
9.731552606772318
 30
0
 11
-63.71862879529872
 21
10.19955260677232
 31
0
  0
LINE
  8
1
 62
7
 10
-63.61862879529872
 20
9.718552606772319
 30
0
 11
-63.61862879529872
 21
10.21255260677232
 31
0
  0
LINE
  8
1
 62
7
 10
-63.51862879529872
 20
9.705552606772319
 30
0
 11
-63.51862879529872
 21
10.22555260677232
 31
0
  0
LINE
  8
1
 62
7
 10
-63.41862879529872
 20
9.692552606772319
 30
0
 11
-63.41862879529872
 21
10.23855260677232
 31
0
  0
LINE
  8
1
 62
7
 10
-63.31862879529871
 20
9.679552606772319
 30
0
 11
-63.31862879529871
 21
10.25155260677232
 31
0
  0
LINE
  8
1
 62
7
 10
-63.21862879529871
 20
9.666552606772319
 30
0
 11
-63.21862879529871
 21
10.26455260677232
 31
0
  0
LINE
  8
1
 62
7
 10
-63.11862879529871
 20
9.653552606772319
 30
0
 11
-63.11862879529871
 21
10.27755260677232
 31
0
  0
LINE
  8
1
 62
7
 10
-63.01862879529871
 20
9.640552606772319
 30
0
 11
-63.01862879529871
 21
10.29055260677232
 31
0
  0
LINE
  8
1
 62
7
 10
-62.91862879529871
 20
9.627552606772319
 30
0
 11
-62.91862879529871
 21
10.30355260677232
 31
0
  0
LINE
  8
1
 62
7
 10
-62.81862879529871
 20
9.614552606772319
 30
0
 11
-62.81862879529871
 21
10.31655260677232
 31
0
  0
LINE
  8
1
 62
7
 10
-62.71862879529871
 20
9.601552606772319
 30
0
 11
-62.71862879529871
 21
10.32955260677232
 31
0
  0
LINE
  8
1
 62
7
 10
-62.6186287952987
 20
9.58855260677232
 30
0
 11
-62.6186287952987
 21
10.34255260677232
 31
0
  0
LINE
  8
1
 62
7
 10
-62.5186287952987
 20
9.57555260677232
 30
0
 11
-62.5186287952987
 21
10.35555260677232
 31
0
  0
LINE
  8
1
 62
7
 10
-62.4186287952987
 20
9.56255260677232
 30
0
 11
-62.4186287952987
 21
10.36855260677232
 31
0
  0
LINE
  8
1
 62
7
 10
-62.3186287952987
 20
9.54955260677232
 30
0
 11
-62.3186287952987
 21
10.38155260677232
 31
0
  0
ENDBLK
  8
0
  0
BLOCK
  8
1
  2
*X2
 70
1
 10
0
 20
0
 30
0
  0
LINE
  8
1
 62
7
 10
-116.010932133324
 20
-0.4435063663072998
 30
0
 11
-116.010932133324
 21
-0.3204294432457102
 31
0
  0
LINE
  8
1
 62
7
 10
-115.910932133324
 20
-0.4435063663072998
 30
0
 11
-115.910932133324
 21
0.4488013259850392
 31
0
  0
LINE
  8
1
 62
7
 10
-115.810932133324
 20
-0.4435063663072998
 30
0
 11
-115.810932133324
 21
1.218032095215789
 31
0
  0
LINE
  8
1
 62
7
 10
-115.710932133324
 20
-0.4435063663072998
 30
0
 11
-115.710932133324
 21
1.987262864446538
 31
0
  0
LINE
  8
1
 62
7
 10
-115.610932133324
 20
-0.4435063663072998
 30
0
 11
-115.610932133324
 21
2.756493633677287
 31
0
  0
LINE
  8
1
 62
7
 10
-115.510932133324
 20
-0.4435063663072998
 30
0
 11
-115.510932133324
 21
1.987262864477295
 31
0
  0
LINE
  8
1
 62
7
 10
-115.410932133324
 20
-0.4435063663072998
 30
0
 11
-115.410932133324
 21
1.218032095246521
 31
0
  0
LINE
  8
1
 62
7
 10
-115.310932133324
 20
-0.4435063663072998
 30
0
 11
-115.310932133324
 21
0.4488013260157455
 31
0
  0
LINE
  8
1
 62
7
 10
-115.210932133324
 20
-0.4435063663072998
 30
0
 11
-115.210932133324
 21
-0.3204294432150294
 31
0
  0
ENDBLK
  8
0
  0
BLOCK
  8
1
  2
*X3
 70
1
 10
0
 20
0
 30
0
  0
LINE
  8
1
 62
7
 10
-116.010932133324
 20
-20.16658328936889
 30
0
 11
-116.010932133324
 21
-20.0435063663073
 31
0
  0
LINE
  8
1
 62
7
 10
-115.910932133324
 20
-20.93581405859964
 30
0
 11
-115.910932133324
 21
-20.0435063663073
 31
0
  0
LINE
  8
1
 62
7
 10
-115.810932133324
 20
-21.70504482783039
 30
0
 11
-115.810932133324
 21
-20.0435063663073
 31
0
  0
LINE
  8
1
 62
7
 10
-115.710932133324
 20
-22.47427559706114
 30
0
 11
-115.710932133324
 21
-20.0435063663073
 31
0
  0
LINE
  8
1
 62
7
 10
-115.610932133324
 20
-23.24350636629189
 30
0
 11
-115.610932133324
 21
-20.0435063663073
 31
0
  0
LINE
  8
1
 62
7
 10
-115.510932133324
 20
-22.47427559709189
 30
0
 11
-115.510932133324
 21
-20.0435063663073
 31
0
  0
LINE
  8
1
 62
7
 10
-115.410932133324
 20
-21.70504482786112
 30
0
 11
-115.410932133324
 21
-20.0435063663073
 31
0
  0
LINE
  8
1
 62
7
 10
-115.310932133324
 20
-20.93581405863034
 30
0
 11
-115.310932133324
 21
-20.0435063663073
 31
0
  0
LINE
  8
1
 62
7
 10
-115.210932133324
 20
-20.16658328939957
 30
0
 11
-115.210932133324
 21
-20.0435063663073
 31
0
  0
ENDBLK
  8
0
  0
BLOCK
  8
1
  2
*X4
 70
1
 10
0
 20
0
 30
0
  0
LINE
  8
1
 62
7
 10
-105.948644124533
 20
-12.32658328936889
 30
0
 11
-105.948644124533
 21
-12.2035063663073
 31
0
  0
LINE
  8
1
 62
7
 10
-105.848644124533
 20
-13.09581405859964
 30
0
 11
-105.848644124533
 21
-12.2035063663073
 31
0
  0
LINE
  8
1
 62
7
 10
-105.748644124533
 20
-13.86504482783039
 30
0
 11
-105.748644124533
 21
-12.2035063663073
 31
0
  0
LINE
  8
1
 62
7
 10
-105.648644124533
 20
-14.63427559706114
 30
0
 11
-105.648644124533
 21
-12.2035063663073
 31
0
  0
LINE
  8
1
 62
7
 10
-105.548644124533
 20
-15.40350636629189
 30
0
 11
-105.548644124533
 21
-12.2035063663073
 31
0
  0
LINE
  8
1
 62
7
 10
-105.448644124533
 20
-14.63427559709189
 30
0
 11
-105.448644124533
 21
-12.2035063663073
 31
0
  0
LINE
  8
1
 62
7
 10
-105.348644124533
 20
-13.86504482786112
 30
0
 11
-105.348644124533
 21
-12.2035063663073
 31
0
  0
LINE
  8
1
 62
7
 10
-105.248644124533
 20
-13.09581405863034
 30
0
 11
-105.248644124533
 21
-12.2035063663073
 31
0
  0
LINE
  8
1
 62
7
 10
-105.148644124533
 20
-12.32658328939957
 30
0
 11
-105.148644124533
 21
-12.2035063663073
 31
0
  0
ENDBLK
  8
0
  0
BLOCK
  8
1
  2
*X5
 70
1
 10
0
 20
0
 30
0
  0
LINE
  8
1
 62
7
 10
-105.948644124533
 20
-8.2835063663073
 30
0
 11
-105.948644124533
 21
-8.160429443245711
 31
0
  0
LINE
  8
1
 62
7
 10
-105.848644124533
 20
-8.2835063663073
 30
0
 11
-105.848644124533
 21
-7.391198674014961
 31
0
  0
LINE
  8
1
 62
7
 10
-105.748644124533
 20
-8.2835063663073
 30
0
 11
-105.748644124533
 21
-6.621967904784212
 31
0
  0
LINE
  8
1
 62
7
 10
-105.648644124533
 20
-8.2835063663073
 30
0
 11
-105.648644124533
 21
-5.852737135553462
 31
0
  0
LINE
  8
1
 62
7
 10
-105.548644124533
 20
-8.2835063663073
 30
0
 11
-105.548644124533
 21
-5.083506366322713
 31
0
  0
LINE
  8
1
 62
7
 10
-105.448644124533
 20
-8.2835063663073
 30
0
 11
-105.448644124533
 21
-5.852737135522704
 31
0
  0
LINE
  8
1
 62
7
 10
-105.348644124533
 20
-8.2835063663073
 30
0
 11
-105.348644124533
 21
-6.621967904753479
 31
0
  0
LINE
  8
1
 62
7
 10
-105.248644124533
 20
-8.2835063663073
 30
0
 11
-105.248644124533
 21
-7.391198673984254
 31
0
  0
LINE
  8
1
 62
7
 10
-105.148644124533
 20
-8.2835063663073
 30
0
 11
-105.148644124533
 21
-8.16042944321503
 31
0
  0
ENDBLK
  8
0
  0
BLOCK
  8
1
  2
*X6
 70
1
 10
0
 20
0
 30
0
  0
LINE
  8
1
 62
7
 10
-95.78262118781598
 20
-5.666583289368784
 30
0
 11
-95.78262118781595
 21
-5.543506366307298
 31
0
  0
LINE
  8
1
 62
7
 10
-95.68262118781598
 20
-6.43581405859956
 30
0
 11
-95.68262118781595
 21
-5.543506366307298
 31
0
  0
LINE
  8
1
 62
7
 10
-95.58262118781599
 20
-7.205044827830335
 30
0
 11
-95.58262118781596
 21
-5.543506366307298
 31
0
  0
LINE
  8
1
 62
7
 10
-95.48262118781599
 20
-7.97427559706111
 30
0
 11
-95.48262118781597
 21
-5.543506366307298
 31
0
  0
LINE
  8
1
 62
7
 10
-95.382621187816
 20
-8.743506366291886
 30
0
 11
-95.38262118781597
 21
-5.543506366307298
 31
0
  0
LINE
  8
1
 62
7
 10
-95.28262118781598
 20
-7.974275597091891
 30
0
 11
-95.28262118781598
 21
-5.543506366307298
 31
0
  0
LINE
  8
1
 62
7
 10
-95.18262118781598
 20
-7.205044827861116
 30
0
 11
-95.18262118781598
 21
-5.543506366307298
 31
0
  0
LINE
  8
1
 62
7
 10
-95.08262118781599
 20
-6.43581405863034
 30
0
 11
-95.08262118781599
 21
-5.543506366307298
 31
0
  0
LINE
  8
1
 62
7
 10
-94.98262118781599
 20
-5.666583289399565
 30
0
 11
-94.98262118781599
 21
-5.543506366307298
 31
0
  0
ENDBLK
  8
0
  0
BLOCK
  8
1
  2
*X7
 70
1
 10
0
 20
0
 30
0
  0
LINE
  8
1
 62
7
 10
-95.78262118781595
 20
-14.9435063663073
 30
0
 11
-95.78262118781598
 21
-14.82042944324581
 31
0
  0
LINE
  8
1
 62
7
 10
-95.68262118781595
 20
-14.9435063663073
 30
0
 11
-95.68262118781598
 21
-14.05119867401504
 31
0
  0
LINE
  8
1
 62
7
 10
-95.58262118781596
 20
-14.9435063663073
 30
0
 11
-95.58262118781599
 21
-13.28196790478426
 31
0
  0
LINE
  8
1
 62
7
 10
-95.48262118781597
 20
-14.9435063663073
 30
0
 11
-95.48262118781599
 21
-12.51273713555349
 31
0
  0
LINE
  8
1
 62
7
 10
-95.38262118781597
 20
-14.9435063663073
 30
0
 11
-95.382621187816
 21
-11.74350636632271
 31
0
  0
LINE
  8
1
 62
7
 10
-95.28262118781598
 20
-14.9435063663073
 30
0
 11
-95.28262118781598
 21
-12.5127371355227
 31
0
  0
LINE
  8
1
 62
7
 10
-95.18262118781598
 20
-14.9435063663073
 30
0
 11
-95.18262118781598
 21
-13.28196790475348
 31
0
  0
LINE
  8
1
 62
7
 10
-95.08262118781599
 20
-14.9435063663073
 30
0
 11
-95.08262118781599
 21
-14.05119867398425
 31
0
  0
LINE
  8
1
 62
7
 10
-94.98262118781599
 20
-14.9435063663073
 30
0
 11
-94.98262118781599
 21
-14.82042944321503
 31
0
  0
ENDBLK
  8
0
  0
BLOCK
  8
1
  2
*X8
 70
1
 10
0
 20
0
 30
0
  0
LINE
  8
1
 62
7
 10
-142.9769049951053
 20
25.19142615163031
 30
0
 11
-142.9769049951053
 21
25.21742615162969
 31
0
  0
LINE
  8
1
 62
7
 10
-142.8769049951053
 20
25.17842615163031
 30
0
 11
-142.8769049951053
 21
25.23042615162969
 31
0
  0
LINE
  8
1
 62
7
 10
-142.7769049951053
 20
25.1654261516303
 30
0
 11
-142.7769049951053
 21
25.2434261516297
 31
0
  0
LINE
  8
1
 62
7
 10
-142.6769049951053
 20
25.1524261516303
 30
0
 11
-142.6769049951053
 21
25.2564261516297
 31
0
  0
LINE
  8
1
 62
7
 10
-142.5769049951053
 20
25.1394261516303
 30
0
 11
-142.5769049951053
 21
25.2694261516297
 31
0
  0
LINE
  8
1
 62
7
 10
-142.4769049951053
 20
25.1264261516303
 30
0
 11
-142.4769049951053
 21
25.2824261516297
 31
0
  0
LINE
  8
1
 62
7
 10
-142.3769049951054
 20
25.1134261516303
 30
0
 11
-142.3769049951054
 21
25.2954261516297
 31
0
  0
LINE
  8
1
 62
7
 10
-142.2769049951054
 20
25.1004261516303
 30
0
 11
-142.2769049951054
 21
25.3084261516297
 31
0
  0
LINE
  8
1
 62
7
 10
-142.1769049951054
 20
25.08742615163029
 30
0
 11
-142.1769049951054
 21
25.32142615162971
 31
0
  0
LINE
  8
1
 62
7
 10
-142.0769049951054
 20
25.07442615163029
 30
0
 11
-142.0769049951054
 21
25.33442615162971
 31
0
  0
LINE
  8
1
 62
7
 10
-141.9769049951054
 20
25.06142615163029
 30
0
 11
-141.9769049951054
 21
25.34742615162971
 31
0
  0
LINE
  8
1
 62
7
 10
-141.8769049951054
 20
25.04842615163029
 30
0
 11
-141.8769049951054
 21
25.36042615162971
 31
0
  0
LINE
  8
1
 62
7
 10
-141.7769049951054
 20
25.03542615163029
 30
0
 11
-141.7769049951054
 21
25.37342615162971
 31
0
  0
LINE
  8
1
 62
7
 10
-141.6769049951054
 20
25.02242615163029
 30
0
 11
-141.6769049951054
 21
25.38642615162971
 31
0
  0
LINE
  8
1
 62
7
 10
-141.5769049951054
 20
25.00942615163028
 30
0
 11
-141.5769049951054
 21
25.39942615162972
 31
0
  0
LINE
  8
1
 62
7
 10
-141.4769049951054
 20
24.99642615163028
 30
0
 11
-141.4769049951054
 21
25.41242615162972
 31
0
  0
LINE
  8
1
 62
7
 10
-141.3769049951054
 20
24.98342615163028
 30
0
 11
-141.3769049951054
 21
25.42542615162972
 31
0
  0
LINE
  8
1
 62
7
 10
-141.2769049951054
 20
24.97042615163028
 30
0
 11
-141.2769049951054
 21
25.43842615162972
 31
0
  0
LINE
  8
1
 62
7
 10
-141.1769049951054
 20
24.95742615163028
 30
0
 11
-141.1769049951054
 21
25.45142615162972
 31
0
  0
LINE
  8
1
 62
7
 10
-141.0769049951054
 20
24.94442615163028
 30
0
 11
-141.0769049951054
 21
25.46442615162972
 31
0
  0
LINE
  8
1
 62
7
 10
-140.9769049951054
 20
24.93142615163027
 30
0
 11
-140.9769049951054
 21
25.47742615162973
 31
0
  0
LINE
  8
1
 62
7
 10
-140.8769049951054
 20
24.91842615163027
 30
0
 11
-140.8769049951054
 21
25.49042615162973
 31
0
  0
LINE
  8
1
 62
7
 10
-140.7769049951054
 20
24.90542615163027
 30
0
 11
-140.7769049951054
 21
25.50342615162973
 31
0
  0
LINE
  8
1
 62
7
 10
-140.6769049951055
 20
24.89242615163027
 30
0
 11
-140.6769049951055
 21
25.51642615162973
 31
0
  0
LINE
  8
1
 62
7
 10
-140.5769049951055
 20
24.87942615163027
 30
0
 11
-140.5769049951055
 21
25.52942615162973
 31
0
  0
LINE
  8
1
 62
7
 10
-140.4769049951055
 20
24.86642615163026
 30
0
 11
-140.4769049951055
 21
25.54242615162973
 31
0
  0
LINE
  8
1
 62
7
 10
-140.3769049951055
 20
24.85342615163026
 30
0
 11
-140.3769049951055
 21
25.55542615162974
 31
0
  0
LINE
  8
1
 62
7
 10
-140.2769049951055
 20
24.84042615163026
 30
0
 11
-140.2769049951055
 21
25.56842615162974
 31
0
  0
LINE
  8
1
 62
7
 10
-140.1769049951055
 20
24.82742615163026
 30
0
 11
-140.1769049951055
 21
25.58142615162974
 31
0
  0
LINE
  8
1
 62
7
 10
-140.0769049951055
 20
24.81442615163026
 30
0
 11
-140.0769049951055
 21
25.59442615162974
 31
0
  0
LINE
  8
1
 62
7
 10
-139.9769049951055
 20
24.80142615163026
 30
0
 11
-139.9769049951055
 21
25.60742615162974
 31
0
  0
ENDBLK
  8
0
  0
BLOCK
  8
1
  2
*X9
 70
1
 10
0
 20
0
 30
0
  0
LINE
  8
1
 62
7
 10
-134.6769049951048
 20
24.80142615162969
 30
0
 11
-134.6769049951048
 21
25.60742615163031
 31
0
  0
LINE
  8
1
 62
7
 10
-134.5769049951048
 20
24.81442615162969
 30
0
 11
-134.5769049951048
 21
25.59442615163031
 31
0
  0
LINE
  8
1
 62
7
 10
-134.4769049951048
 20
24.8274261516297
 30
0
 11
-134.4769049951048
 21
25.5814261516303
 31
0
  0
LINE
  8
1
 62
7
 10
-134.3769049951048
 20
24.8404261516297
 30
0
 11
-134.3769049951048
 21
25.5684261516303
 31
0
  0
LINE
  8
1
 62
7
 10
-134.2769049951048
 20
24.8534261516297
 30
0
 11
-134.2769049951048
 21
25.5554261516303
 31
0
  0
LINE
  8
1
 62
7
 10
-134.1769049951049
 20
24.8664261516297
 30
0
 11
-134.1769049951049
 21
25.5424261516303
 31
0
  0
LINE
  8
1
 62
7
 10
-134.0769049951049
 20
24.8794261516297
 30
0
 11
-134.0769049951049
 21
25.5294261516303
 31
0
  0
LINE
  8
1
 62
7
 10
-133.9769049951049
 20
24.8924261516297
 30
0
 11
-133.9769049951049
 21
25.5164261516303
 31
0
  0
LINE
  8
1
 62
7
 10
-133.8769049951049
 20
24.90542615162971
 30
0
 11
-133.8769049951049
 21
25.50342615163029
 31
0
  0
LINE
  8
1
 62
7
 10
-133.7769049951049
 20
24.91842615162971
 30
0
 11
-133.7769049951049
 21
25.49042615163029
 31
0
  0
LINE
  8
1
 62
7
 10
-133.6769049951049
 20
24.93142615162971
 30
0
 11
-133.6769049951049
 21
25.47742615163029
 31
0
  0
LINE
  8
1
 62
7
 10
-133.5769049951049
 20
24.94442615162971
 30
0
 11
-133.5769049951049
 21
25.46442615163029
 31
0
  0
LINE
  8
1
 62
7
 10
-133.4769049951049
 20
24.95742615162971
 30
0
 11
-133.4769049951049
 21
25.45142615163029
 31
0
  0
LINE
  8
1
 62
7
 10
-133.3769049951049
 20
24.97042615162971
 30
0
 11
-133.3769049951049
 21
25.43842615163029
 31
0
  0
LINE
  8
1
 62
7
 10
-133.2769049951049
 20
24.98342615162972
 30
0
 11
-133.2769049951049
 21
25.42542615163028
 31
0
  0
LINE
  8
1
 62
7
 10
-133.1769049951049
 20
24.99642615162972
 30
0
 11
-133.1769049951049
 21
25.41242615163028
 31
0
  0
LINE
  8
1
 62
7
 10
-133.0769049951049
 20
25.00942615162972
 30
0
 11
-133.0769049951049
 21
25.39942615163028
 31
0
  0
LINE
  8
1
 62
7
 10
-132.9769049951049
 20
25.02242615162972
 30
0
 11
-132.9769049951049
 21
25.38642615163028
 31
0
  0
LINE
  8
1
 62
7
 10
-132.8769049951049
 20
25.03542615162972
 30
0
 11
-132.8769049951049
 21
25.37342615163028
 31
0
  0
LINE
  8
1
 62
7
 10
-132.7769049951049
 20
25.04842615162972
 30
0
 11
-132.7769049951049
 21
25.36042615163028
 31
0
  0
LINE
  8
1
 62
7
 10
-132.6769049951049
 20
25.06142615162973
 30
0
 11
-132.6769049951049
 21
25.34742615163027
 31
0
  0
LINE
  8
1
 62
7
 10
-132.5769049951049
 20
25.07442615162973
 30
0
 11
-132.5769049951049
 21
25.33442615163027
 31
0
  0
LINE
  8
1
 62
7
 10
-132.476904995105
 20
25.08742615162973
 30
0
 11
-132.476904995105
 21
25.32142615163027
 31
0
  0
LINE
  8
1
 62
7
 10
-132.376904995105
 20
25.10042615162973
 30
0
 11
-132.376904995105
 21
25.30842615163027
 31
0
  0
LINE
  8
1
 62
7
 10
-132.276904995105
 20
25.11342615162973
 30
0
 11
-132.276904995105
 21
25.29542615163027
 31
0
  0
LINE
  8
1
 62
7
 10
-132.176904995105
 20
25.12642615162973
 30
0
 11
-132.176904995105
 21
25.28242615163027
 31
0
  0
LINE
  8
1
 62
7
 10
-132.076904995105
 20
25.13942615162974
 30
0
 11
-132.076904995105
 21
25.26942615163026
 31
0
  0
LINE
  8
1
 62
7
 10
-131.976904995105
 20
25.15242615162974
 30
0
 11
-131.976904995105
 21
25.25642615163026
 31
0
  0
LINE
  8
1
 62
7
 10
-131.876904995105
 20
25.16542615162974
 30
0
 11
-131.876904995105
 21
25.24342615163026
 31
0
  0
LINE
  8
1
 62
7
 10
-131.776904995105
 20
25.17842615162974
 30
0
 11
-131.776904995105
 21
25.23042615163026
 31
0
  0
LINE
  8
1
 62
7
 10
-131.676904995105
 20
25.19142615162974
 30
0
 11
-131.676904995105
 21
25.21742615163026
 31
0
  0
ENDBLK
  8
0
  0
BLOCK
  8
1
  2
*X10
 70
1
 10
0
 20
0
 30
0
  0
LINE
  8
1
 62
7
 10
41.21892262487559
 20
-17.7435063663073
 30
0
 11
41.2189226248756
 21
-17.62042944324577
 31
0
  0
LINE
  8
1
 62
7
 10
41.31892262487559
 20
-17.7435063663073
 30
0
 11
41.3189226248756
 21
-16.85119867401499
 31
0
  0
LINE
  8
1
 62
7
 10
41.41892262487559
 20
-17.7435063663073
 30
0
 11
41.4189226248756
 21
-16.08196790478421
 31
0
  0
LINE
  8
1
 62
7
 10
41.51892262487559
 20
-17.7435063663073
 30
0
 11
41.5189226248756
 21
-15.31273713555343
 31
0
  0
LINE
  8
1
 62
7
 10
41.61892262487559
 20
-17.7435063663073
 30
0
 11
41.6189226248756
 21
-14.54350636632266
 31
0
  0
LINE
  8
1
 62
7
 10
41.7189226248756
 20
-17.7435063663073
 30
0
 11
41.7189226248756
 21
-15.31273713552269
 31
0
  0
LINE
  8
1
 62
7
 10
41.8189226248756
 20
-17.7435063663073
 30
0
 11
41.8189226248756
 21
-16.08196790475345
 31
0
  0
LINE
  8
1
 62
7
 10
41.9189226248756
 20
-17.7435063663073
 30
0
 11
41.9189226248756
 21
-16.85119867398421
 31
0
  0
LINE
  8
1
 62
7
 10
42.0189226248756
 20
-17.7435063663073
 30
0
 11
42.0189226248756
 21
-17.62042944321498
 31
0
  0
ENDBLK
  8
0
  0
BLOCK
  8
1
  2
*X11
 70
1
 10
0
 20
0
 30
0
  0
LINE
  8
1
 62
7
 10
41.2189226248756
 20
-7.166583289368946
 30
0
 11
41.21892262487559
 21
-7.043506366307298
 31
0
  0
LINE
  8
1
 62
7
 10
41.3189226248756
 20
-7.935814058599695
 30
0
 11
41.31892262487559
 21
-7.043506366307298
 31
0
  0
LINE
  8
1
 62
7
 10
41.4189226248756
 20
-8.705044827830443
 30
0
 11
41.41892262487559
 21
-7.043506366307298
 31
0
  0
LINE
  8
1
 62
7
 10
41.5189226248756
 20
-9.474275597061192
 30
0
 11
41.51892262487559
 21
-7.043506366307298
 31
0
  0
LINE
  8
1
 62
7
 10
41.6189226248756
 20
-10.24350636629194
 30
0
 11
41.61892262487559
 21
-7.043506366307298
 31
0
  0
LINE
  8
1
 62
7
 10
41.7189226248756
 20
-9.474275597091907
 30
0
 11
41.7189226248756
 21
-7.043506366307298
 31
0
  0
LINE
  8
1
 62
7
 10
41.8189226248756
 20
-8.705044827861144
 30
0
 11
41.8189226248756
 21
-7.043506366307298
 31
0
  0
LINE
  8
1
 62
7
 10
41.9189226248756
 20
-7.935814058630381
 30
0
 11
41.9189226248756
 21
-7.043506366307298
 31
0
  0
LINE
  8
1
 62
7
 10
42.0189226248756
 20
-7.166583289399618
 30
0
 11
42.0189226248756
 21
-7.043506366307298
 31
0
  0
ENDBLK
  8
0
  0
BLOCK
  8
1
  2
*X12
 70
1
 10
0
 20
0
 30
0
  0
LINE
  8
1
 62
7
 10
-73.41862879529852
 20
16.71083952860414
 30
0
 11
-73.41862879529852
 21
16.73683952860415
 31
0
  0
LINE
  8
1
 62
7
 10
-73.31862879529852
 20
16.69783952860415
 30
0
 11
-73.31862879529852
 21
16.74983952860415
 31
0
  0
LINE
  8
1
 62
7
 10
-73.21862879529853
 20
16.68483952860415
 30
0
 11
-73.21862879529853
 21
16.76283952860415
 31
0
  0
LINE
  8
1
 62
7
 10
-73.11862879529853
 20
16.67183952860415
 30
0
 11
-73.11862879529853
 21
16.77583952860415
 31
0
  0
LINE
  8
1
 62
7
 10
-73.01862879529854
 20
16.65883952860415
 30
0
 11
-73.01862879529854
 21
16.78883952860415
 31
0
  0
LINE
  8
1
 62
7
 10
-72.91862879529855
 20
16.64583952860415
 30
0
 11
-72.91862879529855
 21
16.80183952860416
 31
0
  0
LINE
  8
1
 62
7
 10
-72.81862879529855
 20
16.63283952860416
 30
0
 11
-72.81862879529855
 21
16.81483952860416
 31
0
  0
LINE
  8
1
 62
7
 10
-72.71862879529856
 20
16.61983952860416
 30
0
 11
-72.71862879529856
 21
16.82783952860416
 31
0
  0
LINE
  8
1
 62
7
 10
-72.61862879529856
 20
16.60683952860416
 30
0
 11
-72.61862879529856
 21
16.84083952860416
 31
0
  0
LINE
  8
1
 62
7
 10
-72.51862879529857
 20
16.59383952860416
 30
0
 11
-72.51862879529857
 21
16.85383952860416
 31
0
  0
LINE
  8
1
 62
7
 10
-72.41862879529857
 20
16.58083952860416
 30
0
 11
-72.41862879529857
 21
16.86683952860416
 31
0
  0
LINE
  8
1
 62
7
 10
-72.31862879529858
 20
16.56783952860416
 30
0
 11
-72.31862879529858
 21
16.87983952860417
 31
0
  0
LINE
  8
1
 62
7
 10
-72.21862879529859
 20
16.55483952860417
 30
0
 11
-72.21862879529859
 21
16.89283952860417
 31
0
  0
LINE
  8
1
 62
7
 10
-72.11862879529859
 20
16.54183952860417
 30
0
 11
-72.11862879529859
 21
16.90583952860417
 31
0
  0
LINE
  8
1
 62
7
 10
-72.0186287952986
 20
16.52883952860417
 30
0
 11
-72.0186287952986
 21
16.91883952860417
 31
0
  0
LINE
  8
1
 62
7
 10
-71.9186287952986
 20
16.51583952860417
 30
0
 11
-71.9186287952986
 21
16.93183952860417
 31
0
  0
LINE
  8
1
 62
7
 10
-71.81862879529861
 20
16.50283952860417
 30
0
 11
-71.81862879529861
 21
16.94483952860417
 31
0
  0
LINE
  8
1
 62
7
 10
-71.71862879529861
 20
16.48983952860418
 30
0
 11
-71.71862879529861
 21
16.95783952860418
 31
0
  0
LINE
  8
1
 62
7
 10
-71.61862879529862
 20
16.47683952860418
 30
0
 11
-71.61862879529862
 21
16.97083952860418
 31
0
  0
LINE
  8
1
 62
7
 10
-71.51862879529863
 20
16.46383952860418
 30
0
 11
-71.51862879529863
 21
16.98383952860418
 31
0
  0
LINE
  8
1
 62
7
 10
-71.41862879529863
 20
16.45083952860418
 30
0
 11
-71.41862879529863
 21
16.99683952860418
 31
0
  0
LINE
  8
1
 62
7
 10
-71.31862879529864
 20
16.43783952860418
 30
0
 11
-71.31862879529864
 21
17.00983952860418
 31
0
  0
LINE
  8
1
 62
7
 10
-71.21862879529864
 20
16.42483952860419
 30
0
 11
-71.21862879529864
 21
17.02283952860418
 31
0
  0
LINE
  8
1
 62
7
 10
-71.11862879529865
 20
16.41183952860419
 30
0
 11
-71.11862879529865
 21
17.03583952860419
 31
0
  0
LINE
  8
1
 62
7
 10
-71.01862879529865
 20
16.39883952860419
 30
0
 11
-71.01862879529865
 21
17.04883952860419
 31
0
  0
LINE
  8
1
 62
7
 10
-70.91862879529866
 20
16.38583952860419
 30
0
 11
-70.91862879529866
 21
17.06183952860419
 31
0
  0
LINE
  8
1
 62
7
 10
-70.81862879529867
 20
16.37283952860419
 30
0
 11
-70.81862879529867
 21
17.07483952860419
 31
0
  0
LINE
  8
1
 62
7
 10
-70.71862879529867
 20
16.35983952860419
 30
0
 11
-70.71862879529867
 21
17.08783952860419
 31
0
  0
LINE
  8
1
 62
7
 10
-70.61862879529868
 20
16.3468395286042
 30
0
 11
-70.61862879529868
 21
17.10083952860419
 31
0
  0
LINE
  8
1
 62
7
 10
-70.51862879529868
 20
16.3338395286042
 30
0
 11
-70.51862879529868
 21
17.1138395286042
 31
0
  0
LINE
  8
1
 62
7
 10
-70.41862879529869
 20
16.3208395286042
 30
0
 11
-70.41862879529869
 21
17.1268395286042
 31
0
  0
LINE
  8
1
 62
7
 10
-70.31862879529869
 20
16.3078395286042
 30
0
 11
-70.31862879529869
 21
17.1398395286042
 31
0
  0
ENDBLK
  8
0
  0
BLOCK
  8
1
  2
*X13
 70
1
 10
0
 20
0
 30
0
  0
LINE
  8
1
 62
7
 10
-68.61862879530052
 20
16.32083952860399
 30
0
 11
-68.61862879530052
 21
17.12683952860451
 31
0
  0
LINE
  8
1
 62
7
 10
-68.51862879530053
 20
16.33383952860399
 30
0
 11
-68.51862879530053
 21
17.11383952860451
 31
0
  0
LINE
  8
1
 62
7
 10
-68.41862879530054
 20
16.34683952860399
 30
0
 11
-68.41862879530054
 21
17.10083952860451
 31
0
  0
LINE
  8
1
 62
7
 10
-68.31862879530054
 20
16.35983952860399
 30
0
 11
-68.31862879530054
 21
17.08783952860451
 31
0
  0
LINE
  8
1
 62
7
 10
-68.21862879530055
 20
16.37283952860399
 30
0
 11
-68.21862879530055
 21
17.0748395286045
 31
0
  0
LINE
  8
1
 62
7
 10
-68.11862879530055
 20
16.38583952860398
 30
0
 11
-68.11862879530055
 21
17.0618395286045
 31
0
  0
LINE
  8
1
 62
7
 10
-68.01862879530056
 20
16.39883952860398
 30
0
 11
-68.01862879530056
 21
17.0488395286045
 31
0
  0
LINE
  8
1
 62
7
 10
-67.91862879530056
 20
16.41183952860398
 30
0
 11
-67.91862879530056
 21
17.0358395286045
 31
0
  0
LINE
  8
1
 62
7
 10
-67.81862879530057
 20
16.42483952860398
 30
0
 11
-67.81862879530057
 21
17.0228395286045
 31
0
  0
LINE
  8
1
 62
7
 10
-67.71862879530058
 20
16.43783952860398
 30
0
 11
-67.71862879530058
 21
17.0098395286045
 31
0
  0
LINE
  8
1
 62
7
 10
-67.61862879530058
 20
16.45083952860398
 30
0
 11
-67.61862879530058
 21
16.99683952860449
 31
0
  0
LINE
  8
1
 62
7
 10
-67.51862879530059
 20
16.46383952860397
 30
0
 11
-67.51862879530059
 21
16.98383952860449
 31
0
  0
LINE
  8
1
 62
7
 10
-67.41862879530059
 20
16.47683952860397
 30
0
 11
-67.41862879530059
 21
16.97083952860449
 31
0
  0
LINE
  8
1
 62
7
 10
-67.3186287953006
 20
16.48983952860397
 30
0
 11
-67.3186287953006
 21
16.95783952860449
 31
0
  0
LINE
  8
1
 62
7
 10
-67.2186287953006
 20
16.50283952860397
 30
0
 11
-67.2186287953006
 21
16.94483952860449
 31
0
  0
LINE
  8
1
 62
7
 10
-67.11862879530061
 20
16.51583952860397
 30
0
 11
-67.11862879530061
 21
16.93183952860449
 31
0
  0
LINE
  8
1
 62
7
 10
-67.01862879530061
 20
16.52883952860396
 30
0
 11
-67.01862879530061
 21
16.91883952860448
 31
0
  0
LINE
  8
1
 62
7
 10
-66.91862879530062
 20
16.54183952860396
 30
0
 11
-66.91862879530062
 21
16.90583952860448
 31
0
  0
LINE
  8
1
 62
7
 10
-66.81862879530063
 20
16.55483952860396
 30
0
 11
-66.81862879530063
 21
16.89283952860448
 31
0
  0
LINE
  8
1
 62
7
 10
-66.71862879530063
 20
16.56783952860396
 30
0
 11
-66.71862879530063
 21
16.87983952860448
 31
0
  0
LINE
  8
1
 62
7
 10
-66.61862879530064
 20
16.58083952860396
 30
0
 11
-66.61862879530064
 21
16.86683952860448
 31
0
  0
LINE
  8
1
 62
7
 10
-66.51862879530064
 20
16.59383952860395
 30
0
 11
-66.51862879530064
 21
16.85383952860448
 31
0
  0
LINE
  8
1
 62
7
 10
-66.41862879530065
 20
16.60683952860395
 30
0
 11
-66.41862879530065
 21
16.84083952860447
 31
0
  0
LINE
  8
1
 62
7
 10
-66.31862879530065
 20
16.61983952860395
 30
0
 11
-66.31862879530065
 21
16.82783952860447
 31
0
  0
LINE
  8
1
 62
7
 10
-66.21862879530066
 20
16.63283952860395
 30
0
 11
-66.21862879530066
 21
16.81483952860447
 31
0
  0
LINE
  8
1
 62
7
 10
-66.11862879530067
 20
16.64583952860395
 30
0
 11
-66.11862879530067
 21
16.80183952860447
 31
0
  0
LINE
  8
1
 62
7
 10
-66.01862879530067
 20
16.65883952860395
 30
0
 11
-66.01862879530067
 21
16.78883952860447
 31
0
  0
LINE
  8
1
 62
7
 10
-65.91862879530068
 20
16.67183952860394
 30
0
 11
-65.91862879530068
 21
16.77583952860447
 31
0
  0
LINE
  8
1
 62
7
 10
-65.81862879530068
 20
16.68483952860394
 30
0
 11
-65.81862879530068
 21
16.76283952860446
 31
0
  0
LINE
  8
1
 62
7
 10
-65.71862879530069
 20
16.69783952860394
 30
0
 11
-65.71862879530069
 21
16.74983952860446
 31
0
  0
LINE
  8
1
 62
7
 10
-65.61862879530069
 20
16.71083952860394
 30
0
 11
-65.61862879530069
 21
16.73683952860446
 31
0
  0
ENDBLK
  8
0
  0
BLOCK
  8
1
  2
*X14
 70
1
 10
0
 20
0
 30
0
  0
LINE
  8
1
 62
7
 10
-60.41862879529875
 20
16.71083952860414
 30
0
 11
-60.41862879529875
 21
16.73683952860415
 31
0
  0
LINE
  8
1
 62
7
 10
-60.31862879529875
 20
16.69783952860415
 30
0
 11
-60.31862879529875
 21
16.74983952860415
 31
0
  0
LINE
  8
1
 62
7
 10
-60.21862879529875
 20
16.68483952860415
 30
0
 11
-60.21862879529875
 21
16.76283952860415
 31
0
  0
LINE
  8
1
 62
7
 10
-60.11862879529875
 20
16.67183952860415
 30
0
 11
-60.11862879529875
 21
16.77583952860415
 31
0
  0
LINE
  8
1
 62
7
 10
-60.01862879529875
 20
16.65883952860415
 30
0
 11
-60.01862879529875
 21
16.78883952860415
 31
0
  0
LINE
  8
1
 62
7
 10
-59.91862879529874
 20
16.64583952860415
 30
0
 11
-59.91862879529874
 21
16.80183952860416
 31
0
  0
LINE
  8
1
 62
7
 10
-59.81862879529874
 20
16.63283952860416
 30
0
 11
-59.81862879529874
 21
16.81483952860416
 31
0
  0
LINE
  8
1
 62
7
 10
-59.71862879529874
 20
16.61983952860416
 30
0
 11
-59.71862879529874
 21
16.82783952860416
 31
0
  0
LINE
  8
1
 62
7
 10
-59.61862879529874
 20
16.60683952860416
 30
0
 11
-59.61862879529874
 21
16.84083952860416
 31
0
  0
LINE
  8
1
 62
7
 10
-59.51862879529874
 20
16.59383952860416
 30
0
 11
-59.51862879529874
 21
16.85383952860416
 31
0
  0
LINE
  8
1
 62
7
 10
-59.41862879529874
 20
16.58083952860416
 30
0
 11
-59.41862879529874
 21
16.86683952860416
 31
0
  0
LINE
  8
1
 62
7
 10
-59.31862879529874
 20
16.56783952860416
 30
0
 11
-59.31862879529874
 21
16.87983952860417
 31
0
  0
LINE
  8
1
 62
7
 10
-59.21862879529873
 20
16.55483952860417
 30
0
 11
-59.21862879529873
 21
16.89283952860417
 31
0
  0
LINE
  8
1
 62
7
 10
-59.11862879529873
 20
16.54183952860417
 30
0
 11
-59.11862879529873
 21
16.90583952860417
 31
0
  0
LINE
  8
1
 62
7
 10
-59.01862879529873
 20
16.52883952860417
 30
0
 11
-59.01862879529873
 21
16.91883952860417
 31
0
  0
LINE
  8
1
 62
7
 10
-58.91862879529873
 20
16.51583952860417
 30
0
 11
-58.91862879529873
 21
16.93183952860417
 31
0
  0
LINE
  8
1
 62
7
 10
-58.81862879529873
 20
16.50283952860417
 30
0
 11
-58.81862879529873
 21
16.94483952860417
 31
0
  0
LINE
  8
1
 62
7
 10
-58.71862879529873
 20
16.48983952860418
 30
0
 11
-58.71862879529873
 21
16.95783952860418
 31
0
  0
LINE
  8
1
 62
7
 10
-58.61862879529873
 20
16.47683952860418
 30
0
 11
-58.61862879529873
 21
16.97083952860418
 31
0
  0
LINE
  8
1
 62
7
 10
-58.51862879529872
 20
16.46383952860418
 30
0
 11
-58.51862879529872
 21
16.98383952860418
 31
0
  0
LINE
  8
1
 62
7
 10
-58.41862879529872
 20
16.45083952860418
 30
0
 11
-58.41862879529872
 21
16.99683952860418
 31
0
  0
LINE
  8
1
 62
7
 10
-58.31862879529872
 20
16.43783952860418
 30
0
 11
-58.31862879529872
 21
17.00983952860418
 31
0
  0
LINE
  8
1
 62
7
 10
-58.21862879529872
 20
16.42483952860419
 30
0
 11
-58.21862879529872
 21
17.02283952860418
 31
0
  0
LINE
  8
1
 62
7
 10
-58.11862879529872
 20
16.41183952860419
 30
0
 11
-58.11862879529872
 21
17.03583952860419
 31
0
  0
LINE
  8
1
 62
7
 10
-58.01862879529872
 20
16.39883952860419
 30
0
 11
-58.01862879529872
 21
17.04883952860419
 31
0
  0
LINE
  8
1
 62
7
 10
-57.91862879529872
 20
16.38583952860419
 30
0
 11
-57.91862879529872
 21
17.06183952860419
 31
0
  0
LINE
  8
1
 62
7
 10
-57.81862879529871
 20
16.37283952860419
 30
0
 11
-57.81862879529871
 21
17.07483952860419
 31
0
  0
LINE
  8
1
 62
7
 10
-57.71862879529871
 20
16.35983952860419
 30
0
 11
-57.71862879529871
 21
17.08783952860419
 31
0
  0
LINE
  8
1
 62
7
 10
-57.61862879529871
 20
16.3468395286042
 30
0
 11
-57.61862879529871
 21
17.10083952860419
 31
0
  0
LINE
  8
1
 62
7
 10
-57.51862879529871
 20
16.3338395286042
 30
0
 11
-57.51862879529871
 21
17.1138395286042
 31
0
  0
LINE
  8
1
 62
7
 10
-57.41862879529871
 20
16.3208395286042
 30
0
 11
-57.41862879529871
 21
17.1268395286042
 31
0
  0
LINE
  8
1
 62
7
 10
-57.31862879529871
 20
16.3078395286042
 30
0
 11
-57.31862879529871
 21
17.1398395286042
 31
0
  0
ENDBLK
  8
0
  0
BLOCK
  8
1
  2
*X15
 70
1
 10
0
 20
0
 30
0
  0
LINE
  8
1
 62
7
 10
-77.41862879529852
 20
16.31433952860426
 30
0
 11
-77.41862879529852
 21
17.13333952860425
 31
0
  0
LINE
  8
1
 62
7
 10
-77.31862879529852
 20
16.32733952860426
 30
0
 11
-77.31862879529852
 21
17.12033952860425
 31
0
  0
LINE
  8
1
 62
7
 10
-77.21862879529853
 20
16.34033952860425
 30
0
 11
-77.21862879529853
 21
17.10733952860425
 31
0
  0
LINE
  8
1
 62
7
 10
-77.11862879529853
 20
16.35333952860425
 30
0
 11
-77.11862879529853
 21
17.09433952860425
 31
0
  0
LINE
  8
1
 62
7
 10
-77.01862879529854
 20
16.36633952860425
 30
0
 11
-77.01862879529854
 21
17.08133952860424
 31
0
  0
LINE
  8
1
 62
7
 10
-76.91862879529855
 20
16.37933952860425
 30
0
 11
-76.91862879529855
 21
17.06833952860424
 31
0
  0
LINE
  8
1
 62
7
 10
-76.81862879529855
 20
16.39233952860425
 30
0
 11
-76.81862879529855
 21
17.05533952860424
 31
0
  0
LINE
  8
1
 62
7
 10
-76.71862879529856
 20
16.40533952860424
 30
0
 11
-76.71862879529856
 21
17.04233952860424
 31
0
  0
LINE
  8
1
 62
7
 10
-76.61862879529856
 20
16.41833952860424
 30
0
 11
-76.61862879529856
 21
17.02933952860424
 31
0
  0
LINE
  8
1
 62
7
 10
-76.51862879529857
 20
16.43133952860424
 30
0
 11
-76.51862879529857
 21
17.01633952860423
 31
0
  0
LINE
  8
1
 62
7
 10
-76.41862879529857
 20
16.44433952860424
 30
0
 11
-76.41862879529857
 21
17.00333952860423
 31
0
  0
LINE
  8
1
 62
7
 10
-76.31862879529858
 20
16.45733952860424
 30
0
 11
-76.31862879529858
 21
16.99033952860423
 31
0
  0
LINE
  8
1
 62
7
 10
-76.21862879529859
 20
16.47033952860424
 30
0
 11
-76.21862879529859
 21
16.97733952860423
 31
0
  0
LINE
  8
1
 62
7
 10
-76.11862879529859
 20
16.48333952860423
 30
0
 11
-76.11862879529859
 21
16.96433952860423
 31
0
  0
LINE
  8
1
 62
7
 10
-76.0186287952986
 20
16.49633952860423
 30
0
 11
-76.0186287952986
 21
16.95133952860423
 31
0
  0
LINE
  8
1
 62
7
 10
-75.9186287952986
 20
16.50933952860423
 30
0
 11
-75.9186287952986
 21
16.93833952860422
 31
0
  0
LINE
  8
1
 62
7
 10
-75.81862879529861
 20
16.52233952860423
 30
0
 11
-75.81862879529861
 21
16.92533952860422
 31
0
  0
LINE
  8
1
 62
7
 10
-75.71862879529861
 20
16.53533952860423
 30
0
 11
-75.71862879529861
 21
16.91233952860422
 31
0
  0
LINE
  8
1
 62
7
 10
-75.61862879529862
 20
16.54833952860422
 30
0
 11
-75.61862879529862
 21
16.89933952860422
 31
0
  0
LINE
  8
1
 62
7
 10
-75.51862879529863
 20
16.56133952860422
 30
0
 11
-75.51862879529863
 21
16.88633952860422
 31
0
  0
LINE
  8
1
 62
7
 10
-75.41862879529863
 20
16.57433952860422
 30
0
 11
-75.41862879529863
 21
16.87333952860422
 31
0
  0
LINE
  8
1
 62
7
 10
-75.31862879529864
 20
16.58733952860422
 30
0
 11
-75.31862879529864
 21
16.86033952860421
 31
0
  0
LINE
  8
1
 62
7
 10
-75.21862879529864
 20
16.60033952860422
 30
0
 11
-75.21862879529864
 21
16.84733952860421
 31
0
  0
LINE
  8
1
 62
7
 10
-75.11862879529865
 20
16.61333952860421
 30
0
 11
-75.11862879529865
 21
16.83433952860421
 31
0
  0
LINE
  8
1
 62
7
 10
-75.01862879529865
 20
16.62633952860421
 30
0
 11
-75.01862879529865
 21
16.82133952860421
 31
0
  0
LINE
  8
1
 62
7
 10
-74.91862879529866
 20
16.63933952860421
 30
0
 11
-74.91862879529866
 21
16.80833952860421
 31
0
  0
LINE
  8
1
 62
7
 10
-74.81862879529867
 20
16.65233952860421
 30
0
 11
-74.81862879529867
 21
16.79533952860421
 31
0
  0
LINE
  8
1
 62
7
 10
-74.71862879529867
 20
16.66533952860421
 30
0
 11
-74.71862879529867
 21
16.7823395286042
 31
0
  0
LINE
  8
1
 62
7
 10
-74.61862879529868
 20
16.67833952860421
 30
0
 11
-74.61862879529868
 21
16.7693395286042
 31
0
  0
LINE
  8
1
 62
7
 10
-74.51862879529868
 20
16.6913395286042
 30
0
 11
-74.51862879529868
 21
16.7563395286042
 31
0
  0
LINE
  8
1
 62
7
 10
-74.41862879529869
 20
16.7043395286042
 30
0
 11
-74.41862879529869
 21
16.7433395286042
 31
0
  0
LINE
  8
1
 62
7
 10
-74.31862879529869
 20
16.7173395286042
 30
0
 11
-74.31862879529869
 21
16.7303395286042
 31
0
  0
ENDBLK
  8
0
  0
BLOCK
  8
1
  2
*X16
 70
1
 10
0
 20
0
 30
0
  0
LINE
  8
1
 62
7
 10
-73.41862879529852
 20
16.71083952860414
 30
0
 11
-73.41862879529852
 21
16.73683952860415
 31
0
  0
LINE
  8
1
 62
7
 10
-73.31862879529852
 20
16.69783952860415
 30
0
 11
-73.31862879529852
 21
16.74983952860415
 31
0
  0
LINE
  8
1
 62
7
 10
-73.21862879529853
 20
16.68483952860415
 30
0
 11
-73.21862879529853
 21
16.76283952860415
 31
0
  0
LINE
  8
1
 62
7
 10
-73.11862879529853
 20
16.67183952860415
 30
0
 11
-73.11862879529853
 21
16.77583952860415
 31
0
  0
LINE
  8
1
 62
7
 10
-73.01862879529854
 20
16.65883952860415
 30
0
 11
-73.01862879529854
 21
16.78883952860415
 31
0
  0
LINE
  8
1
 62
7
 10
-72.91862879529855
 20
16.64583952860415
 30
0
 11
-72.91862879529855
 21
16.80183952860416
 31
0
  0
LINE
  8
1
 62
7
 10
-72.81862879529855
 20
16.63283952860416
 30
0
 11
-72.81862879529855
 21
16.81483952860416
 31
0
  0
LINE
  8
1
 62
7
 10
-72.71862879529856
 20
16.61983952860416
 30
0
 11
-72.71862879529856
 21
16.82783952860416
 31
0
  0
LINE
  8
1
 62
7
 10
-72.61862879529856
 20
16.60683952860416
 30
0
 11
-72.61862879529856
 21
16.84083952860416
 31
0
  0
LINE
  8
1
 62
7
 10
-72.51862879529857
 20
16.59383952860416
 30
0
 11
-72.51862879529857
 21
16.85383952860416
 31
0
  0
LINE
  8
1
 62
7
 10
-72.41862879529857
 20
16.58083952860416
 30
0
 11
-72.41862879529857
 21
16.86683952860416
 31
0
  0
LINE
  8
1
 62
7
 10
-72.31862879529858
 20
16.56783952860416
 30
0
 11
-72.31862879529858
 21
16.87983952860417
 31
0
  0
LINE
  8
1
 62
7
 10
-72.21862879529859
 20
16.55483952860417
 30
0
 11
-72.21862879529859
 21
16.89283952860417
 31
0
  0
LINE
  8
1
 62
7
 10
-72.11862879529859
 20
16.54183952860417
 30
0
 11
-72.11862879529859
 21
16.90583952860417
 31
0
  0
LINE
  8
1
 62
7
 10
-72.0186287952986
 20
16.52883952860417
 30
0
 11
-72.0186287952986
 21
16.91883952860417
 31
0
  0
LINE
  8
1
 62
7
 10
-71.9186287952986
 20
16.51583952860417
 30
0
 11
-71.9186287952986
 21
16.93183952860417
 31
0
  0
LINE
  8
1
 62
7
 10
-71.81862879529861
 20
16.50283952860417
 30
0
 11
-71.81862879529861
 21
16.94483952860417
 31
0
  0
LINE
  8
1
 62
7
 10
-71.71862879529861
 20
16.48983952860418
 30
0
 11
-71.71862879529861
 21
16.95783952860418
 31
0
  0
LINE
  8
1
 62
7
 10
-71.61862879529862
 20
16.47683952860418
 30
0
 11
-71.61862879529862
 21
16.97083952860418
 31
0
  0
LINE
  8
1
 62
7
 10
-71.51862879529863
 20
16.46383952860418
 30
0
 11
-71.51862879529863
 21
16.98383952860418
 31
0
  0
LINE
  8
1
 62
7
 10
-71.41862879529863
 20
16.45083952860418
 30
0
 11
-71.41862879529863
 21
16.99683952860418
 31
0
  0
LINE
  8
1
 62
7
 10
-71.31862879529864
 20
16.43783952860418
 30
0
 11
-71.31862879529864
 21
17.00983952860418
 31
0
  0
LINE
  8
1
 62
7
 10
-71.21862879529864
 20
16.42483952860419
 30
0
 11
-71.21862879529864
 21
17.02283952860418
 31
0
  0
LINE
  8
1
 62
7
 10
-71.11862879529865
 20
16.41183952860419
 30
0
 11
-71.11862879529865
 21
17.03583952860419
 31
0
  0
LINE
  8
1
 62
7
 10
-71.01862879529865
 20
16.39883952860419
 30
0
 11
-71.01862879529865
 21
17.04883952860419
 31
0
  0
LINE
  8
1
 62
7
 10
-70.91862879529866
 20
16.38583952860419
 30
0
 11
-70.91862879529866
 21
17.06183952860419
 31
0
  0
LINE
  8
1
 62
7
 10
-70.81862879529867
 20
16.37283952860419
 30
0
 11
-70.81862879529867
 21
17.07483952860419
 31
0
  0
LINE
  8
1
 62
7
 10
-70.71862879529867
 20
16.35983952860419
 30
0
 11
-70.71862879529867
 21
17.08783952860419
 31
0
  0
LINE
  8
1
 62
7
 10
-70.61862879529868
 20
16.3468395286042
 30
0
 11
-70.61862879529868
 21
17.10083952860419
 31
0
  0
LINE
  8
1
 62
7
 10
-70.51862879529868
 20
16.3338395286042
 30
0
 11
-70.51862879529868
 21
17.1138395286042
 31
0
  0
LINE
  8
1
 62
7
 10
-70.41862879529869
 20
16.3208395286042
 30
0
 11
-70.41862879529869
 21
17.1268395286042
 31
0
  0
LINE
  8
1
 62
7
 10
-70.31862879529869
 20
16.3078395286042
 30
0
 11
-70.31862879529869
 21
17.1398395286042
 31
0
  0
ENDBLK
  8
0
  0
BLOCK
  8
1
  2
*X17
 70
1
 10
0
 20
0
 30
0
  0
LINE
  8
1
 62
7
 10
-65.41862879529865
 20
25.13337069749205
 30
0
 11
-65.41862879529865
 21
25.15937069749195
 31
0
  0
LINE
  8
1
 62
7
 10
-65.31862879529865
 20
25.12037069749205
 30
0
 11
-65.31862879529865
 21
25.17237069749195
 31
0
  0
LINE
  8
1
 62
7
 10
-65.21862879529866
 20
25.10737069749205
 30
0
 11
-65.21862879529866
 21
25.18537069749195
 31
0
  0
LINE
  8
1
 62
7
 10
-65.11862879529866
 20
25.09437069749205
 30
0
 11
-65.11862879529866
 21
25.19837069749195
 31
0
  0
LINE
  8
1
 62
7
 10
-65.01862879529867
 20
25.08137069749204
 30
0
 11
-65.01862879529867
 21
25.21137069749195
 31
0
  0
LINE
  8
1
 62
7
 10
-64.91862879529867
 20
25.06837069749204
 30
0
 11
-64.91862879529867
 21
25.22437069749196
 31
0
  0
LINE
  8
1
 62
7
 10
-64.81862879529868
 20
25.05537069749204
 30
0
 11
-64.81862879529868
 21
25.23737069749196
 31
0
  0
LINE
  8
1
 62
7
 10
-64.71862879529869
 20
25.04237069749204
 30
0
 11
-64.71862879529869
 21
25.25037069749196
 31
0
  0
LINE
  8
1
 62
7
 10
-64.61862879529869
 20
25.02937069749204
 30
0
 11
-64.61862879529869
 21
25.26337069749196
 31
0
  0
LINE
  8
1
 62
7
 10
-64.5186287952987
 20
25.01637069749204
 30
0
 11
-64.5186287952987
 21
25.27637069749196
 31
0
  0
LINE
  8
1
 62
7
 10
-64.4186287952987
 20
25.00337069749203
 30
0
 11
-64.4186287952987
 21
25.28937069749197
 31
0
  0
LINE
  8
1
 62
7
 10
-64.31862879529871
 20
24.99037069749203
 30
0
 11
-64.31862879529871
 21
25.30237069749197
 31
0
  0
LINE
  8
1
 62
7
 10
-64.21862879529871
 20
24.97737069749203
 30
0
 11
-64.21862879529871
 21
25.31537069749197
 31
0
  0
LINE
  8
1
 62
7
 10
-64.11862879529872
 20
24.96437069749203
 30
0
 11
-64.11862879529872
 21
25.32837069749197
 31
0
  0
LINE
  8
1
 62
7
 10
-64.01862879529872
 20
24.95137069749203
 30
0
 11
-64.01862879529872
 21
25.34137069749197
 31
0
  0
LINE
  8
1
 62
7
 10
-63.91862879529872
 20
24.93837069749203
 30
0
 11
-63.91862879529872
 21
25.35437069749197
 31
0
  0
LINE
  8
1
 62
7
 10
-63.81862879529872
 20
24.92537069749202
 30
0
 11
-63.81862879529872
 21
25.36737069749198
 31
0
  0
LINE
  8
1
 62
7
 10
-63.71862879529872
 20
24.91237069749202
 30
0
 11
-63.71862879529872
 21
25.38037069749198
 31
0
  0
LINE
  8
1
 62
7
 10
-63.61862879529872
 20
24.89937069749202
 30
0
 11
-63.61862879529872
 21
25.39337069749198
 31
0
  0
LINE
  8
1
 62
7
 10
-63.51862879529872
 20
24.88637069749202
 30
0
 11
-63.51862879529872
 21
25.40637069749198
 31
0
  0
LINE
  8
1
 62
7
 10
-63.41862879529872
 20
24.87337069749202
 30
0
 11
-63.41862879529872
 21
25.41937069749198
 31
0
  0
LINE
  8
1
 62
7
 10
-63.31862879529871
 20
24.86037069749202
 30
0
 11
-63.31862879529871
 21
25.43237069749198
 31
0
  0
LINE
  8
1
 62
7
 10
-63.21862879529871
 20
24.84737069749201
 30
0
 11
-63.21862879529871
 21
25.44537069749199
 31
0
  0
LINE
  8
1
 62
7
 10
-63.11862879529871
 20
24.83437069749201
 30
0
 11
-63.11862879529871
 21
25.45837069749199
 31
0
  0
LINE
  8
1
 62
7
 10
-63.01862879529871
 20
24.82137069749201
 30
0
 11
-63.01862879529871
 21
25.47137069749199
 31
0
  0
LINE
  8
1
 62
7
 10
-62.91862879529871
 20
24.80837069749201
 30
0
 11
-62.91862879529871
 21
25.48437069749199
 31
0
  0
LINE
  8
1
 62
7
 10
-62.81862879529871
 20
24.79537069749201
 30
0
 11
-62.81862879529871
 21
25.49737069749199
 31
0
  0
LINE
  8
1
 62
7
 10
-62.71862879529871
 20
24.78237069749201
 30
0
 11
-62.71862879529871
 21
25.51037069749199
 31
0
  0
LINE
  8
1
 62
7
 10
-62.6186287952987
 20
24.769370697492
 30
0
 11
-62.6186287952987
 21
25.523370697492
 31
0
  0
LINE
  8
1
 62
7
 10
-62.5186287952987
 20
24.756370697492
 30
0
 11
-62.5186287952987
 21
25.536370697492
 31
0
  0
LINE
  8
1
 62
7
 10
-62.4186287952987
 20
24.743370697492
 30
0
 11
-62.4186287952987
 21
25.549370697492
 31
0
  0
LINE
  8
1
 62
7
 10
-62.3186287952987
 20
24.730370697492
 30
0
 11
-62.3186287952987
 21
25.562370697492
 31
0
  0
ENDBLK
  8
0
  0
BLOCK
  8
1
  2
*X18
 70
1
 10
0
 20
0
 30
0
  0
LINE
  8
1
 62
7
 10
-53.61862879530075
 20
24.74337069749169
 30
0
 11
-53.61862879530075
 21
25.54937069749231
 31
0
  0
LINE
  8
1
 62
7
 10
-53.51862879530075
 20
24.75637069749169
 30
0
 11
-53.51862879530075
 21
25.53637069749231
 31
0
  0
LINE
  8
1
 62
7
 10
-53.41862879530075
 20
24.76937069749169
 30
0
 11
-53.41862879530075
 21
25.52337069749231
 31
0
  0
LINE
  8
1
 62
7
 10
-53.31862879530075
 20
24.78237069749169
 30
0
 11
-53.31862879530075
 21
25.51037069749231
 31
0
  0
LINE
  8
1
 62
7
 10
-53.21862879530075
 20
24.7953706974917
 30
0
 11
-53.21862879530075
 21
25.4973706974923
 31
0
  0
LINE
  8
1
 62
7
 10
-53.11862879530074
 20
24.8083706974917
 30
0
 11
-53.11862879530074
 21
25.4843706974923
 31
0
  0
LINE
  8
1
 62
7
 10
-53.01862879530074
 20
24.8213706974917
 30
0
 11
-53.01862879530074
 21
25.4713706974923
 31
0
  0
LINE
  8
1
 62
7
 10
-52.91862879530074
 20
24.8343706974917
 30
0
 11
-52.91862879530074
 21
25.4583706974923
 31
0
  0
LINE
  8
1
 62
7
 10
-52.81862879530074
 20
24.8473706974917
 30
0
 11
-52.81862879530074
 21
25.4453706974923
 31
0
  0
LINE
  8
1
 62
7
 10
-52.71862879530074
 20
24.8603706974917
 30
0
 11
-52.71862879530074
 21
25.4323706974923
 31
0
  0
LINE
  8
1
 62
7
 10
-52.61862879530074
 20
24.87337069749171
 30
0
 11
-52.61862879530074
 21
25.41937069749229
 31
0
  0
LINE
  8
1
 62
7
 10
-52.51862879530074
 20
24.88637069749171
 30
0
 11
-52.51862879530074
 21
25.40637069749229
 31
0
  0
LINE
  8
1
 62
7
 10
-52.41862879530073
 20
24.89937069749171
 30
0
 11
-52.41862879530073
 21
25.39337069749229
 31
0
  0
LINE
  8
1
 62
7
 10
-52.31862879530073
 20
24.91237069749171
 30
0
 11
-52.31862879530073
 21
25.38037069749229
 31
0
  0
LINE
  8
1
 62
7
 10
-52.21862879530073
 20
24.92537069749171
 30
0
 11
-52.21862879530073
 21
25.36737069749229
 31
0
  0
LINE
  8
1
 62
7
 10
-52.11862879530073
 20
24.93837069749171
 30
0
 11
-52.11862879530073
 21
25.35437069749229
 31
0
  0
LINE
  8
1
 62
7
 10
-52.01862879530073
 20
24.95137069749172
 30
0
 11
-52.01862879530073
 21
25.34137069749228
 31
0
  0
LINE
  8
1
 62
7
 10
-51.91862879530073
 20
24.96437069749172
 30
0
 11
-51.91862879530073
 21
25.32837069749228
 31
0
  0
LINE
  8
1
 62
7
 10
-51.81862879530073
 20
24.97737069749172
 30
0
 11
-51.81862879530073
 21
25.31537069749228
 31
0
  0
LINE
  8
1
 62
7
 10
-51.71862879530072
 20
24.99037069749172
 30
0
 11
-51.71862879530072
 21
25.30237069749228
 31
0
  0
LINE
  8
1
 62
7
 10
-51.61862879530072
 20
25.00337069749172
 30
0
 11
-51.61862879530072
 21
25.28937069749228
 31
0
  0
LINE
  8
1
 62
7
 10
-51.51862879530072
 20
25.01637069749172
 30
0
 11
-51.51862879530072
 21
25.27637069749228
 31
0
  0
LINE
  8
1
 62
7
 10
-51.41862879530072
 20
25.02937069749173
 30
0
 11
-51.41862879530072
 21
25.26337069749227
 31
0
  0
LINE
  8
1
 62
7
 10
-51.31862879530072
 20
25.04237069749173
 30
0
 11
-51.31862879530072
 21
25.25037069749227
 31
0
  0
LINE
  8
1
 62
7
 10
-51.21862879530072
 20
25.05537069749173
 30
0
 11
-51.21862879530072
 21
25.23737069749227
 31
0
  0
LINE
  8
1
 62
7
 10
-51.11862879530072
 20
25.06837069749173
 30
0
 11
-51.11862879530072
 21
25.22437069749227
 31
0
  0
LINE
  8
1
 62
7
 10
-51.01862879530071
 20
25.08137069749173
 30
0
 11
-51.01862879530071
 21
25.21137069749227
 31
0
  0
LINE
  8
1
 62
7
 10
-50.91862879530071
 20
25.09437069749173
 30
0
 11
-50.91862879530071
 21
25.19837069749227
 31
0
  0
LINE
  8
1
 62
7
 10
-50.81862879530071
 20
25.10737069749174
 30
0
 11
-50.81862879530071
 21
25.18537069749226
 31
0
  0
LINE
  8
1
 62
7
 10
-50.71862879530071
 20
25.12037069749174
 30
0
 11
-50.71862879530071
 21
25.17237069749226
 31
0
  0
LINE
  8
1
 62
7
 10
-50.61862879530071
 20
25.13337069749174
 30
0
 11
-50.61862879530071
 21
25.15937069749226
 31
0
  0
ENDBLK
  8
0
  0
BLOCK
  8
1
  2
*X19
 70
1
 10
0
 20
0
 30
0
  0
LINE
  8
1
 62
7
 10
-53.61862879530075
 20
24.74337069749169
 30
0
 11
-53.61862879530075
 21
25.54937069749231
 31
0
  0
LINE
  8
1
 62
7
 10
-53.51862879530075
 20
24.75637069749169
 30
0
 11
-53.51862879530075
 21
25.53637069749231
 31
0
  0
LINE
  8
1
 62
7
 10
-53.41862879530075
 20
24.76937069749169
 30
0
 11
-53.41862879530075
 21
25.52337069749231
 31
0
  0
LINE
  8
1
 62
7
 10
-53.31862879530075
 20
24.78237069749169
 30
0
 11
-53.31862879530075
 21
25.51037069749231
 31
0
  0
LINE
  8
1
 62
7
 10
-53.21862879530075
 20
24.7953706974917
 30
0
 11
-53.21862879530075
 21
25.4973706974923
 31
0
  0
LINE
  8
1
 62
7
 10
-53.11862879530074
 20
24.8083706974917
 30
0
 11
-53.11862879530074
 21
25.4843706974923
 31
0
  0
LINE
  8
1
 62
7
 10
-53.01862879530074
 20
24.8213706974917
 30
0
 11
-53.01862879530074
 21
25.4713706974923
 31
0
  0
LINE
  8
1
 62
7
 10
-52.91862879530074
 20
24.8343706974917
 30
0
 11
-52.91862879530074
 21
25.4583706974923
 31
0
  0
LINE
  8
1
 62
7
 10
-52.81862879530074
 20
24.8473706974917
 30
0
 11
-52.81862879530074
 21
25.4453706974923
 31
0
  0
LINE
  8
1
 62
7
 10
-52.71862879530074
 20
24.8603706974917
 30
0
 11
-52.71862879530074
 21
25.4323706974923
 31
0
  0
LINE
  8
1
 62
7
 10
-52.61862879530074
 20
24.87337069749171
 30
0
 11
-52.61862879530074
 21
25.41937069749229
 31
0
  0
LINE
  8
1
 62
7
 10
-52.51862879530074
 20
24.88637069749171
 30
0
 11
-52.51862879530074
 21
25.40637069749229
 31
0
  0
LINE
  8
1
 62
7
 10
-52.41862879530073
 20
24.89937069749171
 30
0
 11
-52.41862879530073
 21
25.39337069749229
 31
0
  0
LINE
  8
1
 62
7
 10
-52.31862879530073
 20
24.91237069749171
 30
0
 11
-52.31862879530073
 21
25.38037069749229
 31
0
  0
LINE
  8
1
 62
7
 10
-52.21862879530073
 20
24.92537069749171
 30
0
 11
-52.21862879530073
 21
25.36737069749229
 31
0
  0
LINE
  8
1
 62
7
 10
-52.11862879530073
 20
24.93837069749171
 30
0
 11
-52.11862879530073
 21
25.35437069749229
 31
0
  0
LINE
  8
1
 62
7
 10
-52.01862879530073
 20
24.95137069749172
 30
0
 11
-52.01862879530073
 21
25.34137069749228
 31
0
  0
LINE
  8
1
 62
7
 10
-51.91862879530073
 20
24.96437069749172
 30
0
 11
-51.91862879530073
 21
25.32837069749228
 31
0
  0
LINE
  8
1
 62
7
 10
-51.81862879530073
 20
24.97737069749172
 30
0
 11
-51.81862879530073
 21
25.31537069749228
 31
0
  0
LINE
  8
1
 62
7
 10
-51.71862879530072
 20
24.99037069749172
 30
0
 11
-51.71862879530072
 21
25.30237069749228
 31
0
  0
LINE
  8
1
 62
7
 10
-51.61862879530072
 20
25.00337069749172
 30
0
 11
-51.61862879530072
 21
25.28937069749228
 31
0
  0
LINE
  8
1
 62
7
 10
-51.51862879530072
 20
25.01637069749172
 30
0
 11
-51.51862879530072
 21
25.27637069749228
 31
0
  0
LINE
  8
1
 62
7
 10
-51.41862879530072
 20
25.02937069749173
 30
0
 11
-51.41862879530072
 21
25.26337069749227
 31
0
  0
LINE
  8
1
 62
7
 10
-51.31862879530072
 20
25.04237069749173
 30
0
 11
-51.31862879530072
 21
25.25037069749227
 31
0
  0
LINE
  8
1
 62
7
 10
-51.21862879530072
 20
25.05537069749173
 30
0
 11
-51.21862879530072
 21
25.23737069749227
 31
0
  0
LINE
  8
1
 62
7
 10
-51.11862879530072
 20
25.06837069749173
 30
0
 11
-51.11862879530072
 21
25.22437069749227
 31
0
  0
LINE
  8
1
 62
7
 10
-51.01862879530071
 20
25.08137069749173
 30
0
 11
-51.01862879530071
 21
25.21137069749227
 31
0
  0
LINE
  8
1
 62
7
 10
-50.91862879530071
 20
25.09437069749173
 30
0
 11
-50.91862879530071
 21
25.19837069749227
 31
0
  0
LINE
  8
1
 62
7
 10
-50.81862879530071
 20
25.10737069749174
 30
0
 11
-50.81862879530071
 21
25.18537069749226
 31
0
  0
LINE
  8
1
 62
7
 10
-50.71862879530071
 20
25.12037069749174
 30
0
 11
-50.71862879530071
 21
25.17237069749226
 31
0
  0
LINE
  8
1
 62
7
 10
-50.61862879530071
 20
25.13337069749174
 30
0
 11
-50.61862879530071
 21
25.15937069749226
 31
0
  0
ENDBLK
  8
0
  0
BLOCK
  8
1
  2
*X20
 70
1
 10
0
 20
0
 30
0
  0
LINE
  8
1
 62
7
 10
-47.31862879529875
 20
25.13337069749205
 30
0
 11
-47.31862879529875
 21
25.15937069749195
 31
0
  0
LINE
  8
1
 62
7
 10
-47.21862879529875
 20
25.12037069749205
 30
0
 11
-47.21862879529875
 21
25.17237069749195
 31
0
  0
LINE
  8
1
 62
7
 10
-47.11862879529875
 20
25.10737069749205
 30
0
 11
-47.11862879529875
 21
25.18537069749195
 31
0
  0
LINE
  8
1
 62
7
 10
-47.01862879529875
 20
25.09437069749205
 30
0
 11
-47.01862879529875
 21
25.19837069749195
 31
0
  0
LINE
  8
1
 62
7
 10
-46.91862879529874
 20
25.08137069749204
 30
0
 11
-46.91862879529874
 21
25.21137069749195
 31
0
  0
LINE
  8
1
 62
7
 10
-46.81862879529874
 20
25.06837069749204
 30
0
 11
-46.81862879529874
 21
25.22437069749196
 31
0
  0
LINE
  8
1
 62
7
 10
-46.71862879529874
 20
25.05537069749204
 30
0
 11
-46.71862879529874
 21
25.23737069749196
 31
0
  0
LINE
  8
1
 62
7
 10
-46.61862879529874
 20
25.04237069749204
 30
0
 11
-46.61862879529874
 21
25.25037069749196
 31
0
  0
LINE
  8
1
 62
7
 10
-46.51862879529874
 20
25.02937069749204
 30
0
 11
-46.51862879529874
 21
25.26337069749196
 31
0
  0
LINE
  8
1
 62
7
 10
-46.41862879529874
 20
25.01637069749204
 30
0
 11
-46.41862879529874
 21
25.27637069749196
 31
0
  0
LINE
  8
1
 62
7
 10
-46.31862879529874
 20
25.00337069749203
 30
0
 11
-46.31862879529874
 21
25.28937069749197
 31
0
  0
LINE
  8
1
 62
7
 10
-46.21862879529873
 20
24.99037069749203
 30
0
 11
-46.21862879529873
 21
25.30237069749197
 31
0
  0
LINE
  8
1
 62
7
 10
-46.11862879529873
 20
24.97737069749203
 30
0
 11
-46.11862879529873
 21
25.31537069749197
 31
0
  0
LINE
  8
1
 62
7
 10
-46.01862879529873
 20
24.96437069749203
 30
0
 11
-46.01862879529873
 21
25.32837069749197
 31
0
  0
LINE
  8
1
 62
7
 10
-45.91862879529873
 20
24.95137069749203
 30
0
 11
-45.91862879529873
 21
25.34137069749197
 31
0
  0
LINE
  8
1
 62
7
 10
-45.81862879529873
 20
24.93837069749203
 30
0
 11
-45.81862879529873
 21
25.35437069749197
 31
0
  0
LINE
  8
1
 62
7
 10
-45.71862879529873
 20
24.92537069749202
 30
0
 11
-45.71862879529873
 21
25.36737069749198
 31
0
  0
LINE
  8
1
 62
7
 10
-45.61862879529873
 20
24.91237069749202
 30
0
 11
-45.61862879529873
 21
25.38037069749198
 31
0
  0
LINE
  8
1
 62
7
 10
-45.51862879529872
 20
24.89937069749202
 30
0
 11
-45.51862879529872
 21
25.39337069749198
 31
0
  0
LINE
  8
1
 62
7
 10
-45.41862879529872
 20
24.88637069749202
 30
0
 11
-45.41862879529872
 21
25.40637069749198
 31
0
  0
LINE
  8
1
 62
7
 10
-45.31862879529872
 20
24.87337069749202
 30
0
 11
-45.31862879529872
 21
25.41937069749198
 31
0
  0
LINE
  8
1
 62
7
 10
-45.21862879529872
 20
24.86037069749202
 30
0
 11
-45.21862879529872
 21
25.43237069749198
 31
0
  0
LINE
  8
1
 62
7
 10
-45.11862879529872
 20
24.84737069749201
 30
0
 11
-45.11862879529872
 21
25.44537069749199
 31
0
  0
LINE
  8
1
 62
7
 10
-45.01862879529872
 20
24.83437069749201
 30
0
 11
-45.01862879529872
 21
25.45837069749199
 31
0
  0
LINE
  8
1
 62
7
 10
-44.91862879529872
 20
24.82137069749201
 30
0
 11
-44.91862879529872
 21
25.47137069749199
 31
0
  0
LINE
  8
1
 62
7
 10
-44.81862879529871
 20
24.80837069749201
 30
0
 11
-44.81862879529871
 21
25.48437069749199
 31
0
  0
LINE
  8
1
 62
7
 10
-44.71862879529871
 20
24.79537069749201
 30
0
 11
-44.71862879529871
 21
25.49737069749199
 31
0
  0
LINE
  8
1
 62
7
 10
-44.61862879529871
 20
24.78237069749201
 30
0
 11
-44.61862879529871
 21
25.51037069749199
 31
0
  0
LINE
  8
1
 62
7
 10
-44.51862879529871
 20
24.769370697492
 30
0
 11
-44.51862879529871
 21
25.523370697492
 31
0
  0
LINE
  8
1
 62
7
 10
-44.41862879529871
 20
24.756370697492
 30
0
 11
-44.41862879529871
 21
25.536370697492
 31
0
  0
LINE
  8
1
 62
7
 10
-44.31862879529871
 20
24.743370697492
 30
0
 11
-44.31862879529871
 21
25.549370697492
 31
0
  0
LINE
  8
1
 62
7
 10
-44.21862879529871
 20
24.730370697492
 30
0
 11
-44.21862879529871
 21
25.562370697492
 31
0
  0
ENDBLK
  8
0
  0
BLOCK
  8
1
  2
*X21
 70
1
 10
0
 20
0
 30
0
  0
LINE
  8
1
 62
7
 10
-85.41862879529852
 20
25.13337069749205
 30
0
 11
-85.41862879529852
 21
25.15937069749195
 31
0
  0
LINE
  8
1
 62
7
 10
-85.31862879529852
 20
25.12037069749205
 30
0
 11
-85.31862879529852
 21
25.17237069749195
 31
0
  0
LINE
  8
1
 62
7
 10
-85.21862879529853
 20
25.10737069749205
 30
0
 11
-85.21862879529853
 21
25.18537069749195
 31
0
  0
LINE
  8
1
 62
7
 10
-85.11862879529853
 20
25.09437069749205
 30
0
 11
-85.11862879529853
 21
25.19837069749195
 31
0
  0
LINE
  8
1
 62
7
 10
-85.01862879529854
 20
25.08137069749204
 30
0
 11
-85.01862879529854
 21
25.21137069749195
 31
0
  0
LINE
  8
1
 62
7
 10
-84.91862879529855
 20
25.06837069749204
 30
0
 11
-84.91862879529855
 21
25.22437069749196
 31
0
  0
LINE
  8
1
 62
7
 10
-84.81862879529855
 20
25.05537069749204
 30
0
 11
-84.81862879529855
 21
25.23737069749196
 31
0
  0
LINE
  8
1
 62
7
 10
-84.71862879529856
 20
25.04237069749204
 30
0
 11
-84.71862879529856
 21
25.25037069749196
 31
0
  0
LINE
  8
1
 62
7
 10
-84.61862879529856
 20
25.02937069749204
 30
0
 11
-84.61862879529856
 21
25.26337069749196
 31
0
  0
LINE
  8
1
 62
7
 10
-84.51862879529857
 20
25.01637069749204
 30
0
 11
-84.51862879529857
 21
25.27637069749196
 31
0
  0
LINE
  8
1
 62
7
 10
-84.41862879529857
 20
25.00337069749203
 30
0
 11
-84.41862879529857
 21
25.28937069749197
 31
0
  0
LINE
  8
1
 62
7
 10
-84.31862879529858
 20
24.99037069749203
 30
0
 11
-84.31862879529858
 21
25.30237069749197
 31
0
  0
LINE
  8
1
 62
7
 10
-84.21862879529859
 20
24.97737069749203
 30
0
 11
-84.21862879529859
 21
25.31537069749197
 31
0
  0
LINE
  8
1
 62
7
 10
-84.11862879529859
 20
24.96437069749203
 30
0
 11
-84.11862879529859
 21
25.32837069749197
 31
0
  0
LINE
  8
1
 62
7
 10
-84.0186287952986
 20
24.95137069749203
 30
0
 11
-84.0186287952986
 21
25.34137069749197
 31
0
  0
LINE
  8
1
 62
7
 10
-83.9186287952986
 20
24.93837069749203
 30
0
 11
-83.9186287952986
 21
25.35437069749197
 31
0
  0
LINE
  8
1
 62
7
 10
-83.81862879529861
 20
24.92537069749202
 30
0
 11
-83.81862879529861
 21
25.36737069749198
 31
0
  0
LINE
  8
1
 62
7
 10
-83.71862879529861
 20
24.91237069749202
 30
0
 11
-83.71862879529861
 21
25.38037069749198
 31
0
  0
LINE
  8
1
 62
7
 10
-83.61862879529862
 20
24.89937069749202
 30
0
 11
-83.61862879529862
 21
25.39337069749198
 31
0
  0
LINE
  8
1
 62
7
 10
-83.51862879529863
 20
24.88637069749202
 30
0
 11
-83.51862879529863
 21
25.40637069749198
 31
0
  0
LINE
  8
1
 62
7
 10
-83.41862879529863
 20
24.87337069749202
 30
0
 11
-83.41862879529863
 21
25.41937069749198
 31
0
  0
LINE
  8
1
 62
7
 10
-83.31862879529864
 20
24.86037069749202
 30
0
 11
-83.31862879529864
 21
25.43237069749198
 31
0
  0
LINE
  8
1
 62
7
 10
-83.21862879529864
 20
24.84737069749201
 30
0
 11
-83.21862879529864
 21
25.44537069749199
 31
0
  0
LINE
  8
1
 62
7
 10
-83.11862879529865
 20
24.83437069749201
 30
0
 11
-83.11862879529865
 21
25.45837069749199
 31
0
  0
LINE
  8
1
 62
7
 10
-83.01862879529865
 20
24.82137069749201
 30
0
 11
-83.01862879529865
 21
25.47137069749199
 31
0
  0
LINE
  8
1
 62
7
 10
-82.91862879529866
 20
24.80837069749201
 30
0
 11
-82.91862879529866
 21
25.48437069749199
 31
0
  0
LINE
  8
1
 62
7
 10
-82.81862879529867
 20
24.79537069749201
 30
0
 11
-82.81862879529867
 21
25.49737069749199
 31
0
  0
LINE
  8
1
 62
7
 10
-82.71862879529867
 20
24.78237069749201
 30
0
 11
-82.71862879529867
 21
25.51037069749199
 31
0
  0
LINE
  8
1
 62
7
 10
-82.61862879529868
 20
24.769370697492
 30
0
 11
-82.61862879529868
 21
25.523370697492
 31
0
  0
LINE
  8
1
 62
7
 10
-82.51862879529868
 20
24.756370697492
 30
0
 11
-82.51862879529868
 21
25.536370697492
 31
0
  0
LINE
  8
1
 62
7
 10
-82.41862879529869
 20
24.743370697492
 30
0
 11
-82.41862879529869
 21
25.549370697492
 31
0
  0
LINE
  8
1
 62
7
 10
-82.31862879529869
 20
24.730370697492
 30
0
 11
-82.31862879529869
 21
25.562370697492
 31
0
  0
ENDBLK
  8
0
  0
BLOCK
  8
1
  2
*X22
 70
1
 10
0
 20
0
 30
0
  0
LINE
  8
1
 62
7
 10
-68.61862879530052
 20
24.74337069749169
 30
0
 11
-68.61862879530052
 21
25.54937069749231
 31
0
  0
LINE
  8
1
 62
7
 10
-68.51862879530053
 20
24.75637069749169
 30
0
 11
-68.51862879530053
 21
25.53637069749231
 31
0
  0
LINE
  8
1
 62
7
 10
-68.41862879530054
 20
24.76937069749169
 30
0
 11
-68.41862879530054
 21
25.52337069749231
 31
0
  0
LINE
  8
1
 62
7
 10
-68.31862879530054
 20
24.78237069749169
 30
0
 11
-68.31862879530054
 21
25.51037069749231
 31
0
  0
LINE
  8
1
 62
7
 10
-68.21862879530055
 20
24.7953706974917
 30
0
 11
-68.21862879530055
 21
25.4973706974923
 31
0
  0
LINE
  8
1
 62
7
 10
-68.11862879530055
 20
24.8083706974917
 30
0
 11
-68.11862879530055
 21
25.4843706974923
 31
0
  0
LINE
  8
1
 62
7
 10
-68.01862879530056
 20
24.8213706974917
 30
0
 11
-68.01862879530056
 21
25.4713706974923
 31
0
  0
LINE
  8
1
 62
7
 10
-67.91862879530056
 20
24.8343706974917
 30
0
 11
-67.91862879530056
 21
25.4583706974923
 31
0
  0
LINE
  8
1
 62
7
 10
-67.81862879530057
 20
24.8473706974917
 30
0
 11
-67.81862879530057
 21
25.4453706974923
 31
0
  0
LINE
  8
1
 62
7
 10
-67.71862879530058
 20
24.8603706974917
 30
0
 11
-67.71862879530058
 21
25.4323706974923
 31
0
  0
LINE
  8
1
 62
7
 10
-67.61862879530058
 20
24.87337069749171
 30
0
 11
-67.61862879530058
 21
25.41937069749229
 31
0
  0
LINE
  8
1
 62
7
 10
-67.51862879530059
 20
24.88637069749171
 30
0
 11
-67.51862879530059
 21
25.40637069749229
 31
0
  0
LINE
  8
1
 62
7
 10
-67.41862879530059
 20
24.89937069749171
 30
0
 11
-67.41862879530059
 21
25.39337069749229
 31
0
  0
LINE
  8
1
 62
7
 10
-67.3186287953006
 20
24.91237069749171
 30
0
 11
-67.3186287953006
 21
25.38037069749229
 31
0
  0
LINE
  8
1
 62
7
 10
-67.2186287953006
 20
24.92537069749171
 30
0
 11
-67.2186287953006
 21
25.36737069749229
 31
0
  0
LINE
  8
1
 62
7
 10
-67.11862879530061
 20
24.93837069749171
 30
0
 11
-67.11862879530061
 21
25.35437069749229
 31
0
  0
LINE
  8
1
 62
7
 10
-67.01862879530061
 20
24.95137069749172
 30
0
 11
-67.01862879530061
 21
25.34137069749228
 31
0
  0
LINE
  8
1
 62
7
 10
-66.91862879530062
 20
24.96437069749172
 30
0
 11
-66.91862879530062
 21
25.32837069749228
 31
0
  0
LINE
  8
1
 62
7
 10
-66.81862879530063
 20
24.97737069749172
 30
0
 11
-66.81862879530063
 21
25.31537069749228
 31
0
  0
LINE
  8
1
 62
7
 10
-66.71862879530063
 20
24.99037069749172
 30
0
 11
-66.71862879530063
 21
25.30237069749228
 31
0
  0
LINE
  8
1
 62
7
 10
-66.61862879530064
 20
25.00337069749172
 30
0
 11
-66.61862879530064
 21
25.28937069749228
 31
0
  0
LINE
  8
1
 62
7
 10
-66.51862879530064
 20
25.01637069749172
 30
0
 11
-66.51862879530064
 21
25.27637069749228
 31
0
  0
LINE
  8
1
 62
7
 10
-66.41862879530065
 20
25.02937069749173
 30
0
 11
-66.41862879530065
 21
25.26337069749227
 31
0
  0
LINE
  8
1
 62
7
 10
-66.31862879530065
 20
25.04237069749173
 30
0
 11
-66.31862879530065
 21
25.25037069749227
 31
0
  0
LINE
  8
1
 62
7
 10
-66.21862879530066
 20
25.05537069749173
 30
0
 11
-66.21862879530066
 21
25.23737069749227
 31
0
  0
LINE
  8
1
 62
7
 10
-66.11862879530067
 20
25.06837069749173
 30
0
 11
-66.11862879530067
 21
25.22437069749227
 31
0
  0
LINE
  8
1
 62
7
 10
-66.01862879530067
 20
25.08137069749173
 30
0
 11
-66.01862879530067
 21
25.21137069749227
 31
0
  0
LINE
  8
1
 62
7
 10
-65.91862879530068
 20
25.09437069749173
 30
0
 11
-65.91862879530068
 21
25.19837069749227
 31
0
  0
LINE
  8
1
 62
7
 10
-65.81862879530068
 20
25.10737069749174
 30
0
 11
-65.81862879530068
 21
25.18537069749226
 31
0
  0
LINE
  8
1
 62
7
 10
-65.71862879530069
 20
25.12037069749174
 30
0
 11
-65.71862879530069
 21
25.17237069749226
 31
0
  0
LINE
  8
1
 62
7
 10
-65.61862879530069
 20
25.13337069749174
 30
0
 11
-65.61862879530069
 21
25.15937069749226
 31
0
  0
ENDBLK
  8
0
  0
BLOCK
  8
1
  2
*X23
 70
1
 10
0
 20
0
 30
0
  0
LINE
  8
1
 62
7
 10
-72.84146259717809
 20
-16.87133645379547
 30
0
 11
-72.84146259717798
 21
-16.82269675524744
 31
0
  0
LINE
  8
1
 62
7
 10
-72.7414625971781
 20
-16.96087301298994
 30
0
 11
-72.74146259717799
 21
-16.73680509544537
 31
0
  0
LINE
  8
1
 62
7
 10
-72.64146259717811
 20
-17.05040957218442
 30
0
 11
-72.64146259717799
 21
-16.6509134356433
 31
0
  0
LINE
  8
1
 62
7
 10
-72.54146259717811
 20
-17.13994613137889
 30
0
 11
-72.541462597178
 21
-16.56502177584124
 31
0
  0
LINE
  8
1
 62
7
 10
-72.44146259717812
 20
-17.22948269057337
 30
0
 11
-72.441462597178
 21
-16.47913011603917
 31
0
  0
LINE
  8
1
 62
7
 10
-72.34146259717812
 20
-17.31901924976784
 30
0
 11
-72.34146259717801
 21
-16.3932384562371
 31
0
  0
LINE
  8
1
 62
7
 10
-72.24146259717813
 20
-17.40855580896232
 30
0
 11
-72.24146259717801
 21
-16.30734679643503
 31
0
  0
LINE
  8
1
 62
7
 10
-72.14146259717802
 20
-17.26218184671698
 30
0
 11
-72.14146259717802
 21
-16.22145513663296
 31
0
  0
LINE
  8
1
 62
7
 10
-72.04146259717803
 20
-17.11580788446692
 30
0
 11
-72.04146259717803
 21
-16.13556347683089
 31
0
  0
LINE
  8
1
 62
7
 10
-71.94146259717803
 20
-16.96943392221687
 30
0
 11
-71.94146259717803
 21
-16.04967181702882
 31
0
  0
LINE
  8
1
 62
7
 10
-71.84146259717804
 20
-16.82305995996681
 30
0
 11
-71.84146259717804
 21
-15.96378015722675
 31
0
  0
LINE
  8
1
 62
7
 10
-71.74146259717804
 20
-16.67668599771675
 30
0
 11
-71.74146259717804
 21
-15.87788849742468
 31
0
  0
LINE
  8
1
 62
7
 10
-71.64146259717805
 20
-16.5303120354667
 30
0
 11
-71.64146259717805
 21
-15.79199683762261
 31
0
  0
LINE
  8
1
 62
7
 10
-71.54146259717805
 20
-16.38393807321664
 30
0
 11
-71.54146259717805
 21
-15.70610517782054
 31
0
  0
LINE
  8
1
 62
7
 10
-71.44146259717806
 20
-16.23756411096658
 30
0
 11
-71.44146259717806
 21
-15.62021351801847
 31
0
  0
LINE
  8
1
 62
7
 10
-71.34146259717807
 20
-16.09119014871653
 30
0
 11
-71.34146259717807
 21
-15.5343218582164
 31
0
  0
LINE
  8
1
 62
7
 10
-71.24146259717807
 20
-15.94481618646647
 30
0
 11
-71.24146259717807
 21
-15.44843019841433
 31
0
  0
LINE
  8
1
 62
7
 10
-71.14146259717808
 20
-15.79844222421642
 30
0
 11
-71.14146259717808
 21
-15.36253853861225
 31
0
  0
LINE
  8
1
 62
7
 10
-71.04146259717808
 20
-15.65206826196636
 30
0
 11
-71.04146259717808
 21
-15.27664687881018
 31
0
  0
LINE
  8
1
 62
7
 10
-70.94146259717809
 20
-15.50569429971631
 30
0
 11
-70.94146259717809
 21
-15.19075521900811
 31
0
  0
LINE
  8
1
 62
7
 10
-70.84146259717809
 20
-15.35932033746625
 30
0
 11
-70.84146259717809
 21
-15.10486355920604
 31
0
  0
LINE
  8
1
 62
7
 10
-70.7414625971781
 20
-15.21294637521619
 30
0
 11
-70.7414625971781
 21
-15.01897189940397
 31
0
  0
LINE
  8
1
 62
7
 10
-70.64146259717811
 20
-15.06657241296614
 30
0
 11
-70.64146259717811
 21
-14.9330802396019
 31
0
  0
LINE
  8
1
 62
7
 10
-70.54146259717811
 20
-14.92019845071608
 30
0
 11
-70.54146259717811
 21
-14.84718857979983
 31
0
  0
LINE
  8
1
 62
7
 10
-70.44146259717812
 20
-14.77382448846602
 30
0
 11
-70.44146259717812
 21
-14.76129691999776
 31
0
  0
ENDBLK
  8
0
  0
BLOCK
  8
1
  2
*X24
 70
1
 10
0
 20
0
 30
0
  0
LINE
  8
1
 62
7
 10
-68.61862879529852
 20
-41.33348400517232
 30
0
 11
-68.61862879529852
 21
-40.51723852013028
 31
0
  0
LINE
  8
1
 62
7
 10
-68.51862879529853
 20
-41.32031875541357
 30
0
 11
-68.51862879529853
 21
-40.53040376988903
 31
0
  0
LINE
  8
1
 62
7
 10
-68.41862879529853
 20
-41.30715350565483
 30
0
 11
-68.41862879529853
 21
-40.54356901964777
 31
0
  0
LINE
  8
1
 62
7
 10
-68.31862879529854
 20
-41.29398825589609
 30
0
 11
-68.31862879529854
 21
-40.55673426940651
 31
0
  0
LINE
  8
1
 62
7
 10
-68.21862879529854
 20
-41.28082300613735
 30
0
 11
-68.21862879529854
 21
-40.56989951916525
 31
0
  0
LINE
  8
1
 62
7
 10
-68.11862879529855
 20
-41.2676577563786
 30
0
 11
-68.11862879529855
 21
-40.583064768924
 31
0
  0
LINE
  8
1
 62
7
 10
-68.01862879529855
 20
-41.25449250661986
 30
0
 11
-68.01862879529855
 21
-40.59623001868274
 31
0
  0
LINE
  8
1
 62
7
 10
-67.91862879529856
 20
-41.24132725686112
 30
0
 11
-67.91862879529856
 21
-40.60939526844148
 31
0
  0
LINE
  8
1
 62
7
 10
-67.81862879529857
 20
-41.22816200710238
 30
0
 11
-67.81862879529857
 21
-40.62256051820022
 31
0
  0
LINE
  8
1
 62
7
 10
-67.71862879529857
 20
-41.21499675734363
 30
0
 11
-67.71862879529857
 21
-40.63572576795897
 31
0
  0
LINE
  8
1
 62
7
 10
-67.61862879529858
 20
-41.20183150758489
 30
0
 11
-67.61862879529858
 21
-40.64889101771771
 31
0
  0
LINE
  8
1
 62
7
 10
-67.51862879529858
 20
-41.18866625782615
 30
0
 11
-67.51862879529858
 21
-40.66205626747645
 31
0
  0
LINE
  8
1
 62
7
 10
-67.41862879529859
 20
-41.17550100806741
 30
0
 11
-67.41862879529859
 21
-40.67522151723519
 31
0
  0
LINE
  8
1
 62
7
 10
-67.31862879529859
 20
-41.16233575830866
 30
0
 11
-67.31862879529859
 21
-40.68838676699394
 31
0
  0
LINE
  8
1
 62
7
 10
-67.2186287952986
 20
-41.14917050854992
 30
0
 11
-67.2186287952986
 21
-40.70155201675268
 31
0
  0
LINE
  8
1
 62
7
 10
-67.11862879529861
 20
-41.13600525879118
 30
0
 11
-67.11862879529861
 21
-40.71471726651142
 31
0
  0
LINE
  8
1
 62
7
 10
-67.01862879529861
 20
-41.12284000903244
 30
0
 11
-67.01862879529861
 21
-40.72788251627016
 31
0
  0
LINE
  8
1
 62
7
 10
-66.91862879529862
 20
-41.1096747592737
 30
0
 11
-66.91862879529862
 21
-40.74104776602891
 31
0
  0
LINE
  8
1
 62
7
 10
-66.81862879529862
 20
-41.09650950951495
 30
0
 11
-66.81862879529862
 21
-40.75421301578765
 31
0
  0
LINE
  8
1
 62
7
 10
-66.71862879529863
 20
-41.08334425975621
 30
0
 11
-66.71862879529863
 21
-40.76737826554639
 31
0
  0
LINE
  8
1
 62
7
 10
-66.61862879529863
 20
-41.07017900999747
 30
0
 11
-66.61862879529863
 21
-40.78054351530513
 31
0
  0
LINE
  8
1
 62
7
 10
-66.51862879529864
 20
-41.05701376023873
 30
0
 11
-66.51862879529864
 21
-40.79370876506388
 31
0
  0
LINE
  8
1
 62
7
 10
-66.41862879529865
 20
-41.04384851047998
 30
0
 11
-66.41862879529865
 21
-40.80687401482262
 31
0
  0
LINE
  8
1
 62
7
 10
-66.31862879529865
 20
-41.03068326072124
 30
0
 11
-66.31862879529865
 21
-40.82003926458136
 31
0
  0
LINE
  8
1
 62
7
 10
-66.21862879529866
 20
-41.0175180109625
 30
0
 11
-66.21862879529866
 21
-40.8332045143401
 31
0
  0
LINE
  8
1
 62
7
 10
-66.11862879529866
 20
-41.00435276120376
 30
0
 11
-66.11862879529866
 21
-40.84636976409885
 31
0
  0
LINE
  8
1
 62
7
 10
-66.01862879529867
 20
-40.99118751144501
 30
0
 11
-66.01862879529867
 21
-40.85953501385759
 31
0
  0
LINE
  8
1
 62
7
 10
-65.91862879529867
 20
-40.97802226168627
 30
0
 11
-65.91862879529867
 21
-40.87270026361633
 31
0
  0
LINE
  8
1
 62
7
 10
-65.81862879529868
 20
-40.96485701192753
 30
0
 11
-65.81862879529868
 21
-40.88586551337507
 31
0
  0
LINE
  8
1
 62
7
 10
-65.71862879529869
 20
-40.95169176216879
 30
0
 11
-65.71862879529869
 21
-40.89903076313382
 31
0
  0
LINE
  8
1
 62
7
 10
-65.61862879529869
 20
-40.93852651241004
 30
0
 11
-65.61862879529869
 21
-40.91219601289256
 31
0
  0
LINE
  8
1
 62
7
 10
-65.5186287952987
 20
-40.9253612626513
 30
0
 11
-65.5186287952987
 21
-40.9253612626513
 31
0
  0
ENDBLK
  8
0
  0
BLOCK
  8
1
  2
*D0
 70
1
 10
0
 20
0
 30
0
  0
LINE
  8
1
 62
7
 10
-34.0311992657257
 20
-21.3435063663073
 30
0
 11
-34.0311992657257
 21
0.8564936336927005
 31
0
  0
LINE
  8
1
 62
7
 10
-49.51862879529871
 20
0.8564936336927005
 30
0
 11
-32.5311992657257
 21
0.8564936336927005
 31
0
  0
LINE
  8
1
 62
7
 10
-49.51862879529871
 20
-21.3435063663073
 30
0
 11
-32.5311992657257
 21
-21.3435063663073
 31
0
  0
SOLID
  8
1
 62
7
 10
-34.0311992657257
 20
-21.3435063663073
 30
0
 11
-34.65519926572571
 21
-16.5435063663073
 31
0
 12
-33.40719926572571
 22
-16.5435063663073
 32
0
 13
-33.40719926572571
 23
-16.5435063663073
 33
0
  0
SOLID
  8
1
 62
7
 10
-34.0311992657257
 20
0.8564936336927005
 30
0
 11
-33.40719926572571
 21
-3.9435063663073
 31
0
 12
-34.65519926572571
 22
-3.9435063663073
 32
0
 13
-34.65519926572571
 23
-3.9435063663073
 33
0
  0
TEXT
  8
1
 62
7
 10
-36.88453259905904
 20
-12.14036910000344
 30
0
 40
3.2
  1
22.2
 50
90
 41
0.9
  0
TEXT
  8
1
 62
7
 10
-36.88453259905904
 20
-16.18742792353284
 30
0
 40
3.2
  1
φ
 50
90
 41
0.9
  0
ENDBLK
  8
0
  0
BLOCK
  8
1
  2
*D1
 70
1
 10
0
 20
0
 30
0
  0
LINE
  8
1
 62
7
 10
-8.978405919947701
 20
18.8894551318512
 30
0
 11
-27.7032731145112
 21
18.8894551318512
 31
0
  0
LINE
  8
1
 62
7
 10
6.662810531213498
 20
-10.2435063663073
 30
0
 11
-8.978405919947701
 21
18.8894551318512
 31
0
  0
SOLID
  8
1
 62
7
 10
4.62879626221639
 20
-6.454999278612178
 30
0
 11
1.808494654330842
 21
-2.521136693244179
 31
0
 12
2.908042757922355
 22
-1.930799528660834
 32
0
 13
2.908042757922355
 23
-1.930799528660834
 33
0
  0
TEXT
  8
1
 62
7
 10
-23.8632731145112
 20
19.9120292417524
 30
0
 40
3.2
  1
4.3
 41
0.9
  0
TEXT
  8
1
 62
7
 10
-27.7032731145112
 20
19.9120292417524
 30
0
 40
3.2
  1
R
 41
0.9
  0
ENDBLK
  8
0
  0
BLOCK
  8
1
  2
*D2
 70
1
 10
0
 20
0
 30
0
  0
LINE
  8
1
 62
7
 10
27.05804144248407
 20
6.870124369115271
 30
0
 11
27.82408588560304
 21
7.512911978801801
 31
0
  0
LINE
  8
1
 62
7
 10
-13.73242038005707
 20
6.870124369115281
 30
0
 11
-14.49846482317605
 21
7.512911978801821
 31
0
  0
LINE
  8
1
 62
7
 10
12.19586934470932
 20
-5.600718756620758
 30
0
 11
27.05804144248407
 21
6.870124369115271
 31
0
  0
LINE
  8
1
 62
7
 10
1.129751717717674
 20
-5.600718756620758
 30
0
 11
-13.73242038005707
 21
6.870124369115281
 31
0
  0
ARC
  8
1
 62
7
 10
6.662810531213492
 20
-10.2435063663073
 30
0
 40
26.6240830991876
 50
39.99999999999995
 51
140
  0
TEXT
  8
1
 62
7
 10
2.016033094723802
 20
20.699556192977
 30
0
 40
3.2
  1
100%%d
 50
0.3915698693832205
 41
0.8910000000000001
  0
ENDBLK
  8
0
  0
ENDSEC
  0
SECTION
  2
ENTITIES
  0
INSERT
  8
1
  2
*X0
 10
0
 20
0
 30
0
  0
INSERT
  8
1
  2
*X1
 10
0
 20
0
 30
0
  0
INSERT
  8
1
  2
*X2
 10
0
 20
0
 30
0
  0
INSERT
  8
1
  2
*X3
 10
0
 20
0
 30
0
  0
INSERT
  8
1
  2
*X4
 10
0
 20
0
 30
0
  0
INSERT
  8
1
  2
*X5
 10
0
 20
0
 30
0
  0
INSERT
  8
1
  2
*X6
 10
0
 20
0
 30
0
  0
INSERT
  8
1
  2
*X7
 10
0
 20
0
 30
0
  0
INSERT
  8
1
  2
*X8
 10
0
 20
0
 30
0
  0
INSERT
  8
1
  2
*X9
 10
0
 20
0
 30
0
  0
INSERT
  8
1
  2
*X10
 10
0
 20
0
 30
0
  0
INSERT
  8
1
  2
*X11
 10
0
 20
0
 30
0
  0
INSERT
  8
1
  2
*X12
 10
0
 20
0
 30
0
  0
INSERT
  8
1
  2
*X13
 10
0
 20
0
 30
0
  0
INSERT
  8
1
  2
*X14
 10
0
 20
0
 30
0
  0
INSERT
  8
1
  2
*X15
 10
0
 20
0
 30
0
  0
INSERT
  8
1
  2
*X16
 10
0
 20
0
 30
0
  0
INSERT
  8
1
  2
*X17
 10
0
 20
0
 30
0
  0
INSERT
  8
1
  2
*X18
 10
0
 20
0
 30
0
  0
INSERT
  8
1
  2
*X19
 10
0
 20
0
 30
0
  0
INSERT
  8
1
  2
*X20
 10
0
 20
0
 30
0
  0
INSERT
  8
1
  2
*X21
 10
0
 20
0
 30
0
  0
INSERT
  8
1
  2
*X22
 10
0
 20
0
 30
0
  0
INSERT
  8
1
  2
*X23
 10
0
 20
0
 30
0
  0
INSERT
  8
1
  2
*X24
 10
0
 20
0
 30
0
  0
LINE
  8
1
 62
7
 10
-126.9543817183358
 20
-34.9380785291442
 30
0
 11
-123.872426276403
 21
-34.9380785291442
 31
0
  0
LINE
  8
1
 62
7
 10
-59.1186287952987
 20
9.96555260677232
 30
0
 11
-65.5186287952987
 21
9.96555260677232
 31
0
  0
LINE
  8
1
 62
7
 10
-67.1186287952987
 20
9.96555260677232
 30
0
 11
-65.5186287952987
 21
9.96555260677232
 31
0
  0
LINE
  8
1
 62
7
 10
-67.1186287952987
 20
9.96555260677232
 30
0
 11
-102.8261308598109
 21
9.96555260677232
 31
0
  0
LINE
  8
1
 62
7
 10
-67.1186287952987
 20
-4.083506366307301
 30
0
 11
-67.1186287952987
 21
11.96555260677232
 31
0
  0
LINE
  8
1
 62
7
 10
-65.5186287952987
 20
3.756493633692699
 30
0
 11
-65.5186287952987
 21
11.96555260677232
 31
0
  0
LINE
  8
1
 62
7
 10
-115.610932133322
 20
-23.2435063663073
 30
0
 11
-115.610932133322
 21
2.756493633692701
 31
0
  0
LINE
  8
1
 62
7
 10
-66.5186287952987
 20
-23.2435063663073
 30
0
 11
-117.610932133322
 21
-23.2435063663073
 31
0
  0
LINE
  8
1
 62
7
 10
-66.5186287952987
 20
2.756493633692701
 30
0
 11
-117.610932133322
 21
2.756493633692701
 31
0
  0
LINE
  8
1
 62
7
 10
-105.548644124531
 20
-15.4035063663073
 30
0
 11
-105.548644124531
 21
-5.083506366307299
 31
0
  0
LINE
  8
1
 62
7
 10
-68.11862879529869
 20
-15.4035063663073
 30
0
 11
-107.548644124531
 21
-15.4035063663073
 31
0
  0
LINE
  8
1
 62
7
 10
-68.11862879529869
 20
-5.083506366307299
 30
0
 11
-107.548644124531
 21
-5.083506366307299
 31
0
  0
LINE
  8
1
 62
7
 10
-95.382621187814
 20
-11.7435063663073
 30
0
 11
-95.382621187814
 21
-8.743506366307299
 31
0
  0
LINE
  8
1
 62
7
 10
-95.382621187814
 20
-11.7435063663073
 30
0
 11
-95.382621187814
 21
-18.1435063663073
 31
0
  0
LINE
  8
1
 62
7
 10
-95.382621187814
 20
-8.743506366307299
 30
0
 11
-95.382621187814
 21
-2.343506366307299
 31
0
  0
LINE
  8
1
 62
7
 10
-86.31862879529869
 20
-11.7435063663073
 30
0
 11
-97.382621187814
 21
-11.7435063663073
 31
0
  0
LINE
  8
1
 62
7
 10
-86.31862879529869
 20
-8.743506366307299
 30
0
 11
-97.382621187814
 21
-8.743506366307299
 31
0
  0
LINE
  8
1
 62
7
 10
-143.0769049951035
 20
25.20442615163
 30
0
 11
-131.576904995103
 21
25.20442615163
 31
0
  0
LINE
  8
1
 62
7
 10
-143.0769049951035
 20
-32.7206773735341
 30
0
 11
-143.0769049951035
 21
27.20442615163
 31
0
  0
LINE
  8
1
 62
7
 10
-131.576904995103
 20
-3.181328539816221
 30
0
 11
-131.576904995103
 21
27.20442615163
 31
0
  0
LINE
  8
1
 62
7
 10
41.6189226248776
 20
-20.9435063663073
 30
0
 11
41.6189226248776
 21
-14.5435063663073
 31
0
  0
LINE
  8
1
 62
7
 10
41.6189226248776
 20
-14.5435063663073
 30
0
 11
41.6189226248776
 21
-10.2435063663073
 31
0
  0
LINE
  8
1
 62
7
 10
41.6189226248776
 20
-10.2435063663073
 30
0
 11
41.6189226248776
 21
3.427541625857428
 31
0
  0
LINE
  8
1
 62
7
 10
11.333857273059
 20
-14.5435063663073
 30
0
 11
43.6189226248776
 21
-14.5435063663073
 31
0
  0
LINE
  8
1
 62
7
 10
32.5447493719069
 20
-10.2435063663073
 30
0
 11
43.6189226248776
 21
-10.2435063663073
 31
0
  0
LINE
  8
1
 62
7
 10
-73.5186287952987
 20
16.7238395286042
 30
0
 11
-65.5186287952987
 21
16.7238395286042
 31
0
  0
LINE
  8
1
 62
7
 10
-73.5186287952987
 20
-5.543506366307302
 30
0
 11
-73.5186287952987
 21
18.7238395286042
 31
0
  0
LINE
  8
1
 62
7
 10
-65.5186287952987
 20
3.756493633692699
 30
0
 11
-65.5186287952987
 21
18.7238395286042
 31
0
  0
LINE
  8
1
 62
7
 10
-71.9186287952987
 20
16.7238395286042
 30
0
 11
-65.5186287952987
 21
16.7238395286042
 31
0
  0
LINE
  8
1
 62
7
 10
-65.5186287952987
 20
16.7238395286042
 30
0
 11
-60.5186287952987
 21
16.7238395286042
 31
0
  0
LINE
  8
1
 62
7
 10
-60.5186287952987
 20
16.7238395286042
 30
0
 11
-54.1186287952987
 21
16.7238395286042
 31
0
  0
LINE
  8
1
 62
7
 10
-65.5186287952987
 20
3.756493633692699
 30
0
 11
-65.5186287952987
 21
18.7238395286042
 31
0
  0
LINE
  8
1
 62
7
 10
-60.5186287952987
 20
3.756493633692699
 30
0
 11
-60.5186287952987
 21
18.7238395286042
 31
0
  0
LINE
  8
1
 62
7
 10
-67.11862879529869
 20
16.7238395286042
 30
0
 11
-73.5186287952987
 21
16.7238395286042
 31
0
  0
LINE
  8
1
 62
7
 10
-75.0186287952987
 20
16.7238395286042
 30
0
 11
-73.5186287952987
 21
16.7238395286042
 31
0
  0
LINE
  8
1
 62
7
 10
-75.0186287952987
 20
16.7238395286042
 30
0
 11
-103.2611213795016
 21
16.7238395286042
 31
0
  0
LINE
  8
1
 62
7
 10
-73.5186287952987
 20
-5.543506366307302
 30
0
 11
-73.5186287952987
 21
18.7238395286042
 31
0
  0
LINE
  8
1
 62
7
 10
-65.5186287952987
 20
25.146370697492
 30
0
 11
-50.51862879529871
 21
25.146370697492
 31
0
  0
LINE
  8
1
 62
7
 10
-65.5186287952987
 20
3.756493633692699
 30
0
 11
-65.5186287952987
 21
27.146370697492
 31
0
  0
LINE
  8
1
 62
7
 10
-50.51862879529871
 20
1.756493633692699
 30
0
 11
-50.51862879529871
 21
27.146370697492
 31
0
  0
LINE
  8
1
 62
7
 10
-56.9186287952987
 20
25.146370697492
 30
0
 11
-50.51862879529871
 21
25.146370697492
 31
0
  0
LINE
  8
1
 62
7
 10
-50.51862879529871
 20
25.146370697492
 30
0
 11
-47.4186287952987
 21
25.146370697492
 31
0
  0
LINE
  8
1
 62
7
 10
-47.4186287952987
 20
25.146370697492
 30
0
 11
-37.11091700955851
 21
25.146370697492
 31
0
  0
LINE
  8
1
 62
7
 10
-50.51862879529871
 20
1.756493633692699
 30
0
 11
-50.51862879529871
 21
27.146370697492
 31
0
  0
LINE
  8
1
 62
7
 10
-47.4186287952987
 20
-5.879519644655179
 30
0
 11
-47.4186287952987
 21
27.146370697492
 31
0
  0
LINE
  8
1
 62
7
 10
-85.5186287952987
 20
25.146370697492
 30
0
 11
-65.5186287952987
 21
25.146370697492
 31
0
  0
LINE
  8
1
 62
7
 10
-85.5186287952987
 20
-7.9435063663073
 30
0
 11
-85.5186287952987
 21
27.146370697492
 31
0
  0
LINE
  8
1
 62
7
 10
-65.5186287952987
 20
3.756493633692699
 30
0
 11
-65.5186287952987
 21
27.146370697492
 31
0
  0
LINE
  8
1
 62
7
 10
-88.5022748721512
 20
-34.9380785291442
 30
0
 11
-70.4207498135022
 21
-14.7435063663073
 31
0
  0
LINE
  8
1
 62
7
 10
-123.872426276403
 20
-34.9380785291442
 30
0
 11
-88.5022748721512
 21
-34.9380785291442
 31
0
  0
LINE
  8
1
 62
7
 10
-86.2675778971993
 20
-40.9253612626513
 30
0
 11
-65.5186287952987
 21
-40.9253612626513
 31
0
  0
LINE
  8
1
 62
7
 10
-143.0769049951035
 20
17.361876401878
 30
0
 11
-143.0769049951035
 21
-33.7206773735341
 31
0
  0
LINE
  8
1
 62
7
 10
-65.5186287952987
 20
-24.3327433207623
 30
0
 11
-65.5186287952987
 21
-42.9233063667507
 31
0
  0
LINE
  8
1
 62
7
 10
6.662810531213495
 20
-10.2435063663073
 30
0
 11
12.41475647529336
 21
-5.417050646078232
 31
0
  0
LINE
  8
1
 62
7
 10
6.662810531213495
 20
-10.2435063663073
 30
0
 11
0.903103520162487
 21
-5.410538337645205
 31
0
  0
LINE
  8
1
 62
7
 10
11.42982490159034
 20
-6.243506366307299
 30
0
 11
8.61074298442885
 21
-8.60899696325604
 31
0
  0
LINE
  8
1
 62
7
 10
1.895796160836653
 20
-6.243506366307299
 30
0
 11
4.730309221673363
 21
-8.621945230222565
 31
0
  0
LINE
  8
1
 62
7
 10
-73.2186287952987
 20
-14.2435063663073
 30
0
 11
-67.1186287952987
 21
-14.2435063663073
 31
0
  0
LINE
  8
1
 62
7
 10
-73.2186287952987
 20
-6.243506366307299
 30
0
 11
-67.1186287952987
 21
-6.243506366307299
 31
0
  0
LINE
  8
1
 62
7
 10
-72.7186287952987
 20
-5.743506366307301
 30
0
 11
-72.7186287952987
 21
-14.7435063663073
 31
0
  0
LINE
  8
1
 62
7
 10
-73.5186287952987
 20
-13.9435063663073
 30
0
 11
-72.7186287952987
 21
-14.7435063663073
 31
0
  0
LINE
  8
1
 62
7
 10
-73.5186287952987
 20
-6.543506366307301
 30
0
 11
-72.7186287952987
 21
-5.743506366307301
 31
0
  0
LINE
  8
1
 62
7
 10
6.662810531213497
 20
18.9027038268837
 30
0
 11
6.662810531213497
 21
-36.6024806391917
 31
0
  0
LINE
  8
1
 62
7
 10
-15.6794196697943
 20
-10.2435063663073
 30
0
 11
31.5447493719069
 21
-10.2435063663073
 31
0
  0
LINE
  8
1
 62
7
 10
-47.4186287952987
 20
-15.1435063663073
 30
0
 11
-49.8186287952987
 21
-15.1435063663073
 31
0
  0
LINE
  8
1
 62
7
 10
-47.4186287952987
 20
-13.9435063663073
 30
0
 11
-47.4186287952987
 21
-15.1435063663073
 31
0
  0
LINE
  8
1
 62
7
 10
-49.8186287952987
 20
-13.9435063663073
 30
0
 11
-47.4186287952987
 21
-13.9435063663073
 31
0
  0
LINE
  8
1
 62
7
 10
-49.8186287952987
 20
-15.5435063663073
 30
0
 11
-50.5186287952987
 21
-15.5435063663073
 31
0
  0
LINE
  8
1
 62
7
 10
-49.8186287952987
 20
-13.5435063663073
 30
0
 11
-49.8186287952987
 21
-15.5435063663073
 31
0
  0
LINE
  8
1
 62
7
 10
-50.5186287952987
 20
-13.5435063663073
 30
0
 11
-49.8186287952987
 21
-13.5435063663073
 31
0
  0
LINE
  8
1
 62
7
 10
-47.4186287952987
 20
-8.07951964465518
 30
0
 11
-49.8186287952987
 21
-8.07951964465518
 31
0
  0
LINE
  8
1
 62
7
 10
-47.4186287952987
 20
-6.879519644655181
 30
0
 11
-47.4186287952987
 21
-8.07951964465518
 31
0
  0
LINE
  8
1
 62
7
 10
-49.8186287952987
 20
-6.879519644655181
 30
0
 11
-47.4186287952987
 21
-6.879519644655181
 31
0
  0
LINE
  8
1
 62
7
 10
-49.8186287952987
 20
-8.479519644655181
 30
0
 11
-50.5186287952987
 21
-8.479519644655181
 31
0
  0
LINE
  8
1
 62
7
 10
-49.8186287952987
 20
-6.479519644655181
 30
0
 11
-49.8186287952987
 21
-8.479519644655181
 31
0
  0
LINE
  8
1
 62
7
 10
-50.5186287952987
 20
-6.479519644655181
 30
0
 11
-49.8186287952987
 21
-6.479519644655181
 31
0
  0
LINE
  8
1
 62
7
 10
6.66281053121349
 20
-11.8279759563943
 30
0
 11
6.66281053121349
 21
-12.2364496995212
 31
0
  0
LINE
  8
1
 62
7
 10
6.66281053121349
 20
-12.2364496995212
 30
0
 11
6.66281053121349
 21
-17.3580820171896
 31
0
  0
LINE
  8
1
 62
7
 10
3.45264575422846
 20
-14.5435063663073
 30
0
 11
10.333857273059
 21
-14.5435063663073
 31
0
  0
LINE
  8
1
 62
7
 10
-4.83718946878651
 20
-4.181328539816235
 30
0
 11
-4.83718946878651
 21
-16.30568419279836
 31
0
  0
LINE
  8
1
 62
7
 10
-65.5186287952987
 20
-16.30568419279838
 30
0
 11
-60.5186287952987
 21
-16.30568419279838
 31
0
  0
LINE
  8
1
 62
7
 10
-92.3234139788231
 20
-10.2435063663073
 30
0
 11
-42.9414890537833
 21
-10.2435063663073
 31
0
  0
LINE
  8
1
 62
7
 10
-85.31862879529869
 20
-8.743506366307299
 30
0
 11
-85.31862879529869
 21
-11.7435063663073
 31
0
  0
LINE
  8
1
 62
7
 10
-85.31862879529869
 20
-11.7435063663073
 30
0
 11
-85.5186287952987
 21
-11.5435063663073
 31
0
  0
LINE
  8
1
 62
7
 10
-85.31862879529869
 20
-8.743506366307299
 30
0
 11
-85.5186287952987
 21
-8.943506366307298
 31
0
  0
LINE
  8
1
 62
7
 10
-85.31862879529869
 20
-11.7435063663073
 30
0
 11
-75.0186287952987
 21
-11.7435063663073
 31
0
  0
LINE
  8
1
 62
7
 10
-85.31862879529869
 20
-8.743506366307299
 30
0
 11
-75.0186287952987
 21
-8.743506366307299
 31
0
  0
LINE
  8
1
 62
7
 10
-85.5186287952987
 20
-8.943506366307298
 30
0
 11
-85.5186287952987
 21
-11.5435063663073
 31
0
  0
LINE
  8
1
 62
7
 10
-73.5186287952987
 20
-6.543506366307301
 30
0
 11
-73.5186287952987
 21
-13.9435063663073
 31
0
  0
LINE
  8
1
 62
7
 10
-72.7186287952987
 20
-14.7435063663073
 30
0
 11
-67.1186287952987
 21
-14.7435063663073
 31
0
  0
LINE
  8
1
 62
7
 10
-72.7186287952987
 20
-5.743506366307301
 30
0
 11
-67.1186287952987
 21
-5.743506366307301
 31
0
  0
LINE
  8
1
 62
7
 10
-67.1186287952987
 20
-5.083506366307299
 30
0
 11
-67.1186287952987
 21
-15.4035063663073
 31
0
  0
LINE
  8
1
 62
7
 10
-67.1186287952987
 20
-15.4035063663073
 30
0
 11
-65.5186287952987
 21
-15.4035063663073
 31
0
  0
LINE
  8
1
 62
7
 10
-67.1186287952987
 20
-5.083506366307299
 30
0
 11
-65.5186287952987
 21
-5.083506366307299
 31
0
  0
LINE
  8
1
 62
7
 10
-60.5186287952987
 20
0.856493633692699
 30
0
 11
-60.5186287952987
 21
-21.3435063663073
 31
0
  0
LINE
  8
1
 62
7
 10
-50.5186287952987
 20
-21.3435063663073
 30
0
 11
-50.5186287952987
 21
0.856493633692699
 31
0
  0
LINE
  8
1
 62
7
 10
-60.5186287952987
 20
-21.3435063663073
 30
0
 11
-50.5186287952987
 21
-21.3435063663073
 31
0
  0
LINE
  8
1
 62
7
 10
-60.5186287952987
 20
-23.2435063663073
 30
0
 11
-60.5186287952987
 21
-21.3435063663073
 31
0
  0
LINE
  8
1
 62
7
 10
-65.5186287952987
 20
-23.2435063663073
 30
0
 11
-60.5186287952987
 21
-23.2435063663073
 31
0
  0
LINE
  8
1
 62
7
 10
-65.5186287952987
 20
2.756493633692699
 30
0
 11
-65.5186287952987
 21
-23.2435063663073
 31
0
  0
LINE
  8
1
 62
7
 10
-60.5186287952987
 20
2.756493633692699
 30
0
 11
-65.5186287952987
 21
2.756493633692699
 31
0
  0
LINE
  8
1
 62
7
 10
-60.5186287952987
 20
0.856493633692699
 30
0
 11
-60.5186287952987
 21
2.756493633692699
 31
0
  0
LINE
  8
1
 62
7
 10
-50.5186287952987
 20
0.856493633692699
 30
0
 11
-60.5186287952987
 21
0.856493633692699
 31
0
  0
LINE
  8
1
 62
7
 10
-162.373124157626
 20
-10.2435063663073
 30
0
 11
-124.999515181195
 21
-10.2435063663073
 31
0
  0
LINE
  8
1
 62
7
 10
-142.076904995103
 20
0.2087661138761376
 30
0
 11
-142.076904995103
 21
-5.181332920049254
 31
0
  0
LINE
  8
1
 62
7
 10
-133.5249714999871
 20
-5.883395530000058
 30
0
 11
-138.1929341922805
 21
-8.578445046962742
 31
0
  0
LINE
  8
1
 62
7
 10
-134.5249714999872
 20
-16.3356680101835
 30
0
 11
-139.1929341922806
 21
-13.64061849322079
 31
0
  0
LINE
  8
1
 62
7
 10
-152.6288384902189
 20
-14.60361720261457
 30
0
 11
-147.9608757979255
 21
-11.90856768565189
 31
0
  0
LINE
  8
1
 62
7
 10
-151.6288384902188
 20
-4.151344722431119
 30
0
 11
-146.9608757979255
 21
-6.846394239393817
 31
0
  0
LINE
  8
1
 62
7
 10
-142.076904995103
 20
0.2087661138761376
 30
0
 11
-142.076904995103
 21
-5.181332920049254
 31
0
  0
LINE
  8
1
 62
7
 10
-133.5249714999871
 20
-5.883395530000058
 30
0
 11
-138.1929341922805
 21
-8.578445046962742
 31
0
  0
LINE
  8
1
 62
7
 10
-134.5249714999872
 20
-16.3356680101835
 30
0
 11
-139.1929341922806
 21
-13.64061849322079
 31
0
  0
LINE
  8
1
 62
7
 10
-152.6288384902189
 20
-14.60361720261457
 30
0
 11
-147.9608757979255
 21
-11.90856768565189
 31
0
  0
LINE
  8
1
 62
7
 10
-151.6288384902188
 20
-4.151344722431119
 30
0
 11
-146.9608757979255
 21
-6.846394239393817
 31
0
  0
LINE
  8
1
 62
7
 10
-142.076904995103
 20
0.2087661138761376
 30
0
 11
-142.076904995103
 21
-5.181332920049254
 31
0
  0
LINE
  8
1
 62
7
 10
-133.5249714999871
 20
-5.883395530000058
 30
0
 11
-138.1929341922805
 21
-8.578445046962742
 31
0
  0
LINE
  8
1
 62
7
 10
-134.5249714999872
 20
-16.3356680101835
 30
0
 11
-139.1929341922806
 21
-13.64061849322079
 31
0
  0
LINE
  8
1
 62
7
 10
-152.6288384902189
 20
-14.60361720261457
 30
0
 11
-147.9608757979255
 21
-11.90856768565189
 31
0
  0
LINE
  8
1
 62
7
 10
-151.6288384902188
 20
-4.151344722431119
 30
0
 11
-146.9608757979255
 21
-6.846394239393817
 31
0
  0
LINE
  8
1
 62
7
 10
-142.076904995103
 20
0.2087661138761376
 30
0
 11
-142.076904995103
 21
-5.181332920049254
 31
0
  0
LINE
  8
1
 62
7
 10
-133.5249714999871
 20
-5.883395530000058
 30
0
 11
-138.1929341922805
 21
-8.578445046962742
 31
0
  0
LINE
  8
1
 62
7
 10
-134.5249714999872
 20
-16.3356680101835
 30
0
 11
-139.1929341922806
 21
-13.64061849322079
 31
0
  0
LINE
  8
1
 62
7
 10
-152.6288384902189
 20
-14.60361720261457
 30
0
 11
-147.9608757979255
 21
-11.90856768565189
 31
0
  0
LINE
  8
1
 62
7
 10
-151.6288384902188
 20
-4.151344722431119
 30
0
 11
-146.9608757979255
 21
-6.846394239393817
 31
0
  0
LINE
  8
1
 62
7
 10
-142.076904995103
 20
0.2087661138761376
 30
0
 11
-142.076904995103
 21
-5.181332920049254
 31
0
  0
LINE
  8
1
 62
7
 10
-133.5249714999871
 20
-5.883395530000058
 30
0
 11
-138.1929341922805
 21
-8.578445046962742
 31
0
  0
LINE
  8
1
 62
7
 10
-134.5249714999872
 20
-16.3356680101835
 30
0
 11
-139.1929341922806
 21
-13.64061849322079
 31
0
  0
LINE
  8
1
 62
7
 10
-152.6288384902189
 20
-14.60361720261457
 30
0
 11
-147.9608757979255
 21
-11.90856768565189
 31
0
  0
LINE
  8
1
 62
7
 10
-151.6288384902188
 20
-4.151344722431119
 30
0
 11
-146.9608757979255
 21
-6.846394239393817
 31
0
  0
LINE
  8
1
 62
7
 10
-142.076904995103
 20
0.2087661138761376
 30
0
 11
-142.076904995103
 21
-5.181332920049254
 31
0
  0
LINE
  8
1
 62
7
 10
-133.5249714999871
 20
-5.883395530000058
 30
0
 11
-138.1929341922805
 21
-8.578445046962742
 31
0
  0
LINE
  8
1
 62
7
 10
-134.5249714999872
 20
-16.3356680101835
 30
0
 11
-139.1929341922806
 21
-13.64061849322079
 31
0
  0
LINE
  8
1
 62
7
 10
-152.6288384902189
 20
-14.60361720261457
 30
0
 11
-147.9608757979255
 21
-11.90856768565189
 31
0
  0
LINE
  8
1
 62
7
 10
-151.6288384902188
 20
-4.151344722431119
 30
0
 11
-146.9608757979255
 21
-6.846394239393817
 31
0
  0
LINE
  8
1
 62
7
 10
-142.076904995103
 20
0.2087661138761376
 30
0
 11
-142.076904995103
 21
-5.181332920049254
 31
0
  0
LINE
  8
1
 62
7
 10
-133.5249714999871
 20
-5.883395530000058
 30
0
 11
-138.1929341922805
 21
-8.578445046962742
 31
0
  0
LINE
  8
1
 62
7
 10
-134.5249714999872
 20
-16.3356680101835
 30
0
 11
-139.1929341922806
 21
-13.64061849322079
 31
0
  0
LINE
  8
1
 62
7
 10
-152.6288384902189
 20
-14.60361720261457
 30
0
 11
-147.9608757979255
 21
-11.90856768565189
 31
0
  0
LINE
  8
1
 62
7
 10
-151.6288384902188
 20
-4.151344722431119
 30
0
 11
-146.9608757979255
 21
-6.846394239393817
 31
0
  0
LINE
  8
1
 62
7
 10
-142.076904995103
 20
0.2087661138761376
 30
0
 11
-142.076904995103
 21
-5.181332920049254
 31
0
  0
LINE
  8
1
 62
7
 10
-133.5249714999871
 20
-5.883395530000058
 30
0
 11
-138.1929341922805
 21
-8.578445046962742
 31
0
  0
LINE
  8
1
 62
7
 10
-134.5249714999872
 20
-16.3356680101835
 30
0
 11
-139.1929341922806
 21
-13.64061849322079
 31
0
  0
LINE
  8
1
 62
7
 10
-152.6288384902189
 20
-14.60361720261457
 30
0
 11
-147.9608757979255
 21
-11.90856768565189
 31
0
  0
LINE
  8
1
 62
7
 10
-151.6288384902188
 20
-4.151344722431119
 30
0
 11
-146.9608757979255
 21
-6.846394239393817
 31
0
  0
LINE
  8
1
 62
7
 10
-142.076904995103
 20
0.2087661138761376
 30
0
 11
-142.076904995103
 21
-5.181332920049254
 31
0
  0
LINE
  8
1
 62
7
 10
-133.5249714999871
 20
-5.883395530000058
 30
0
 11
-138.1929341922805
 21
-8.578445046962742
 31
0
  0
LINE
  8
1
 62
7
 10
-134.5249714999872
 20
-16.3356680101835
 30
0
 11
-139.1929341922806
 21
-13.64061849322079
 31
0
  0
LINE
  8
1
 62
7
 10
-152.6288384902189
 20
-14.60361720261457
 30
0
 11
-147.9608757979255
 21
-11.90856768565189
 31
0
  0
LINE
  8
1
 62
7
 10
-151.6288384902188
 20
-4.151344722431119
 30
0
 11
-146.9608757979255
 21
-6.846394239393817
 31
0
  0
LINE
  8
1
 62
7
 10
-142.076904995103
 20
0.2087661138761376
 30
0
 11
-142.076904995103
 21
-5.181332920049254
 31
0
  0
LINE
  8
1
 62
7
 10
-133.5249714999871
 20
-5.883395530000058
 30
0
 11
-138.1929341922805
 21
-8.578445046962742
 31
0
  0
LINE
  8
1
 62
7
 10
-134.5249714999872
 20
-16.3356680101835
 30
0
 11
-139.1929341922806
 21
-13.64061849322079
 31
0
  0
LINE
  8
1
 62
7
 10
-144.076904995103
 20
-20.69577884649073
 30
0
 11
-144.076904995103
 21
-15.30567981256533
 31
0
  0
LINE
  8
1
 62
7
 10
-152.6288384902189
 20
-14.60361720261457
 30
0
 11
-147.9608757979255
 21
-11.90856768565189
 31
0
  0
LINE
  8
1
 62
7
 10
-151.6288384902188
 20
-4.151344722431119
 30
0
 11
-146.9608757979255
 21
-6.846394239393817
 31
0
  0
LINE
  8
1
 62
7
 10
-142.076904995103
 20
0.2087661138761376
 30
0
 11
-142.076904995103
 21
-5.181332920049254
 31
0
  0
LINE
  8
1
 62
7
 10
-133.5249714999871
 20
-5.883395530000058
 30
0
 11
-138.1929341922805
 21
-8.578445046962742
 31
0
  0
LINE
  8
1
 62
7
 10
-134.5249714999872
 20
-16.3356680101835
 30
0
 11
-139.1929341922806
 21
-13.64061849322079
 31
0
  0
LINE
  8
1
 62
7
 10
-144.076904995103
 20
-20.69577884649073
 30
0
 11
-144.076904995103
 21
-15.30567981256533
 31
0
  0
LINE
  8
1
 62
7
 10
-152.6288384902189
 20
-14.60361720261457
 30
0
 11
-147.9608757979255
 21
-11.90856768565189
 31
0
  0
LINE
  8
1
 62
7
 10
-151.6288384902188
 20
-4.151344722431119
 30
0
 11
-146.9608757979255
 21
-6.846394239393817
 31
0
  0
LINE
  8
1
 62
7
 10
-142.076904995103
 20
0.2087661138761376
 30
0
 11
-142.076904995103
 21
-5.181332920049254
 31
0
  0
LINE
  8
1
 62
7
 10
-133.5249714999871
 20
-5.883395530000058
 30
0
 11
-138.1929341922805
 21
-8.578445046962742
 31
0
  0
LINE
  8
1
 62
7
 10
-134.5249714999872
 20
-16.3356680101835
 30
0
 11
-139.1929341922806
 21
-13.64061849322079
 31
0
  0
LINE
  8
1
 62
7
 10
-144.076904995103
 20
-20.69577884649073
 30
0
 11
-144.076904995103
 21
-15.30567981256533
 31
0
  0
LINE
  8
1
 62
7
 10
-152.6288384902189
 20
-14.60361720261457
 30
0
 11
-147.9608757979255
 21
-11.90856768565189
 31
0
  0
LINE
  8
1
 62
7
 10
-151.6288384902188
 20
-4.151344722431119
 30
0
 11
-146.9608757979255
 21
-6.846394239393817
 31
0
  0
LINE
  8
1
 62
7
 10
-142.076904995103
 20
0.2087661138761376
 30
0
 11
-142.076904995103
 21
-5.181332920049254
 31
0
  0
LINE
  8
1
 62
7
 10
-133.5249714999871
 20
-5.883395530000058
 30
0
 11
-138.1929341922805
 21
-8.578445046962742
 31
0
  0
LINE
  8
1
 62
7
 10
-134.5249714999872
 20
-16.3356680101835
 30
0
 11
-139.1929341922806
 21
-13.64061849322079
 31
0
  0
LINE
  8
1
 62
7
 10
-144.076904995103
 20
-20.69577884649073
 30
0
 11
-144.076904995103
 21
-15.30567981256533
 31
0
  0
LINE
  8
1
 62
7
 10
-152.6288384902189
 20
-14.60361720261457
 30
0
 11
-147.9608757979255
 21
-11.90856768565189
 31
0
  0
LINE
  8
1
 62
7
 10
-151.6288384902188
 20
-4.151344722431119
 30
0
 11
-146.9608757979255
 21
-6.846394239393817
 31
0
  0
LINE
  8
1
 62
7
 10
-142.076904995103
 20
0.2087661138761376
 30
0
 11
-142.076904995103
 21
-5.181332920049254
 31
0
  0
LINE
  8
1
 62
7
 10
-133.5249714999871
 20
-5.883395530000058
 30
0
 11
-138.1929341922805
 21
-8.578445046962742
 31
0
  0
LINE
  8
1
 62
7
 10
-134.5249714999872
 20
-16.3356680101835
 30
0
 11
-139.1929341922806
 21
-13.64061849322079
 31
0
  0
LINE
  8
1
 62
7
 10
-144.076904995103
 20
-20.69577884649073
 30
0
 11
-144.076904995103
 21
-15.30567981256533
 31
0
  0
LINE
  8
1
 62
7
 10
-152.6288384902189
 20
-14.60361720261457
 30
0
 11
-147.9608757979255
 21
-11.90856768565189
 31
0
  0
LINE
  8
1
 62
7
 10
-151.6288384902188
 20
-4.151344722431119
 30
0
 11
-146.9608757979255
 21
-6.846394239393817
 31
0
  0
LINE
  8
1
 62
7
 10
-142.076904995103
 20
0.2087661138761376
 30
0
 11
-142.076904995103
 21
-5.181332920049254
 31
0
  0
LINE
  8
1
 62
7
 10
-133.5249714999871
 20
-5.883395530000058
 30
0
 11
-138.1929341922805
 21
-8.578445046962742
 31
0
  0
LINE
  8
1
 62
7
 10
-134.5249714999872
 20
-16.3356680101835
 30
0
 11
-139.1929341922806
 21
-13.64061849322079
 31
0
  0
LINE
  8
1
 62
7
 10
-144.076904995103
 20
-20.69577884649073
 30
0
 11
-144.076904995103
 21
-15.30567981256533
 31
0
  0
LINE
  8
1
 62
7
 10
-152.6288384902189
 20
-14.60361720261457
 30
0
 11
-147.9608757979255
 21
-11.90856768565189
 31
0
  0
LINE
  8
1
 62
7
 10
-151.6288384902188
 20
-4.151344722431119
 30
0
 11
-146.9608757979255
 21
-6.846394239393817
 31
0
  0
LINE
  8
1
 62
7
 10
-142.076904995103
 20
0.2087661138761376
 30
0
 11
-142.076904995103
 21
-5.181332920049254
 31
0
  0
LINE
  8
1
 62
7
 10
-133.5249714999871
 20
-5.883395530000058
 30
0
 11
-138.1929341922805
 21
-8.578445046962742
 31
0
  0
LINE
  8
1
 62
7
 10
-134.5249714999872
 20
-16.3356680101835
 30
0
 11
-139.1929341922806
 21
-13.64061849322079
 31
0
  0
LINE
  8
1
 62
7
 10
-144.076904995103
 20
-20.69577884649073
 30
0
 11
-144.076904995103
 21
-15.30567981256533
 31
0
  0
LINE
  8
1
 62
7
 10
-152.6288384902189
 20
-14.60361720261457
 30
0
 11
-147.9608757979255
 21
-11.90856768565189
 31
0
  0
LINE
  8
1
 62
7
 10
-151.6288384902188
 20
-4.151344722431119
 30
0
 11
-146.9608757979255
 21
-6.846394239393817
 31
0
  0
LINE
  8
1
 62
7
 10
-142.076904995103
 20
0.2087661138761376
 30
0
 11
-142.076904995103
 21
-5.181332920049254
 31
0
  0
LINE
  8
1
 62
7
 10
-133.5249714999871
 20
-5.883395530000058
 30
0
 11
-138.1929341922805
 21
-8.578445046962742
 31
0
  0
LINE
  8
1
 62
7
 10
-134.5249714999872
 20
-16.3356680101835
 30
0
 11
-139.1929341922806
 21
-13.64061849322079
 31
0
  0
LINE
  8
1
 62
7
 10
-144.076904995103
 20
-20.69577884649073
 30
0
 11
-144.076904995103
 21
-15.30567981256533
 31
0
  0
LINE
  8
1
 62
7
 10
-152.6288384902189
 20
-14.60361720261457
 30
0
 11
-147.9608757979255
 21
-11.90856768565189
 31
0
  0
LINE
  8
1
 62
7
 10
-151.6288384902188
 20
-4.151344722431119
 30
0
 11
-146.9608757979255
 21
-6.846394239393817
 31
0
  0
LINE
  8
1
 62
7
 10
-142.076904995103
 20
0.2087661138761376
 30
0
 11
-142.076904995103
 21
-5.181332920049254
 31
0
  0
LINE
  8
1
 62
7
 10
-133.5249714999871
 20
-5.883395530000058
 30
0
 11
-138.1929341922805
 21
-8.578445046962742
 31
0
  0
LINE
  8
1
 62
7
 10
-134.5249714999872
 20
-16.3356680101835
 30
0
 11
-139.1929341922806
 21
-13.64061849322079
 31
0
  0
LINE
  8
1
 62
7
 10
-144.076904995103
 20
-20.69577884649073
 30
0
 11
-144.076904995103
 21
-15.30567981256533
 31
0
  0
LINE
  8
1
 62
7
 10
-152.6288384902189
 20
-14.60361720261457
 30
0
 11
-147.9608757979255
 21
-11.90856768565189
 31
0
  0
LINE
  8
1
 62
7
 10
-151.6288384902188
 20
-4.151344722431119
 30
0
 11
-146.9608757979255
 21
-6.846394239393817
 31
0
  0
LINE
  8
1
 62
7
 10
-142.076904995103
 20
0.2087661138761376
 30
0
 11
-142.076904995103
 21
-5.181332920049254
 31
0
  0
LINE
  8
1
 62
7
 10
-133.5249714999871
 20
-5.883395530000058
 30
0
 11
-138.1929341922805
 21
-8.578445046962742
 31
0
  0
LINE
  8
1
 62
7
 10
-134.5249714999872
 20
-16.3356680101835
 30
0
 11
-139.1929341922806
 21
-13.64061849322079
 31
0
  0
LINE
  8
1
 62
7
 10
-144.076904995103
 20
-20.69577884649073
 30
0
 11
-144.076904995103
 21
-15.30567981256533
 31
0
  0
LINE
  8
1
 62
7
 10
-152.6288384902189
 20
-14.60361720261457
 30
0
 11
-147.9608757979255
 21
-11.90856768565189
 31
0
  0
LINE
  8
1
 62
7
 10
-151.6288384902188
 20
-4.151344722431119
 30
0
 11
-146.9608757979255
 21
-6.846394239393817
 31
0
  0
LINE
  8
1
 62
7
 10
-142.076904995103
 20
0.2087661138761376
 30
0
 11
-142.076904995103
 21
-5.181332920049254
 31
0
  0
LINE
  8
1
 62
7
 10
-133.5249714999871
 20
-5.883395530000058
 30
0
 11
-138.1929341922805
 21
-8.578445046962742
 31
0
  0
LINE
  8
1
 62
7
 10
-134.5249714999872
 20
-16.3356680101835
 30
0
 11
-139.1929341922806
 21
-13.64061849322079
 31
0
  0
LINE
  8
1
 62
7
 10
-144.076904995103
 20
-20.69577884649073
 30
0
 11
-144.076904995103
 21
-15.30567981256533
 31
0
  0
LINE
  8
1
 62
7
 10
-152.6288384902189
 20
-14.60361720261457
 30
0
 11
-147.9608757979255
 21
-11.90856768565189
 31
0
  0
LINE
  8
1
 62
7
 10
-151.6288384902188
 20
-4.151344722431119
 30
0
 11
-146.9608757979255
 21
-6.846394239393817
 31
0
  0
LINE
  8
1
 62
7
 10
-142.076904995103
 20
0.2087661138761376
 30
0
 11
-142.076904995103
 21
-5.181332920049254
 31
0
  0
LINE
  8
1
 62
7
 10
-133.5249714999871
 20
-5.883395530000058
 30
0
 11
-138.1929341922805
 21
-8.578445046962742
 31
0
  0
LINE
  8
1
 62
7
 10
-134.5249714999872
 20
-16.3356680101835
 30
0
 11
-139.1929341922806
 21
-13.64061849322079
 31
0
  0
LINE
  8
1
 62
7
 10
-144.076904995103
 20
-20.69577884649073
 30
0
 11
-144.076904995103
 21
-15.30567981256533
 31
0
  0
LINE
  8
1
 62
7
 10
-152.6288384902189
 20
-14.60361720261457
 30
0
 11
-147.9608757979255
 21
-11.90856768565189
 31
0
  0
LINE
  8
1
 62
7
 10
-151.6288384902188
 20
-4.151344722431119
 30
0
 11
-146.9608757979255
 21
-6.846394239393817
 31
0
  0
LINE
  8
1
 62
7
 10
-142.076904995103
 20
0.2087661138761376
 30
0
 11
-142.076904995103
 21
-5.181332920049254
 31
0
  0
LINE
  8
1
 62
7
 10
-133.5249714999871
 20
-5.883395530000058
 30
0
 11
-138.1929341922805
 21
-8.578445046962742
 31
0
  0
LINE
  8
1
 62
7
 10
-134.5249714999872
 20
-16.3356680101835
 30
0
 11
-139.1929341922806
 21
-13.64061849322079
 31
0
  0
LINE
  8
1
 62
7
 10
-144.076904995103
 20
-20.69577884649073
 30
0
 11
-144.076904995103
 21
-15.30567981256533
 31
0
  0
LINE
  8
1
 62
7
 10
-152.6288384902189
 20
-14.60361720261457
 30
0
 11
-147.9608757979255
 21
-11.90856768565189
 31
0
  0
LINE
  8
1
 62
7
 10
-151.6288384902188
 20
-4.151344722431119
 30
0
 11
-146.9608757979255
 21
-6.846394239393817
 31
0
  0
LINE
  8
1
 62
7
 10
-142.076904995103
 20
0.2087661138761376
 30
0
 11
-142.076904995103
 21
-5.181332920049254
 31
0
  0
LINE
  8
1
 62
7
 10
-133.5249714999871
 20
-5.883395530000058
 30
0
 11
-138.1929341922805
 21
-8.578445046962742
 31
0
  0
LINE
  8
1
 62
7
 10
-134.5249714999872
 20
-16.3356680101835
 30
0
 11
-139.1929341922806
 21
-13.64061849322079
 31
0
  0
LINE
  8
1
 62
7
 10
-144.076904995103
 20
-20.69577884649073
 30
0
 11
-144.076904995103
 21
-15.30567981256533
 31
0
  0
LINE
  8
1
 62
7
 10
-152.6288384902189
 20
-14.60361720261457
 30
0
 11
-147.9608757979255
 21
-11.90856768565189
 31
0
  0
LINE
  8
1
 62
7
 10
-151.6288384902188
 20
-4.151344722431119
 30
0
 11
-146.9608757979255
 21
-6.846394239393817
 31
0
  0
LINE
  8
1
 62
7
 10
-142.076904995103
 20
0.2087661138761376
 30
0
 11
-142.076904995103
 21
-5.181332920049254
 31
0
  0
LINE
  8
1
 62
7
 10
-133.5249714999871
 20
-5.883395530000058
 30
0
 11
-138.1929341922805
 21
-8.578445046962742
 31
0
  0
LINE
  8
1
 62
7
 10
-134.5249714999872
 20
-16.3356680101835
 30
0
 11
-139.1929341922806
 21
-13.64061849322079
 31
0
  0
LINE
  8
1
 62
7
 10
-144.076904995103
 20
-20.69577884649073
 30
0
 11
-144.076904995103
 21
-15.30567981256533
 31
0
  0
LINE
  8
1
 62
7
 10
-152.6288384902189
 20
-14.60361720261457
 30
0
 11
-147.9608757979255
 21
-11.90856768565189
 31
0
  0
LINE
  8
1
 62
7
 10
-151.6288384902188
 20
-4.151344722431119
 30
0
 11
-146.9608757979255
 21
-6.846394239393817
 31
0
  0
LINE
  8
1
 62
7
 10
-142.076904995103
 20
0.2087661138761376
 30
0
 11
-142.076904995103
 21
-5.181332920049254
 31
0
  0
LINE
  8
1
 62
7
 10
-133.5249714999871
 20
-5.883395530000058
 30
0
 11
-138.1929341922805
 21
-8.578445046962742
 31
0
  0
LINE
  8
1
 62
7
 10
-134.5249714999872
 20
-16.3356680101835
 30
0
 11
-139.1929341922806
 21
-13.64061849322079
 31
0
  0
LINE
  8
1
 62
7
 10
-144.076904995103
 20
-20.69577884649073
 30
0
 11
-144.076904995103
 21
-15.30567981256533
 31
0
  0
LINE
  8
1
 62
7
 10
-152.6288384902189
 20
-14.60361720261457
 30
0
 11
-147.9608757979255
 21
-11.90856768565189
 31
0
  0
LINE
  8
1
 62
7
 10
-151.6288384902188
 20
-4.151344722431119
 30
0
 11
-146.9608757979255
 21
-6.846394239393817
 31
0
  0
LINE
  8
1
 62
7
 10
-142.076904995103
 20
0.2087661138761376
 30
0
 11
-142.076904995103
 21
-5.181332920049254
 31
0
  0
LINE
  8
1
 62
7
 10
-133.5249714999871
 20
-5.883395530000058
 30
0
 11
-138.1929341922805
 21
-8.578445046962742
 31
0
  0
LINE
  8
1
 62
7
 10
-134.5249714999872
 20
-16.3356680101835
 30
0
 11
-139.1929341922806
 21
-13.64061849322079
 31
0
  0
LINE
  8
1
 62
7
 10
-144.076904995103
 20
-20.69577884649073
 30
0
 11
-144.076904995103
 21
-15.30567981256533
 31
0
  0
LINE
  8
1
 62
7
 10
-152.6288384902189
 20
-14.60361720261457
 30
0
 11
-147.9608757979255
 21
-11.90856768565189
 31
0
  0
LINE
  8
1
 62
7
 10
-151.6288384902188
 20
-4.151344722431119
 30
0
 11
-146.9608757979255
 21
-6.846394239393817
 31
0
  0
LINE
  8
1
 62
7
 10
-142.076904995103
 20
0.2087661138761376
 30
0
 11
-142.076904995103
 21
-5.181332920049254
 31
0
  0
LINE
  8
1
 62
7
 10
-133.5249714999871
 20
-5.883395530000058
 30
0
 11
-138.1929341922805
 21
-8.578445046962742
 31
0
  0
LINE
  8
1
 62
7
 10
-134.5249714999872
 20
-16.3356680101835
 30
0
 11
-139.1929341922806
 21
-13.64061849322079
 31
0
  0
LINE
  8
1
 62
7
 10
-144.076904995103
 20
-20.69577884649073
 30
0
 11
-144.076904995103
 21
-15.30567981256533
 31
0
  0
LINE
  8
1
 62
7
 10
-152.6288384902189
 20
-14.60361720261457
 30
0
 11
-147.9608757979255
 21
-11.90856768565189
 31
0
  0
LINE
  8
1
 62
7
 10
-151.6288384902188
 20
-4.151344722431119
 30
0
 11
-146.9608757979255
 21
-6.846394239393817
 31
0
  0
LINE
  8
1
 62
7
 10
-142.076904995103
 20
0.2087661138761376
 30
0
 11
-142.076904995103
 21
-5.181332920049254
 31
0
  0
LINE
  8
1
 62
7
 10
-133.5249714999871
 20
-5.883395530000058
 30
0
 11
-138.1929341922805
 21
-8.578445046962742
 31
0
  0
LINE
  8
1
 62
7
 10
-134.5249714999872
 20
-16.3356680101835
 30
0
 11
-139.1929341922806
 21
-13.64061849322079
 31
0
  0
LINE
  8
1
 62
7
 10
-144.076904995103
 20
-20.69577884649073
 30
0
 11
-144.076904995103
 21
-15.30567981256533
 31
0
  0
LINE
  8
1
 62
7
 10
-152.6288384902189
 20
-14.60361720261457
 30
0
 11
-147.9608757979255
 21
-11.90856768565189
 31
0
  0
LINE
  8
1
 62
7
 10
-151.6288384902188
 20
-4.151344722431119
 30
0
 11
-146.9608757979255
 21
-6.846394239393817
 31
0
  0
LINE
  8
1
 62
7
 10
-142.076904995103
 20
0.2087661138761376
 30
0
 11
-142.076904995103
 21
-5.181332920049254
 31
0
  0
LINE
  8
1
 62
7
 10
-133.5249714999871
 20
-5.883395530000058
 30
0
 11
-138.1929341922805
 21
-8.578445046962742
 31
0
  0
LINE
  8
1
 62
7
 10
-134.5249714999872
 20
-16.3356680101835
 30
0
 11
-139.1929341922806
 21
-13.64061849322079
 31
0
  0
LINE
  8
1
 62
7
 10
-144.076904995103
 20
-20.69577884649073
 30
0
 11
-144.076904995103
 21
-15.30567981256533
 31
0
  0
LINE
  8
1
 62
7
 10
-152.6288384902189
 20
-14.60361720261457
 30
0
 11
-147.9608757979255
 21
-11.90856768565189
 31
0
  0
LINE
  8
1
 62
7
 10
-151.6288384902188
 20
-4.151344722431119
 30
0
 11
-146.9608757979255
 21
-6.846394239393817
 31
0
  0
LINE
  8
1
 62
7
 10
-142.076904995103
 20
0.2087661138761376
 30
0
 11
-142.076904995103
 21
-5.181332920049254
 31
0
  0
LINE
  8
1
 62
7
 10
-133.5249714999871
 20
-5.883395530000058
 30
0
 11
-138.1929341922805
 21
-8.578445046962742
 31
0
  0
LINE
  8
1
 62
7
 10
-134.5249714999872
 20
-16.3356680101835
 30
0
 11
-139.1929341922806
 21
-13.64061849322079
 31
0
  0
LINE
  8
1
 62
7
 10
-144.076904995103
 20
-20.69577884649073
 30
0
 11
-144.076904995103
 21
-15.30567981256533
 31
0
  0
LINE
  8
1
 62
7
 10
-152.6288384902189
 20
-14.60361720261457
 30
0
 11
-147.9608757979255
 21
-11.90856768565189
 31
0
  0
LINE
  8
1
 62
7
 10
-151.6288384902188
 20
-4.151344722431119
 30
0
 11
-146.9608757979255
 21
-6.846394239393817
 31
0
  0
LINE
  8
1
 62
7
 10
-142.076904995103
 20
0.2087661138761376
 30
0
 11
-142.076904995103
 21
-5.181332920049254
 31
0
  0
LINE
  8
1
 62
7
 10
-133.5249714999871
 20
-5.883395530000058
 30
0
 11
-138.1929341922805
 21
-8.578445046962742
 31
0
  0
LINE
  8
1
 62
7
 10
-134.5249714999872
 20
-16.3356680101835
 30
0
 11
-139.1929341922806
 21
-13.64061849322079
 31
0
  0
LINE
  8
1
 62
7
 10
-144.076904995103
 20
-20.69577884649073
 30
0
 11
-144.076904995103
 21
-15.30567981256533
 31
0
  0
LINE
  8
1
 62
7
 10
-152.6288384902189
 20
-14.60361720261457
 30
0
 11
-147.9608757979255
 21
-11.90856768565189
 31
0
  0
LINE
  8
1
 62
7
 10
-151.6288384902188
 20
-4.151344722431119
 30
0
 11
-146.9608757979255
 21
-6.846394239393817
 31
0
  0
LINE
  8
1
 62
7
 10
-142.076904995103
 20
0.2087661138761376
 30
0
 11
-142.076904995103
 21
-5.181332920049254
 31
0
  0
LINE
  8
1
 62
7
 10
-133.5249714999871
 20
-5.883395530000058
 30
0
 11
-138.1929341922805
 21
-8.578445046962742
 31
0
  0
LINE
  8
1
 62
7
 10
-134.5249714999872
 20
-16.3356680101835
 30
0
 11
-139.1929341922806
 21
-13.64061849322079
 31
0
  0
LINE
  8
1
 62
7
 10
-144.076904995103
 20
-20.69577884649073
 30
0
 11
-144.076904995103
 21
-15.30567981256533
 31
0
  0
LINE
  8
1
 62
7
 10
-152.6288384902189
 20
-14.60361720261457
 30
0
 11
-147.9608757979255
 21
-11.90856768565189
 31
0
  0
LINE
  8
1
 62
7
 10
-151.6288384902188
 20
-4.151344722431119
 30
0
 11
-146.9608757979255
 21
-6.846394239393817
 31
0
  0
LINE
  8
1
 62
7
 10
-142.076904995103
 20
0.2087661138761376
 30
0
 11
-142.076904995103
 21
-5.181332920049254
 31
0
  0
LINE
  8
1
 62
7
 10
-133.5249714999871
 20
-5.883395530000058
 30
0
 11
-138.1929341922805
 21
-8.578445046962742
 31
0
  0
LINE
  8
1
 62
7
 10
-134.5249714999872
 20
-16.3356680101835
 30
0
 11
-139.1929341922806
 21
-13.64061849322079
 31
0
  0
LINE
  8
1
 62
7
 10
-144.076904995103
 20
-20.69577884649073
 30
0
 11
-144.076904995103
 21
-15.30567981256533
 31
0
  0
LINE
  8
1
 62
7
 10
-152.6288384902189
 20
-14.60361720261457
 30
0
 11
-147.9608757979255
 21
-11.90856768565189
 31
0
  0
LINE
  8
1
 62
7
 10
-151.6288384902188
 20
-4.151344722431119
 30
0
 11
-146.9608757979255
 21
-6.846394239393817
 31
0
  0
LINE
  8
1
 62
7
 10
-142.076904995103
 20
0.2087661138761376
 30
0
 11
-142.076904995103
 21
-5.181332920049254
 31
0
  0
LINE
  8
1
 62
7
 10
-133.5249714999871
 20
-5.883395530000058
 30
0
 11
-138.1929341922805
 21
-8.578445046962742
 31
0
  0
LINE
  8
1
 62
7
 10
-134.5249714999872
 20
-16.3356680101835
 30
0
 11
-139.1929341922806
 21
-13.64061849322079
 31
0
  0
LINE
  8
1
 62
7
 10
-144.076904995103
 20
-20.69577884649073
 30
0
 11
-144.076904995103
 21
-15.30567981256533
 31
0
  0
LINE
  8
1
 62
7
 10
-152.6288384902189
 20
-14.60361720261457
 30
0
 11
-147.9608757979255
 21
-11.90856768565189
 31
0
  0
LINE
  8
1
 62
7
 10
-151.6288384902188
 20
-4.151344722431119
 30
0
 11
-146.9608757979255
 21
-6.846394239393817
 31
0
  0
LINE
  8
1
 62
7
 10
-142.076904995103
 20
0.2087661138761376
 30
0
 11
-142.076904995103
 21
-5.181332920049254
 31
0
  0
LINE
  8
1
 62
7
 10
-133.5249714999871
 20
-5.883395530000058
 30
0
 11
-138.1929341922805
 21
-8.578445046962742
 31
0
  0
LINE
  8
1
 62
7
 10
-134.5249714999872
 20
-16.3356680101835
 30
0
 11
-139.1929341922806
 21
-13.64061849322079
 31
0
  0
LINE
  8
1
 62
7
 10
-144.076904995103
 20
-20.69577884649073
 30
0
 11
-144.076904995103
 21
-15.30567981256533
 31
0
  0
LINE
  8
1
 62
7
 10
-152.6288384902189
 20
-14.60361720261457
 30
0
 11
-147.9608757979255
 21
-11.90856768565189
 31
0
  0
LINE
  8
1
 62
7
 10
-151.6288384902188
 20
-4.151344722431119
 30
0
 11
-146.9608757979255
 21
-6.846394239393817
 31
0
  0
LINE
  8
1
 62
7
 10
-142.076904995103
 20
0.2087661138761376
 30
0
 11
-142.076904995103
 21
-5.181332920049254
 31
0
  0
LINE
  8
1
 62
7
 10
-133.5249714999871
 20
-5.883395530000058
 30
0
 11
-138.1929341922805
 21
-8.578445046962742
 31
0
  0
LINE
  8
1
 62
7
 10
-134.5249714999872
 20
-16.3356680101835
 30
0
 11
-139.1929341922806
 21
-13.64061849322079
 31
0
  0
LINE
  8
1
 62
7
 10
-144.076904995103
 20
-20.69577884649073
 30
0
 11
-144.076904995103
 21
-15.30567981256533
 31
0
  0
LINE
  8
1
 62
7
 10
-152.6288384902189
 20
-14.60361720261457
 30
0
 11
-147.9608757979255
 21
-11.90856768565189
 31
0
  0
LINE
  8
1
 62
7
 10
-151.6288384902188
 20
-4.151344722431119
 30
0
 11
-146.9608757979255
 21
-6.846394239393817
 31
0
  0
LINE
  8
1
 62
7
 10
-142.076904995103
 20
0.2087661138761376
 30
0
 11
-142.076904995103
 21
-5.181332920049254
 31
0
  0
LINE
  8
1
 62
7
 10
-133.5249714999871
 20
-5.883395530000058
 30
0
 11
-138.1929341922805
 21
-8.578445046962742
 31
0
  0
LINE
  8
1
 62
7
 10
-134.5249714999872
 20
-16.3356680101835
 30
0
 11
-139.1929341922806
 21
-13.64061849322079
 31
0
  0
LINE
  8
1
 62
7
 10
-144.076904995103
 20
-20.69577884649073
 30
0
 11
-144.076904995103
 21
-15.30567981256533
 31
0
  0
LINE
  8
1
 62
7
 10
-152.6288384902189
 20
-14.60361720261457
 30
0
 11
-147.9608757979255
 21
-11.90856768565189
 31
0
  0
LINE
  8
1
 62
7
 10
-151.6288384902188
 20
-4.151344722431119
 30
0
 11
-146.9608757979255
 21
-6.846394239393817
 31
0
  0
LINE
  8
1
 62
7
 10
-133.5249714999871
 20
-5.883395530000058
 30
0
 11
-138.1929341922805
 21
-8.578445046962742
 31
0
  0
LINE
  8
1
 62
7
 10
-134.5249714999872
 20
-16.3356680101835
 30
0
 11
-139.1929341922806
 21
-13.64061849322079
 31
0
  0
LINE
  8
1
 62
7
 10
-144.076904995103
 20
-20.69577884649073
 30
0
 11
-144.076904995103
 21
-15.30567981256533
 31
0
  0
LINE
  8
1
 62
7
 10
-152.6288384902189
 20
-14.60361720261457
 30
0
 11
-147.9608757979255
 21
-11.90856768565189
 31
0
  0
LINE
  8
1
 62
7
 10
-151.6288384902188
 20
-4.151344722431119
 30
0
 11
-146.9608757979255
 21
-6.846394239393817
 31
0
  0
LINE
  8
1
 62
7
 10
-133.5249714999871
 20
-5.883395530000058
 30
0
 11
-138.1929341922805
 21
-8.578445046962742
 31
0
  0
LINE
  8
1
 62
7
 10
-134.5249714999872
 20
-16.3356680101835
 30
0
 11
-139.1929341922806
 21
-13.64061849322079
 31
0
  0
LINE
  8
1
 62
7
 10
-144.076904995103
 20
-20.69577884649073
 30
0
 11
-144.076904995103
 21
-15.30567981256533
 31
0
  0
LINE
  8
1
 62
7
 10
-152.6288384902189
 20
-14.60361720261457
 30
0
 11
-147.9608757979255
 21
-11.90856768565189
 31
0
  0
LINE
  8
1
 62
7
 10
-151.6288384902188
 20
-4.151344722431119
 30
0
 11
-146.9608757979255
 21
-6.846394239393817
 31
0
  0
LINE
  8
1
 62
7
 10
-133.5249714999871
 20
-5.883395530000058
 30
0
 11
-138.1929341922805
 21
-8.578445046962742
 31
0
  0
LINE
  8
1
 62
7
 10
-134.5249714999872
 20
-16.3356680101835
 30
0
 11
-139.1929341922806
 21
-13.64061849322079
 31
0
  0
LINE
  8
1
 62
7
 10
-144.076904995103
 20
-20.69577884649073
 30
0
 11
-144.076904995103
 21
-15.30567981256533
 31
0
  0
LINE
  8
1
 62
7
 10
-152.6288384902189
 20
-14.60361720261457
 30
0
 11
-147.9608757979255
 21
-11.90856768565189
 31
0
  0
LINE
  8
1
 62
7
 10
-151.6288384902188
 20
-4.151344722431119
 30
0
 11
-146.9608757979255
 21
-6.846394239393817
 31
0
  0
LINE
  8
1
 62
7
 10
-133.5249714999871
 20
-5.883395530000058
 30
0
 11
-138.1929341922805
 21
-8.578445046962742
 31
0
  0
LINE
  8
1
 62
7
 10
-134.5249714999872
 20
-16.3356680101835
 30
0
 11
-139.1929341922806
 21
-13.64061849322079
 31
0
  0
LINE
  8
1
 62
7
 10
-144.076904995103
 20
-20.69577884649073
 30
0
 11
-144.076904995103
 21
-15.30567981256533
 31
0
  0
LINE
  8
1
 62
7
 10
-152.6288384902189
 20
-14.60361720261457
 30
0
 11
-147.9608757979255
 21
-11.90856768565189
 31
0
  0
LINE
  8
1
 62
7
 10
-151.6288384902188
 20
-4.151344722431119
 30
0
 11
-146.9608757979255
 21
-6.846394239393817
 31
0
  0
LINE
  8
1
 62
7
 10
-133.5249714999871
 20
-5.883395530000058
 30
0
 11
-138.1929341922805
 21
-8.578445046962742
 31
0
  0
LINE
  8
1
 62
7
 10
-134.5249714999872
 20
-16.3356680101835
 30
0
 11
-139.1929341922806
 21
-13.64061849322079
 31
0
  0
LINE
  8
1
 62
7
 10
-144.076904995103
 20
-20.69577884649073
 30
0
 11
-144.076904995103
 21
-15.30567981256533
 31
0
  0
LINE
  8
1
 62
7
 10
-152.6288384902189
 20
-14.60361720261457
 30
0
 11
-147.9608757979255
 21
-11.90856768565189
 31
0
  0
LINE
  8
1
 62
7
 10
-151.6288384902188
 20
-4.151344722431119
 30
0
 11
-146.9608757979255
 21
-6.846394239393817
 31
0
  0
LINE
  8
1
 62
7
 10
-133.5249714999871
 20
-5.883395530000058
 30
0
 11
-138.1929341922805
 21
-8.578445046962742
 31
0
  0
LINE
  8
1
 62
7
 10
-134.5249714999872
 20
-16.3356680101835
 30
0
 11
-139.1929341922806
 21
-13.64061849322079
 31
0
  0
LINE
  8
1
 62
7
 10
-144.076904995103
 20
-20.69577884649073
 30
0
 11
-144.076904995103
 21
-15.30567981256533
 31
0
  0
LINE
  8
1
 62
7
 10
-152.6288384902189
 20
-14.60361720261457
 30
0
 11
-147.9608757979255
 21
-11.90856768565189
 31
0
  0
LINE
  8
1
 62
7
 10
-151.6288384902188
 20
-4.151344722431119
 30
0
 11
-146.9608757979255
 21
-6.846394239393817
 31
0
  0
LINE
  8
1
 62
7
 10
-133.5249714999871
 20
-5.883395530000058
 30
0
 11
-138.1929341922805
 21
-8.578445046962742
 31
0
  0
LINE
  8
1
 62
7
 10
-134.5249714999872
 20
-16.3356680101835
 30
0
 11
-139.1929341922806
 21
-13.64061849322079
 31
0
  0
LINE
  8
1
 62
7
 10
-144.076904995103
 20
-20.69577884649073
 30
0
 11
-144.076904995103
 21
-15.30567981256533
 31
0
  0
LINE
  8
1
 62
7
 10
-152.6288384902189
 20
-14.60361720261457
 30
0
 11
-147.9608757979255
 21
-11.90856768565189
 31
0
  0
LINE
  8
1
 62
7
 10
-151.6288384902188
 20
-4.151344722431119
 30
0
 11
-146.9608757979255
 21
-6.846394239393817
 31
0
  0
LINE
  8
1
 62
7
 10
-133.5249714999871
 20
-5.883395530000058
 30
0
 11
-138.1929341922805
 21
-8.578445046962742
 31
0
  0
LINE
  8
1
 62
7
 10
-134.5249714999872
 20
-16.3356680101835
 30
0
 11
-139.1929341922806
 21
-13.64061849322079
 31
0
  0
LINE
  8
1
 62
7
 10
-144.076904995103
 20
-20.69577884649073
 30
0
 11
-144.076904995103
 21
-15.30567981256533
 31
0
  0
LINE
  8
1
 62
7
 10
-152.6288384902189
 20
-14.60361720261457
 30
0
 11
-147.9608757979255
 21
-11.90856768565189
 31
0
  0
LINE
  8
1
 62
7
 10
-151.6288384902188
 20
-4.151344722431119
 30
0
 11
-146.9608757979255
 21
-6.846394239393817
 31
0
  0
LINE
  8
1
 62
7
 10
-133.5249714999871
 20
-5.883395530000058
 30
0
 11
-138.1929341922805
 21
-8.578445046962742
 31
0
  0
LINE
  8
1
 62
7
 10
-134.5249714999872
 20
-16.3356680101835
 30
0
 11
-139.1929341922806
 21
-13.64061849322079
 31
0
  0
LINE
  8
1
 62
7
 10
-144.076904995103
 20
-20.69577884649073
 30
0
 11
-144.076904995103
 21
-15.30567981256533
 31
0
  0
LINE
  8
1
 62
7
 10
-152.6288384902189
 20
-14.60361720261457
 30
0
 11
-147.9608757979255
 21
-11.90856768565189
 31
0
  0
LINE
  8
1
 62
7
 10
-151.6288384902188
 20
-4.151344722431119
 30
0
 11
-146.9608757979255
 21
-6.846394239393817
 31
0
  0
LINE
  8
1
 62
7
 10
-133.5249714999871
 20
-5.883395530000058
 30
0
 11
-138.1929341922805
 21
-8.578445046962742
 31
0
  0
LINE
  8
1
 62
7
 10
-134.5249714999872
 20
-16.3356680101835
 30
0
 11
-139.1929341922806
 21
-13.64061849322079
 31
0
  0
LINE
  8
1
 62
7
 10
-144.076904995103
 20
-20.69577884649073
 30
0
 11
-144.076904995103
 21
-15.30567981256533
 31
0
  0
LINE
  8
1
 62
7
 10
-152.6288384902189
 20
-14.60361720261457
 30
0
 11
-147.9608757979255
 21
-11.90856768565189
 31
0
  0
LINE
  8
1
 62
7
 10
-151.6288384902188
 20
-4.151344722431119
 30
0
 11
-146.9608757979255
 21
-6.846394239393817
 31
0
  0
LINE
  8
1
 62
7
 10
-133.5249714999871
 20
-5.883395530000058
 30
0
 11
-138.1929341922805
 21
-8.578445046962742
 31
0
  0
LINE
  8
1
 62
7
 10
-134.5249714999872
 20
-16.3356680101835
 30
0
 11
-139.1929341922806
 21
-13.64061849322079
 31
0
  0
LINE
  8
1
 62
7
 10
-144.076904995103
 20
-20.69577884649073
 30
0
 11
-144.076904995103
 21
-15.30567981256533
 31
0
  0
LINE
  8
1
 62
7
 10
-152.6288384902189
 20
-14.60361720261457
 30
0
 11
-147.9608757979255
 21
-11.90856768565189
 31
0
  0
LINE
  8
1
 62
7
 10
-151.6288384902188
 20
-4.151344722431119
 30
0
 11
-146.9608757979255
 21
-6.846394239393817
 31
0
  0
LINE
  8
1
 62
7
 10
-133.5249714999871
 20
-5.883395530000058
 30
0
 11
-138.1929341922805
 21
-8.578445046962742
 31
0
  0
LINE
  8
1
 62
7
 10
-134.5249714999872
 20
-16.3356680101835
 30
0
 11
-139.1929341922806
 21
-13.64061849322079
 31
0
  0
LINE
  8
1
 62
7
 10
-144.076904995103
 20
-20.69577884649073
 30
0
 11
-144.076904995103
 21
-15.30567981256533
 31
0
  0
LINE
  8
1
 62
7
 10
-152.6288384902189
 20
-14.60361720261457
 30
0
 11
-147.9608757979255
 21
-11.90856768565189
 31
0
  0
LINE
  8
1
 62
7
 10
-151.6288384902188
 20
-4.151344722431119
 30
0
 11
-146.9608757979255
 21
-6.846394239393817
 31
0
  0
LINE
  8
1
 62
7
 10
-133.5249714999871
 20
-5.883395530000058
 30
0
 11
-138.1929341922805
 21
-8.578445046962742
 31
0
  0
LINE
  8
1
 62
7
 10
-134.5249714999872
 20
-16.3356680101835
 30
0
 11
-139.1929341922806
 21
-13.64061849322079
 31
0
  0
LINE
  8
1
 62
7
 10
-144.076904995103
 20
-20.69577884649073
 30
0
 11
-144.076904995103
 21
-15.30567981256533
 31
0
  0
LINE
  8
1
 62
7
 10
-152.6288384902189
 20
-14.60361720261457
 30
0
 11
-147.9608757979255
 21
-11.90856768565189
 31
0
  0
LINE
  8
1
 62
7
 10
-151.6288384902188
 20
-4.151344722431119
 30
0
 11
-146.9608757979255
 21
-6.846394239393817
 31
0
  0
LINE
  8
1
 62
7
 10
-144.076904995103
 20
0.2087661138761376
 30
0
 11
-144.076904995103
 21
-5.181332920049254
 31
0
  0
LINE
  8
1
 62
7
 10
-134.5249714999871
 20
-4.151344722431176
 30
0
 11
-139.1929341922805
 21
-6.846394239393859
 31
0
  0
LINE
  8
1
 62
7
 10
-133.5249714999872
 20
-14.60361720261463
 30
0
 11
-138.1929341922806
 21
-11.90856768565192
 31
0
  0
LINE
  8
1
 62
7
 10
-142.076904995103
 20
-20.69577884649073
 30
0
 11
-142.076904995103
 21
-15.30567981256534
 31
0
  0
LINE
  8
1
 62
7
 10
-151.6288384902189
 20
-16.33566801018345
 30
0
 11
-146.9608757979245
 21
-13.64061849321983
 31
0
  0
LINE
  8
1
 62
7
 10
-152.6288384902188
 20
-5.883395530000001
 30
0
 11
-147.9608757979255
 21
-8.578445046962699
 31
0
  0
LINE
  8
1
 62
7
 10
-144.076904995103
 20
0.2087661138761376
 30
0
 11
-144.076904995103
 21
-5.181332920049254
 31
0
  0
LINE
  8
1
 62
7
 10
-134.5249714999871
 20
-4.151344722431176
 30
0
 11
-139.1929341922805
 21
-6.846394239393859
 31
0
  0
LINE
  8
1
 62
7
 10
-133.5249714999872
 20
-14.60361720261463
 30
0
 11
-138.1929341922806
 21
-11.90856768565192
 31
0
  0
LINE
  8
1
 62
7
 10
-142.076904995103
 20
-20.69577884649073
 30
0
 11
-142.076904995103
 21
-15.30567981256534
 31
0
  0
LINE
  8
1
 62
7
 10
-151.6288384902189
 20
-16.33566801018345
 30
0
 11
-146.9608757979245
 21
-13.64061849321983
 31
0
  0
LINE
  8
1
 62
7
 10
-152.6288384902188
 20
-5.883395530000001
 30
0
 11
-147.9608757979255
 21
-8.578445046962699
 31
0
  0
LINE
  8
1
 62
7
 10
-144.076904995103
 20
0.2087661138761376
 30
0
 11
-144.076904995103
 21
-5.181332920049254
 31
0
  0
LINE
  8
1
 62
7
 10
-134.5249714999871
 20
-4.151344722431176
 30
0
 11
-139.1929341922805
 21
-6.846394239393859
 31
0
  0
LINE
  8
1
 62
7
 10
-133.5249714999872
 20
-14.60361720261463
 30
0
 11
-138.1929341922806
 21
-11.90856768565192
 31
0
  0
LINE
  8
1
 62
7
 10
-142.076904995103
 20
-20.69577884649073
 30
0
 11
-142.076904995103
 21
-15.30567981256534
 31
0
  0
LINE
  8
1
 62
7
 10
-151.6288384902189
 20
-16.33566801018345
 30
0
 11
-146.9608757979245
 21
-13.64061849321983
 31
0
  0
LINE
  8
1
 62
7
 10
-152.6288384902188
 20
-5.883395530000001
 30
0
 11
-147.9608757979255
 21
-8.578445046962699
 31
0
  0
LINE
  8
1
 62
7
 10
-144.076904995103
 20
0.2087661138761376
 30
0
 11
-144.076904995103
 21
-5.181332920049254
 31
0
  0
LINE
  8
1
 62
7
 10
-134.5249714999871
 20
-4.151344722431176
 30
0
 11
-139.1929341922805
 21
-6.846394239393859
 31
0
  0
LINE
  8
1
 62
7
 10
-133.5249714999872
 20
-14.60361720261463
 30
0
 11
-138.1929341922806
 21
-11.90856768565192
 31
0
  0
LINE
  8
1
 62
7
 10
-142.076904995103
 20
-20.69577884649073
 30
0
 11
-142.076904995103
 21
-15.30567981256534
 31
0
  0
LINE
  8
1
 62
7
 10
-151.6288384902189
 20
-16.33566801018345
 30
0
 11
-146.9608757979245
 21
-13.64061849321983
 31
0
  0
LINE
  8
1
 62
7
 10
-152.6288384902188
 20
-5.883395530000001
 30
0
 11
-147.9608757979255
 21
-8.578445046962699
 31
0
  0
LINE
  8
1
 62
7
 10
-144.076904995103
 20
0.2087661138761376
 30
0
 11
-144.076904995103
 21
-5.181332920049254
 31
0
  0
LINE
  8
1
 62
7
 10
-134.5249714999871
 20
-4.151344722431176
 30
0
 11
-139.1929341922805
 21
-6.846394239393859
 31
0
  0
LINE
  8
1
 62
7
 10
-133.5249714999872
 20
-14.60361720261463
 30
0
 11
-138.1929341922806
 21
-11.90856768565192
 31
0
  0
LINE
  8
1
 62
7
 10
-142.076904995103
 20
-20.69577884649073
 30
0
 11
-142.076904995103
 21
-15.30567981256534
 31
0
  0
LINE
  8
1
 62
7
 10
-151.6288384902189
 20
-16.33566801018345
 30
0
 11
-146.9608757979245
 21
-13.64061849321983
 31
0
  0
LINE
  8
1
 62
7
 10
-152.6288384902188
 20
-5.883395530000001
 30
0
 11
-147.9608757979255
 21
-8.578445046962699
 31
0
  0
LINE
  8
1
 62
7
 10
-144.076904995103
 20
0.2087661138761376
 30
0
 11
-144.076904995103
 21
-5.181332920049254
 31
0
  0
LINE
  8
1
 62
7
 10
-134.5249714999871
 20
-4.151344722431176
 30
0
 11
-139.1929341922805
 21
-6.846394239393859
 31
0
  0
LINE
  8
1
 62
7
 10
-133.5249714999872
 20
-14.60361720261463
 30
0
 11
-138.1929341922806
 21
-11.90856768565192
 31
0
  0
LINE
  8
1
 62
7
 10
-142.076904995103
 20
-20.69577884649073
 30
0
 11
-142.076904995103
 21
-15.30567981256534
 31
0
  0
LINE
  8
1
 62
7
 10
-151.6288384902189
 20
-16.33566801018345
 30
0
 11
-146.9608757979245
 21
-13.64061849321983
 31
0
  0
LINE
  8
1
 62
7
 10
-152.6288384902188
 20
-5.883395530000001
 30
0
 11
-147.9608757979255
 21
-8.578445046962699
 31
0
  0
LINE
  8
1
 62
7
 10
-144.076904995103
 20
0.2087661138761376
 30
0
 11
-144.076904995103
 21
-5.181332920049254
 31
0
  0
LINE
  8
1
 62
7
 10
-134.5249714999871
 20
-4.151344722431176
 30
0
 11
-139.1929341922805
 21
-6.846394239393859
 31
0
  0
LINE
  8
1
 62
7
 10
-133.5249714999872
 20
-14.60361720261463
 30
0
 11
-138.1929341922806
 21
-11.90856768565192
 31
0
  0
LINE
  8
1
 62
7
 10
-142.076904995103
 20
-20.69577884649073
 30
0
 11
-142.076904995103
 21
-15.30567981256534
 31
0
  0
LINE
  8
1
 62
7
 10
-151.6288384902189
 20
-16.33566801018345
 30
0
 11
-146.9608757979245
 21
-13.64061849321983
 31
0
  0
LINE
  8
1
 62
7
 10
-152.6288384902188
 20
-5.883395530000001
 30
0
 11
-147.9608757979255
 21
-8.578445046962699
 31
0
  0
LINE
  8
1
 62
7
 10
-144.076904995103
 20
0.2087661138761376
 30
0
 11
-144.076904995103
 21
-5.181332920049254
 31
0
  0
LINE
  8
1
 62
7
 10
-134.5249714999871
 20
-4.151344722431176
 30
0
 11
-139.1929341922805
 21
-6.846394239393859
 31
0
  0
LINE
  8
1
 62
7
 10
-133.5249714999872
 20
-14.60361720261463
 30
0
 11
-138.1929341922806
 21
-11.90856768565192
 31
0
  0
LINE
  8
1
 62
7
 10
-142.076904995103
 20
-20.69577884649073
 30
0
 11
-142.076904995103
 21
-15.30567981256534
 31
0
  0
LINE
  8
1
 62
7
 10
-151.6288384902189
 20
-16.33566801018345
 30
0
 11
-146.9608757979245
 21
-13.64061849321983
 31
0
  0
LINE
  8
1
 62
7
 10
-152.6288384902188
 20
-5.883395530000001
 30
0
 11
-147.9608757979255
 21
-8.578445046962699
 31
0
  0
LINE
  8
1
 62
7
 10
-144.076904995103
 20
0.2087661138761376
 30
0
 11
-144.076904995103
 21
-5.181332920049254
 31
0
  0
LINE
  8
1
 62
7
 10
-134.5249714999871
 20
-4.151344722431176
 30
0
 11
-139.1929341922805
 21
-6.846394239393859
 31
0
  0
LINE
  8
1
 62
7
 10
-133.5249714999872
 20
-14.60361720261463
 30
0
 11
-138.1929341922806
 21
-11.90856768565192
 31
0
  0
LINE
  8
1
 62
7
 10
-142.076904995103
 20
-20.69577884649073
 30
0
 11
-142.076904995103
 21
-15.30567981256534
 31
0
  0
LINE
  8
1
 62
7
 10
-151.6288384902189
 20
-16.33566801018345
 30
0
 11
-146.9608757979245
 21
-13.64061849321983
 31
0
  0
LINE
  8
1
 62
7
 10
-152.6288384902188
 20
-5.883395530000001
 30
0
 11
-147.9608757979255
 21
-8.578445046962699
 31
0
  0
LINE
  8
1
 62
7
 10
-144.076904995103
 20
0.2087661138761376
 30
0
 11
-144.076904995103
 21
-5.181332920049254
 31
0
  0
LINE
  8
1
 62
7
 10
-134.5249714999871
 20
-4.151344722431176
 30
0
 11
-139.1929341922805
 21
-6.846394239393859
 31
0
  0
LINE
  8
1
 62
7
 10
-133.5249714999872
 20
-14.60361720261463
 30
0
 11
-138.1929341922806
 21
-11.90856768565192
 31
0
  0
LINE
  8
1
 62
7
 10
-142.076904995103
 20
-20.69577884649073
 30
0
 11
-142.076904995103
 21
-15.30567981256534
 31
0
  0
LINE
  8
1
 62
7
 10
-151.6288384902189
 20
-16.33566801018345
 30
0
 11
-146.9608757979245
 21
-13.64061849321983
 31
0
  0
LINE
  8
1
 62
7
 10
-152.6288384902188
 20
-5.883395530000001
 30
0
 11
-147.9608757979255
 21
-8.578445046962699
 31
0
  0
LINE
  8
1
 62
7
 10
-144.076904995103
 20
0.2087661138761376
 30
0
 11
-144.076904995103
 21
-5.181332920049254
 31
0
  0
LINE
  8
1
 62
7
 10
-134.5249714999871
 20
-4.151344722431176
 30
0
 11
-139.1929341922805
 21
-6.846394239393859
 31
0
  0
LINE
  8
1
 62
7
 10
-133.5249714999872
 20
-14.60361720261463
 30
0
 11
-138.1929341922806
 21
-11.90856768565192
 31
0
  0
LINE
  8
1
 62
7
 10
-142.076904995103
 20
-20.69577884649073
 30
0
 11
-142.076904995103
 21
-15.30567981256534
 31
0
  0
LINE
  8
1
 62
7
 10
-151.6288384902189
 20
-16.33566801018345
 30
0
 11
-146.9608757979245
 21
-13.64061849321983
 31
0
  0
LINE
  8
1
 62
7
 10
-152.6288384902188
 20
-5.883395530000001
 30
0
 11
-147.9608757979255
 21
-8.578445046962699
 31
0
  0
LINE
  8
1
 62
7
 10
-144.076904995103
 20
0.2087661138761376
 30
0
 11
-144.076904995103
 21
-5.181332920049254
 31
0
  0
LINE
  8
1
 62
7
 10
-134.5249714999871
 20
-4.151344722431176
 30
0
 11
-139.1929341922805
 21
-6.846394239393859
 31
0
  0
LINE
  8
1
 62
7
 10
-133.5249714999872
 20
-14.60361720261463
 30
0
 11
-138.1929341922806
 21
-11.90856768565192
 31
0
  0
LINE
  8
1
 62
7
 10
-142.076904995103
 20
-20.69577884649073
 30
0
 11
-142.076904995103
 21
-15.30567981256534
 31
0
  0
LINE
  8
1
 62
7
 10
-151.6288384902189
 20
-16.33566801018345
 30
0
 11
-146.9608757979245
 21
-13.64061849321983
 31
0
  0
LINE
  8
1
 62
7
 10
-152.6288384902188
 20
-5.883395530000001
 30
0
 11
-147.9608757979255
 21
-8.578445046962699
 31
0
  0
LINE
  8
1
 62
7
 10
-144.076904995103
 20
0.2087661138761376
 30
0
 11
-144.076904995103
 21
-5.181332920049254
 31
0
  0
LINE
  8
1
 62
7
 10
-134.5249714999871
 20
-4.151344722431176
 30
0
 11
-139.1929341922805
 21
-6.846394239393859
 31
0
  0
LINE
  8
1
 62
7
 10
-133.5249714999872
 20
-14.60361720261463
 30
0
 11
-138.1929341922806
 21
-11.90856768565192
 31
0
  0
LINE
  8
1
 62
7
 10
-142.076904995103
 20
-20.69577884649073
 30
0
 11
-142.076904995103
 21
-15.30567981256534
 31
0
  0
LINE
  8
1
 62
7
 10
-151.6288384902189
 20
-16.33566801018345
 30
0
 11
-146.9608757979245
 21
-13.64061849321983
 31
0
  0
LINE
  8
1
 62
7
 10
-152.6288384902188
 20
-5.883395530000001
 30
0
 11
-147.9608757979255
 21
-8.578445046962699
 31
0
  0
LINE
  8
1
 62
7
 10
-144.076904995103
 20
0.2087661138761376
 30
0
 11
-144.076904995103
 21
-5.181332920049254
 31
0
  0
LINE
  8
1
 62
7
 10
-134.5249714999871
 20
-4.151344722431176
 30
0
 11
-139.1929341922805
 21
-6.846394239393859
 31
0
  0
LINE
  8
1
 62
7
 10
-133.5249714999872
 20
-14.60361720261463
 30
0
 11
-138.1929341922806
 21
-11.90856768565192
 31
0
  0
LINE
  8
1
 62
7
 10
-142.076904995103
 20
-20.69577884649073
 30
0
 11
-142.076904995103
 21
-15.30567981256534
 31
0
  0
LINE
  8
1
 62
7
 10
-151.6288384902189
 20
-16.33566801018345
 30
0
 11
-146.9608757979245
 21
-13.64061849321983
 31
0
  0
LINE
  8
1
 62
7
 10
-152.6288384902188
 20
-5.883395530000001
 30
0
 11
-147.9608757979255
 21
-8.578445046962699
 31
0
  0
LINE
  8
1
 62
7
 10
-144.076904995103
 20
0.2087661138761376
 30
0
 11
-144.076904995103
 21
-5.181332920049254
 31
0
  0
LINE
  8
1
 62
7
 10
-134.5249714999871
 20
-4.151344722431176
 30
0
 11
-139.1929341922805
 21
-6.846394239393859
 31
0
  0
LINE
  8
1
 62
7
 10
-133.5249714999872
 20
-14.60361720261463
 30
0
 11
-138.1929341922806
 21
-11.90856768565192
 31
0
  0
LINE
  8
1
 62
7
 10
-142.076904995103
 20
-20.69577884649073
 30
0
 11
-142.076904995103
 21
-15.30567981256534
 31
0
  0
LINE
  8
1
 62
7
 10
-151.6288384902189
 20
-16.33566801018345
 30
0
 11
-146.9608757979245
 21
-13.64061849321983
 31
0
  0
LINE
  8
1
 62
7
 10
-152.6288384902188
 20
-5.883395530000001
 30
0
 11
-147.9608757979255
 21
-8.578445046962699
 31
0
  0
LINE
  8
1
 62
7
 10
-144.076904995103
 20
0.2087661138761376
 30
0
 11
-144.076904995103
 21
-5.181332920049254
 31
0
  0
LINE
  8
1
 62
7
 10
-134.5249714999871
 20
-4.151344722431176
 30
0
 11
-139.1929341922805
 21
-6.846394239393859
 31
0
  0
LINE
  8
1
 62
7
 10
-133.5249714999872
 20
-14.60361720261463
 30
0
 11
-138.1929341922806
 21
-11.90856768565192
 31
0
  0
LINE
  8
1
 62
7
 10
-142.076904995103
 20
-20.69577884649073
 30
0
 11
-142.076904995103
 21
-15.30567981256534
 31
0
  0
LINE
  8
1
 62
7
 10
-151.6288384902189
 20
-16.33566801018345
 30
0
 11
-146.9608757979245
 21
-13.64061849321983
 31
0
  0
LINE
  8
1
 62
7
 10
-152.6288384902188
 20
-5.883395530000001
 30
0
 11
-147.9608757979255
 21
-8.578445046962699
 31
0
  0
LINE
  8
1
 62
7
 10
-144.076904995103
 20
0.2087661138761376
 30
0
 11
-144.076904995103
 21
-5.181332920049254
 31
0
  0
LINE
  8
1
 62
7
 10
-134.5249714999871
 20
-4.151344722431176
 30
0
 11
-139.1929341922805
 21
-6.846394239393859
 31
0
  0
LINE
  8
1
 62
7
 10
-133.5249714999872
 20
-14.60361720261463
 30
0
 11
-138.1929341922806
 21
-11.90856768565192
 31
0
  0
LINE
  8
1
 62
7
 10
-142.076904995103
 20
-20.69577884649073
 30
0
 11
-142.076904995103
 21
-15.30567981256534
 31
0
  0
LINE
  8
1
 62
7
 10
-151.6288384902189
 20
-16.33566801018345
 30
0
 11
-146.9608757979245
 21
-13.64061849321983
 31
0
  0
LINE
  8
1
 62
7
 10
-152.6288384902188
 20
-5.883395530000001
 30
0
 11
-147.9608757979255
 21
-8.578445046962699
 31
0
  0
LINE
  8
1
 62
7
 10
-144.076904995103
 20
0.2087661138761376
 30
0
 11
-144.076904995103
 21
-5.181332920049254
 31
0
  0
LINE
  8
1
 62
7
 10
-134.5249714999871
 20
-4.151344722431176
 30
0
 11
-139.1929341922805
 21
-6.846394239393859
 31
0
  0
LINE
  8
1
 62
7
 10
-133.5249714999872
 20
-14.60361720261463
 30
0
 11
-138.1929341922806
 21
-11.90856768565192
 31
0
  0
LINE
  8
1
 62
7
 10
-142.076904995103
 20
-20.69577884649073
 30
0
 11
-142.076904995103
 21
-15.30567981256534
 31
0
  0
LINE
  8
1
 62
7
 10
-151.6288384902189
 20
-16.33566801018345
 30
0
 11
-146.9608757979245
 21
-13.64061849321983
 31
0
  0
LINE
  8
1
 62
7
 10
-152.6288384902188
 20
-5.883395530000001
 30
0
 11
-147.9608757979255
 21
-8.578445046962699
 31
0
  0
LINE
  8
1
 62
7
 10
-144.076904995103
 20
0.2087661138761376
 30
0
 11
-144.076904995103
 21
-5.181332920049254
 31
0
  0
LINE
  8
1
 62
7
 10
-134.5249714999871
 20
-4.151344722431176
 30
0
 11
-139.1929341922805
 21
-6.846394239393859
 31
0
  0
LINE
  8
1
 62
7
 10
-133.5249714999872
 20
-14.60361720261463
 30
0
 11
-138.1929341922806
 21
-11.90856768565192
 31
0
  0
LINE
  8
1
 62
7
 10
-142.076904995103
 20
-20.69577884649073
 30
0
 11
-142.076904995103
 21
-15.30567981256534
 31
0
  0
LINE
  8
1
 62
7
 10
-151.6288384902189
 20
-16.33566801018345
 30
0
 11
-146.9608757979245
 21
-13.64061849321983
 31
0
  0
LINE
  8
1
 62
7
 10
-152.6288384902188
 20
-5.883395530000001
 30
0
 11
-147.9608757979255
 21
-8.578445046962699
 31
0
  0
LINE
  8
1
 62
7
 10
-144.076904995103
 20
0.2087661138761376
 30
0
 11
-144.076904995103
 21
-5.181332920049254
 31
0
  0
LINE
  8
1
 62
7
 10
-134.5249714999871
 20
-4.151344722431176
 30
0
 11
-139.1929341922805
 21
-6.846394239393859
 31
0
  0
LINE
  8
1
 62
7
 10
-133.5249714999872
 20
-14.60361720261463
 30
0
 11
-138.1929341922806
 21
-11.90856768565192
 31
0
  0
LINE
  8
1
 62
7
 10
-142.076904995103
 20
-20.69577884649073
 30
0
 11
-142.076904995103
 21
-15.30567981256534
 31
0
  0
LINE
  8
1
 62
7
 10
-151.6288384902189
 20
-16.33566801018345
 30
0
 11
-146.9608757979245
 21
-13.64061849321983
 31
0
  0
LINE
  8
1
 62
7
 10
-152.6288384902188
 20
-5.883395530000001
 30
0
 11
-147.9608757979255
 21
-8.578445046962699
 31
0
  0
LINE
  8
1
 62
7
 10
-144.076904995103
 20
0.2087661138761376
 30
0
 11
-144.076904995103
 21
-5.181332920049254
 31
0
  0
LINE
  8
1
 62
7
 10
-134.5249714999871
 20
-4.151344722431176
 30
0
 11
-139.1929341922805
 21
-6.846394239393859
 31
0
  0
LINE
  8
1
 62
7
 10
-133.5249714999872
 20
-14.60361720261463
 30
0
 11
-138.1929341922806
 21
-11.90856768565192
 31
0
  0
LINE
  8
1
 62
7
 10
-142.076904995103
 20
-20.69577884649073
 30
0
 11
-142.076904995103
 21
-15.30567981256534
 31
0
  0
LINE
  8
1
 62
7
 10
-151.6288384902189
 20
-16.33566801018345
 30
0
 11
-146.9608757979245
 21
-13.64061849321983
 31
0
  0
LINE
  8
1
 62
7
 10
-152.6288384902188
 20
-5.883395530000001
 30
0
 11
-147.9608757979255
 21
-8.578445046962699
 31
0
  0
LINE
  8
1
 62
7
 10
-144.076904995103
 20
0.2087661138761376
 30
0
 11
-144.076904995103
 21
-5.181332920049254
 31
0
  0
LINE
  8
1
 62
7
 10
-134.5249714999871
 20
-4.151344722431176
 30
0
 11
-139.1929341922805
 21
-6.846394239393859
 31
0
  0
LINE
  8
1
 62
7
 10
-133.5249714999872
 20
-14.60361720261463
 30
0
 11
-138.1929341922806
 21
-11.90856768565192
 31
0
  0
LINE
  8
1
 62
7
 10
-142.076904995103
 20
-20.69577884649073
 30
0
 11
-142.076904995103
 21
-15.30567981256534
 31
0
  0
LINE
  8
1
 62
7
 10
-151.6288384902189
 20
-16.33566801018345
 30
0
 11
-146.9608757979245
 21
-13.64061849321983
 31
0
  0
LINE
  8
1
 62
7
 10
-152.6288384902188
 20
-5.883395530000001
 30
0
 11
-147.9608757979255
 21
-8.578445046962699
 31
0
  0
LINE
  8
1
 62
7
 10
-144.076904995103
 20
0.2087661138761376
 30
0
 11
-144.076904995103
 21
-5.181332920049254
 31
0
  0
LINE
  8
1
 62
7
 10
-134.5249714999871
 20
-4.151344722431176
 30
0
 11
-139.1929341922805
 21
-6.846394239393859
 31
0
  0
LINE
  8
1
 62
7
 10
-133.5249714999872
 20
-14.60361720261463
 30
0
 11
-138.1929341922806
 21
-11.90856768565192
 31
0
  0
LINE
  8
1
 62
7
 10
-142.076904995103
 20
-20.69577884649073
 30
0
 11
-142.076904995103
 21
-15.30567981256534
 31
0
  0
LINE
  8
1
 62
7
 10
-151.6288384902189
 20
-16.33566801018345
 30
0
 11
-146.9608757979245
 21
-13.64061849321983
 31
0
  0
LINE
  8
1
 62
7
 10
-152.6288384902188
 20
-5.883395530000001
 30
0
 11
-147.9608757979255
 21
-8.578445046962699
 31
0
  0
LINE
  8
1
 62
7
 10
-144.076904995103
 20
0.2087661138761376
 30
0
 11
-144.076904995103
 21
-5.181332920049254
 31
0
  0
LINE
  8
1
 62
7
 10
-134.5249714999871
 20
-4.151344722431176
 30
0
 11
-139.1929341922805
 21
-6.846394239393859
 31
0
  0
LINE
  8
1
 62
7
 10
-133.5249714999872
 20
-14.60361720261463
 30
0
 11
-138.1929341922806
 21
-11.90856768565192
 31
0
  0
LINE
  8
1
 62
7
 10
-142.076904995103
 20
-20.69577884649073
 30
0
 11
-142.076904995103
 21
-15.30567981256534
 31
0
  0
LINE
  8
1
 62
7
 10
-151.6288384902189
 20
-16.33566801018345
 30
0
 11
-146.9608757979245
 21
-13.64061849321983
 31
0
  0
LINE
  8
1
 62
7
 10
-152.6288384902188
 20
-5.883395530000001
 30
0
 11
-147.9608757979255
 21
-8.578445046962699
 31
0
  0
LINE
  8
1
 62
7
 10
-144.076904995103
 20
0.2087661138761376
 30
0
 11
-144.076904995103
 21
-5.181332920049254
 31
0
  0
LINE
  8
1
 62
7
 10
-134.5249714999871
 20
-4.151344722431176
 30
0
 11
-139.1929341922805
 21
-6.846394239393859
 31
0
  0
LINE
  8
1
 62
7
 10
-133.5249714999872
 20
-14.60361720261463
 30
0
 11
-138.1929341922806
 21
-11.90856768565192
 31
0
  0
LINE
  8
1
 62
7
 10
-142.076904995103
 20
-20.69577884649073
 30
0
 11
-142.076904995103
 21
-15.30567981256534
 31
0
  0
LINE
  8
1
 62
7
 10
-151.6288384902189
 20
-16.33566801018345
 30
0
 11
-146.9608757979245
 21
-13.64061849321983
 31
0
  0
LINE
  8
1
 62
7
 10
-152.6288384902188
 20
-5.883395530000001
 30
0
 11
-147.9608757979255
 21
-8.578445046962699
 31
0
  0
LINE
  8
1
 62
7
 10
-144.076904995103
 20
0.2087661138761376
 30
0
 11
-144.076904995103
 21
-5.181332920049254
 31
0
  0
LINE
  8
1
 62
7
 10
-134.5249714999871
 20
-4.151344722431176
 30
0
 11
-139.1929341922805
 21
-6.846394239393859
 31
0
  0
LINE
  8
1
 62
7
 10
-133.5249714999872
 20
-14.60361720261463
 30
0
 11
-138.1929341922806
 21
-11.90856768565192
 31
0
  0
LINE
  8
1
 62
7
 10
-142.076904995103
 20
-20.69577884649073
 30
0
 11
-142.076904995103
 21
-15.30567981256534
 31
0
  0
LINE
  8
1
 62
7
 10
-151.6288384902189
 20
-16.33566801018345
 30
0
 11
-146.9608757979245
 21
-13.64061849321983
 31
0
  0
LINE
  8
1
 62
7
 10
-152.6288384902188
 20
-5.883395530000001
 30
0
 11
-147.9608757979255
 21
-8.578445046962699
 31
0
  0
LINE
  8
1
 62
7
 10
-144.076904995103
 20
0.2087661138761376
 30
0
 11
-144.076904995103
 21
-5.181332920049254
 31
0
  0
LINE
  8
1
 62
7
 10
-134.5249714999871
 20
-4.151344722431176
 30
0
 11
-139.1929341922805
 21
-6.846394239393859
 31
0
  0
LINE
  8
1
 62
7
 10
-133.5249714999872
 20
-14.60361720261463
 30
0
 11
-138.1929341922806
 21
-11.90856768565192
 31
0
  0
LINE
  8
1
 62
7
 10
-142.076904995103
 20
-20.69577884649073
 30
0
 11
-142.076904995103
 21
-15.30567981256534
 31
0
  0
LINE
  8
1
 62
7
 10
-151.6288384902189
 20
-16.33566801018345
 30
0
 11
-146.9608757979245
 21
-13.64061849321983
 31
0
  0
LINE
  8
1
 62
7
 10
-152.6288384902188
 20
-5.883395530000001
 30
0
 11
-147.9608757979255
 21
-8.578445046962699
 31
0
  0
LINE
  8
1
 62
7
 10
-144.076904995103
 20
0.2087661138761376
 30
0
 11
-144.076904995103
 21
-5.181332920049254
 31
0
  0
LINE
  8
1
 62
7
 10
-134.5249714999871
 20
-4.151344722431176
 30
0
 11
-139.1929341922805
 21
-6.846394239393859
 31
0
  0
LINE
  8
1
 62
7
 10
-133.5249714999872
 20
-14.60361720261463
 30
0
 11
-138.1929341922806
 21
-11.90856768565192
 31
0
  0
LINE
  8
1
 62
7
 10
-142.076904995103
 20
-20.69577884649073
 30
0
 11
-142.076904995103
 21
-15.30567981256534
 31
0
  0
LINE
  8
1
 62
7
 10
-151.6288384902189
 20
-16.33566801018345
 30
0
 11
-146.9608757979245
 21
-13.64061849321983
 31
0
  0
LINE
  8
1
 62
7
 10
-152.6288384902188
 20
-5.883395530000001
 30
0
 11
-147.9608757979255
 21
-8.578445046962699
 31
0
  0
LINE
  8
1
 62
7
 10
-144.076904995103
 20
0.2087661138761376
 30
0
 11
-144.076904995103
 21
-5.181332920049254
 31
0
  0
LINE
  8
1
 62
7
 10
-134.5249714999871
 20
-4.151344722431176
 30
0
 11
-139.1929341922805
 21
-6.846394239393859
 31
0
  0
LINE
  8
1
 62
7
 10
-133.5249714999872
 20
-14.60361720261463
 30
0
 11
-138.1929341922806
 21
-11.90856768565192
 31
0
  0
LINE
  8
1
 62
7
 10
-142.076904995103
 20
-20.69577884649073
 30
0
 11
-142.076904995103
 21
-15.30567981256534
 31
0
  0
LINE
  8
1
 62
7
 10
-151.6288384902189
 20
-16.33566801018345
 30
0
 11
-146.9608757979245
 21
-13.64061849321983
 31
0
  0
LINE
  8
1
 62
7
 10
-152.6288384902188
 20
-5.883395530000001
 30
0
 11
-147.9608757979255
 21
-8.578445046962699
 31
0
  0
LINE
  8
1
 62
7
 10
-144.076904995103
 20
0.2087661138761376
 30
0
 11
-144.076904995103
 21
-5.181332920049254
 31
0
  0
LINE
  8
1
 62
7
 10
-134.5249714999871
 20
-4.151344722431176
 30
0
 11
-139.1929341922805
 21
-6.846394239393859
 31
0
  0
LINE
  8
1
 62
7
 10
-133.5249714999872
 20
-14.60361720261463
 30
0
 11
-138.1929341922806
 21
-11.90856768565192
 31
0
  0
LINE
  8
1
 62
7
 10
-142.076904995103
 20
-20.69577884649073
 30
0
 11
-142.076904995103
 21
-15.30567981256534
 31
0
  0
LINE
  8
1
 62
7
 10
-151.6288384902189
 20
-16.33566801018345
 30
0
 11
-146.9608757979245
 21
-13.64061849321983
 31
0
  0
LINE
  8
1
 62
7
 10
-152.6288384902188
 20
-5.883395530000001
 30
0
 11
-147.9608757979255
 21
-8.578445046962699
 31
0
  0
LINE
  8
1
 62
7
 10
-144.076904995103
 20
0.2087661138761376
 30
0
 11
-144.076904995103
 21
-5.181332920049254
 31
0
  0
LINE
  8
1
 62
7
 10
-134.5249714999871
 20
-4.151344722431176
 30
0
 11
-139.1929341922805
 21
-6.846394239393859
 31
0
  0
LINE
  8
1
 62
7
 10
-133.5249714999872
 20
-14.60361720261463
 30
0
 11
-138.1929341922806
 21
-11.90856768565192
 31
0
  0
LINE
  8
1
 62
7
 10
-142.076904995103
 20
-20.69577884649073
 30
0
 11
-142.076904995103
 21
-15.30567981256534
 31
0
  0
LINE
  8
1
 62
7
 10
-151.6288384902189
 20
-16.33566801018345
 30
0
 11
-146.9608757979245
 21
-13.64061849321983
 31
0
  0
LINE
  8
1
 62
7
 10
-152.6288384902188
 20
-5.883395530000001
 30
0
 11
-147.9608757979255
 21
-8.578445046962699
 31
0
  0
LINE
  8
1
 62
7
 10
-144.076904995103
 20
0.2087661138761376
 30
0
 11
-144.076904995103
 21
-5.181332920049254
 31
0
  0
LINE
  8
1
 62
7
 10
-134.5249714999871
 20
-4.151344722431176
 30
0
 11
-139.1929341922805
 21
-6.846394239393859
 31
0
  0
LINE
  8
1
 62
7
 10
-133.5249714999872
 20
-14.60361720261463
 30
0
 11
-138.1929341922806
 21
-11.90856768565192
 31
0
  0
LINE
  8
1
 62
7
 10
-142.076904995103
 20
-20.69577884649073
 30
0
 11
-142.076904995103
 21
-15.30567981256534
 31
0
  0
LINE
  8
1
 62
7
 10
-151.6288384902189
 20
-16.33566801018345
 30
0
 11
-146.9608757979245
 21
-13.64061849321983
 31
0
  0
LINE
  8
1
 62
7
 10
-152.6288384902188
 20
-5.883395530000001
 30
0
 11
-147.9608757979255
 21
-8.578445046962699
 31
0
  0
LINE
  8
1
 62
7
 10
-144.076904995103
 20
0.2087661138761376
 30
0
 11
-144.076904995103
 21
-5.181332920049254
 31
0
  0
LINE
  8
1
 62
7
 10
-134.5249714999871
 20
-4.151344722431176
 30
0
 11
-139.1929341922805
 21
-6.846394239393859
 31
0
  0
LINE
  8
1
 62
7
 10
-133.5249714999872
 20
-14.60361720261463
 30
0
 11
-138.1929341922806
 21
-11.90856768565192
 31
0
  0
LINE
  8
1
 62
7
 10
-142.076904995103
 20
-20.69577884649073
 30
0
 11
-142.076904995103
 21
-15.30567981256534
 31
0
  0
LINE
  8
1
 62
7
 10
-151.6288384902189
 20
-16.33566801018345
 30
0
 11
-146.9608757979245
 21
-13.64061849321983
 31
0
  0
LINE
  8
1
 62
7
 10
-152.6288384902188
 20
-5.883395530000001
 30
0
 11
-147.9608757979255
 21
-8.578445046962699
 31
0
  0
LINE
  8
1
 62
7
 10
-144.076904995103
 20
0.2087661138761376
 30
0
 11
-144.076904995103
 21
-5.181332920049254
 31
0
  0
LINE
  8
1
 62
7
 10
-134.5249714999871
 20
-4.151344722431176
 30
0
 11
-139.1929341922805
 21
-6.846394239393859
 31
0
  0
LINE
  8
1
 62
7
 10
-133.5249714999872
 20
-14.60361720261463
 30
0
 11
-138.1929341922806
 21
-11.90856768565192
 31
0
  0
LINE
  8
1
 62
7
 10
-142.076904995103
 20
-20.69577884649073
 30
0
 11
-142.076904995103
 21
-15.30567981256534
 31
0
  0
LINE
  8
1
 62
7
 10
-151.6288384902189
 20
-16.33566801018345
 30
0
 11
-146.9608757979245
 21
-13.64061849321983
 31
0
  0
LINE
  8
1
 62
7
 10
-152.6288384902188
 20
-5.883395530000001
 30
0
 11
-147.9608757979255
 21
-8.578445046962699
 31
0
  0
LINE
  8
1
 62
7
 10
-144.076904995103
 20
0.2087661138761376
 30
0
 11
-144.076904995103
 21
-5.181332920049254
 31
0
  0
LINE
  8
1
 62
7
 10
-134.5249714999871
 20
-4.151344722431176
 30
0
 11
-139.1929341922805
 21
-6.846394239393859
 31
0
  0
LINE
  8
1
 62
7
 10
-133.5249714999872
 20
-14.60361720261463
 30
0
 11
-138.1929341922806
 21
-11.90856768565192
 31
0
  0
LINE
  8
1
 62
7
 10
-142.076904995103
 20
-20.69577884649073
 30
0
 11
-142.076904995103
 21
-15.30567981256534
 31
0
  0
LINE
  8
1
 62
7
 10
-151.6288384902189
 20
-16.33566801018345
 30
0
 11
-146.9608757979245
 21
-13.64061849321983
 31
0
  0
LINE
  8
1
 62
7
 10
-152.6288384902188
 20
-5.883395530000001
 30
0
 11
-147.9608757979255
 21
-8.578445046962699
 31
0
  0
LINE
  8
1
 62
7
 10
-144.076904995103
 20
0.2087661138761376
 30
0
 11
-144.076904995103
 21
-5.181332920049254
 31
0
  0
LINE
  8
1
 62
7
 10
-134.5249714999871
 20
-4.151344722431176
 30
0
 11
-139.1929341922805
 21
-6.846394239393859
 31
0
  0
LINE
  8
1
 62
7
 10
-133.5249714999872
 20
-14.60361720261463
 30
0
 11
-138.1929341922806
 21
-11.90856768565192
 31
0
  0
LINE
  8
1
 62
7
 10
-142.076904995103
 20
-20.69577884649073
 30
0
 11
-142.076904995103
 21
-15.30567981256534
 31
0
  0
LINE
  8
1
 62
7
 10
-151.6288384902189
 20
-16.33566801018345
 30
0
 11
-146.9608757979245
 21
-13.64061849321983
 31
0
  0
LINE
  8
1
 62
7
 10
-152.6288384902188
 20
-5.883395530000001
 30
0
 11
-147.9608757979255
 21
-8.578445046962699
 31
0
  0
LINE
  8
1
 62
7
 10
-144.076904995103
 20
0.2087661138761376
 30
0
 11
-144.076904995103
 21
-5.181332920049254
 31
0
  0
LINE
  8
1
 62
7
 10
-134.5249714999871
 20
-4.151344722431176
 30
0
 11
-139.1929341922805
 21
-6.846394239393859
 31
0
  0
LINE
  8
1
 62
7
 10
-133.5249714999872
 20
-14.60361720261463
 30
0
 11
-138.1929341922806
 21
-11.90856768565192
 31
0
  0
LINE
  8
1
 62
7
 10
-142.076904995103
 20
-20.69577884649073
 30
0
 11
-142.076904995103
 21
-15.30567981256534
 31
0
  0
LINE
  8
1
 62
7
 10
-151.6288384902189
 20
-16.33566801018345
 30
0
 11
-146.9608757979245
 21
-13.64061849321983
 31
0
  0
LINE
  8
1
 62
7
 10
-152.6288384902188
 20
-5.883395530000001
 30
0
 11
-147.9608757979255
 21
-8.578445046962699
 31
0
  0
LINE
  8
1
 62
7
 10
-134.5249714999871
 20
-4.151344722431176
 30
0
 11
-139.1929341922805
 21
-6.846394239393859
 31
0
  0
LINE
  8
1
 62
7
 10
-133.5249714999872
 20
-14.60361720261463
 30
0
 11
-138.1929341922806
 21
-11.90856768565192
 31
0
  0
LINE
  8
1
 62
7
 10
-142.076904995103
 20
-20.69577884649073
 30
0
 11
-142.076904995103
 21
-15.30567981256534
 31
0
  0
LINE
  8
1
 62
7
 10
-151.6288384902189
 20
-16.33566801018345
 30
0
 11
-146.9608757979245
 21
-13.64061849321983
 31
0
  0
LINE
  8
1
 62
7
 10
-152.6288384902188
 20
-5.883395530000001
 30
0
 11
-147.9608757979255
 21
-8.578445046962699
 31
0
  0
LINE
  8
1
 62
7
 10
-134.5249714999871
 20
-4.151344722431176
 30
0
 11
-139.1929341922805
 21
-6.846394239393859
 31
0
  0
LINE
  8
1
 62
7
 10
-133.5249714999872
 20
-14.60361720261463
 30
0
 11
-138.1929341922806
 21
-11.90856768565192
 31
0
  0
LINE
  8
1
 62
7
 10
-142.076904995103
 20
-20.69577884649073
 30
0
 11
-142.076904995103
 21
-15.30567981256534
 31
0
  0
LINE
  8
1
 62
7
 10
-151.6288384902189
 20
-16.33566801018345
 30
0
 11
-146.9608757979245
 21
-13.64061849321983
 31
0
  0
LINE
  8
1
 62
7
 10
-152.6288384902188
 20
-5.883395530000001
 30
0
 11
-147.9608757979255
 21
-8.578445046962699
 31
0
  0
LINE
  8
1
 62
7
 10
-134.5249714999871
 20
-4.151344722431176
 30
0
 11
-139.1929341922805
 21
-6.846394239393859
 31
0
  0
LINE
  8
1
 62
7
 10
-133.5249714999872
 20
-14.60361720261463
 30
0
 11
-138.1929341922806
 21
-11.90856768565192
 31
0
  0
LINE
  8
1
 62
7
 10
-142.076904995103
 20
-20.69577884649073
 30
0
 11
-142.076904995103
 21
-15.30567981256534
 31
0
  0
LINE
  8
1
 62
7
 10
-151.6288384902189
 20
-16.33566801018345
 30
0
 11
-146.9608757979245
 21
-13.64061849321983
 31
0
  0
LINE
  8
1
 62
7
 10
-152.6288384902188
 20
-5.883395530000001
 30
0
 11
-147.9608757979255
 21
-8.578445046962699
 31
0
  0
LINE
  8
1
 62
7
 10
-134.5249714999871
 20
-4.151344722431176
 30
0
 11
-139.1929341922805
 21
-6.846394239393859
 31
0
  0
LINE
  8
1
 62
7
 10
-133.5249714999872
 20
-14.60361720261463
 30
0
 11
-138.1929341922806
 21
-11.90856768565192
 31
0
  0
LINE
  8
1
 62
7
 10
-142.076904995103
 20
-20.69577884649073
 30
0
 11
-142.076904995103
 21
-15.30567981256534
 31
0
  0
LINE
  8
1
 62
7
 10
-151.6288384902189
 20
-16.33566801018345
 30
0
 11
-146.9608757979245
 21
-13.64061849321983
 31
0
  0
LINE
  8
1
 62
7
 10
-152.6288384902188
 20
-5.883395530000001
 30
0
 11
-147.9608757979255
 21
-8.578445046962699
 31
0
  0
LINE
  8
1
 62
7
 10
-134.5249714999871
 20
-4.151344722431176
 30
0
 11
-139.1929341922805
 21
-6.846394239393859
 31
0
  0
LINE
  8
1
 62
7
 10
-133.5249714999872
 20
-14.60361720261463
 30
0
 11
-138.1929341922806
 21
-11.90856768565192
 31
0
  0
LINE
  8
1
 62
7
 10
-142.076904995103
 20
-20.69577884649073
 30
0
 11
-142.076904995103
 21
-15.30567981256534
 31
0
  0
LINE
  8
1
 62
7
 10
-151.6288384902189
 20
-16.33566801018345
 30
0
 11
-146.9608757979245
 21
-13.64061849321983
 31
0
  0
LINE
  8
1
 62
7
 10
-152.6288384902188
 20
-5.883395530000001
 30
0
 11
-147.9608757979255
 21
-8.578445046962699
 31
0
  0
LINE
  8
1
 62
7
 10
-134.5249714999871
 20
-4.151344722431176
 30
0
 11
-139.1929341922805
 21
-6.846394239393859
 31
0
  0
LINE
  8
1
 62
7
 10
-133.5249714999872
 20
-14.60361720261463
 30
0
 11
-138.1929341922806
 21
-11.90856768565192
 31
0
  0
LINE
  8
1
 62
7
 10
-142.076904995103
 20
-20.69577884649073
 30
0
 11
-142.076904995103
 21
-15.30567981256534
 31
0
  0
LINE
  8
1
 62
7
 10
-151.6288384902189
 20
-16.33566801018345
 30
0
 11
-146.9608757979245
 21
-13.64061849321983
 31
0
  0
LINE
  8
1
 62
7
 10
-152.6288384902188
 20
-5.883395530000001
 30
0
 11
-147.9608757979255
 21
-8.578445046962699
 31
0
  0
LINE
  8
1
 62
7
 10
-134.5249714999871
 20
-4.151344722431176
 30
0
 11
-139.1929341922805
 21
-6.846394239393859
 31
0
  0
LINE
  8
1
 62
7
 10
-133.5249714999872
 20
-14.60361720261463
 30
0
 11
-138.1929341922806
 21
-11.90856768565192
 31
0
  0
LINE
  8
1
 62
7
 10
-142.076904995103
 20
-20.69577884649073
 30
0
 11
-142.076904995103
 21
-15.30567981256534
 31
0
  0
LINE
  8
1
 62
7
 10
-151.6288384902189
 20
-16.33566801018345
 30
0
 11
-146.9608757979245
 21
-13.64061849321983
 31
0
  0
LINE
  8
1
 62
7
 10
-152.6288384902188
 20
-5.883395530000001
 30
0
 11
-147.9608757979255
 21
-8.578445046962699
 31
0
  0
LINE
  8
1
 62
7
 10
-134.5249714999871
 20
-4.151344722431176
 30
0
 11
-139.1929341922805
 21
-6.846394239393859
 31
0
  0
LINE
  8
1
 62
7
 10
-133.5249714999872
 20
-14.60361720261463
 30
0
 11
-138.1929341922806
 21
-11.90856768565192
 31
0
  0
LINE
  8
1
 62
7
 10
-142.076904995103
 20
-20.69577884649073
 30
0
 11
-142.076904995103
 21
-15.30567981256534
 31
0
  0
LINE
  8
1
 62
7
 10
-151.6288384902189
 20
-16.33566801018345
 30
0
 11
-146.9608757979245
 21
-13.64061849321983
 31
0
  0
LINE
  8
1
 62
7
 10
-152.6288384902188
 20
-5.883395530000001
 30
0
 11
-147.9608757979255
 21
-8.578445046962699
 31
0
  0
LINE
  8
1
 62
7
 10
-134.5249714999871
 20
-4.151344722431176
 30
0
 11
-139.1929341922805
 21
-6.846394239393859
 31
0
  0
LINE
  8
1
 62
7
 10
-133.5249714999872
 20
-14.60361720261463
 30
0
 11
-138.1929341922806
 21
-11.90856768565192
 31
0
  0
LINE
  8
1
 62
7
 10
-142.076904995103
 20
-20.69577884649073
 30
0
 11
-142.076904995103
 21
-15.30567981256534
 31
0
  0
LINE
  8
1
 62
7
 10
-151.6288384902189
 20
-16.33566801018345
 30
0
 11
-146.9608757979245
 21
-13.64061849321983
 31
0
  0
LINE
  8
1
 62
7
 10
-152.6288384902188
 20
-5.883395530000001
 30
0
 11
-147.9608757979255
 21
-8.578445046962699
 31
0
  0
LINE
  8
1
 62
7
 10
-134.5249714999871
 20
-4.151344722431176
 30
0
 11
-139.1929341922805
 21
-6.846394239393859
 31
0
  0
LINE
  8
1
 62
7
 10
-133.5249714999872
 20
-14.60361720261463
 30
0
 11
-138.1929341922806
 21
-11.90856768565192
 31
0
  0
LINE
  8
1
 62
7
 10
-142.076904995103
 20
-20.69577884649073
 30
0
 11
-142.076904995103
 21
-15.30567981256534
 31
0
  0
LINE
  8
1
 62
7
 10
-151.6288384902189
 20
-16.33566801018345
 30
0
 11
-146.9608757979245
 21
-13.64061849321983
 31
0
  0
LINE
  8
1
 62
7
 10
-152.6288384902188
 20
-5.883395530000001
 30
0
 11
-147.9608757979255
 21
-8.578445046962699
 31
0
  0
LINE
  8
1
 62
7
 10
-134.5249714999871
 20
-4.151344722431176
 30
0
 11
-139.1929341922805
 21
-6.846394239393859
 31
0
  0
LINE
  8
1
 62
7
 10
-133.5249714999872
 20
-14.60361720261463
 30
0
 11
-138.1929341922806
 21
-11.90856768565192
 31
0
  0
LINE
  8
1
 62
7
 10
-142.076904995103
 20
-20.69577884649073
 30
0
 11
-142.076904995103
 21
-15.30567981256534
 31
0
  0
LINE
  8
1
 62
7
 10
-151.6288384902189
 20
-16.33566801018345
 30
0
 11
-146.9608757979245
 21
-13.64061849321983
 31
0
  0
LINE
  8
1
 62
7
 10
-152.6288384902188
 20
-5.883395530000001
 30
0
 11
-147.9608757979255
 21
-8.578445046962699
 31
0
  0
LINE
  8
1
 62
7
 10
-134.5249714999871
 20
-4.151344722431176
 30
0
 11
-139.1929341922805
 21
-6.846394239393859
 31
0
  0
LINE
  8
1
 62
7
 10
-133.5249714999872
 20
-14.60361720261463
 30
0
 11
-138.1929341922806
 21
-11.90856768565192
 31
0
  0
LINE
  8
1
 62
7
 10
-142.076904995103
 20
-20.69577884649073
 30
0
 11
-142.076904995103
 21
-15.30567981256534
 31
0
  0
LINE
  8
1
 62
7
 10
-151.6288384902189
 20
-16.33566801018345
 30
0
 11
-146.9608757979245
 21
-13.64061849321983
 31
0
  0
LINE
  8
1
 62
7
 10
-152.6288384902188
 20
-5.883395530000001
 30
0
 11
-147.9608757979255
 21
-8.578445046962699
 31
0
  0
LINE
  8
1
 62
7
 10
-134.5249714999871
 20
-4.151344722431176
 30
0
 11
-139.1929341922805
 21
-6.846394239393859
 31
0
  0
LINE
  8
1
 62
7
 10
-133.5249714999872
 20
-14.60361720261463
 30
0
 11
-138.1929341922806
 21
-11.90856768565192
 31
0
  0
LINE
  8
1
 62
7
 10
-142.076904995103
 20
-20.69577884649073
 30
0
 11
-142.076904995103
 21
-15.30567981256534
 31
0
  0
LINE
  8
1
 62
7
 10
-151.6288384902189
 20
-16.33566801018345
 30
0
 11
-146.9608757979245
 21
-13.64061849321983
 31
0
  0
LINE
  8
1
 62
7
 10
-152.6288384902188
 20
-5.883395530000001
 30
0
 11
-147.9608757979255
 21
-8.578445046962699
 31
0
  0
LINE
  8
1
 62
7
 10
-142.076904995103
 20
0.2087661138761376
 30
0
 11
-142.076904995103
 21
-5.181332920049254
 31
0
  0
LINE
  8
1
 62
7
 10
-144.076904995103
 20
0.2087661138761376
 30
0
 11
-144.076904995103
 21
-5.181332920049254
 31
0
  0
LINE
  8
1
 62
7
 10
-133.5249714999871
 20
-5.883395530000058
 30
0
 11
-138.1929341922805
 21
-8.578445046962742
 31
0
  0
LINE
  8
1
 62
7
 10
-134.5249714999871
 20
-4.151344722431176
 30
0
 11
-139.1929341922805
 21
-6.846394239393859
 31
0
  0
LINE
  8
1
 62
7
 10
-134.5249714999872
 20
-16.3356680101835
 30
0
 11
-139.1929341922806
 21
-13.64061849322079
 31
0
  0
LINE
  8
1
 62
7
 10
-133.5249714999872
 20
-14.60361720261463
 30
0
 11
-138.1929341922806
 21
-11.90856768565192
 31
0
  0
LINE
  8
1
 62
7
 10
-142.076904995103
 20
-20.69577884649073
 30
0
 11
-142.076904995103
 21
-15.30567981256534
 31
0
  0
LINE
  8
1
 62
7
 10
-152.6288384902189
 20
-14.60361720261457
 30
0
 11
-147.9608757979255
 21
-11.90856768565189
 31
0
  0
LINE
  8
1
 62
7
 10
-151.6288384902189
 20
-16.33566801018345
 30
0
 11
-146.9608757979245
 21
-13.64061849321983
 31
0
  0
LINE
  8
1
 62
7
 10
-151.6288384902188
 20
-4.151344722431119
 30
0
 11
-146.9608757979255
 21
-6.846394239393817
 31
0
  0
LINE
  8
1
 62
7
 10
-152.6288384902188
 20
-5.883395530000001
 30
0
 11
-147.9608757979255
 21
-8.578445046962699
 31
0
  0
LINE
  8
1
 62
7
 10
-142.076904995103
 20
0.2087661138761376
 30
0
 11
-142.076904995103
 21
-5.181332920049254
 31
0
  0
LINE
  8
1
 62
7
 10
-144.076904995103
 20
0.2087661138761376
 30
0
 11
-144.076904995103
 21
-5.181332920049254
 31
0
  0
LINE
  8
1
 62
7
 10
-133.5249714999871
 20
-5.883395530000058
 30
0
 11
-138.1929341922805
 21
-8.578445046962742
 31
0
  0
LINE
  8
1
 62
7
 10
-134.5249714999871
 20
-4.151344722431176
 30
0
 11
-139.1929341922805
 21
-6.846394239393859
 31
0
  0
LINE
  8
1
 62
7
 10
-134.5249714999872
 20
-16.3356680101835
 30
0
 11
-139.1929341922806
 21
-13.64061849322079
 31
0
  0
LINE
  8
1
 62
7
 10
-133.5249714999872
 20
-14.60361720261463
 30
0
 11
-138.1929341922806
 21
-11.90856768565192
 31
0
  0
LINE
  8
1
 62
7
 10
-142.076904995103
 20
-20.69577884649073
 30
0
 11
-142.076904995103
 21
-15.30567981256534
 31
0
  0
LINE
  8
1
 62
7
 10
-152.6288384902189
 20
-14.60361720261457
 30
0
 11
-147.9608757979255
 21
-11.90856768565189
 31
0
  0
LINE
  8
1
 62
7
 10
-151.6288384902189
 20
-16.33566801018345
 30
0
 11
-146.9608757979245
 21
-13.64061849321983
 31
0
  0
LINE
  8
1
 62
7
 10
-151.6288384902188
 20
-4.151344722431119
 30
0
 11
-146.9608757979255
 21
-6.846394239393817
 31
0
  0
LINE
  8
1
 62
7
 10
-152.6288384902188
 20
-5.883395530000001
 30
0
 11
-147.9608757979255
 21
-8.578445046962699
 31
0
  0
LINE
  8
1
 62
7
 10
-142.076904995103
 20
0.2087661138761376
 30
0
 11
-142.076904995103
 21
-5.181332920049254
 31
0
  0
LINE
  8
1
 62
7
 10
-144.076904995103
 20
0.2087661138761376
 30
0
 11
-144.076904995103
 21
-5.181332920049254
 31
0
  0
LINE
  8
1
 62
7
 10
-133.5249714999871
 20
-5.883395530000058
 30
0
 11
-138.1929341922805
 21
-8.578445046962742
 31
0
  0
LINE
  8
1
 62
7
 10
-134.5249714999871
 20
-4.151344722431176
 30
0
 11
-139.1929341922805
 21
-6.846394239393859
 31
0
  0
LINE
  8
1
 62
7
 10
-134.5249714999872
 20
-16.3356680101835
 30
0
 11
-139.1929341922806
 21
-13.64061849322079
 31
0
  0
LINE
  8
1
 62
7
 10
-133.5249714999872
 20
-14.60361720261463
 30
0
 11
-138.1929341922806
 21
-11.90856768565192
 31
0
  0
LINE
  8
1
 62
7
 10
-142.076904995103
 20
-20.69577884649073
 30
0
 11
-142.076904995103
 21
-15.30567981256534
 31
0
  0
LINE
  8
1
 62
7
 10
-152.6288384902189
 20
-14.60361720261457
 30
0
 11
-147.9608757979255
 21
-11.90856768565189
 31
0
  0
LINE
  8
1
 62
7
 10
-151.6288384902189
 20
-16.33566801018345
 30
0
 11
-146.9608757979245
 21
-13.64061849321983
 31
0
  0
LINE
  8
1
 62
7
 10
-151.6288384902188
 20
-4.151344722431119
 30
0
 11
-146.9608757979255
 21
-6.846394239393817
 31
0
  0
LINE
  8
1
 62
7
 10
-152.6288384902188
 20
-5.883395530000001
 30
0
 11
-147.9608757979255
 21
-8.578445046962699
 31
0
  0
LINE
  8
1
 62
7
 10
-142.076904995103
 20
0.2087661138761376
 30
0
 11
-142.076904995103
 21
-5.181332920049254
 31
0
  0
LINE
  8
1
 62
7
 10
-144.076904995103
 20
0.2087661138761376
 30
0
 11
-144.076904995103
 21
-5.181332920049254
 31
0
  0
LINE
  8
1
 62
7
 10
-133.5249714999871
 20
-5.883395530000058
 30
0
 11
-138.1929341922805
 21
-8.578445046962742
 31
0
  0
LINE
  8
1
 62
7
 10
-134.5249714999871
 20
-4.151344722431176
 30
0
 11
-139.1929341922805
 21
-6.846394239393859
 31
0
  0
LINE
  8
1
 62
7
 10
-134.5249714999872
 20
-16.3356680101835
 30
0
 11
-139.1929341922806
 21
-13.64061849322079
 31
0
  0
LINE
  8
1
 62
7
 10
-133.5249714999872
 20
-14.60361720261463
 30
0
 11
-138.1929341922806
 21
-11.90856768565192
 31
0
  0
LINE
  8
1
 62
7
 10
-142.076904995103
 20
-20.69577884649073
 30
0
 11
-142.076904995103
 21
-15.30567981256534
 31
0
  0
LINE
  8
1
 62
7
 10
-152.6288384902189
 20
-14.60361720261457
 30
0
 11
-147.9608757979255
 21
-11.90856768565189
 31
0
  0
LINE
  8
1
 62
7
 10
-151.6288384902189
 20
-16.33566801018345
 30
0
 11
-146.9608757979245
 21
-13.64061849321983
 31
0
  0
LINE
  8
1
 62
7
 10
-151.6288384902188
 20
-4.151344722431119
 30
0
 11
-146.9608757979255
 21
-6.846394239393817
 31
0
  0
LINE
  8
1
 62
7
 10
-152.6288384902188
 20
-5.883395530000001
 30
0
 11
-147.9608757979255
 21
-8.578445046962699
 31
0
  0
LINE
  8
1
 62
7
 10
-142.076904995103
 20
0.2087661138761376
 30
0
 11
-142.076904995103
 21
-5.181332920049254
 31
0
  0
LINE
  8
1
 62
7
 10
-144.076904995103
 20
0.2087661138761376
 30
0
 11
-144.076904995103
 21
-5.181332920049254
 31
0
  0
LINE
  8
1
 62
7
 10
-133.5249714999871
 20
-5.883395530000058
 30
0
 11
-138.1929341922805
 21
-8.578445046962742
 31
0
  0
LINE
  8
1
 62
7
 10
-134.5249714999871
 20
-4.151344722431176
 30
0
 11
-139.1929341922805
 21
-6.846394239393859
 31
0
  0
LINE
  8
1
 62
7
 10
-134.5249714999872
 20
-16.3356680101835
 30
0
 11
-139.1929341922806
 21
-13.64061849322079
 31
0
  0
LINE
  8
1
 62
7
 10
-133.5249714999872
 20
-14.60361720261463
 30
0
 11
-138.1929341922806
 21
-11.90856768565192
 31
0
  0
LINE
  8
1
 62
7
 10
-142.076904995103
 20
-20.69577884649073
 30
0
 11
-142.076904995103
 21
-15.30567981256534
 31
0
  0
LINE
  8
1
 62
7
 10
-152.6288384902189
 20
-14.60361720261457
 30
0
 11
-147.9608757979255
 21
-11.90856768565189
 31
0
  0
LINE
  8
1
 62
7
 10
-151.6288384902189
 20
-16.33566801018345
 30
0
 11
-146.9608757979245
 21
-13.64061849321983
 31
0
  0
LINE
  8
1
 62
7
 10
-152.6288384902188
 20
-5.883395530000001
 30
0
 11
-147.9608757979255
 21
-8.578445046962699
 31
0
  0
LINE
  8
1
 62
7
 10
-142.076904995103
 20
0.2087661138761376
 30
0
 11
-142.076904995103
 21
-5.181332920049254
 31
0
  0
LINE
  8
1
 62
7
 10
-144.076904995103
 20
0.2087661138761376
 30
0
 11
-144.076904995103
 21
-5.181332920049254
 31
0
  0
LINE
  8
1
 62
7
 10
-133.5249714999871
 20
-5.883395530000058
 30
0
 11
-138.1929341922805
 21
-8.578445046962742
 31
0
  0
LINE
  8
1
 62
7
 10
-134.5249714999871
 20
-4.151344722431176
 30
0
 11
-139.1929341922805
 21
-6.846394239393859
 31
0
  0
LINE
  8
1
 62
7
 10
-134.5249714999872
 20
-16.3356680101835
 30
0
 11
-139.1929341922806
 21
-13.64061849322079
 31
0
  0
LINE
  8
1
 62
7
 10
-133.5249714999872
 20
-14.60361720261463
 30
0
 11
-138.1929341922806
 21
-11.90856768565192
 31
0
  0
LINE
  8
1
 62
7
 10
-142.076904995103
 20
-20.69577884649073
 30
0
 11
-142.076904995103
 21
-15.30567981256534
 31
0
  0
LINE
  8
1
 62
7
 10
-152.6288384902189
 20
-14.60361720261457
 30
0
 11
-147.9608757979255
 21
-11.90856768565189
 31
0
  0
LINE
  8
1
 62
7
 10
-151.6288384902189
 20
-16.33566801018345
 30
0
 11
-146.9608757979245
 21
-13.64061849321983
 31
0
  0
LINE
  8
1
 62
7
 10
-151.6288384902188
 20
-4.151344722431119
 30
0
 11
-146.9608757979255
 21
-6.846394239393817
 31
0
  0
LINE
  8
1
 62
7
 10
-152.6288384902188
 20
-5.883395530000001
 30
0
 11
-147.9608757979255
 21
-8.578445046962699
 31
0
  0
LINE
  8
1
 62
7
 10
-142.076904995103
 20
0.2087661138761376
 30
0
 11
-142.076904995103
 21
-5.181332920049254
 31
0
  0
LINE
  8
1
 62
7
 10
-144.076904995103
 20
0.2087661138761376
 30
0
 11
-144.076904995103
 21
-5.181332920049254
 31
0
  0
LINE
  8
1
 62
7
 10
-133.5249714999871
 20
-5.883395530000058
 30
0
 11
-138.1929341922805
 21
-8.578445046962742
 31
0
  0
LINE
  8
1
 62
7
 10
-134.5249714999871
 20
-4.151344722431176
 30
0
 11
-139.1929341922805
 21
-6.846394239393859
 31
0
  0
LINE
  8
1
 62
7
 10
-134.5249714999872
 20
-16.3356680101835
 30
0
 11
-139.1929341922806
 21
-13.64061849322079
 31
0
  0
LINE
  8
1
 62
7
 10
-133.5249714999872
 20
-14.60361720261463
 30
0
 11
-138.1929341922806
 21
-11.90856768565192
 31
0
  0
LINE
  8
1
 62
7
 10
-142.076904995103
 20
-20.69577884649073
 30
0
 11
-142.076904995103
 21
-15.30567981256534
 31
0
  0
LINE
  8
1
 62
7
 10
-152.6288384902189
 20
-14.60361720261457
 30
0
 11
-147.9608757979255
 21
-11.90856768565189
 31
0
  0
LINE
  8
1
 62
7
 10
-151.6288384902189
 20
-16.33566801018345
 30
0
 11
-146.9608757979245
 21
-13.64061849321983
 31
0
  0
LINE
  8
1
 62
7
 10
-151.6288384902188
 20
-4.151344722431119
 30
0
 11
-146.9608757979255
 21
-6.846394239393817
 31
0
  0
LINE
  8
1
 62
7
 10
-152.6288384902188
 20
-5.883395530000001
 30
0
 11
-147.9608757979255
 21
-8.578445046962699
 31
0
  0
LINE
  8
1
 62
7
 10
-142.076904995103
 20
0.2087661138761376
 30
0
 11
-142.076904995103
 21
-5.181332920049254
 31
0
  0
LINE
  8
1
 62
7
 10
-144.076904995103
 20
0.2087661138761376
 30
0
 11
-144.076904995103
 21
-5.181332920049254
 31
0
  0
LINE
  8
1
 62
7
 10
-133.5249714999871
 20
-5.883395530000058
 30
0
 11
-138.1929341922805
 21
-8.578445046962742
 31
0
  0
LINE
  8
1
 62
7
 10
-134.5249714999871
 20
-4.151344722431176
 30
0
 11
-139.1929341922805
 21
-6.846394239393859
 31
0
  0
LINE
  8
1
 62
7
 10
-134.5249714999872
 20
-16.3356680101835
 30
0
 11
-139.1929341922806
 21
-13.64061849322079
 31
0
  0
LINE
  8
1
 62
7
 10
-133.5249714999872
 20
-14.60361720261463
 30
0
 11
-138.1929341922806
 21
-11.90856768565192
 31
0
  0
LINE
  8
1
 62
7
 10
-142.076904995103
 20
-20.69577884649073
 30
0
 11
-142.076904995103
 21
-15.30567981256534
 31
0
  0
LINE
  8
1
 62
7
 10
-152.6288384902189
 20
-14.60361720261457
 30
0
 11
-147.9608757979255
 21
-11.90856768565189
 31
0
  0
LINE
  8
1
 62
7
 10
-151.6288384902189
 20
-16.33566801018345
 30
0
 11
-146.9608757979245
 21
-13.64061849321983
 31
0
  0
LINE
  8
1
 62
7
 10
-151.6288384902188
 20
-4.151344722431119
 30
0
 11
-146.9608757979255
 21
-6.846394239393817
 31
0
  0
LINE
  8
1
 62
7
 10
-152.6288384902188
 20
-5.883395530000001
 30
0
 11
-147.9608757979255
 21
-8.578445046962699
 31
0
  0
LINE
  8
1
 62
7
 10
-142.076904995103
 20
0.2087661138761376
 30
0
 11
-142.076904995103
 21
-5.181332920049254
 31
0
  0
LINE
  8
1
 62
7
 10
-144.076904995103
 20
0.2087661138761376
 30
0
 11
-144.076904995103
 21
-5.181332920049254
 31
0
  0
LINE
  8
1
 62
7
 10
-133.5249714999871
 20
-5.883395530000058
 30
0
 11
-138.1929341922805
 21
-8.578445046962742
 31
0
  0
LINE
  8
1
 62
7
 10
-134.5249714999871
 20
-4.151344722431176
 30
0
 11
-139.1929341922805
 21
-6.846394239393859
 31
0
  0
LINE
  8
1
 62
7
 10
-134.5249714999872
 20
-16.3356680101835
 30
0
 11
-139.1929341922806
 21
-13.64061849322079
 31
0
  0
LINE
  8
1
 62
7
 10
-133.5249714999872
 20
-14.60361720261463
 30
0
 11
-138.1929341922806
 21
-11.90856768565192
 31
0
  0
LINE
  8
1
 62
7
 10
-144.076904995103
 20
-20.69577884649073
 30
0
 11
-144.076904995103
 21
-15.30567981256533
 31
0
  0
LINE
  8
1
 62
7
 10
-142.076904995103
 20
-20.69577884649073
 30
0
 11
-142.076904995103
 21
-15.30567981256534
 31
0
  0
LINE
  8
1
 62
7
 10
-152.6288384902189
 20
-14.60361720261457
 30
0
 11
-147.9608757979255
 21
-11.90856768565189
 31
0
  0
LINE
  8
1
 62
7
 10
-151.6288384902189
 20
-16.33566801018345
 30
0
 11
-146.9608757979245
 21
-13.64061849321983
 31
0
  0
LINE
  8
1
 62
7
 10
-151.6288384902188
 20
-4.151344722431119
 30
0
 11
-146.9608757979255
 21
-6.846394239393817
 31
0
  0
LINE
  8
1
 62
7
 10
-152.6288384902188
 20
-5.883395530000001
 30
0
 11
-147.9608757979255
 21
-8.578445046962699
 31
0
  0
LINE
  8
1
 62
7
 10
-142.076904995103
 20
0.2087661138761376
 30
0
 11
-142.076904995103
 21
-5.181332920049254
 31
0
  0
LINE
  8
1
 62
7
 10
-144.076904995103
 20
0.2087661138761376
 30
0
 11
-144.076904995103
 21
-5.181332920049254
 31
0
  0
LINE
  8
1
 62
7
 10
-133.5249714999871
 20
-5.883395530000058
 30
0
 11
-138.1929341922805
 21
-8.578445046962742
 31
0
  0
LINE
  8
1
 62
7
 10
-134.5249714999871
 20
-4.151344722431176
 30
0
 11
-139.1929341922805
 21
-6.846394239393859
 31
0
  0
LINE
  8
1
 62
7
 10
-134.5249714999872
 20
-16.3356680101835
 30
0
 11
-139.1929341922806
 21
-13.64061849322079
 31
0
  0
LINE
  8
1
 62
7
 10
-133.5249714999872
 20
-14.60361720261463
 30
0
 11
-138.1929341922806
 21
-11.90856768565192
 31
0
  0
LINE
  8
1
 62
7
 10
-144.076904995103
 20
-20.69577884649073
 30
0
 11
-144.076904995103
 21
-15.30567981256533
 31
0
  0
LINE
  8
1
 62
7
 10
-142.076904995103
 20
-20.69577884649073
 30
0
 11
-142.076904995103
 21
-15.30567981256534
 31
0
  0
LINE
  8
1
 62
7
 10
-152.6288384902189
 20
-14.60361720261457
 30
0
 11
-147.9608757979255
 21
-11.90856768565189
 31
0
  0
LINE
  8
1
 62
7
 10
-151.6288384902189
 20
-16.33566801018345
 30
0
 11
-146.9608757979245
 21
-13.64061849321983
 31
0
  0
LINE
  8
1
 62
7
 10
-151.6288384902188
 20
-4.151344722431119
 30
0
 11
-146.9608757979255
 21
-6.846394239393817
 31
0
  0
LINE
  8
1
 62
7
 10
-152.6288384902188
 20
-5.883395530000001
 30
0
 11
-147.9608757979255
 21
-8.578445046962699
 31
0
  0
LINE
  8
1
 62
7
 10
-142.076904995103
 20
0.2087661138761376
 30
0
 11
-142.076904995103
 21
-5.181332920049254
 31
0
  0
LINE
  8
1
 62
7
 10
-144.076904995103
 20
0.2087661138761376
 30
0
 11
-144.076904995103
 21
-5.181332920049254
 31
0
  0
LINE
  8
1
 62
7
 10
-133.5249714999871
 20
-5.883395530000058
 30
0
 11
-138.1929341922805
 21
-8.578445046962742
 31
0
  0
LINE
  8
1
 62
7
 10
-134.5249714999871
 20
-4.151344722431176
 30
0
 11
-139.1929341922805
 21
-6.846394239393859
 31
0
  0
LINE
  8
1
 62
7
 10
-134.5249714999872
 20
-16.3356680101835
 30
0
 11
-139.1929341922806
 21
-13.64061849322079
 31
0
  0
LINE
  8
1
 62
7
 10
-133.5249714999872
 20
-14.60361720261463
 30
0
 11
-138.1929341922806
 21
-11.90856768565192
 31
0
  0
LINE
  8
1
 62
7
 10
-144.076904995103
 20
-20.69577884649073
 30
0
 11
-144.076904995103
 21
-15.30567981256533
 31
0
  0
LINE
  8
1
 62
7
 10
-142.076904995103
 20
-20.69577884649073
 30
0
 11
-142.076904995103
 21
-15.30567981256534
 31
0
  0
LINE
  8
1
 62
7
 10
-152.6288384902189
 20
-14.60361720261457
 30
0
 11
-147.9608757979255
 21
-11.90856768565189
 31
0
  0
LINE
  8
1
 62
7
 10
-151.6288384902189
 20
-16.33566801018345
 30
0
 11
-146.9608757979245
 21
-13.64061849321983
 31
0
  0
LINE
  8
1
 62
7
 10
-151.6288384902188
 20
-4.151344722431119
 30
0
 11
-146.9608757979255
 21
-6.846394239393817
 31
0
  0
LINE
  8
1
 62
7
 10
-152.6288384902188
 20
-5.883395530000001
 30
0
 11
-147.9608757979255
 21
-8.578445046962699
 31
0
  0
LINE
  8
1
 62
7
 10
-142.076904995103
 20
0.2087661138761376
 30
0
 11
-142.076904995103
 21
-5.181332920049254
 31
0
  0
LINE
  8
1
 62
7
 10
-144.076904995103
 20
0.2087661138761376
 30
0
 11
-144.076904995103
 21
-5.181332920049254
 31
0
  0
LINE
  8
1
 62
7
 10
-133.5249714999871
 20
-5.883395530000058
 30
0
 11
-138.1929341922805
 21
-8.578445046962742
 31
0
  0
LINE
  8
1
 62
7
 10
-134.5249714999871
 20
-4.151344722431176
 30
0
 11
-139.1929341922805
 21
-6.846394239393859
 31
0
  0
LINE
  8
1
 62
7
 10
-134.5249714999872
 20
-16.3356680101835
 30
0
 11
-139.1929341922806
 21
-13.64061849322079
 31
0
  0
LINE
  8
1
 62
7
 10
-133.5249714999872
 20
-14.60361720261463
 30
0
 11
-138.1929341922806
 21
-11.90856768565192
 31
0
  0
LINE
  8
1
 62
7
 10
-144.076904995103
 20
-20.69577884649073
 30
0
 11
-144.076904995103
 21
-15.30567981256533
 31
0
  0
LINE
  8
1
 62
7
 10
-142.076904995103
 20
-20.69577884649073
 30
0
 11
-142.076904995103
 21
-15.30567981256534
 31
0
  0
LINE
  8
1
 62
7
 10
-152.6288384902189
 20
-14.60361720261457
 30
0
 11
-147.9608757979255
 21
-11.90856768565189
 31
0
  0
LINE
  8
1
 62
7
 10
-151.6288384902189
 20
-16.33566801018345
 30
0
 11
-146.9608757979245
 21
-13.64061849321983
 31
0
  0
LINE
  8
1
 62
7
 10
-151.6288384902188
 20
-4.151344722431119
 30
0
 11
-146.9608757979255
 21
-6.846394239393817
 31
0
  0
LINE
  8
1
 62
7
 10
-152.6288384902188
 20
-5.883395530000001
 30
0
 11
-147.9608757979255
 21
-8.578445046962699
 31
0
  0
LINE
  8
1
 62
7
 10
-142.076904995103
 20
0.2087661138761376
 30
0
 11
-142.076904995103
 21
-5.181332920049254
 31
0
  0
LINE
  8
1
 62
7
 10
-144.076904995103
 20
0.2087661138761376
 30
0
 11
-144.076904995103
 21
-5.181332920049254
 31
0
  0
LINE
  8
1
 62
7
 10
-133.5249714999871
 20
-5.883395530000058
 30
0
 11
-138.1929341922805
 21
-8.578445046962742
 31
0
  0
LINE
  8
1
 62
7
 10
-134.5249714999871
 20
-4.151344722431176
 30
0
 11
-139.1929341922805
 21
-6.846394239393859
 31
0
  0
LINE
  8
1
 62
7
 10
-134.5249714999872
 20
-16.3356680101835
 30
0
 11
-139.1929341922806
 21
-13.64061849322079
 31
0
  0
LINE
  8
1
 62
7
 10
-133.5249714999872
 20
-14.60361720261463
 30
0
 11
-138.1929341922806
 21
-11.90856768565192
 31
0
  0
LINE
  8
1
 62
7
 10
-144.076904995103
 20
-20.69577884649073
 30
0
 11
-144.076904995103
 21
-15.30567981256533
 31
0
  0
LINE
  8
1
 62
7
 10
-142.076904995103
 20
-20.69577884649073
 30
0
 11
-142.076904995103
 21
-15.30567981256534
 31
0
  0
LINE
  8
1
 62
7
 10
-152.6288384902189
 20
-14.60361720261457
 30
0
 11
-147.9608757979255
 21
-11.90856768565189
 31
0
  0
LINE
  8
1
 62
7
 10
-151.6288384902189
 20
-16.33566801018345
 30
0
 11
-146.9608757979245
 21
-13.64061849321983
 31
0
  0
LINE
  8
1
 62
7
 10
-151.6288384902188
 20
-4.151344722431119
 30
0
 11
-146.9608757979255
 21
-6.846394239393817
 31
0
  0
LINE
  8
1
 62
7
 10
-152.6288384902188
 20
-5.883395530000001
 30
0
 11
-147.9608757979255
 21
-8.578445046962699
 31
0
  0
LINE
  8
1
 62
7
 10
-142.076904995103
 20
0.2087661138761376
 30
0
 11
-142.076904995103
 21
-5.181332920049254
 31
0
  0
LINE
  8
1
 62
7
 10
-144.076904995103
 20
0.2087661138761376
 30
0
 11
-144.076904995103
 21
-5.181332920049254
 31
0
  0
LINE
  8
1
 62
7
 10
-134.5249714999872
 20
-16.3356680101835
 30
0
 11
-139.1929341922806
 21
-13.64061849322079
 31
0
  0
LINE
  8
1
 62
7
 10
-133.5249714999872
 20
-14.60361720261463
 30
0
 11
-138.1929341922806
 21
-11.90856768565192
 31
0
  0
LINE
  8
1
 62
7
 10
-144.076904995103
 20
-20.69577884649073
 30
0
 11
-144.076904995103
 21
-15.30567981256533
 31
0
  0
LINE
  8
1
 62
7
 10
-142.076904995103
 20
-20.69577884649073
 30
0
 11
-142.076904995103
 21
-15.30567981256534
 31
0
  0
LINE
  8
1
 62
7
 10
-151.6288384902189
 20
-16.33566801018345
 30
0
 11
-146.9608757979245
 21
-13.64061849321983
 31
0
  0
LINE
  8
1
 62
7
 10
-151.6288384902188
 20
-4.151344722431119
 30
0
 11
-146.9608757979255
 21
-6.846394239393817
 31
0
  0
LINE
  8
1
 62
7
 10
-152.6288384902188
 20
-5.883395530000001
 30
0
 11
-147.9608757979255
 21
-8.578445046962699
 31
0
  0
LINE
  8
1
 62
7
 10
-142.076904995103
 20
0.2087661138761376
 30
0
 11
-142.076904995103
 21
-5.181332920049254
 31
0
  0
LINE
  8
1
 62
7
 10
-144.076904995103
 20
0.2087661138761376
 30
0
 11
-144.076904995103
 21
-5.181332920049254
 31
0
  0
LINE
  8
1
 62
7
 10
-133.5249714999871
 20
-5.883395530000058
 30
0
 11
-138.1929341922805
 21
-8.578445046962742
 31
0
  0
LINE
  8
1
 62
7
 10
-134.5249714999871
 20
-4.151344722431176
 30
0
 11
-139.1929341922805
 21
-6.846394239393859
 31
0
  0
LINE
  8
1
 62
7
 10
-134.5249714999872
 20
-16.3356680101835
 30
0
 11
-139.1929341922806
 21
-13.64061849322079
 31
0
  0
LINE
  8
1
 62
7
 10
-133.5249714999872
 20
-14.60361720261463
 30
0
 11
-138.1929341922806
 21
-11.90856768565192
 31
0
  0
LINE
  8
1
 62
7
 10
-144.076904995103
 20
-20.69577884649073
 30
0
 11
-144.076904995103
 21
-15.30567981256533
 31
0
  0
LINE
  8
1
 62
7
 10
-142.076904995103
 20
-20.69577884649073
 30
0
 11
-142.076904995103
 21
-15.30567981256534
 31
0
  0
LINE
  8
1
 62
7
 10
-152.6288384902189
 20
-14.60361720261457
 30
0
 11
-147.9608757979255
 21
-11.90856768565189
 31
0
  0
LINE
  8
1
 62
7
 10
-151.6288384902189
 20
-16.33566801018345
 30
0
 11
-146.9608757979245
 21
-13.64061849321983
 31
0
  0
LINE
  8
1
 62
7
 10
-151.6288384902188
 20
-4.151344722431119
 30
0
 11
-146.9608757979255
 21
-6.846394239393817
 31
0
  0
LINE
  8
1
 62
7
 10
-152.6288384902188
 20
-5.883395530000001
 30
0
 11
-147.9608757979255
 21
-8.578445046962699
 31
0
  0
LINE
  8
1
 62
7
 10
-142.076904995103
 20
0.2087661138761376
 30
0
 11
-142.076904995103
 21
-5.181332920049254
 31
0
  0
LINE
  8
1
 62
7
 10
-144.076904995103
 20
0.2087661138761376
 30
0
 11
-144.076904995103
 21
-5.181332920049254
 31
0
  0
LINE
  8
1
 62
7
 10
-133.5249714999871
 20
-5.883395530000058
 30
0
 11
-138.1929341922805
 21
-8.578445046962742
 31
0
  0
LINE
  8
1
 62
7
 10
-134.5249714999871
 20
-4.151344722431176
 30
0
 11
-139.1929341922805
 21
-6.846394239393859
 31
0
  0
LINE
  8
1
 62
7
 10
-134.5249714999872
 20
-16.3356680101835
 30
0
 11
-139.1929341922806
 21
-13.64061849322079
 31
0
  0
LINE
  8
1
 62
7
 10
-133.5249714999872
 20
-14.60361720261463
 30
0
 11
-138.1929341922806
 21
-11.90856768565192
 31
0
  0
LINE
  8
1
 62
7
 10
-144.076904995103
 20
-20.69577884649073
 30
0
 11
-144.076904995103
 21
-15.30567981256533
 31
0
  0
LINE
  8
1
 62
7
 10
-142.076904995103
 20
-20.69577884649073
 30
0
 11
-142.076904995103
 21
-15.30567981256534
 31
0
  0
LINE
  8
1
 62
7
 10
-152.6288384902189
 20
-14.60361720261457
 30
0
 11
-147.9608757979255
 21
-11.90856768565189
 31
0
  0
LINE
  8
1
 62
7
 10
-151.6288384902189
 20
-16.33566801018345
 30
0
 11
-146.9608757979245
 21
-13.64061849321983
 31
0
  0
LINE
  8
1
 62
7
 10
-151.6288384902188
 20
-4.151344722431119
 30
0
 11
-146.9608757979255
 21
-6.846394239393817
 31
0
  0
LINE
  8
1
 62
7
 10
-152.6288384902188
 20
-5.883395530000001
 30
0
 11
-147.9608757979255
 21
-8.578445046962699
 31
0
  0
LINE
  8
1
 62
7
 10
-142.076904995103
 20
0.2087661138761376
 30
0
 11
-142.076904995103
 21
-5.181332920049254
 31
0
  0
LINE
  8
1
 62
7
 10
-144.076904995103
 20
0.2087661138761376
 30
0
 11
-144.076904995103
 21
-5.181332920049254
 31
0
  0
LINE
  8
1
 62
7
 10
-133.5249714999871
 20
-5.883395530000058
 30
0
 11
-138.1929341922805
 21
-8.578445046962742
 31
0
  0
LINE
  8
1
 62
7
 10
-134.5249714999871
 20
-4.151344722431176
 30
0
 11
-139.1929341922805
 21
-6.846394239393859
 31
0
  0
LINE
  8
1
 62
7
 10
-134.5249714999872
 20
-16.3356680101835
 30
0
 11
-139.1929341922806
 21
-13.64061849322079
 31
0
  0
LINE
  8
1
 62
7
 10
-133.5249714999872
 20
-14.60361720261463
 30
0
 11
-138.1929341922806
 21
-11.90856768565192
 31
0
  0
LINE
  8
1
 62
7
 10
-144.076904995103
 20
-20.69577884649073
 30
0
 11
-144.076904995103
 21
-15.30567981256533
 31
0
  0
LINE
  8
1
 62
7
 10
-142.076904995103
 20
-20.69577884649073
 30
0
 11
-142.076904995103
 21
-15.30567981256534
 31
0
  0
LINE
  8
1
 62
7
 10
-152.6288384902189
 20
-14.60361720261457
 30
0
 11
-147.9608757979255
 21
-11.90856768565189
 31
0
  0
LINE
  8
1
 62
7
 10
-151.6288384902189
 20
-16.33566801018345
 30
0
 11
-146.9608757979245
 21
-13.64061849321983
 31
0
  0
LINE
  8
1
 62
7
 10
-151.6288384902188
 20
-4.151344722431119
 30
0
 11
-146.9608757979255
 21
-6.846394239393817
 31
0
  0
LINE
  8
1
 62
7
 10
-152.6288384902188
 20
-5.883395530000001
 30
0
 11
-147.9608757979255
 21
-8.578445046962699
 31
0
  0
LINE
  8
1
 62
7
 10
-142.076904995103
 20
0.2087661138761376
 30
0
 11
-142.076904995103
 21
-5.181332920049254
 31
0
  0
LINE
  8
1
 62
7
 10
-144.076904995103
 20
0.2087661138761376
 30
0
 11
-144.076904995103
 21
-5.181332920049254
 31
0
  0
LINE
  8
1
 62
7
 10
-133.5249714999871
 20
-5.883395530000058
 30
0
 11
-138.1929341922805
 21
-8.578445046962742
 31
0
  0
LINE
  8
1
 62
7
 10
-134.5249714999871
 20
-4.151344722431176
 30
0
 11
-139.1929341922805
 21
-6.846394239393859
 31
0
  0
LINE
  8
1
 62
7
 10
-134.5249714999872
 20
-16.3356680101835
 30
0
 11
-139.1929341922806
 21
-13.64061849322079
 31
0
  0
LINE
  8
1
 62
7
 10
-133.5249714999872
 20
-14.60361720261463
 30
0
 11
-138.1929341922806
 21
-11.90856768565192
 31
0
  0
LINE
  8
1
 62
7
 10
-144.076904995103
 20
-20.69577884649073
 30
0
 11
-144.076904995103
 21
-15.30567981256533
 31
0
  0
LINE
  8
1
 62
7
 10
-142.076904995103
 20
-20.69577884649073
 30
0
 11
-142.076904995103
 21
-15.30567981256534
 31
0
  0
LINE
  8
1
 62
7
 10
-152.6288384902189
 20
-14.60361720261457
 30
0
 11
-147.9608757979255
 21
-11.90856768565189
 31
0
  0
LINE
  8
1
 62
7
 10
-151.6288384902189
 20
-16.33566801018345
 30
0
 11
-146.9608757979245
 21
-13.64061849321983
 31
0
  0
LINE
  8
1
 62
7
 10
-151.6288384902188
 20
-4.151344722431119
 30
0
 11
-146.9608757979255
 21
-6.846394239393817
 31
0
  0
LINE
  8
1
 62
7
 10
-152.6288384902188
 20
-5.883395530000001
 30
0
 11
-147.9608757979255
 21
-8.578445046962699
 31
0
  0
LINE
  8
1
 62
7
 10
-142.076904995103
 20
0.2087661138761376
 30
0
 11
-142.076904995103
 21
-5.181332920049254
 31
0
  0
LINE
  8
1
 62
7
 10
-144.076904995103
 20
0.2087661138761376
 30
0
 11
-144.076904995103
 21
-5.181332920049254
 31
0
  0
LINE
  8
1
 62
7
 10
-133.5249714999871
 20
-5.883395530000058
 30
0
 11
-138.1929341922805
 21
-8.578445046962742
 31
0
  0
LINE
  8
1
 62
7
 10
-134.5249714999871
 20
-4.151344722431176
 30
0
 11
-139.1929341922805
 21
-6.846394239393859
 31
0
  0
LINE
  8
1
 62
7
 10
-134.5249714999872
 20
-16.3356680101835
 30
0
 11
-139.1929341922806
 21
-13.64061849322079
 31
0
  0
LINE
  8
1
 62
7
 10
-133.5249714999872
 20
-14.60361720261463
 30
0
 11
-138.1929341922806
 21
-11.90856768565192
 31
0
  0
LINE
  8
1
 62
7
 10
-144.076904995103
 20
-20.69577884649073
 30
0
 11
-144.076904995103
 21
-15.30567981256533
 31
0
  0
LINE
  8
1
 62
7
 10
-142.076904995103
 20
-20.69577884649073
 30
0
 11
-142.076904995103
 21
-15.30567981256534
 31
0
  0
LINE
  8
1
 62
7
 10
-152.6288384902189
 20
-14.60361720261457
 30
0
 11
-147.9608757979255
 21
-11.90856768565189
 31
0
  0
LINE
  8
1
 62
7
 10
-151.6288384902189
 20
-16.33566801018345
 30
0
 11
-146.9608757979245
 21
-13.64061849321983
 31
0
  0
LINE
  8
1
 62
7
 10
-151.6288384902188
 20
-4.151344722431119
 30
0
 11
-146.9608757979255
 21
-6.846394239393817
 31
0
  0
LINE
  8
1
 62
7
 10
-152.6288384902188
 20
-5.883395530000001
 30
0
 11
-147.9608757979255
 21
-8.578445046962699
 31
0
  0
LINE
  8
1
 62
7
 10
-142.076904995103
 20
0.2087661138761376
 30
0
 11
-142.076904995103
 21
-5.181332920049254
 31
0
  0
LINE
  8
1
 62
7
 10
-144.076904995103
 20
0.2087661138761376
 30
0
 11
-144.076904995103
 21
-5.181332920049254
 31
0
  0
LINE
  8
1
 62
7
 10
-133.5249714999871
 20
-5.883395530000058
 30
0
 11
-138.1929341922805
 21
-8.578445046962742
 31
0
  0
LINE
  8
1
 62
7
 10
-134.5249714999871
 20
-4.151344722431176
 30
0
 11
-139.1929341922805
 21
-6.846394239393859
 31
0
  0
LINE
  8
1
 62
7
 10
-134.5249714999872
 20
-16.3356680101835
 30
0
 11
-139.1929341922806
 21
-13.64061849322079
 31
0
  0
LINE
  8
1
 62
7
 10
-133.5249714999872
 20
-14.60361720261463
 30
0
 11
-138.1929341922806
 21
-11.90856768565192
 31
0
  0
LINE
  8
1
 62
7
 10
-142.076904995103
 20
-20.69577884649073
 30
0
 11
-142.076904995103
 21
-15.30567981256534
 31
0
  0
LINE
  8
1
 62
7
 10
-152.6288384902189
 20
-14.60361720261457
 30
0
 11
-147.9608757979255
 21
-11.90856768565189
 31
0
  0
LINE
  8
1
 62
7
 10
-151.6288384902189
 20
-16.33566801018345
 30
0
 11
-146.9608757979245
 21
-13.64061849321983
 31
0
  0
LINE
  8
1
 62
7
 10
-151.6288384902188
 20
-4.151344722431119
 30
0
 11
-146.9608757979255
 21
-6.846394239393817
 31
0
  0
LINE
  8
1
 62
7
 10
-152.6288384902188
 20
-5.883395530000001
 30
0
 11
-147.9608757979255
 21
-8.578445046962699
 31
0
  0
LINE
  8
1
 62
7
 10
-142.076904995103
 20
0.2087661138761376
 30
0
 11
-142.076904995103
 21
-5.181332920049254
 31
0
  0
LINE
  8
1
 62
7
 10
-144.076904995103
 20
0.2087661138761376
 30
0
 11
-144.076904995103
 21
-5.181332920049254
 31
0
  0
LINE
  8
1
 62
7
 10
-133.5249714999871
 20
-5.883395530000058
 30
0
 11
-138.1929341922805
 21
-8.578445046962742
 31
0
  0
LINE
  8
1
 62
7
 10
-134.5249714999871
 20
-4.151344722431176
 30
0
 11
-139.1929341922805
 21
-6.846394239393859
 31
0
  0
LINE
  8
1
 62
7
 10
-134.5249714999872
 20
-16.3356680101835
 30
0
 11
-139.1929341922806
 21
-13.64061849322079
 31
0
  0
LINE
  8
1
 62
7
 10
-133.5249714999872
 20
-14.60361720261463
 30
0
 11
-138.1929341922806
 21
-11.90856768565192
 31
0
  0
LINE
  8
1
 62
7
 10
-142.076904995103
 20
-20.69577884649073
 30
0
 11
-142.076904995103
 21
-15.30567981256534
 31
0
  0
LINE
  8
1
 62
7
 10
-152.6288384902189
 20
-14.60361720261457
 30
0
 11
-147.9608757979255
 21
-11.90856768565189
 31
0
  0
LINE
  8
1
 62
7
 10
-151.6288384902189
 20
-16.33566801018345
 30
0
 11
-146.9608757979245
 21
-13.64061849321983
 31
0
  0
LINE
  8
1
 62
7
 10
-151.6288384902188
 20
-4.151344722431119
 30
0
 11
-146.9608757979255
 21
-6.846394239393817
 31
0
  0
LINE
  8
1
 62
7
 10
-152.6288384902188
 20
-5.883395530000001
 30
0
 11
-147.9608757979255
 21
-8.578445046962699
 31
0
  0
LINE
  8
1
 62
7
 10
-142.076904995103
 20
0.2087661138761376
 30
0
 11
-142.076904995103
 21
-5.181332920049254
 31
0
  0
LINE
  8
1
 62
7
 10
-144.076904995103
 20
0.2087661138761376
 30
0
 11
-144.076904995103
 21
-5.181332920049254
 31
0
  0
LINE
  8
1
 62
7
 10
-133.5249714999871
 20
-5.883395530000058
 30
0
 11
-138.1929341922805
 21
-8.578445046962742
 31
0
  0
LINE
  8
1
 62
7
 10
-134.5249714999871
 20
-4.151344722431176
 30
0
 11
-139.1929341922805
 21
-6.846394239393859
 31
0
  0
LINE
  8
1
 62
7
 10
-134.5249714999872
 20
-16.3356680101835
 30
0
 11
-139.1929341922806
 21
-13.64061849322079
 31
0
  0
LINE
  8
1
 62
7
 10
-133.5249714999872
 20
-14.60361720261463
 30
0
 11
-138.1929341922806
 21
-11.90856768565192
 31
0
  0
LINE
  8
1
 62
7
 10
-144.076904995103
 20
-20.69577884649073
 30
0
 11
-144.076904995103
 21
-15.30567981256533
 31
0
  0
LINE
  8
1
 62
7
 10
-142.076904995103
 20
-20.69577884649073
 30
0
 11
-142.076904995103
 21
-15.30567981256534
 31
0
  0
LINE
  8
1
 62
7
 10
-152.6288384902189
 20
-14.60361720261457
 30
0
 11
-147.9608757979255
 21
-11.90856768565189
 31
0
  0
LINE
  8
1
 62
7
 10
-151.6288384902189
 20
-16.33566801018345
 30
0
 11
-146.9608757979245
 21
-13.64061849321983
 31
0
  0
LINE
  8
1
 62
7
 10
-151.6288384902188
 20
-4.151344722431119
 30
0
 11
-146.9608757979255
 21
-6.846394239393817
 31
0
  0
LINE
  8
1
 62
7
 10
-152.6288384902188
 20
-5.883395530000001
 30
0
 11
-147.9608757979255
 21
-8.578445046962699
 31
0
  0
LINE
  8
1
 62
7
 10
-142.076904995103
 20
0.2087661138761376
 30
0
 11
-142.076904995103
 21
-5.181332920049254
 31
0
  0
LINE
  8
1
 62
7
 10
-144.076904995103
 20
0.2087661138761376
 30
0
 11
-144.076904995103
 21
-5.181332920049254
 31
0
  0
LINE
  8
1
 62
7
 10
-133.5249714999871
 20
-5.883395530000058
 30
0
 11
-138.1929341922805
 21
-8.578445046962742
 31
0
  0
LINE
  8
1
 62
7
 10
-134.5249714999871
 20
-4.151344722431176
 30
0
 11
-139.1929341922805
 21
-6.846394239393859
 31
0
  0
LINE
  8
1
 62
7
 10
-134.5249714999872
 20
-16.3356680101835
 30
0
 11
-139.1929341922806
 21
-13.64061849322079
 31
0
  0
LINE
  8
1
 62
7
 10
-133.5249714999872
 20
-14.60361720261463
 30
0
 11
-138.1929341922806
 21
-11.90856768565192
 31
0
  0
LINE
  8
1
 62
7
 10
-144.076904995103
 20
-20.69577884649073
 30
0
 11
-144.076904995103
 21
-15.30567981256533
 31
0
  0
LINE
  8
1
 62
7
 10
-142.076904995103
 20
-20.69577884649073
 30
0
 11
-142.076904995103
 21
-15.30567981256534
 31
0
  0
LINE
  8
1
 62
7
 10
-152.6288384902189
 20
-14.60361720261457
 30
0
 11
-147.9608757979255
 21
-11.90856768565189
 31
0
  0
LINE
  8
1
 62
7
 10
-151.6288384902189
 20
-16.33566801018345
 30
0
 11
-146.9608757979245
 21
-13.64061849321983
 31
0
  0
LINE
  8
1
 62
7
 10
-151.6288384902188
 20
-4.151344722431119
 30
0
 11
-146.9608757979255
 21
-6.846394239393817
 31
0
  0
LINE
  8
1
 62
7
 10
-152.6288384902188
 20
-5.883395530000001
 30
0
 11
-147.9608757979255
 21
-8.578445046962699
 31
0
  0
LINE
  8
1
 62
7
 10
-142.076904995103
 20
0.2087661138761376
 30
0
 11
-142.076904995103
 21
-5.181332920049254
 31
0
  0
LINE
  8
1
 62
7
 10
-144.076904995103
 20
0.2087661138761376
 30
0
 11
-144.076904995103
 21
-5.181332920049254
 31
0
  0
LINE
  8
1
 62
7
 10
-133.5249714999871
 20
-5.883395530000058
 30
0
 11
-138.1929341922805
 21
-8.578445046962742
 31
0
  0
LINE
  8
1
 62
7
 10
-134.5249714999871
 20
-4.151344722431176
 30
0
 11
-139.1929341922805
 21
-6.846394239393859
 31
0
  0
LINE
  8
1
 62
7
 10
-134.5249714999872
 20
-16.3356680101835
 30
0
 11
-139.1929341922806
 21
-13.64061849322079
 31
0
  0
LINE
  8
1
 62
7
 10
-133.5249714999872
 20
-14.60361720261463
 30
0
 11
-138.1929341922806
 21
-11.90856768565192
 31
0
  0
LINE
  8
1
 62
7
 10
-144.076904995103
 20
-20.69577884649073
 30
0
 11
-144.076904995103
 21
-15.30567981256533
 31
0
  0
LINE
  8
1
 62
7
 10
-142.076904995103
 20
-20.69577884649073
 30
0
 11
-142.076904995103
 21
-15.30567981256534
 31
0
  0
LINE
  8
1
 62
7
 10
-152.6288384902189
 20
-14.60361720261457
 30
0
 11
-147.9608757979255
 21
-11.90856768565189
 31
0
  0
LINE
  8
1
 62
7
 10
-151.6288384902189
 20
-16.33566801018345
 30
0
 11
-146.9608757979245
 21
-13.64061849321983
 31
0
  0
LINE
  8
1
 62
7
 10
-151.6288384902188
 20
-4.151344722431119
 30
0
 11
-146.9608757979255
 21
-6.846394239393817
 31
0
  0
LINE
  8
1
 62
7
 10
-152.6288384902188
 20
-5.883395530000001
 30
0
 11
-147.9608757979255
 21
-8.578445046962699
 31
0
  0
LINE
  8
1
 62
7
 10
-142.076904995103
 20
0.2087661138761376
 30
0
 11
-142.076904995103
 21
-5.181332920049254
 31
0
  0
LINE
  8
1
 62
7
 10
-144.076904995103
 20
0.2087661138761376
 30
0
 11
-144.076904995103
 21
-5.181332920049254
 31
0
  0
LINE
  8
1
 62
7
 10
-133.5249714999871
 20
-5.883395530000058
 30
0
 11
-138.1929341922805
 21
-8.578445046962742
 31
0
  0
LINE
  8
1
 62
7
 10
-134.5249714999871
 20
-4.151344722431176
 30
0
 11
-139.1929341922805
 21
-6.846394239393859
 31
0
  0
LINE
  8
1
 62
7
 10
-134.5249714999872
 20
-16.3356680101835
 30
0
 11
-139.1929341922806
 21
-13.64061849322079
 31
0
  0
LINE
  8
1
 62
7
 10
-133.5249714999872
 20
-14.60361720261463
 30
0
 11
-138.1929341922806
 21
-11.90856768565192
 31
0
  0
LINE
  8
1
 62
7
 10
-144.076904995103
 20
-20.69577884649073
 30
0
 11
-144.076904995103
 21
-15.30567981256533
 31
0
  0
LINE
  8
1
 62
7
 10
-142.076904995103
 20
-20.69577884649073
 30
0
 11
-142.076904995103
 21
-15.30567981256534
 31
0
  0
LINE
  8
1
 62
7
 10
-152.6288384902189
 20
-14.60361720261457
 30
0
 11
-147.9608757979255
 21
-11.90856768565189
 31
0
  0
LINE
  8
1
 62
7
 10
-151.6288384902189
 20
-16.33566801018345
 30
0
 11
-146.9608757979245
 21
-13.64061849321983
 31
0
  0
LINE
  8
1
 62
7
 10
-151.6288384902188
 20
-4.151344722431119
 30
0
 11
-146.9608757979255
 21
-6.846394239393817
 31
0
  0
LINE
  8
1
 62
7
 10
-152.6288384902188
 20
-5.883395530000001
 30
0
 11
-147.9608757979255
 21
-8.578445046962699
 31
0
  0
LINE
  8
1
 62
7
 10
-142.076904995103
 20
0.2087661138761376
 30
0
 11
-142.076904995103
 21
-5.181332920049254
 31
0
  0
LINE
  8
1
 62
7
 10
-144.076904995103
 20
0.2087661138761376
 30
0
 11
-144.076904995103
 21
-5.181332920049254
 31
0
  0
LINE
  8
1
 62
7
 10
-133.5249714999871
 20
-5.883395530000058
 30
0
 11
-138.1929341922805
 21
-8.578445046962742
 31
0
  0
LINE
  8
1
 62
7
 10
-134.5249714999871
 20
-4.151344722431176
 30
0
 11
-139.1929341922805
 21
-6.846394239393859
 31
0
  0
LINE
  8
1
 62
7
 10
-134.5249714999872
 20
-16.3356680101835
 30
0
 11
-139.1929341922806
 21
-13.64061849322079
 31
0
  0
LINE
  8
1
 62
7
 10
-133.5249714999872
 20
-14.60361720261463
 30
0
 11
-138.1929341922806
 21
-11.90856768565192
 31
0
  0
LINE
  8
1
 62
7
 10
-144.076904995103
 20
-20.69577884649073
 30
0
 11
-144.076904995103
 21
-15.30567981256533
 31
0
  0
LINE
  8
1
 62
7
 10
-142.076904995103
 20
-20.69577884649073
 30
0
 11
-142.076904995103
 21
-15.30567981256534
 31
0
  0
LINE
  8
1
 62
7
 10
-152.6288384902189
 20
-14.60361720261457
 30
0
 11
-147.9608757979255
 21
-11.90856768565189
 31
0
  0
LINE
  8
1
 62
7
 10
-151.6288384902189
 20
-16.33566801018345
 30
0
 11
-146.9608757979245
 21
-13.64061849321983
 31
0
  0
LINE
  8
1
 62
7
 10
-151.6288384902188
 20
-4.151344722431119
 30
0
 11
-146.9608757979255
 21
-6.846394239393817
 31
0
  0
LINE
  8
1
 62
7
 10
-152.6288384902188
 20
-5.883395530000001
 30
0
 11
-147.9608757979255
 21
-8.578445046962699
 31
0
  0
LINE
  8
1
 62
7
 10
-142.076904995103
 20
0.2087661138761376
 30
0
 11
-142.076904995103
 21
-5.181332920049254
 31
0
  0
LINE
  8
1
 62
7
 10
-144.076904995103
 20
0.2087661138761376
 30
0
 11
-144.076904995103
 21
-5.181332920049254
 31
0
  0
LINE
  8
1
 62
7
 10
-133.5249714999871
 20
-5.883395530000058
 30
0
 11
-138.1929341922805
 21
-8.578445046962742
 31
0
  0
LINE
  8
1
 62
7
 10
-134.5249714999871
 20
-4.151344722431176
 30
0
 11
-139.1929341922805
 21
-6.846394239393859
 31
0
  0
LINE
  8
1
 62
7
 10
-134.5249714999872
 20
-16.3356680101835
 30
0
 11
-139.1929341922806
 21
-13.64061849322079
 31
0
  0
LINE
  8
1
 62
7
 10
-133.5249714999872
 20
-14.60361720261463
 30
0
 11
-138.1929341922806
 21
-11.90856768565192
 31
0
  0
LINE
  8
1
 62
7
 10
-144.076904995103
 20
-20.69577884649073
 30
0
 11
-144.076904995103
 21
-15.30567981256533
 31
0
  0
LINE
  8
1
 62
7
 10
-142.076904995103
 20
-20.69577884649073
 30
0
 11
-142.076904995103
 21
-15.30567981256534
 31
0
  0
LINE
  8
1
 62
7
 10
-152.6288384902189
 20
-14.60361720261457
 30
0
 11
-147.9608757979255
 21
-11.90856768565189
 31
0
  0
LINE
  8
1
 62
7
 10
-151.6288384902189
 20
-16.33566801018345
 30
0
 11
-146.9608757979245
 21
-13.64061849321983
 31
0
  0
LINE
  8
1
 62
7
 10
-151.6288384902188
 20
-4.151344722431119
 30
0
 11
-146.9608757979255
 21
-6.846394239393817
 31
0
  0
LINE
  8
1
 62
7
 10
-152.6288384902188
 20
-5.883395530000001
 30
0
 11
-147.9608757979255
 21
-8.578445046962699
 31
0
  0
LINE
  8
1
 62
7
 10
-142.076904995103
 20
0.2087661138761376
 30
0
 11
-142.076904995103
 21
-5.181332920049254
 31
0
  0
LINE
  8
1
 62
7
 10
-144.076904995103
 20
0.2087661138761376
 30
0
 11
-144.076904995103
 21
-5.181332920049254
 31
0
  0
LINE
  8
1
 62
7
 10
-133.5249714999871
 20
-5.883395530000058
 30
0
 11
-138.1929341922805
 21
-8.578445046962742
 31
0
  0
LINE
  8
1
 62
7
 10
-134.5249714999871
 20
-4.151344722431176
 30
0
 11
-139.1929341922805
 21
-6.846394239393859
 31
0
  0
LINE
  8
1
 62
7
 10
-134.5249714999872
 20
-16.3356680101835
 30
0
 11
-139.1929341922806
 21
-13.64061849322079
 31
0
  0
LINE
  8
1
 62
7
 10
-133.5249714999872
 20
-14.60361720261463
 30
0
 11
-138.1929341922806
 21
-11.90856768565192
 31
0
  0
LINE
  8
1
 62
7
 10
-144.076904995103
 20
-20.69577884649073
 30
0
 11
-144.076904995103
 21
-15.30567981256533
 31
0
  0
LINE
  8
1
 62
7
 10
-142.076904995103
 20
-20.69577884649073
 30
0
 11
-142.076904995103
 21
-15.30567981256534
 31
0
  0
LINE
  8
1
 62
7
 10
-152.6288384902189
 20
-14.60361720261457
 30
0
 11
-147.9608757979255
 21
-11.90856768565189
 31
0
  0
LINE
  8
1
 62
7
 10
-151.6288384902189
 20
-16.33566801018345
 30
0
 11
-146.9608757979245
 21
-13.64061849321983
 31
0
  0
LINE
  8
1
 62
7
 10
-151.6288384902188
 20
-4.151344722431119
 30
0
 11
-146.9608757979255
 21
-6.846394239393817
 31
0
  0
LINE
  8
1
 62
7
 10
-152.6288384902188
 20
-5.883395530000001
 30
0
 11
-147.9608757979255
 21
-8.578445046962699
 31
0
  0
LINE
  8
1
 62
7
 10
-142.076904995103
 20
0.2087661138761376
 30
0
 11
-142.076904995103
 21
-5.181332920049254
 31
0
  0
LINE
  8
1
 62
7
 10
-144.076904995103
 20
0.2087661138761376
 30
0
 11
-144.076904995103
 21
-5.181332920049254
 31
0
  0
LINE
  8
1
 62
7
 10
-133.5249714999871
 20
-5.883395530000058
 30
0
 11
-138.1929341922805
 21
-8.578445046962742
 31
0
  0
LINE
  8
1
 62
7
 10
-134.5249714999871
 20
-4.151344722431176
 30
0
 11
-139.1929341922805
 21
-6.846394239393859
 31
0
  0
LINE
  8
1
 62
7
 10
-134.5249714999872
 20
-16.3356680101835
 30
0
 11
-139.1929341922806
 21
-13.64061849322079
 31
0
  0
LINE
  8
1
 62
7
 10
-133.5249714999872
 20
-14.60361720261463
 30
0
 11
-138.1929341922806
 21
-11.90856768565192
 31
0
  0
LINE
  8
1
 62
7
 10
-144.076904995103
 20
-20.69577884649073
 30
0
 11
-144.076904995103
 21
-15.30567981256533
 31
0
  0
LINE
  8
1
 62
7
 10
-142.076904995103
 20
-20.69577884649073
 30
0
 11
-142.076904995103
 21
-15.30567981256534
 31
0
  0
LINE
  8
1
 62
7
 10
-152.6288384902189
 20
-14.60361720261457
 30
0
 11
-147.9608757979255
 21
-11.90856768565189
 31
0
  0
LINE
  8
1
 62
7
 10
-151.6288384902189
 20
-16.33566801018345
 30
0
 11
-146.9608757979245
 21
-13.64061849321983
 31
0
  0
LINE
  8
1
 62
7
 10
-151.6288384902188
 20
-4.151344722431119
 30
0
 11
-146.9608757979255
 21
-6.846394239393817
 31
0
  0
LINE
  8
1
 62
7
 10
-152.6288384902188
 20
-5.883395530000001
 30
0
 11
-147.9608757979255
 21
-8.578445046962699
 31
0
  0
LINE
  8
1
 62
7
 10
-142.076904995103
 20
0.2087661138761376
 30
0
 11
-142.076904995103
 21
-5.181332920049254
 31
0
  0
LINE
  8
1
 62
7
 10
-144.076904995103
 20
0.2087661138761376
 30
0
 11
-144.076904995103
 21
-5.181332920049254
 31
0
  0
LINE
  8
1
 62
7
 10
-133.5249714999871
 20
-5.883395530000058
 30
0
 11
-138.1929341922805
 21
-8.578445046962742
 31
0
  0
LINE
  8
1
 62
7
 10
-134.5249714999871
 20
-4.151344722431176
 30
0
 11
-139.1929341922805
 21
-6.846394239393859
 31
0
  0
LINE
  8
1
 62
7
 10
-134.5249714999872
 20
-16.3356680101835
 30
0
 11
-139.1929341922806
 21
-13.64061849322079
 31
0
  0
LINE
  8
1
 62
7
 10
-133.5249714999872
 20
-14.60361720261463
 30
0
 11
-138.1929341922806
 21
-11.90856768565192
 31
0
  0
LINE
  8
1
 62
7
 10
-144.076904995103
 20
-20.69577884649073
 30
0
 11
-144.076904995103
 21
-15.30567981256533
 31
0
  0
LINE
  8
1
 62
7
 10
-142.076904995103
 20
-20.69577884649073
 30
0
 11
-142.076904995103
 21
-15.30567981256534
 31
0
  0
LINE
  8
1
 62
7
 10
-152.6288384902189
 20
-14.60361720261457
 30
0
 11
-147.9608757979255
 21
-11.90856768565189
 31
0
  0
LINE
  8
1
 62
7
 10
-151.6288384902189
 20
-16.33566801018345
 30
0
 11
-146.9608757979245
 21
-13.64061849321983
 31
0
  0
LINE
  8
1
 62
7
 10
-151.6288384902188
 20
-4.151344722431119
 30
0
 11
-146.9608757979255
 21
-6.846394239393817
 31
0
  0
LINE
  8
1
 62
7
 10
-152.6288384902188
 20
-5.883395530000001
 30
0
 11
-147.9608757979255
 21
-8.578445046962699
 31
0
  0
LINE
  8
1
 62
7
 10
-142.076904995103
 20
0.2087661138761376
 30
0
 11
-142.076904995103
 21
-5.181332920049254
 31
0
  0
LINE
  8
1
 62
7
 10
-144.076904995103
 20
0.2087661138761376
 30
0
 11
-144.076904995103
 21
-5.181332920049254
 31
0
  0
LINE
  8
1
 62
7
 10
-133.5249714999871
 20
-5.883395530000058
 30
0
 11
-138.1929341922805
 21
-8.578445046962742
 31
0
  0
LINE
  8
1
 62
7
 10
-134.5249714999871
 20
-4.151344722431176
 30
0
 11
-139.1929341922805
 21
-6.846394239393859
 31
0
  0
LINE
  8
1
 62
7
 10
-134.5249714999872
 20
-16.3356680101835
 30
0
 11
-139.1929341922806
 21
-13.64061849322079
 31
0
  0
LINE
  8
1
 62
7
 10
-133.5249714999872
 20
-14.60361720261463
 30
0
 11
-138.1929341922806
 21
-11.90856768565192
 31
0
  0
LINE
  8
1
 62
7
 10
-144.076904995103
 20
-20.69577884649073
 30
0
 11
-144.076904995103
 21
-15.30567981256533
 31
0
  0
LINE
  8
1
 62
7
 10
-142.076904995103
 20
-20.69577884649073
 30
0
 11
-142.076904995103
 21
-15.30567981256534
 31
0
  0
LINE
  8
1
 62
7
 10
-152.6288384902189
 20
-14.60361720261457
 30
0
 11
-147.9608757979255
 21
-11.90856768565189
 31
0
  0
LINE
  8
1
 62
7
 10
-151.6288384902189
 20
-16.33566801018345
 30
0
 11
-146.9608757979245
 21
-13.64061849321983
 31
0
  0
LINE
  8
1
 62
7
 10
-151.6288384902188
 20
-4.151344722431119
 30
0
 11
-146.9608757979255
 21
-6.846394239393817
 31
0
  0
LINE
  8
1
 62
7
 10
-152.6288384902188
 20
-5.883395530000001
 30
0
 11
-147.9608757979255
 21
-8.578445046962699
 31
0
  0
LINE
  8
1
 62
7
 10
-142.076904995103
 20
0.2087661138761376
 30
0
 11
-142.076904995103
 21
-5.181332920049254
 31
0
  0
LINE
  8
1
 62
7
 10
-144.076904995103
 20
0.2087661138761376
 30
0
 11
-144.076904995103
 21
-5.181332920049254
 31
0
  0
LINE
  8
1
 62
7
 10
-133.5249714999871
 20
-5.883395530000058
 30
0
 11
-138.1929341922805
 21
-8.578445046962742
 31
0
  0
LINE
  8
1
 62
7
 10
-134.5249714999871
 20
-4.151344722431176
 30
0
 11
-139.1929341922805
 21
-6.846394239393859
 31
0
  0
LINE
  8
1
 62
7
 10
-134.5249714999872
 20
-16.3356680101835
 30
0
 11
-139.1929341922806
 21
-13.64061849322079
 31
0
  0
LINE
  8
1
 62
7
 10
-133.5249714999872
 20
-14.60361720261463
 30
0
 11
-138.1929341922806
 21
-11.90856768565192
 31
0
  0
LINE
  8
1
 62
7
 10
-144.076904995103
 20
-20.69577884649073
 30
0
 11
-144.076904995103
 21
-15.30567981256533
 31
0
  0
LINE
  8
1
 62
7
 10
-142.076904995103
 20
-20.69577884649073
 30
0
 11
-142.076904995103
 21
-15.30567981256534
 31
0
  0
LINE
  8
1
 62
7
 10
-152.6288384902189
 20
-14.60361720261457
 30
0
 11
-147.9608757979255
 21
-11.90856768565189
 31
0
  0
LINE
  8
1
 62
7
 10
-151.6288384902189
 20
-16.33566801018345
 30
0
 11
-146.9608757979245
 21
-13.64061849321983
 31
0
  0
LINE
  8
1
 62
7
 10
-151.6288384902188
 20
-4.151344722431119
 30
0
 11
-146.9608757979255
 21
-6.846394239393817
 31
0
  0
LINE
  8
1
 62
7
 10
-152.6288384902188
 20
-5.883395530000001
 30
0
 11
-147.9608757979255
 21
-8.578445046962699
 31
0
  0
LINE
  8
1
 62
7
 10
-142.076904995103
 20
0.2087661138761376
 30
0
 11
-142.076904995103
 21
-5.181332920049254
 31
0
  0
LINE
  8
1
 62
7
 10
-144.076904995103
 20
0.2087661138761376
 30
0
 11
-144.076904995103
 21
-5.181332920049254
 31
0
  0
LINE
  8
1
 62
7
 10
-133.5249714999871
 20
-5.883395530000058
 30
0
 11
-138.1929341922805
 21
-8.578445046962742
 31
0
  0
LINE
  8
1
 62
7
 10
-134.5249714999871
 20
-4.151344722431176
 30
0
 11
-139.1929341922805
 21
-6.846394239393859
 31
0
  0
LINE
  8
1
 62
7
 10
-134.5249714999872
 20
-16.3356680101835
 30
0
 11
-139.1929341922806
 21
-13.64061849322079
 31
0
  0
LINE
  8
1
 62
7
 10
-133.5249714999872
 20
-14.60361720261463
 30
0
 11
-138.1929341922806
 21
-11.90856768565192
 31
0
  0
LINE
  8
1
 62
7
 10
-144.076904995103
 20
-20.69577884649073
 30
0
 11
-144.076904995103
 21
-15.30567981256533
 31
0
  0
LINE
  8
1
 62
7
 10
-142.076904995103
 20
-20.69577884649073
 30
0
 11
-142.076904995103
 21
-15.30567981256534
 31
0
  0
LINE
  8
1
 62
7
 10
-152.6288384902189
 20
-14.60361720261457
 30
0
 11
-147.9608757979255
 21
-11.90856768565189
 31
0
  0
LINE
  8
1
 62
7
 10
-151.6288384902189
 20
-16.33566801018345
 30
0
 11
-146.9608757979245
 21
-13.64061849321983
 31
0
  0
LINE
  8
1
 62
7
 10
-151.6288384902188
 20
-4.151344722431119
 30
0
 11
-146.9608757979255
 21
-6.846394239393817
 31
0
  0
LINE
  8
1
 62
7
 10
-152.6288384902188
 20
-5.883395530000001
 30
0
 11
-147.9608757979255
 21
-8.578445046962699
 31
0
  0
LINE
  8
1
 62
7
 10
-142.076904995103
 20
0.2087661138761376
 30
0
 11
-142.076904995103
 21
-5.181332920049254
 31
0
  0
LINE
  8
1
 62
7
 10
-144.076904995103
 20
0.2087661138761376
 30
0
 11
-144.076904995103
 21
-5.181332920049254
 31
0
  0
LINE
  8
1
 62
7
 10
-133.5249714999871
 20
-5.883395530000058
 30
0
 11
-138.1929341922805
 21
-8.578445046962742
 31
0
  0
LINE
  8
1
 62
7
 10
-134.5249714999871
 20
-4.151344722431176
 30
0
 11
-139.1929341922805
 21
-6.846394239393859
 31
0
  0
LINE
  8
1
 62
7
 10
-134.5249714999872
 20
-16.3356680101835
 30
0
 11
-139.1929341922806
 21
-13.64061849322079
 31
0
  0
LINE
  8
1
 62
7
 10
-133.5249714999872
 20
-14.60361720261463
 30
0
 11
-138.1929341922806
 21
-11.90856768565192
 31
0
  0
LINE
  8
1
 62
7
 10
-144.076904995103
 20
-20.69577884649073
 30
0
 11
-144.076904995103
 21
-15.30567981256533
 31
0
  0
LINE
  8
1
 62
7
 10
-142.076904995103
 20
-20.69577884649073
 30
0
 11
-142.076904995103
 21
-15.30567981256534
 31
0
  0
LINE
  8
1
 62
7
 10
-152.6288384902189
 20
-14.60361720261457
 30
0
 11
-147.9608757979255
 21
-11.90856768565189
 31
0
  0
LINE
  8
1
 62
7
 10
-151.6288384902189
 20
-16.33566801018345
 30
0
 11
-146.9608757979245
 21
-13.64061849321983
 31
0
  0
LINE
  8
1
 62
7
 10
-151.6288384902188
 20
-4.151344722431119
 30
0
 11
-146.9608757979255
 21
-6.846394239393817
 31
0
  0
LINE
  8
1
 62
7
 10
-152.6288384902188
 20
-5.883395530000001
 30
0
 11
-147.9608757979255
 21
-8.578445046962699
 31
0
  0
LINE
  8
1
 62
7
 10
-142.076904995103
 20
0.2087661138761376
 30
0
 11
-142.076904995103
 21
-5.181332920049254
 31
0
  0
LINE
  8
1
 62
7
 10
-144.076904995103
 20
0.2087661138761376
 30
0
 11
-144.076904995103
 21
-5.181332920049254
 31
0
  0
LINE
  8
1
 62
7
 10
-133.5249714999871
 20
-5.883395530000058
 30
0
 11
-138.1929341922805
 21
-8.578445046962742
 31
0
  0
LINE
  8
1
 62
7
 10
-134.5249714999871
 20
-4.151344722431176
 30
0
 11
-139.1929341922805
 21
-6.846394239393859
 31
0
  0
LINE
  8
1
 62
7
 10
-134.5249714999872
 20
-16.3356680101835
 30
0
 11
-139.1929341922806
 21
-13.64061849322079
 31
0
  0
LINE
  8
1
 62
7
 10
-133.5249714999872
 20
-14.60361720261463
 30
0
 11
-138.1929341922806
 21
-11.90856768565192
 31
0
  0
LINE
  8
1
 62
7
 10
-144.076904995103
 20
-20.69577884649073
 30
0
 11
-144.076904995103
 21
-15.30567981256533
 31
0
  0
LINE
  8
1
 62
7
 10
-142.076904995103
 20
-20.69577884649073
 30
0
 11
-142.076904995103
 21
-15.30567981256534
 31
0
  0
LINE
  8
1
 62
7
 10
-152.6288384902189
 20
-14.60361720261457
 30
0
 11
-147.9608757979255
 21
-11.90856768565189
 31
0
  0
LINE
  8
1
 62
7
 10
-151.6288384902189
 20
-16.33566801018345
 30
0
 11
-146.9608757979245
 21
-13.64061849321983
 31
0
  0
LINE
  8
1
 62
7
 10
-151.6288384902188
 20
-4.151344722431119
 30
0
 11
-146.9608757979255
 21
-6.846394239393817
 31
0
  0
LINE
  8
1
 62
7
 10
-152.6288384902188
 20
-5.883395530000001
 30
0
 11
-147.9608757979255
 21
-8.578445046962699
 31
0
  0
LINE
  8
1
 62
7
 10
-142.076904995103
 20
0.2087661138761376
 30
0
 11
-142.076904995103
 21
-5.181332920049254
 31
0
  0
LINE
  8
1
 62
7
 10
-144.076904995103
 20
0.2087661138761376
 30
0
 11
-144.076904995103
 21
-5.181332920049254
 31
0
  0
LINE
  8
1
 62
7
 10
-133.5249714999871
 20
-5.883395530000058
 30
0
 11
-138.1929341922805
 21
-8.578445046962742
 31
0
  0
LINE
  8
1
 62
7
 10
-134.5249714999871
 20
-4.151344722431176
 30
0
 11
-139.1929341922805
 21
-6.846394239393859
 31
0
  0
LINE
  8
1
 62
7
 10
-134.5249714999872
 20
-16.3356680101835
 30
0
 11
-139.1929341922806
 21
-13.64061849322079
 31
0
  0
LINE
  8
1
 62
7
 10
-133.5249714999872
 20
-14.60361720261463
 30
0
 11
-138.1929341922806
 21
-11.90856768565192
 31
0
  0
LINE
  8
1
 62
7
 10
-144.076904995103
 20
-20.69577884649073
 30
0
 11
-144.076904995103
 21
-15.30567981256533
 31
0
  0
LINE
  8
1
 62
7
 10
-142.076904995103
 20
-20.69577884649073
 30
0
 11
-142.076904995103
 21
-15.30567981256534
 31
0
  0
LINE
  8
1
 62
7
 10
-152.6288384902189
 20
-14.60361720261457
 30
0
 11
-147.9608757979255
 21
-11.90856768565189
 31
0
  0
LINE
  8
1
 62
7
 10
-151.6288384902189
 20
-16.33566801018345
 30
0
 11
-146.9608757979245
 21
-13.64061849321983
 31
0
  0
LINE
  8
1
 62
7
 10
-151.6288384902188
 20
-4.151344722431119
 30
0
 11
-146.9608757979255
 21
-6.846394239393817
 31
0
  0
LINE
  8
1
 62
7
 10
-152.6288384902188
 20
-5.883395530000001
 30
0
 11
-147.9608757979255
 21
-8.578445046962699
 31
0
  0
LINE
  8
1
 62
7
 10
-142.076904995103
 20
0.2087661138761376
 30
0
 11
-142.076904995103
 21
-5.181332920049254
 31
0
  0
LINE
  8
1
 62
7
 10
-144.076904995103
 20
0.2087661138761376
 30
0
 11
-144.076904995103
 21
-5.181332920049254
 31
0
  0
LINE
  8
1
 62
7
 10
-133.5249714999871
 20
-5.883395530000058
 30
0
 11
-138.1929341922805
 21
-8.578445046962742
 31
0
  0
LINE
  8
1
 62
7
 10
-134.5249714999871
 20
-4.151344722431176
 30
0
 11
-139.1929341922805
 21
-6.846394239393859
 31
0
  0
LINE
  8
1
 62
7
 10
-134.5249714999872
 20
-16.3356680101835
 30
0
 11
-139.1929341922806
 21
-13.64061849322079
 31
0
  0
LINE
  8
1
 62
7
 10
-133.5249714999872
 20
-14.60361720261463
 30
0
 11
-138.1929341922806
 21
-11.90856768565192
 31
0
  0
LINE
  8
1
 62
7
 10
-144.076904995103
 20
-20.69577884649073
 30
0
 11
-144.076904995103
 21
-15.30567981256533
 31
0
  0
LINE
  8
1
 62
7
 10
-142.076904995103
 20
-20.69577884649073
 30
0
 11
-142.076904995103
 21
-15.30567981256534
 31
0
  0
LINE
  8
1
 62
7
 10
-152.6288384902189
 20
-14.60361720261457
 30
0
 11
-147.9608757979255
 21
-11.90856768565189
 31
0
  0
LINE
  8
1
 62
7
 10
-151.6288384902189
 20
-16.33566801018345
 30
0
 11
-146.9608757979245
 21
-13.64061849321983
 31
0
  0
LINE
  8
1
 62
7
 10
-151.6288384902188
 20
-4.151344722431119
 30
0
 11
-146.9608757979255
 21
-6.846394239393817
 31
0
  0
LINE
  8
1
 62
7
 10
-152.6288384902188
 20
-5.883395530000001
 30
0
 11
-147.9608757979255
 21
-8.578445046962699
 31
0
  0
LINE
  8
1
 62
7
 10
-133.5249714999871
 20
-5.883395530000058
 30
0
 11
-138.1929341922805
 21
-8.578445046962742
 31
0
  0
LINE
  8
1
 62
7
 10
-134.5249714999871
 20
-4.151344722431176
 30
0
 11
-139.1929341922805
 21
-6.846394239393859
 31
0
  0
LINE
  8
1
 62
7
 10
-134.5249714999872
 20
-16.3356680101835
 30
0
 11
-139.1929341922806
 21
-13.64061849322079
 31
0
  0
LINE
  8
1
 62
7
 10
-133.5249714999872
 20
-14.60361720261463
 30
0
 11
-138.1929341922806
 21
-11.90856768565192
 31
0
  0
LINE
  8
1
 62
7
 10
-144.076904995103
 20
-20.69577884649073
 30
0
 11
-144.076904995103
 21
-15.30567981256533
 31
0
  0
LINE
  8
1
 62
7
 10
-142.076904995103
 20
-20.69577884649073
 30
0
 11
-142.076904995103
 21
-15.30567981256534
 31
0
  0
LINE
  8
1
 62
7
 10
-152.6288384902189
 20
-14.60361720261457
 30
0
 11
-147.9608757979255
 21
-11.90856768565189
 31
0
  0
LINE
  8
1
 62
7
 10
-151.6288384902189
 20
-16.33566801018345
 30
0
 11
-146.9608757979245
 21
-13.64061849321983
 31
0
  0
LINE
  8
1
 62
7
 10
-151.6288384902188
 20
-4.151344722431119
 30
0
 11
-146.9608757979255
 21
-6.846394239393817
 31
0
  0
LINE
  8
1
 62
7
 10
-152.6288384902188
 20
-5.883395530000001
 30
0
 11
-147.9608757979255
 21
-8.578445046962699
 31
0
  0
LINE
  8
1
 62
7
 10
-133.5249714999871
 20
-5.883395530000058
 30
0
 11
-138.1929341922805
 21
-8.578445046962742
 31
0
  0
LINE
  8
1
 62
7
 10
-134.5249714999871
 20
-4.151344722431176
 30
0
 11
-139.1929341922805
 21
-6.846394239393859
 31
0
  0
LINE
  8
1
 62
7
 10
-134.5249714999872
 20
-16.3356680101835
 30
0
 11
-139.1929341922806
 21
-13.64061849322079
 31
0
  0
LINE
  8
1
 62
7
 10
-133.5249714999872
 20
-14.60361720261463
 30
0
 11
-138.1929341922806
 21
-11.90856768565192
 31
0
  0
LINE
  8
1
 62
7
 10
-144.076904995103
 20
-20.69577884649073
 30
0
 11
-144.076904995103
 21
-15.30567981256533
 31
0
  0
LINE
  8
1
 62
7
 10
-142.076904995103
 20
-20.69577884649073
 30
0
 11
-142.076904995103
 21
-15.30567981256534
 31
0
  0
LINE
  8
1
 62
7
 10
-152.6288384902189
 20
-14.60361720261457
 30
0
 11
-147.9608757979255
 21
-11.90856768565189
 31
0
  0
LINE
  8
1
 62
7
 10
-151.6288384902189
 20
-16.33566801018345
 30
0
 11
-146.9608757979245
 21
-13.64061849321983
 31
0
  0
LINE
  8
1
 62
7
 10
-151.6288384902188
 20
-4.151344722431119
 30
0
 11
-146.9608757979255
 21
-6.846394239393817
 31
0
  0
LINE
  8
1
 62
7
 10
-152.6288384902188
 20
-5.883395530000001
 30
0
 11
-147.9608757979255
 21
-8.578445046962699
 31
0
  0
LINE
  8
1
 62
7
 10
-133.5249714999871
 20
-5.883395530000058
 30
0
 11
-138.1929341922805
 21
-8.578445046962742
 31
0
  0
LINE
  8
1
 62
7
 10
-134.5249714999871
 20
-4.151344722431176
 30
0
 11
-139.1929341922805
 21
-6.846394239393859
 31
0
  0
LINE
  8
1
 62
7
 10
-134.5249714999872
 20
-16.3356680101835
 30
0
 11
-139.1929341922806
 21
-13.64061849322079
 31
0
  0
LINE
  8
1
 62
7
 10
-133.5249714999872
 20
-14.60361720261463
 30
0
 11
-138.1929341922806
 21
-11.90856768565192
 31
0
  0
LINE
  8
1
 62
7
 10
-144.076904995103
 20
-20.69577884649073
 30
0
 11
-144.076904995103
 21
-15.30567981256533
 31
0
  0
LINE
  8
1
 62
7
 10
-142.076904995103
 20
-20.69577884649073
 30
0
 11
-142.076904995103
 21
-15.30567981256534
 31
0
  0
LINE
  8
1
 62
7
 10
-152.6288384902189
 20
-14.60361720261457
 30
0
 11
-147.9608757979255
 21
-11.90856768565189
 31
0
  0
LINE
  8
1
 62
7
 10
-151.6288384902189
 20
-16.33566801018345
 30
0
 11
-146.9608757979245
 21
-13.64061849321983
 31
0
  0
LINE
  8
1
 62
7
 10
-151.6288384902188
 20
-4.151344722431119
 30
0
 11
-146.9608757979255
 21
-6.846394239393817
 31
0
  0
LINE
  8
1
 62
7
 10
-152.6288384902188
 20
-5.883395530000001
 30
0
 11
-147.9608757979255
 21
-8.578445046962699
 31
0
  0
LINE
  8
1
 62
7
 10
-133.5249714999871
 20
-5.883395530000058
 30
0
 11
-138.1929341922805
 21
-8.578445046962742
 31
0
  0
LINE
  8
1
 62
7
 10
-134.5249714999871
 20
-4.151344722431176
 30
0
 11
-139.1929341922805
 21
-6.846394239393859
 31
0
  0
LINE
  8
1
 62
7
 10
-134.5249714999872
 20
-16.3356680101835
 30
0
 11
-139.1929341922806
 21
-13.64061849322079
 31
0
  0
LINE
  8
1
 62
7
 10
-133.5249714999872
 20
-14.60361720261463
 30
0
 11
-138.1929341922806
 21
-11.90856768565192
 31
0
  0
LINE
  8
1
 62
7
 10
-144.076904995103
 20
-20.69577884649073
 30
0
 11
-144.076904995103
 21
-15.30567981256533
 31
0
  0
LINE
  8
1
 62
7
 10
-142.076904995103
 20
-20.69577884649073
 30
0
 11
-142.076904995103
 21
-15.30567981256534
 31
0
  0
LINE
  8
1
 62
7
 10
-152.6288384902189
 20
-14.60361720261457
 30
0
 11
-147.9608757979255
 21
-11.90856768565189
 31
0
  0
LINE
  8
1
 62
7
 10
-151.6288384902189
 20
-16.33566801018345
 30
0
 11
-146.9608757979245
 21
-13.64061849321983
 31
0
  0
LINE
  8
1
 62
7
 10
-151.6288384902188
 20
-4.151344722431119
 30
0
 11
-146.9608757979255
 21
-6.846394239393817
 31
0
  0
LINE
  8
1
 62
7
 10
-152.6288384902188
 20
-5.883395530000001
 30
0
 11
-147.9608757979255
 21
-8.578445046962699
 31
0
  0
LINE
  8
1
 62
7
 10
-133.5249714999871
 20
-5.883395530000058
 30
0
 11
-138.1929341922805
 21
-8.578445046962742
 31
0
  0
LINE
  8
1
 62
7
 10
-134.5249714999871
 20
-4.151344722431176
 30
0
 11
-139.1929341922805
 21
-6.846394239393859
 31
0
  0
LINE
  8
1
 62
7
 10
-134.5249714999872
 20
-16.3356680101835
 30
0
 11
-139.1929341922806
 21
-13.64061849322079
 31
0
  0
LINE
  8
1
 62
7
 10
-133.5249714999872
 20
-14.60361720261463
 30
0
 11
-138.1929341922806
 21
-11.90856768565192
 31
0
  0
LINE
  8
1
 62
7
 10
-144.076904995103
 20
-20.69577884649073
 30
0
 11
-144.076904995103
 21
-15.30567981256533
 31
0
  0
LINE
  8
1
 62
7
 10
-142.076904995103
 20
-20.69577884649073
 30
0
 11
-142.076904995103
 21
-15.30567981256534
 31
0
  0
LINE
  8
1
 62
7
 10
-152.6288384902189
 20
-14.60361720261457
 30
0
 11
-147.9608757979255
 21
-11.90856768565189
 31
0
  0
LINE
  8
1
 62
7
 10
-151.6288384902189
 20
-16.33566801018345
 30
0
 11
-146.9608757979245
 21
-13.64061849321983
 31
0
  0
LINE
  8
1
 62
7
 10
-151.6288384902188
 20
-4.151344722431119
 30
0
 11
-146.9608757979255
 21
-6.846394239393817
 31
0
  0
LINE
  8
1
 62
7
 10
-152.6288384902188
 20
-5.883395530000001
 30
0
 11
-147.9608757979255
 21
-8.578445046962699
 31
0
  0
LINE
  8
1
 62
7
 10
-133.5249714999871
 20
-5.883395530000058
 30
0
 11
-138.1929341922805
 21
-8.578445046962742
 31
0
  0
LINE
  8
1
 62
7
 10
-134.5249714999871
 20
-4.151344722431176
 30
0
 11
-139.1929341922805
 21
-6.846394239393859
 31
0
  0
LINE
  8
1
 62
7
 10
-134.5249714999872
 20
-16.3356680101835
 30
0
 11
-139.1929341922806
 21
-13.64061849322079
 31
0
  0
LINE
  8
1
 62
7
 10
-133.5249714999872
 20
-14.60361720261463
 30
0
 11
-138.1929341922806
 21
-11.90856768565192
 31
0
  0
LINE
  8
1
 62
7
 10
-144.076904995103
 20
-20.69577884649073
 30
0
 11
-144.076904995103
 21
-15.30567981256533
 31
0
  0
LINE
  8
1
 62
7
 10
-142.076904995103
 20
-20.69577884649073
 30
0
 11
-142.076904995103
 21
-15.30567981256534
 31
0
  0
LINE
  8
1
 62
7
 10
-152.6288384902189
 20
-14.60361720261457
 30
0
 11
-147.9608757979255
 21
-11.90856768565189
 31
0
  0
LINE
  8
1
 62
7
 10
-151.6288384902189
 20
-16.33566801018345
 30
0
 11
-146.9608757979245
 21
-13.64061849321983
 31
0
  0
LINE
  8
1
 62
7
 10
-151.6288384902188
 20
-4.151344722431119
 30
0
 11
-146.9608757979255
 21
-6.846394239393817
 31
0
  0
LINE
  8
1
 62
7
 10
-152.6288384902188
 20
-5.883395530000001
 30
0
 11
-147.9608757979255
 21
-8.578445046962699
 31
0
  0
LINE
  8
1
 62
7
 10
-133.5249714999871
 20
-5.883395530000058
 30
0
 11
-138.1929341922805
 21
-8.578445046962742
 31
0
  0
LINE
  8
1
 62
7
 10
-134.5249714999871
 20
-4.151344722431176
 30
0
 11
-139.1929341922805
 21
-6.846394239393859
 31
0
  0
LINE
  8
1
 62
7
 10
-134.5249714999872
 20
-16.3356680101835
 30
0
 11
-139.1929341922806
 21
-13.64061849322079
 31
0
  0
LINE
  8
1
 62
7
 10
-133.5249714999872
 20
-14.60361720261463
 30
0
 11
-138.1929341922806
 21
-11.90856768565192
 31
0
  0
LINE
  8
1
 62
7
 10
-144.076904995103
 20
-20.69577884649073
 30
0
 11
-144.076904995103
 21
-15.30567981256533
 31
0
  0
LINE
  8
1
 62
7
 10
-142.076904995103
 20
-20.69577884649073
 30
0
 11
-142.076904995103
 21
-15.30567981256534
 31
0
  0
LINE
  8
1
 62
7
 10
-152.6288384902189
 20
-14.60361720261457
 30
0
 11
-147.9608757979255
 21
-11.90856768565189
 31
0
  0
LINE
  8
1
 62
7
 10
-151.6288384902189
 20
-16.33566801018345
 30
0
 11
-146.9608757979245
 21
-13.64061849321983
 31
0
  0
LINE
  8
1
 62
7
 10
-151.6288384902188
 20
-4.151344722431119
 30
0
 11
-146.9608757979255
 21
-6.846394239393817
 31
0
  0
LINE
  8
1
 62
7
 10
-152.6288384902188
 20
-5.883395530000001
 30
0
 11
-147.9608757979255
 21
-8.578445046962699
 31
0
  0
LINE
  8
1
 62
7
 10
-133.5249714999871
 20
-5.883395530000058
 30
0
 11
-138.1929341922805
 21
-8.578445046962742
 31
0
  0
LINE
  8
1
 62
7
 10
-134.5249714999871
 20
-4.151344722431176
 30
0
 11
-139.1929341922805
 21
-6.846394239393859
 31
0
  0
LINE
  8
1
 62
7
 10
-134.5249714999872
 20
-16.3356680101835
 30
0
 11
-139.1929341922806
 21
-13.64061849322079
 31
0
  0
LINE
  8
1
 62
7
 10
-133.5249714999872
 20
-14.60361720261463
 30
0
 11
-138.1929341922806
 21
-11.90856768565192
 31
0
  0
LINE
  8
1
 62
7
 10
-144.076904995103
 20
-20.69577884649073
 30
0
 11
-144.076904995103
 21
-15.30567981256533
 31
0
  0
LINE
  8
1
 62
7
 10
-142.076904995103
 20
-20.69577884649073
 30
0
 11
-142.076904995103
 21
-15.30567981256534
 31
0
  0
LINE
  8
1
 62
7
 10
-152.6288384902189
 20
-14.60361720261457
 30
0
 11
-147.9608757979255
 21
-11.90856768565189
 31
0
  0
LINE
  8
1
 62
7
 10
-151.6288384902189
 20
-16.33566801018345
 30
0
 11
-146.9608757979245
 21
-13.64061849321983
 31
0
  0
LINE
  8
1
 62
7
 10
-151.6288384902188
 20
-4.151344722431119
 30
0
 11
-146.9608757979255
 21
-6.846394239393817
 31
0
  0
LINE
  8
1
 62
7
 10
-152.6288384902188
 20
-5.883395530000001
 30
0
 11
-147.9608757979255
 21
-8.578445046962699
 31
0
  0
LINE
  8
1
 62
7
 10
-133.5249714999871
 20
-5.883395530000058
 30
0
 11
-138.1929341922805
 21
-8.578445046962742
 31
0
  0
LINE
  8
1
 62
7
 10
-134.5249714999871
 20
-4.151344722431176
 30
0
 11
-139.1929341922805
 21
-6.846394239393859
 31
0
  0
LINE
  8
1
 62
7
 10
-134.5249714999872
 20
-16.3356680101835
 30
0
 11
-139.1929341922806
 21
-13.64061849322079
 31
0
  0
LINE
  8
1
 62
7
 10
-133.5249714999872
 20
-14.60361720261463
 30
0
 11
-138.1929341922806
 21
-11.90856768565192
 31
0
  0
LINE
  8
1
 62
7
 10
-144.076904995103
 20
-20.69577884649073
 30
0
 11
-144.076904995103
 21
-15.30567981256533
 31
0
  0
LINE
  8
1
 62
7
 10
-142.076904995103
 20
-20.69577884649073
 30
0
 11
-142.076904995103
 21
-15.30567981256534
 31
0
  0
LINE
  8
1
 62
7
 10
-152.6288384902189
 20
-14.60361720261457
 30
0
 11
-147.9608757979255
 21
-11.90856768565189
 31
0
  0
LINE
  8
1
 62
7
 10
-151.6288384902189
 20
-16.33566801018345
 30
0
 11
-146.9608757979245
 21
-13.64061849321983
 31
0
  0
LINE
  8
1
 62
7
 10
-151.6288384902188
 20
-4.151344722431119
 30
0
 11
-146.9608757979255
 21
-6.846394239393817
 31
0
  0
LINE
  8
1
 62
7
 10
-152.6288384902188
 20
-5.883395530000001
 30
0
 11
-147.9608757979255
 21
-8.578445046962699
 31
0
  0
LINE
  8
1
 62
7
 10
-133.5249714999871
 20
-5.883395530000058
 30
0
 11
-138.1929341922805
 21
-8.578445046962742
 31
0
  0
LINE
  8
1
 62
7
 10
-134.5249714999871
 20
-4.151344722431176
 30
0
 11
-139.1929341922805
 21
-6.846394239393859
 31
0
  0
LINE
  8
1
 62
7
 10
-134.5249714999872
 20
-16.3356680101835
 30
0
 11
-139.1929341922806
 21
-13.64061849322079
 31
0
  0
LINE
  8
1
 62
7
 10
-133.5249714999872
 20
-14.60361720261463
 30
0
 11
-138.1929341922806
 21
-11.90856768565192
 31
0
  0
LINE
  8
1
 62
7
 10
-144.076904995103
 20
-20.69577884649073
 30
0
 11
-144.076904995103
 21
-15.30567981256533
 31
0
  0
LINE
  8
1
 62
7
 10
-142.076904995103
 20
-20.69577884649073
 30
0
 11
-142.076904995103
 21
-15.30567981256534
 31
0
  0
LINE
  8
1
 62
7
 10
-152.6288384902189
 20
-14.60361720261457
 30
0
 11
-147.9608757979255
 21
-11.90856768565189
 31
0
  0
LINE
  8
1
 62
7
 10
-151.6288384902189
 20
-16.33566801018345
 30
0
 11
-146.9608757979245
 21
-13.64061849321983
 31
0
  0
LINE
  8
1
 62
7
 10
-151.6288384902188
 20
-4.151344722431119
 30
0
 11
-146.9608757979255
 21
-6.846394239393817
 31
0
  0
LINE
  8
1
 62
7
 10
-152.6288384902188
 20
-5.883395530000001
 30
0
 11
-147.9608757979255
 21
-8.578445046962699
 31
0
  0
LINE
  8
1
 62
7
 10
-133.5249714999871
 20
-5.883395530000058
 30
0
 11
-138.1929341922805
 21
-8.578445046962742
 31
0
  0
LINE
  8
1
 62
7
 10
-134.5249714999871
 20
-4.151344722431176
 30
0
 11
-139.1929341922805
 21
-6.846394239393859
 31
0
  0
LINE
  8
1
 62
7
 10
-134.5249714999872
 20
-16.3356680101835
 30
0
 11
-139.1929341922806
 21
-13.64061849322079
 31
0
  0
LINE
  8
1
 62
7
 10
-133.5249714999872
 20
-14.60361720261463
 30
0
 11
-138.1929341922806
 21
-11.90856768565192
 31
0
  0
LINE
  8
1
 62
7
 10
-144.076904995103
 20
-20.69577884649073
 30
0
 11
-144.076904995103
 21
-15.30567981256533
 31
0
  0
LINE
  8
1
 62
7
 10
-142.076904995103
 20
-20.69577884649073
 30
0
 11
-142.076904995103
 21
-15.30567981256534
 31
0
  0
LINE
  8
1
 62
7
 10
-152.6288384902189
 20
-14.60361720261457
 30
0
 11
-147.9608757979255
 21
-11.90856768565189
 31
0
  0
LINE
  8
1
 62
7
 10
-151.6288384902189
 20
-16.33566801018345
 30
0
 11
-146.9608757979245
 21
-13.64061849321983
 31
0
  0
LINE
  8
1
 62
7
 10
-151.6288384902188
 20
-4.151344722431119
 30
0
 11
-146.9608757979255
 21
-6.846394239393817
 31
0
  0
LINE
  8
1
 62
7
 10
-152.6288384902188
 20
-5.883395530000001
 30
0
 11
-147.9608757979255
 21
-8.578445046962699
 31
0
  0
LINE
  8
1
 62
7
 10
-133.5249714999871
 20
-5.883395530000058
 30
0
 11
-138.1929341922805
 21
-8.578445046962742
 31
0
  0
LINE
  8
1
 62
7
 10
-134.5249714999871
 20
-4.151344722431176
 30
0
 11
-139.1929341922805
 21
-6.846394239393859
 31
0
  0
LINE
  8
1
 62
7
 10
-134.5249714999872
 20
-16.3356680101835
 30
0
 11
-139.1929341922806
 21
-13.64061849322079
 31
0
  0
LINE
  8
1
 62
7
 10
-133.5249714999872
 20
-14.60361720261463
 30
0
 11
-138.1929341922806
 21
-11.90856768565192
 31
0
  0
LINE
  8
1
 62
7
 10
-142.076904995103
 20
-20.69577884649073
 30
0
 11
-142.076904995103
 21
-15.30567981256534
 31
0
  0
LINE
  8
1
 62
7
 10
-152.6288384902189
 20
-14.60361720261457
 30
0
 11
-147.9608757979255
 21
-11.90856768565189
 31
0
  0
LINE
  8
1
 62
7
 10
-151.6288384902189
 20
-16.33566801018345
 30
0
 11
-146.9608757979245
 21
-13.64061849321983
 31
0
  0
LINE
  8
1
 62
7
 10
-151.6288384902188
 20
-4.151344722431119
 30
0
 11
-146.9608757979255
 21
-6.846394239393817
 31
0
  0
LINE
  8
1
 62
7
 10
-152.6288384902188
 20
-5.883395530000001
 30
0
 11
-147.9608757979255
 21
-8.578445046962699
 31
0
  0
LINE
  8
1
 62
7
 10
-133.5249714999871
 20
-5.883395530000058
 30
0
 11
-138.1929341922805
 21
-8.578445046962742
 31
0
  0
LINE
  8
1
 62
7
 10
-134.5249714999871
 20
-4.151344722431176
 30
0
 11
-139.1929341922805
 21
-6.846394239393859
 31
0
  0
LINE
  8
1
 62
7
 10
-142.076904995103
 20
-20.69577884649073
 30
0
 11
-142.076904995103
 21
-15.30567981256534
 31
0
  0
LINE
  8
1
 62
7
 10
-152.6288384902189
 20
-14.60361720261457
 30
0
 11
-147.9608757979255
 21
-11.90856768565189
 31
0
  0
LINE
  8
1
 62
7
 10
-151.6288384902188
 20
-4.151344722431119
 30
0
 11
-146.9608757979255
 21
-6.846394239393817
 31
0
  0
LINE
  8
1
 62
7
 10
-142.076904995103
 20
0.2087661138761376
 30
0
 11
-142.076904995103
 21
-5.181332920049254
 31
0
  0
LINE
  8
1
 62
7
 10
-144.076904995103
 20
0.2087661138761376
 30
0
 11
-144.076904995103
 21
-5.181332920049254
 31
0
  0
LINE
  8
1
 62
7
 10
-141.4611660000917
 20
-11.85924536131854
 30
0
 11
-142.0162448233232
 21
-11.3041665380871
 31
0
  0
LINE
  8
1
 62
7
 10
-144.6926439901142
 20
-11.85924536131856
 30
0
 11
-144.1375651668828
 21
-11.30416653808712
 31
0
  0
LINE
  8
1
 62
7
 10
-131.576904995103
 20
-4.181328539816224
 30
0
 11
-131.576904995103
 21
-16.30568419279837
 31
0
  0
LINE
  8
1
 62
7
 10
29.9331293979594
 20
-10.2435063663073
 30
0
 11
33.318606273731
 21
-10.2435063663073
 31
0
  0
LINE
  8
1
 62
7
 10
11.7543213568189
 20
-14.5435063663073
 30
0
 11
9.86111929340843
 21
-14.5435063663073
 31
0
  0
LINE
  8
1
 62
7
 10
-95.382621187814
 20
-2.343506366307299
 30
0
 11
-95.382621187814
 21
2.2788324148535
 31
0
  0
LINE
  8
1
 62
7
 10
-87.23771388630669
 20
18.6554983019158
 30
0
 11
-87.23771388630669
 21
18.1756983019158
 31
0
  0
LINE
  8
1
 62
7
 10
-87.23771388630669
 20
18.1756983019158
 30
0
 11
-86.7579138863067
 21
18.1756983019158
 31
0
  0
LINE
  8
1
 62
7
 10
-86.7579138863067
 20
18.1756983019158
 30
0
 11
-86.7579138863067
 21
18.6554983019158
 31
0
  0
LINE
  8
1
 62
7
 10
-86.7579138863067
 20
18.6554983019158
 30
0
 11
-87.23771388630669
 21
18.6554983019158
 31
0
  0
LINE
  8
1
 62
7
 10
-87.0778138863067
 20
18.4955983019158
 30
0
 11
-87.0778138863067
 21
18.3355983019158
 31
0
  0
LINE
  8
1
 62
7
 10
-87.0778138863067
 20
18.3355983019158
 30
0
 11
-86.9178138863067
 21
18.3355983019158
 31
0
  0
LINE
  8
1
 62
7
 10
-86.9178138863067
 20
18.3355983019158
 30
0
 11
-86.9178138863067
 21
18.4955983019158
 31
0
  0
LINE
  8
1
 62
7
 10
-86.9178138863067
 20
18.4955983019158
 30
0
 11
-87.0778138863067
 21
18.4955983019158
 31
0
  0
LINE
  8
1
 62
7
 10
-87.1578138863067
 20
18.5755983019158
 30
0
 11
-87.1578138863067
 21
18.2555983019158
 31
0
  0
LINE
  8
1
 62
7
 10
-87.1578138863067
 20
18.2555983019158
 30
0
 11
-86.83781388630671
 21
18.2555983019158
 31
0
  0
LINE
  8
1
 62
7
 10
-86.83781388630671
 20
18.2555983019158
 30
0
 11
-86.83781388630671
 21
18.5755983019158
 31
0
  0
LINE
  8
1
 62
7
 10
-86.83781388630671
 20
18.5755983019158
 30
0
 11
-87.1578138863067
 21
18.5755983019158
 31
0
  0
LINE
  8
1
 62
7
 10
-75.0186287952987
 20
-11.7435063663073
 30
0
 11
-74.2686287952987
 21
-11.7435063663073
 31
0
  0
LINE
  8
1
 62
7
 10
-74.2686287952987
 20
-11.7435063663073
 30
0
 11
-74.2686287952987
 21
-12.5285063663073
 31
0
  0
LINE
  8
1
 62
7
 10
-75.0186287952987
 20
-8.743506366307299
 30
0
 11
-74.2686287952987
 21
-8.743506366307299
 31
0
  0
LINE
  8
1
 62
7
 10
-74.2686287952987
 20
-8.743506366307299
 30
0
 11
-74.2686287952987
 21
-7.958506366307299
 31
0
  0
LINE
  8
1
 62
7
 10
-74.2686287952987
 20
-8.743506366307299
 30
0
 11
-74.2686287952987
 21
-11.7435063663073
 31
0
  0
LINE
  8
1
 62
7
 10
-74.2686287952987
 20
-7.958506366307299
 30
0
 11
-73.5186287952987
 21
-7.958506366307299
 31
0
  0
LINE
  8
1
 62
7
 10
-74.2686287952987
 20
-12.5285063663073
 30
0
 11
-73.5186287952987
 21
-12.5285063663073
 31
0
  0
LINE
  8
1
 62
7
 10
-74.2686287952987
 20
-5.543506366307302
 30
0
 11
-74.2686287952987
 21
18.7238395286042
 31
0
  0
ARC
  8
1
 62
7
 10
6.662810531213495
 20
-10.2435063663073
 30
0
 40
4.3
 50
21.5844818996167
 51
156.7719002012711
  0
ARC
  8
1
 62
7
 10
6.662810531213495
 20
-10.2435063663073
 30
0
 40
13
 50
207.795772496028
 51
0
  0
ARC
  8
1
 62
7
 10
6.662810531213495
 20
-10.2435063663073
 30
0
 40
13
 50
0
 51
152.2042275039721
  0
ARC
  8
1
 62
7
 10
-143.076904995103
 20
-10.2435063663073
 30
0
 40
2.285000000000012
 50
315.000000000001
 51
225.0000000000013
  0
ARC
  8
1
 62
7
 10
-143.076904995103
 20
-10.2435063663073
 30
0
 40
13
 50
180
 51
332.2042275039721
  0
ARC
  8
1
 62
7
 10
-143.076904995103
 20
-10.2435063663073
 30
0
 40
13
 50
27.79577249602798
 51
180
  0
CIRCLE
  8
1
 62
7
 10
3.368819425801889
 20
-7.479519644655181
 30
0
 40
1.000000000000003
  0
CIRCLE
  8
1
 62
7
 10
9.956801636625102
 20
-7.47951964465518
 30
0
 40
1.000000000000009
  0
CIRCLE
  8
1
 62
7
 10
9.956801636625102
 20
-7.47951964465518
 30
0
 40
0.5999999999999979
  0
CIRCLE
  8
1
 62
7
 10
6.662810531213491
 20
-14.54350636630731
 30
0
 40
1.000000000000004
  0
CIRCLE
  8
1
 62
7
 10
6.662810531213491
 20
-14.54350636630731
 30
0
 40
0.6000000000000023
  0
CIRCLE
  8
1
 62
7
 10
9.956801636625102
 20
-7.47951964465518
 30
0
 40
0.5999999999999979
  0
CIRCLE
  8
1
 62
7
 10
3.368819425801889
 20
-7.479519644655181
 30
0
 40
0.6000000000000001
  0
CIRCLE
  8
1
 62
7
 10
6.662810531213495
 20
-10.2435063663073
 30
0
 40
11
  0
CIRCLE
  8
1
 62
7
 10
-143.076904995103
 20
-10.2435063663073
 30
0
 40
10.5
  0
CIRCLE
  8
1
 62
7
 10
-143.076904995103
 20
-10.2435063663073
 30
0
 40
1.300000000000011
  0
CIRCLE
  8
1
 62
7
 10
-143.076904995103
 20
-10.2435063663073
 30
0
 40
4
  0
CIRCLE
  8
1
 62
7
 10
-143.076904995103
 20
-10.2435063663073
 30
0
 40
4.5
  0
CIRCLE
  8
1
 62
7
 10
-143.076904995103
 20
-10.2435063663073
 30
0
 40
1.5
  0
CIRCLE
  8
1
 62
7
 10
-143.076904995103
 20
-10.2435063663073
 30
0
 40
5.159999999999997
  0
CIRCLE
  8
1
 62
7
 10
18.225285230668
 20
23.8173786317988
 30
0
 40
0.4986297542870309
  0
CIRCLE
  8
1
 62
7
 10
-1.74190888303322
 20
-7.66735544174264
 30
0
 40
1.601070081246653
  0
CIRCLE
  8
1
 62
7
 10
13.12642466227967
 20
-7.056584467987617
 30
0
 40
1.601070081246648
  0
CIRCLE
  8
1
 62
7
 10
3.622356070717803
 20
-17.92485246978783
 30
0
 40
1.601070081246653
  0
LINE
  8
1
 62
7
 10
-12.48631386317491
 20
8.167200027657161
 30
0
 11
-13.73242038005707
 21
6.870124369115285
 31
0
  0
SOLID
  8
1
 62
7
 10
-12.23777744524857
 20
8.900978837850865
 30
0
 11
-11.76308235390472
 21
8.444937092745182
 31
0
 12
-13.73242038005707
 22
6.870124369115285
 32
0
 13
-13.73242038005707
 23
6.870124369115285
 33
0
  0
LINE
  8
1
 62
7
 10
25.93531683383009
 20
8.120637038308837
 30
0
 11
27.05804144248407
 21
6.870124369115267
 31
0
  0
SOLID
  8
1
 62
7
 10
25.14297248327503
 20
8.510501843122469
 30
0
 11
25.63278780708976
 21
8.950263655449611
 31
0
 12
27.05804144248407
 22
6.870124369115267
 32
0
 13
27.05804144248407
 23
6.870124369115267
 33
0
  0
TEXT
  8
1
 62
7
 10
-60
 20
-75
 30
0
 40
4
  1
VP22N
 41
0.9
  0
TEXT
  8
1
 62
7
 10
13.0925593149313
 20
20.5768360542777
 30
0
 40
3
  1
±5
 41
0.6300000000000001
  0
TEXT
  8
1
 62
7
 10
-16.8343517662183
 20
19.7670794459885
 30
0
 40
3
  1
±1
 41
0.6300000000000001
  0
TEXT
  8
1
 62
7
 10
-102.8261308598109
 20
11.1741913275336
 30
0
 40
3.2
  1
1.6
 41
0.8910000000000004
  0
TEXT
  8
1
 62
7
 10
-96.3461308598109
 20
10.9389689537764
 30
0
 40
3
  1
±0．2
 41
0.6300000000000001
  0
TEXT
  8
1
 62
7
 10
-117.610932133322
 20
-10.82128414408508
 30
0
 40
3.2
  1
26
 50
90
 41
0.8910000000000004
  0
TEXT
  8
1
 62
7
 10
-117.610932133322
 20
-14.46572858852952
 30
0
 40
3.2
  1
φ
 50
90
 41
0.8910000000000004
  0
TEXT
  8
1
 62
7
 10
-108.348644124531
 20
-17.92528414408508
 30
0
 40
3.2
  1
10.32
 50
90
 41
0.8910000000000004
  0
TEXT
  8
1
 62
7
 10
-110.428644124531
 20
-5.685284144085079
 30
0
 40
1.92
  1
 0
 50
90
 41
0.8910000000000001
  0
TEXT
  8
1
 62
7
 10
-107.548644124531
 20
-5.685284144085079
 30
0
 40
1.92
  1
-0.03
 50
90
 41
0.8910000000000001
  0
TEXT
  8
1
 62
7
 10
-108.348644124531
 20
-21.56972858852952
 30
0
 40
3.2
  1
φ
 50
90
 41
0.8910000000000004
  0
TEXT
  8
1
 62
7
 10
-97.82160444839371
 20
-11.50005192711937
 30
0
 40
3.2
  1
φ3
 50
90
 41
0.8910000000000004
  0
TEXT
  8
1
 62
7
 10
-99.90160444839371
 20
-4.78005192711937
 30
0
 40
1.92
  1
 0
 50
90
 41
0.8910000000000001
  0
TEXT
  8
1
 62
7
 10
-97.0216044483937
 20
-4.78005192711937
 30
0
 40
1.92
  1
-0.02
 50
90
 41
0.8910000000000001
  0
TEXT
  8
1
 62
7
 10
-140.868148288663
 20
27.20442615163
 30
0
 40
3.2
  1
11.5
 41
0.8910000000000004
  0
TEXT
  8
1
 62
7
 10
39.6189226248776
 20
-6.892458374142571
 30
0
 40
3.2
  1
4.3
 50
90
 41
0.8910000000000004
  0
TEXT
  8
1
 62
7
 10
38.97892262487758
 20
0.5475416258574199
 30
0
 40
3
  1
±1
 50
90
 41
0.6300000000000001
  0
TEXT
  8
1
 62
7
 10
-70.61089310237459
 20
18.9432743526322
 30
0
 40
3.2
  1
8
 41
0.8910000000000004
  0
TEXT
  8
1
 62
7
 10
-58.1039686581783
 20
19.1078001958868
 30
0
 40
3.2
  1
5
 41
0.8910000000000004
  0
TEXT
  8
1
 62
7
 10
-103.2611213795016
 20
18.108018169413
 30
0
 40
3.2
  1
1.5
 41
0.8910000000000004
  0
TEXT
  8
1
 62
7
 10
-96.7811213795016
 20
18.108018169413
 30
0
 40
3.2
  1
MAX
 41
0.8910000000000004
  0
TEXT
  8
1
 62
7
 10
-59.93862879529871
 20
27.146370697492
 30
0
 40
3.2
  1
15
 41
0.8910000000000004
  0
TEXT
  8
1
 62
7
 10
-42.95091700955851
 20
27.33718319144688
 30
0
 40
3.2
  1
3.5
 41
0.8910000000000004
  0
TEXT
  8
1
 62
7
 10
-80.60725059919611
 20
27.146370697492
 30
0
 40
3.2
  1
20
 41
0.8910000000000004
  0
TEXT
  8
1
 62
7
 10
-74.6612733813775
 20
26.96912968956501
 30
0
 40
3
  1
±1
 41
0.6300000000000001
  0
TEXT
  8
1
 62
7
 10
3.33762977473069
 20
-18.9894221351612
 30
0
 40
2
  1
2
 41
0.891
  0
TEXT
  8
1
 62
7
 10
12.9383349657199
 20
-8.051909892262071
 30
0
 40
2
  1
3
 41
0.891
  0
TEXT
  8
1
 62
7
 10
-1.40195886385893
 20
-8.65954946131202
 30
0
 40
2
  1
1
 41
0.891
  0
TEXT
  8
1
 62
7
 10
-126.1914519099153
 20
-34.083512193965
 30
0
 40
3
  1
Ｍ９×０．７５細目ネジ
 41
0.8910000000000001
  0
TEXT
  8
1
 62
7
 10
-82.15909949225879
 20
-40.2303768418042
 30
0
 40
4
  1
取付面
 41
0.891
  0
DIMENSION
  8
1
  6
CONTINUOUS
 62
7
  2
*D0
  3
DMST_1
 10
-34.0311992657257
 20
0.8564936336927005
 30
0
 11
-38.05786593239237
 21
-9.723898511768139
 31
0
 12
0
 22
0
 32
0
 70
1
  1
φ<>
 13
-50.5186287952987
 23
-21.3435063663073
 33
0
 14
-50.5186287952987
 24
0.856493633692699
 34
0
 53
0
  0
DIMENSION
  8
1
  6
CONTINUOUS
 62
7
  2
*D1
  3
DMST_2
 10
6.662810531213495
 20
-10.2435063663073
 30
0
 11
-22.7832731145112
 21
21.5120292417524
 31
0
 12
0
 22
0
 32
0
 70
4
 15
4.628796262216391
 25
-6.454999278612177
 35
0
 40
0
 53
0
  0
DIMENSION
  8
1
  6
CONTINUOUS
 62
7
  2
*D2
  3
DMST_3
 10
11.42982490159034
 20
-6.243506366307299
 30
0
 11
6.44019491132347
 21
22.3298295628575
 31
0
 12
0
 22
0
 32
0
 70
2
 13
1.895796160836653
 23
-6.243506366307299
 33
0
 14
4.730309221673363
 24
-8.621945230222565
 34
0
 15
8.61074298442885
 25
-8.60899696325604
 35
0
 16
6.662810531213506
 26
16.3805767328803
 36
0
 53
0
  0
ENDSEC
  0
EOF
