  0
SECTION
  2
HEADER
  9
$ACADVER
  1
AC1014
  9
$ACADMAINTVER
 70
             0
  9
$DWGCODEPAGE
  3
ANSI_1252
  9
$INSBASE
 10
0.0
 20
0.0
 30
0.0
  9
$EXTMIN
 10
-83.5622079227509
 20
72.77464600171149
 30
0.0
  9
$EXTMAX
 10
152.3153160694977
 20
174.10865313791101
 30
0.0
  9
$LIMMIN
 10
0.0
 20
0.0
  9
$LIMMAX
 10
0.0
 20
0.0
  9
$ORTHOMODE
 70
             0
  9
$REGENMODE
 70
             1
  9
$FILLMODE
 70
             1
  9
$QTEXTMODE
 70
             0
  9
$MIRRTEXT
 70
             1
  9
$DRAGMODE
 70
             2
  9
$LTSCALE
 40
1.0
  9
$OSMODE
 70
             0
  9
$ATTMODE
 70
             1
  9
$TEXTSIZE
 40
0.2
  9
$TRACEWID
 40
0.05
  9
$TEXTSTYLE
  7
STANDARD
  9
$CLAYER
  8
0
  9
$CELTYPE
  6
CONTINUOUS
  9
$CECOLOR
 62
           256
  9
$CELTSCALE
 40
1.0
  9
$DELOBJ
 70
             1
  9
$DISPSILH
 70
             0
  9
$DIMSCALE
 40
1.0
  9
$DIMASZ
 40
0.18
  9
$DIMEXO
 40
0.0625
  9
$DIMDLI
 40
0.38
  9
$DIMRND
 40
0.0
  9
$DIMDLE
 40
0.0
  9
$DIMEXE
 40
0.18
  9
$DIMTP
 40
0.0
  9
$DIMTM
 40
0.0
  9
$DIMTXT
 40
0.18
  9
$DIMCEN
 40
0.09
  9
$DIMTSZ
 40
0.0
  9
$DIMTOL
 70
             0
  9
$DIMLIM
 70
             0
  9
$DIMTIH
 70
             1
  9
$DIMTOH
 70
             1
  9
$DIMSE1
 70
             0
  9
$DIMSE2
 70
             0
  9
$DIMTAD
 70
             0
  9
$DIMZIN
 70
             0
  9
$DIMBLK
  1

  9
$DIMASO
 70
             1
  9
$DIMSHO
 70
             1
  9
$DIMPOST
  1

  9
$DIMAPOST
  1

  9
$DIMALT
 70
             0
  9
$DIMALTD
 70
             2
  9
$DIMALTF
 40
25.4
  9
$DIMLFAC
 40
1.0
  9
$DIMTOFL
 70
             0
  9
$DIMTVP
 40
0.0
  9
$DIMTIX
 70
             0
  9
$DIMSOXD
 70
             0
  9
$DIMSAH
 70
             0
  9
$DIMBLK1
  1

  9
$DIMBLK2
  1

  9
$DIMSTYLE
  2
STANDARD
  9
$DIMCLRD
 70
             0
  9
$DIMCLRE
 70
             0
  9
$DIMCLRT
 70
             0
  9
$DIMTFAC
 40
1.0
  9
$DIMGAP
 40
0.09
  9
$DIMJUST
 70
             0
  9
$DIMSD1
 70
             0
  9
$DIMSD2
 70
             0
  9
$DIMTOLJ
 70
             1
  9
$DIMTZIN
 70
             0
  9
$DIMALTZ
 70
             0
  9
$DIMALTTZ
 70
             0
  9
$DIMFIT
 70
             3
  9
$DIMUPT
 70
             0
  9
$DIMUNIT
 70
             2
  9
$DIMDEC
 70
             4
  9
$DIMTDEC
 70
             4
  9
$DIMALTU
 70
             2
  9
$DIMALTTD
 70
             2
  9
$DIMTXSTY
  7
STANDARD
  9
$DIMAUNIT
 70
             0
  9
$LUNITS
 70
             2
  9
$LUPREC
 70
             4
  9
$SKETCHINC
 40
0.1
  9
$FILLETRAD
 40
0.0
  9
$AUNITS
 70
             0
  9
$AUPREC
 70
             0
  9
$MENU
  1
acad
  9
$ELEVATION
 40
0.0
  9
$PELEVATION
 40
0.0
  9
$THICKNESS
 40
0.0
  9
$LIMCHECK
 70
             0
  9
$BLIPMODE
 70
             1
  9
$CHAMFERA
 40
0.0
  9
$CHAMFERB
 40
0.0
  9
$CHAMFERC
 40
0.0
  9
$CHAMFERD
 40
0.0
  9
$SKPOLY
 70
             0
  9
$TDCREATE
 40
0.000000000
  9
$TDUPDATE
 40
0.000000000
  9
$TDINDWG
 40
0.0000000000
  9
$TDUSRTIMER
 40
0.0000000000
  9
$USRTIMER
 70
             1
  9
$ANGBASE
 50
0.0
  9
$ANGDIR
 70
             0
  9
$PDMODE
 70
             0
  9
$PDSIZE
 40
0.0
  9
$PLINEWID
 40
0.0
  9
$COORDS
 70
             0
  9
$SPLFRAME
 70
             0
  9
$SPLINETYPE
 70
             6
  9
$SPLINESEGS
 70
             8
  9
$ATTDIA
 70
             0
  9
$ATTREQ
 70
             1
  9
$HANDLING
 70
             1
  9
$HANDSEED
  5
42C
  9
$SURFTAB1
 70
             6
  9
$SURFTAB2
 70
             6
  9
$SURFTYPE
 70
             6
  9
$SURFU
 70
             6
  9
$SURFV
 70
             6
  9
$UCSNAME
  2

  9
$UCSORG
 10
0.0
 20
0.0
 30
0.0
  9
$UCSXDIR
 10
1.0
 20
0.0
 30
0.0
  9
$UCSYDIR
 10
0.0
 20
1.0
 30
0.0
  9
$PUCSNAME
  2

  9
$PUCSORG
 10
0.0
 20
0.0
 30
0.0
  9
$PUCSXDIR
 10
1.0
 20
0.0
 30
0.0
  9
$PUCSYDIR
 10
0.0
 20
1.0
 30
0.0
  9
$USERI1
 70
             0
  9
$USERI2
 70
             0
  9
$USERI3
 70
             0
  9
$USERI4
 70
             0
  9
$USERI5
 70
             0
  9
$USERR1
 40
12.01
  9
$USERR2
 40
0.0
  9
$USERR3
 40
0.0
  9
$USERR4
 40
0.0
  9
$USERR5
 40
0.0
  9
$WORLDVIEW
 70
             1
  9
$SHADEDGE
 70
             3
  9
$SHADEDIF
 70
            70
  9
$TILEMODE
 70
             1
  9
$MAXACTVP
 70
            16
  9
$PINSBASE
 10
0.0
 20
0.0
 30
0.0
  9
$PLIMCHECK
 70
             0
  9
$PEXTMIN
 10
1.00000000000000E+20
 20
1.00000000000000E+20
 30
1.00000000000000E+20
  9
$PEXTMAX
 10
-1.00000000000000E+20
 20
-1.00000000000000E+20
 30
-1.00000000000000E+20
  9
$PLIMMIN
 10
0.0
 20
0.0
  9
$PLIMMAX
 10
12.0
 20
9.0
  9
$UNITMODE
 70
             0
  9
$VISRETAIN
 70
             0
  9
$PLINEGEN
 70
             1
  9
$PSLTSCALE
 70
             0
  9
$TREEDEPTH
 70
          3020
  9
$PICKSTYLE
 70
             1
  9
$CMLSTYLE
  2
STANDARD
  9
$CMLJUST
 70
             0
  9
$CMLSCALE
 40
1.0
  9
$PROXYGRAPHICS
 70
             0
  9
$MEASUREMENT
 70
             1
  0
ENDSEC
  0
SECTION
  2
CLASSES
  0
CLASS
  1
LWPOLYLINE
  2
AcDbPolyline
  3
"AutoCAD"
 90
        0
280
             0
281
             1
  0
CLASS
  1
IMAGE
  2
AcDbRasterImage
  3
ISM
 90
      127
280
             0
281
             1
  0
CLASS
  1
OLE2FRAME
  2
AcDbOle2Frame
  3
""
 90
        0
280
             0
281
             1
  0
CLASS
  1
HATCH
  2
AcDbHatch
  3
"ACAD_SEDONA"
 90
        0
280
             0
281
             1
  0
CLASS
  1
DICTIONARYVAR
  2
AcDbDictionaryVar
  3
"AutoCAD"
 90
        0
280
             0
281
             0
  0
CLASS
  1
RASTERVARIABLES
  2
AcDbRasterVariables
  3
ISM
 90
        0
280
             0
281
             0
  0
CLASS
  1
IMAGEDEF
  2
AcDbRasterImageDef
  3
ISM
 90
        0
280
             0
281
             0
  0
CLASS
  1
IMAGEDEF_REACTOR
  2
AcDbRasterImageDefReactor
  3
ISM
 90
        1
280
             0
281
             0
  0
CLASS
  1
IDBUFFER
  2
AcDbIdBuffer
  3
"Acad"
 90
        0
280
             0
281
             0
  0
CLASS
  1
SPATIAL_FILTER
  2
AcDbSpatialFilter
  3
"Acad"
 90
        0
280
             0
281
             0
  0
CLASS
  1
XRECORD
  2
AcDbXrecord
  3
"<Built In>"
 90
        0
280
             0
281
             0
  0
CLASS
  1
SORTENTSTABLE
  2
AcDbSortentsTable
  3
"AutoCAD"
 90
        0
280
             0
281
             0
  0
CLASS
  1
LAYER_INDEX
  2
AcDbLayerIndex
  3
"Acad"
 90
        0
280
             0
281
             0
  0
CLASS
  1
SPATIAL_INDEX
  2
AcDbSpatialIndex
  3
"Acad"
 90
        0
280
             0
281
             0
  0
CLASS
  1
OBJECT_PTR
  2
CAseDLPNTableRecord
  3
"ASE-LPNTableRecord"
 90
        1
280
             0
281
             0
  0
CLASS
  1
LAYOUT
  2
AcDbLayout
  3
"AutoCAD 2000"
 90
        0
280
             0
281
             0
  0
CLASS
  1
PLOTSETTINGS
  2
AcDbPlotSettings
  3
"AutoCAD 2000"
 90
        0
280
             0
281
             0
  0
CLASS
  1
ACDBDICTIONARYWDFLT
  2
AcDbDictionaryWithDefault
  3
"AutoCAD 2000"
 90
        0
280
             0
281
             0
  0
CLASS
  1
ACDBPLACEHOLDER
  2
AcDbPlaceHolder
  3
"AutoCAD 2000"
 90
        0
280
             0
281
             0
  0
ENDSEC
  0
SECTION
  2
TABLES
  0
TABLE
  2
VPORT
  5
7
100
AcDbSymbolTable
 70
             1
  0
VPORT
  5
15
100
AcDbSymbolTableRecord
100
AcDbViewportTableRecord
  2
*ACTIVE
 70
             0
 10
0.0
 20
0.0
 11
1.0
 21
1.0
 12
34.3765540733734
 22
123.44164956981125
 13
0.0
 23
0.0
 14
1.0
 24
1.0
 15
0.0
 25
0.0
 16
0.0
 26
0.0
 36
1.0
 17
0.0
 27
0.0
 37
0.0
 40
161.8947685562398
 41
1.60267857142857
 42
50.0
 43
0.0
 44
0.0
 50
0.0
 51
0.0
 71
             0
 72
           100
 73
             1
 74
             1
 75
             0
 76
             0
 77
             0
 78
             0
  0
ENDTAB
  0
TABLE
  2
LTYPE
  5
4
100
AcDbSymbolTable
 70
            10
  0
LTYPE
  5
11
100
AcDbSymbolTableRecord
100
AcDbLinetypeTableRecord
  2
BYBLOCK
 70
            64
  3

 72
            65
 73
             0
 40
0.0
  0
LTYPE
  5
12
100
AcDbSymbolTableRecord
100
AcDbLinetypeTableRecord
  2
BYLAYER
 70
            64
  3

 72
            65
 73
             0
 40
0.0
  0
LTYPE
  5
13
100
AcDbSymbolTableRecord
100
AcDbLinetypeTableRecord
  2
CONTINUOUS
 70
            64
  3
Solid line
 72
            65
 73
             0
 40
0.0
  0
LTYPE
  5
1D
100
AcDbSymbolTableRecord
100
AcDbLinetypeTableRecord
  2
DASHED
 70
            64
  3
Dashed
 72
            65
 73
             2
 40
15.0
 49
7.0
 74
             0
 49
-8.0
 74
             0
  0
LTYPE
  5
1E
100
AcDbSymbolTableRecord
100
AcDbLinetypeTableRecord
  2
DOTTED
 70
            64
  3
Dotted
 72
            65
 73
             2
 40
1.0
 49
0.0
 74
             0
 49
-1.0
 74
             0
  0
LTYPE
  5
1F
100
AcDbSymbolTableRecord
100
AcDbLinetypeTableRecord
  2
DOT_CENTER
 70
            64
  3
Dot_Center
 72
            65
 73
             4
 40
14.0
 49
12.0
 74
             0
 49
-1.0
 74
             0
 49
0.0
 74
             0
 49
-1.0
 74
             0
  0
LTYPE
  5
20
100
AcDbSymbolTableRecord
100
AcDbLinetypeTableRecord
  2
LONG_DASHED
 70
            64
  3
Long_Dashed
 72
            65
 73
             2
 40
15.0
 49
10.0
 74
             0
 49
-5.0
 74
             0
  0
LTYPE
  5
21
100
AcDbSymbolTableRecord
100
AcDbLinetypeTableRecord
  2
DASH_CENTER
 70
            64
  3
Dash_Center
 72
            65
 73
             4
 40
14.0
 49
11.0
 74
             0
 49
-1.0
 74
             0
 49
1.0
 74
             0
 49
-1.0
 74
             0
  0
LTYPE
  5
22
100
AcDbSymbolTableRecord
100
AcDbLinetypeTableRecord
  2
PHANTOM
 70
            64
  3
Phantom
 72
            65
 73
             6
 40
13.0
 49
10.0
 74
             0
 49
-1.0
 74
             0
 49
0.0
 74
             0
 49
-1.0
 74
             0
 49
0.0
 74
             0
 49
-1.0
 74
             0
  0
LTYPE
  5
23
100
AcDbSymbolTableRecord
100
AcDbLinetypeTableRecord
  2
CENTER_DASH_DASH
 70
            64
  3
Center_Dash_Dash
 72
            65
 73
             6
 40
14.0
 49
9.0
 74
             0
 49
-1.0
 74
             0
 49
1.0
 74
             0
 49
-1.0
 74
             0
 49
1.0
 74
             0
 49
-1.0
 74
             0
  0
ENDTAB
  0
TABLE
  2
LAYER
  5
2
100
AcDbSymbolTable
 70
             2
  0
LAYER
  5
14
100
AcDbSymbolTableRecord
100
AcDbLayerTableRecord
  2
0
 70
             0
 62
             7
  6
CONTINUOUS
  0
LAYER
  5
24
100
AcDbSymbolTableRecord
100
AcDbLayerTableRecord
  2
1
 70
             0
 62
             7
  6
CONTINUOUS
  0
ENDTAB
  0
TABLE
  2
STYLE
  5
3
100
AcDbSymbolTable
 70
             2
  0
STYLE
  5
17
100
AcDbSymbolTableRecord
100
AcDbTextStyleTableRecord
  2
STANDARD
 70
             0
 40
0.0
 41
1.0
 50
0.0
 71
             0
 42
0.0
  3
txt
  4

  0
STYLE
  5
35A
100
AcDbSymbolTableRecord
100
AcDbTextStyleTableRecord
  2
CONVERTER_1
 70
             0
 40
0.0
 41
0.9
 50
0.0
 71
             0
 42
0.0
  3
txt.shx
  4

  0
ENDTAB
  0
TABLE
  2
VIEW
  5
5
100
AcDbSymbolTable
 70
             0
  0
ENDTAB
  0
TABLE
  2
UCS
  5
6
100
AcDbSymbolTable
 70
             0
  0
ENDTAB
  0
TABLE
  2
APPID
  5
8
100
AcDbSymbolTable
 70
             1
  0
APPID
  5
16
100
AcDbSymbolTableRecord
100
AcDbRegAppTableRecord
  2
ACAD
 70
             0
  0
ENDTAB
  0
TABLE
  2
DIMSTYLE
  5
9
100
AcDbSymbolTable
 70
            18
  0
DIMSTYLE
105
18
100
AcDbSymbolTableRecord
100
AcDbDimStyleTableRecord
  2
STANDARD
 70
             0
  3

  4

  5

  6

  7

 40
1.0
 41
0.18
 42
0.0625
 43
0.38
 44
0.18
 45
0.0
 46
0.0
 47
0.0
 48
0.0
 71
             0
 72
             0
 73
             1
 74
             1
 75
             0
 76
             0
 77
             0
 78
             0
140
0.18
141
0.09
142
0.0
143
25.4
144
1.0
145
0.0
146
1.0
147
0.09
170
             0
171
             2
172
             0
173
             0
174
             0
175
             0
176
             0
177
             0
178
             0
270
             2
271
             4
272
             4
273
             2
274
             2
275
             0
280
             0
281
             0
282
             0
283
             1
284
             0
285
             0
286
             0
287
             3
288
             0
340
17
  0
DIMSTYLE
105
366
100
AcDbSymbolTableRecord
100
AcDbDimStyleTableRecord
  2
ME10_DIM_0
 70
             0
  3

  4

  5

  6

  7

 40
1.0
 41
3.5
 42
0.0
 43
0.38
 44
1.0
 45
0.0
 46
0.0
 47
0.0
 48
0.0
 71
             0
 72
             0
 73
             0
 74
             0
 75
             0
 76
             0
 77
             1
 78
             8
140
3.2
141
0.09
142
0.0
143
25.4
144
1.0
145
0.0
146
1.0
147
0.625
170
             0
171
             2
172
             1
173
             1
174
             0
175
             0
176
             2
177
             2
178
             2
270
             2
271
             3
272
             4
273
             2
274
             2
275
             0
280
             0
281
             0
282
             0
283
             1
284
             0
285
             0
286
             0
287
             3
288
             0
340
35A
  0
DIMSTYLE
105
373
100
AcDbSymbolTableRecord
100
AcDbDimStyleTableRecord
  2
ME10_DIM_1
 70
             0
  3

  4

  5

  6

  7

 40
1.0
 41
3.2
 42
1.0
 43
0.38
 44
1.5
 45
0.0
 46
0.0
 47
0.0
 48
0.0
 71
             0
 72
             0
 73
             0
 74
             0
 75
             0
 76
             0
 77
             1
 78
             8
140
3.2
141
0.09
142
0.0
143
25.4
144
1.0
145
0.0
146
1.0
147
0.625
170
             0
171
             2
172
             1
173
             1
174
             0
175
             0
176
             2
177
             2
178
             2
270
             2
271
             4
272
             4
273
             2
274
             2
275
             0
280
             0
281
             0
282
             0
283
             1
284
             0
285
             0
286
             0
287
             3
288
             0
340
35A
  0
DIMSTYLE
105
37F
100
AcDbSymbolTableRecord
100
AcDbDimStyleTableRecord
  2
ME10_DIM_2
 70
             0
  3

  4

  5

  6

  7

 40
1.0
 41
3.2
 42
1.0
 43
0.38
 44
1.5
 45
0.0
 46
0.0
 47
0.0
 48
0.0
 71
             0
 72
             0
 73
             0
 74
             0
 75
             0
 76
             0
 77
             1
 78
             8
140
3.2
141
0.09
142
0.0
143
25.4
144
1.0
145
0.0
146
1.0
147
0.625
170
             0
171
             2
172
             1
173
             1
174
             0
175
             0
176
             2
177
             2
178
             2
270
             2
271
             4
272
             4
273
             2
274
             2
275
             0
280
             0
281
             0
282
             0
283
             1
284
             0
285
             0
286
             0
287
             3
288
             0
340
35A
  0
DIMSTYLE
105
38C
100
AcDbSymbolTableRecord
100
AcDbDimStyleTableRecord
  2
ME10_DIM_3
 70
             0
  3

  4

  5

  6

  7

 40
1.0
 41
3.2
 42
1.0
 43
0.38
 44
1.5
 45
0.0
 46
0.0
 47
0.0
 48
0.0
 71
             0
 72
             0
 73
             0
 74
             0
 75
             0
 76
             0
 77
             1
 78
             8
140
3.2
141
0.09
142
0.0
143
25.4
144
1.0
145
0.0
146
1.0
147
0.625
170
             0
171
             2
172
             1
173
             1
174
             0
175
             0
176
             2
177
             2
178
             2
270
             2
271
             4
272
             4
273
             2
274
             2
275
             0
280
             0
281
             0
282
             0
283
             1
284
             0
285
             0
286
             0
287
             3
288
             0
340
35A
  0
DIMSTYLE
105
397
100
AcDbSymbolTableRecord
100
AcDbDimStyleTableRecord
  2
ME10_DIM_4
 70
             0
  3

  4

  5

  6

  7

 40
1.0
 41
3.2
 42
1.0
 43
0.38
 44
1.5
 45
0.0
 46
0.0
 47
0.0
 48
0.0
 71
             0
 72
             0
 73
             0
 74
             0
 75
             0
 76
             0
 77
             1
 78
             8
140
3.2
141
0.09
142
0.0
143
25.4
144
1.0
145
0.0
146
1.0
147
0.625
170
             0
171
             2
172
             1
173
             1
174
             0
175
             0
176
             2
177
             2
178
             2
270
             2
271
             4
272
             4
273
             2
274
             2
275
             0
280
             0
281
             0
282
             0
283
             1
284
             0
285
             0
286
             0
287
             3
288
             0
340
35A
  0
DIMSTYLE
105
3A4
100
AcDbSymbolTableRecord
100
AcDbDimStyleTableRecord
  2
ME10_DIM_5
 70
             0
  3

  4

  5

  6

  7

 40
1.0
 41
3.2
 42
1.0
 43
0.38
 44
1.5
 45
0.0
 46
0.0
 47
0.0
 48
0.0
 71
             0
 72
             0
 73
             0
 74
             0
 75
             0
 76
             0
 77
             1
 78
             8
140
3.2
141
0.09
142
0.0
143
25.4
144
1.0
145
0.0
146
1.0
147
0.625
170
             0
171
             2
172
             1
173
             1
174
             0
175
             0
176
             2
177
             2
178
             2
270
             2
271
             4
272
             4
273
             2
274
             2
275
             0
280
             0
281
             0
282
             0
283
             1
284
             0
285
             0
286
             0
287
             3
288
             0
340
35A
  0
DIMSTYLE
105
3B1
100
AcDbSymbolTableRecord
100
AcDbDimStyleTableRecord
  2
ME10_DIM_6
 70
             0
  3

  4

  5

  6

  7

 40
1.0
 41
3.5
 42
0.0
 43
0.38
 44
1.0
 45
0.0
 46
0.0
 47
0.0
 48
0.0
 71
             0
 72
             0
 73
             0
 74
             0
 75
             0
 76
             0
 77
             1
 78
             8
140
3.2
141
0.09
142
0.0
143
25.4
144
1.0
145
0.0
146
1.0
147
0.625
170
             0
171
             2
172
             1
173
             1
174
             0
175
             0
176
             2
177
             2
178
             2
270
             2
271
             3
272
             4
273
             2
274
             2
275
             0
280
             0
281
             0
282
             0
283
             1
284
             0
285
             0
286
             0
287
             3
288
             0
340
35A
  0
DIMSTYLE
105
3BC
100
AcDbSymbolTableRecord
100
AcDbDimStyleTableRecord
  2
ME10_DIM_7
 70
             0
  3

  4

  5

  6

  7

 40
1.0
 41
3.5
 42
0.0
 43
0.38
 44
1.0
 45
0.0
 46
0.0
 47
0.0
 48
0.0
 71
             0
 72
             0
 73
             0
 74
             0
 75
             0
 76
             0
 77
             1
 78
             8
140
3.2
141
0.09
142
0.0
143
25.4
144
1.0
145
0.0
146
1.0
147
0.625
170
             0
171
             2
172
             1
173
             1
174
             0
175
             0
176
             2
177
             2
178
             2
270
             2
271
             3
272
             4
273
             2
274
             2
275
             0
280
             0
281
             0
282
             0
283
             1
284
             0
285
             0
286
             0
287
             3
288
             0
340
35A
  0
DIMSTYLE
105
3C7
100
AcDbSymbolTableRecord
100
AcDbDimStyleTableRecord
  2
ME10_DIM_8
 70
             0
  3

  4

  5

  6

  7

 40
1.0
 41
3.5
 42
0.0
 43
0.38
 44
1.0
 45
0.0
 46
0.0
 47
0.0
 48
0.0
 71
             0
 72
             0
 73
             0
 74
             0
 75
             0
 76
             0
 77
             1
 78
             8
140
3.2
141
0.09
142
0.0
143
25.4
144
1.0
145
0.0
146
1.0
147
0.625
170
             0
171
             2
172
             1
173
             1
174
             0
175
             0
176
             2
177
             2
178
             2
270
             2
271
             3
272
             4
273
             2
274
             2
275
             0
280
             0
281
             0
282
             0
283
             1
284
             0
285
             0
286
             0
287
             3
288
             0
340
35A
  0
DIMSTYLE
105
3D2
100
AcDbSymbolTableRecord
100
AcDbDimStyleTableRecord
  2
ME10_DIM_9
 70
             0
  3

  4

  5

  6

  7

 40
1.0
 41
3.5
 42
0.0
 43
0.38
 44
1.0
 45
0.0
 46
0.0
 47
0.0
 48
0.0
 71
             0
 72
             0
 73
             0
 74
             0
 75
             0
 76
             0
 77
             1
 78
             8
140
3.2
141
0.09
142
0.0
143
25.4
144
1.0
145
0.0
146
1.0
147
0.625
170
             0
171
             2
172
             1
173
             1
174
             0
175
             0
176
             2
177
             2
178
             2
270
             2
271
             3
272
             4
273
             2
274
             2
275
             0
280
             0
281
             0
282
             0
283
             1
284
             0
285
             0
286
             0
287
             3
288
             0
340
35A
  0
DIMSTYLE
105
3DF
100
AcDbSymbolTableRecord
100
AcDbDimStyleTableRecord
  2
ME10_DIM_10
 70
             0
  3

  4

  5

  6

  7

 40
1.0
 41
3.5
 42
0.0
 43
0.38
 44
1.0
 45
0.0
 46
0.0
 47
0.0
 48
0.0
 71
             0
 72
             0
 73
             0
 74
             0
 75
             0
 76
             0
 77
             1
 78
             8
140
3.2
141
0.09
142
0.0
143
25.4
144
1.0
145
0.0
146
1.0
147
0.625
170
             0
171
             2
172
             1
173
             1
174
             0
175
             0
176
             2
177
             2
178
             2
270
             2
271
             3
272
             4
273
             2
274
             2
275
             0
280
             0
281
             0
282
             0
283
             1
284
             0
285
             0
286
             0
287
             3
288
             0
340
35A
  0
DIMSTYLE
105
3EA
100
AcDbSymbolTableRecord
100
AcDbDimStyleTableRecord
  2
ME10_DIM_11
 70
             0
  3

  4

  5

  6

  7

 40
1.0
 41
3.5
 42
0.0
 43
0.38
 44
1.0
 45
0.0
 46
0.0
 47
0.0
 48
0.0
 71
             0
 72
             0
 73
             0
 74
             0
 75
             0
 76
             0
 77
             1
 78
             8
140
3.2
141
0.09
142
0.0
143
25.4
144
1.0
145
0.0
146
1.0
147
0.625
170
             0
171
             2
172
             1
173
             1
174
             0
175
             0
176
             2
177
             2
178
             2
270
             2
271
             3
272
             4
273
             2
274
             2
275
             0
280
             0
281
             0
282
             0
283
             1
284
             0
285
             0
286
             0
287
             3
288
             0
340
35A
  0
DIMSTYLE
105
3F5
100
AcDbSymbolTableRecord
100
AcDbDimStyleTableRecord
  2
ME10_DIM_12
 70
             0
  3

  4

  5

  6

  7

 40
1.0
 41
3.5
 42
0.0
 43
0.38
 44
1.0
 45
0.0
 46
0.0
 47
0.0
 48
0.0
 71
             0
 72
             0
 73
             0
 74
             0
 75
             0
 76
             0
 77
             1
 78
             8
140
3.2
141
0.09
142
0.0
143
25.4
144
1.0
145
0.0
146
1.0
147
0.625
170
             0
171
             2
172
             1
173
             1
174
             0
175
             0
176
             2
177
             2
178
             2
270
             2
271
             3
272
             4
273
             2
274
             2
275
             0
280
             0
281
             0
282
             0
283
             1
284
             0
285
             0
286
             0
287
             3
288
             0
340
35A
  0
DIMSTYLE
105
402
100
AcDbSymbolTableRecord
100
AcDbDimStyleTableRecord
  2
ME10_DIM_13
 70
             0
  3

  4

  5

  6

  7

 40
1.0
 41
3.5
 42
0.0
 43
0.38
 44
1.0
 45
0.0
 46
0.0
 47
0.0
 48
0.0
 71
             0
 72
             0
 73
             0
 74
             0
 75
             0
 76
             0
 77
             1
 78
             8
140
3.2
141
0.09
142
0.0
143
25.4
144
1.0
145
0.0
146
1.0
147
0.625
170
             0
171
             2
172
             1
173
             1
174
             0
175
             0
176
             2
177
             2
178
             2
270
             2
271
             3
272
             4
273
             2
274
             2
275
             0
280
             0
281
             0
282
             0
283
             1
284
             0
285
             0
286
             0
287
             3
288
             0
340
35A
  0
DIMSTYLE
105
40F
100
AcDbSymbolTableRecord
100
AcDbDimStyleTableRecord
  2
ME10_DIM_14
 70
             0
  3

  4

  5

  6

  7

 40
1.0
 41
3.5
 42
0.0
 43
0.38
 44
1.0
 45
0.0
 46
0.0
 47
0.0
 48
0.0
 71
             0
 72
             0
 73
             0
 74
             0
 75
             0
 76
             0
 77
             1
 78
             8
140
3.2
141
0.09
142
0.0
143
25.4
144
1.0
145
0.0
146
1.0
147
0.625
170
             0
171
             2
172
             1
173
             1
174
             0
175
             0
176
             2
177
             2
178
             2
270
             2
271
             3
272
             4
273
             2
274
             2
275
             0
280
             0
281
             0
282
             0
283
             1
284
             0
285
             0
286
             0
287
             3
288
             0
340
35A
  0
DIMSTYLE
105
41A
100
AcDbSymbolTableRecord
100
AcDbDimStyleTableRecord
  2
ME10_DIM_15
 70
             0
  3

  4

  5

  6

  7

 40
1.0
 41
3.2
 42
1.0
 43
0.38
 44
1.5
 45
0.0
 46
0.0
 47
5.0
 48
5.0
 71
             1
 72
             0
 73
             0
 74
             0
 75
             0
 76
             0
 77
             1
 78
             8
140
3.2
141
0.09
142
0.0
143
25.4
144
1.0
145
0.0
146
0.6
147
0.625
170
             0
171
             2
172
             1
173
             1
174
             0
175
             0
176
             2
177
             2
178
             2
270
             2
271
             4
272
             0
273
             2
274
             2
275
             0
280
             0
281
             0
282
             0
283
             1
284
             0
285
             0
286
             0
287
             3
288
             0
340
35A
  0
DIMSTYLE
105
425
100
AcDbSymbolTableRecord
100
AcDbDimStyleTableRecord
  2
ME10_DIM_16
 70
             0
  3

  4

  5

  6

  7

 40
1.0
 41
3.2
 42
1.0
 43
0.38
 44
1.5
 45
0.0
 46
0.0
 47
10.0
 48
10.0
 71
             1
 72
             0
 73
             0
 74
             0
 75
             0
 76
             0
 77
             1
 78
             8
140
3.2
141
0.09
142
0.0
143
25.4
144
1.0
145
0.0
146
0.6
147
0.625
170
             0
171
             2
172
             1
173
             1
174
             0
175
             0
176
             2
177
             2
178
             2
270
             2
271
             4
272
             0
273
             2
274
             2
275
             0
280
             0
281
             0
282
             0
283
             1
284
             0
285
             0
286
             0
287
             3
288
             0
340
35A
  0
ENDTAB
  0
TABLE
  2
BLOCK_RECORD
  5
1
100
AcDbSymbolTable
 70
            17
  0
BLOCK_RECORD
  5
A
100
AcDbSymbolTableRecord
100
AcDbBlockTableRecord
  2
*MODEL_SPACE
  0
BLOCK_RECORD
  5
B
100
AcDbSymbolTableRecord
100
AcDbBlockTableRecord
  2
*PAPER_SPACE
  0
BLOCK_RECORD
  5
35D
100
AcDbSymbolTableRecord
100
AcDbBlockTableRecord
  2
*D0
  0
BLOCK_RECORD
  5
368
100
AcDbSymbolTableRecord
100
AcDbBlockTableRecord
  2
*D1
  0
BLOCK_RECORD
  5
375
100
AcDbSymbolTableRecord
100
AcDbBlockTableRecord
  2
*D2
  0
BLOCK_RECORD
  5
381
100
AcDbSymbolTableRecord
100
AcDbBlockTableRecord
  2
*D3
  0
BLOCK_RECORD
  5
38E
100
AcDbSymbolTableRecord
100
AcDbBlockTableRecord
  2
*D4
  0
BLOCK_RECORD
  5
399
100
AcDbSymbolTableRecord
100
AcDbBlockTableRecord
  2
*D5
  0
BLOCK_RECORD
  5
3A6
100
AcDbSymbolTableRecord
100
AcDbBlockTableRecord
  2
*D6
  0
BLOCK_RECORD
  5
3B3
100
AcDbSymbolTableRecord
100
AcDbBlockTableRecord
  2
*D7
  0
BLOCK_RECORD
  5
3BE
100
AcDbSymbolTableRecord
100
AcDbBlockTableRecord
  2
*D8
  0
BLOCK_RECORD
  5
3C9
100
AcDbSymbolTableRecord
100
AcDbBlockTableRecord
  2
*D9
  0
BLOCK_RECORD
  5
3D4
100
AcDbSymbolTableRecord
100
AcDbBlockTableRecord
  2
*D10
  0
BLOCK_RECORD
  5
3E1
100
AcDbSymbolTableRecord
100
AcDbBlockTableRecord
  2
*D11
  0
BLOCK_RECORD
  5
3EC
100
AcDbSymbolTableRecord
100
AcDbBlockTableRecord
  2
*D12
  0
BLOCK_RECORD
  5
3F7
100
AcDbSymbolTableRecord
100
AcDbBlockTableRecord
  2
*D13
  0
BLOCK_RECORD
  5
404
100
AcDbSymbolTableRecord
100
AcDbBlockTableRecord
  2
*D14
  0
BLOCK_RECORD
  5
411
100
AcDbSymbolTableRecord
100
AcDbBlockTableRecord
  2
*D15
  0
BLOCK_RECORD
  5
41C
100
AcDbSymbolTableRecord
100
AcDbBlockTableRecord
  2
*D16
  0
ENDTAB
  0
ENDSEC
  0
SECTION
  2
BLOCKS
  0
BLOCK
  5
D
100
AcDbEntity
  8
0
100
AcDbBlockBegin
  2
*MODEL_SPACE
 70
             0
 10
0.0
 20
0.0
 30
0.0
  3
*MODEL_SPACE
  1

  0
ENDBLK
  5
E
100
AcDbEntity
  8
0
100
AcDbBlockEnd
  0
BLOCK
  5
F
100
AcDbEntity
 67
             1
  8
0
100
AcDbBlockBegin
  2
*PAPER_SPACE
 70
             0
 10
0.0
 20
0.0
 30
0.0
  3
*PAPER_SPACE
  1

  0
ENDBLK
  5
10
100
AcDbEntity
 67
             1
  8
0
100
AcDbBlockEnd
  0
BLOCK
  5
35E
100
AcDbEntity
  8
0
100
AcDbBlockBegin
  2
*D0
 70
             1
 10
0.0
 20
0.0
 30
0.0
  3
*D0
  1

  0
LINE
  5
35F
100
AcDbEntity
  8
0
  6
CONTINUOUS
 62
             2
100
AcDbLine
 10
0.64250848129931
 20
169.213641673816
 11
11.64250848129931
 21
169.213641673816
  0
LINE
  5
360
100
AcDbEntity
  8
0
  6
CONTINUOUS
 62
             2
100
AcDbLine
 10
0.64250848129931
 20
148.76038863702621
 11
0.64250848129931
 21
170.213641673816
  0
LINE
  5
361
100
AcDbEntity
  8
0
  6
CONTINUOUS
 62
             2
100
AcDbLine
 10
11.64250848129931
 20
148.76038863702621
 11
11.64250848129931
 21
170.213641673816
  0
SOLID
  5
362
100
AcDbEntity
  8
0
 62
             2
100
AcDbTrace
 10
4.14250848129931
 20
169.67442541537187
 11
4.14250848129931
 21
168.75285793226013
 12
0.64250848129931
 22
169.213641673816
 13
0.64250848129931
 23
169.213641673816
  0
SOLID
  5
363
100
AcDbEntity
  8
0
 62
             2
100
AcDbTrace
 10
8.14250848129931
 20
168.75285793226013
 11
8.14250848129931
 21
169.67442541537187
 12
11.64250848129931
 22
169.213641673816
 13
11.64250848129931
 23
169.213641673816
  0
MTEXT
  5
364
100
AcDbEntity
  8
0
 62
             2
100
AcDbMText
 10
4.2889177996625
 20
170.213641673816
 30
0.0
 40
3.2
 41
0.0
 71
             7
 72
             1
  1
11
  7
CONVERTER_1
 11
0.99999999999706
 21
0.00000242406841
 31
0.0
  0
ENDBLK
  5
365
100
AcDbEntity
  8
0
100
AcDbBlockEnd
  0
BLOCK
  5
369
100
AcDbEntity
  8
0
100
AcDbBlockBegin
  2
*D1
 70
             1
 10
0.0
 20
0.0
 30
0.0
  3
*D1
  1

  0
LINE
  5
36A
100
AcDbEntity
  8
0
  6
CONTINUOUS
 62
             2
100
AcDbLine
 10
-29.1329298593819
 20
112.16204375028701
 11
-39.3013520295212
 21
112.16204375028701
  0
LINE
  5
36B
100
AcDbEntity
  8
0
  6
CONTINUOUS
 62
             2
100
AcDbLine
 10
-39.3013520295212
 20
112.16204375028701
 11
-41.0013520295212
 21
112.16204375028701
  0
LINE
  5
36C
100
AcDbEntity
  8
0
  6
CONTINUOUS
 62
             2
100
AcDbLine
 10
-41.0013520295212
 20
112.16204375028701
 11
-47.4013520295212
 21
112.16204375028701
  0
LINE
  5
36D
100
AcDbEntity
  8
0
  6
CONTINUOUS
 62
             2
100
AcDbLine
 10
-39.3013520295212
 20
134.51038863702621
 11
-39.3013520295212
 21
110.66204375028701
  0
LINE
  5
36E
100
AcDbEntity
  8
0
  6
CONTINUOUS
 62
             2
100
AcDbLine
 10
-41.0013520295212
 20
126.60003053691192
 11
-41.0013520295212
 21
110.66204375028701
  0
SOLID
  5
36F
100
AcDbEntity
  8
0
 62
             2
100
AcDbTrace
 10
-36.1013520295212
 20
112.58333174256668
 11
-36.1013520295212
 21
111.74075575800734
 12
-39.3013520295212
 22
112.16204375028701
 13
-39.3013520295212
 23
112.16204375028701
  0
SOLID
  5
370
100
AcDbEntity
  8
0
 62
             2
100
AcDbTrace
 10
-44.2013520295212
 20
111.74075575800735
 11
-44.2013520295212
 21
112.58333174256668
 12
-41.0013520295212
 22
112.16204375028701
 13
-41.0013520295212
 23
112.16204375028701
  0
MTEXT
  5
371
100
AcDbEntity
  8
0
 62
             2
100
AcDbMText
 10
-34.1729298593819
 20
114.16204375028701
 30
0.0
 40
3.2
 41
0.0
 71
             7
 72
             1
  1
1.7
  7
CONVERTER_1
 11
0.99999999999706
 21
0.00000242406841
 31
0.0
  0
ENDBLK
  5
372
100
AcDbEntity
  8
0
100
AcDbBlockEnd
  0
BLOCK
  5
376
100
AcDbEntity
  8
0
100
AcDbBlockBegin
  2
*D2
 70
             1
 10
0.0
 20
0.0
 30
0.0
  3
*D2
  1

  0
LINE
  5
377
100
AcDbEntity
  8
0
  6
CONTINUOUS
 62
             2
100
AcDbLine
 10
113.8879876966039
 20
148.24145320358659
 11
113.8879876966039
 21
142.01038863702621
  0
LINE
  5
378
100
AcDbEntity
  8
0
  6
CONTINUOUS
 62
             2
100
AcDbLine
 10
113.8879876966039
 20
142.01038863702621
 11
113.8879876966039
 21
129.01038863702621
  0
LINE
  5
379
100
AcDbEntity
  8
0
  6
CONTINUOUS
 62
             2
100
AcDbLine
 10
100.81531606949768
 20
142.01038863702621
 11
115.3879876966039
 21
142.01038863702621
  0
LINE
  5
37A
100
AcDbEntity
  8
0
  6
CONTINUOUS
 62
             2
100
AcDbLine
 10
100.81531606949768
 20
129.01038863702621
 11
115.3879876966039
 21
129.01038863702621
  0
SOLID
  5
37B
100
AcDbEntity
  8
0
 62
             2
100
AcDbTrace
 10
114.30927568888356
 20
138.81038863702622
 11
113.46669970432423
 21
138.81038863702622
 12
113.8879876966039
 22
142.01038863702621
 13
113.8879876966039
 23
142.01038863702621
  0
SOLID
  5
37C
100
AcDbEntity
  8
0
 62
             2
100
AcDbTrace
 10
113.46669970432423
 20
132.2103886370262
 11
114.30927568888357
 21
132.2103886370262
 12
113.8879876966039
 22
129.01038863702621
 13
113.8879876966039
 23
129.01038863702621
  0
MTEXT
  5
37D
100
AcDbEntity
  8
0
 62
             2
100
AcDbMText
 10
111.8879876966039
 20
144.40145320358661
 30
0.0
 40
3.2
 41
0.0
 71
             7
 72
             1
  1
13
  7
CONVERTER_1
 11
0.0
 21
1.0
 31
0.0
  0
ENDBLK
  5
37E
100
AcDbEntity
  8
0
100
AcDbBlockEnd
  0
BLOCK
  5
382
100
AcDbEntity
  8
0
100
AcDbBlockBegin
  2
*D3
 70
             1
 10
0.0
 20
0.0
 30
0.0
  3
*D3
  1

  0
LINE
  5
383
100
AcDbEntity
  8
0
  6
CONTINUOUS
 62
             2
100
AcDbLine
 10
-14.0283626941229
 20
121.6103886370262
 11
-14.0283626941229
 21
128.01038863702621
  0
LINE
  5
384
100
AcDbEntity
  8
0
  6
CONTINUOUS
 62
             2
100
AcDbLine
 10
-14.0283626941229
 20
128.01038863702621
 11
-14.0283626941229
 21
136.01038863702621
  0
LINE
  5
385
100
AcDbEntity
  8
0
  6
CONTINUOUS
 62
             2
100
AcDbLine
 10
-14.0283626941229
 20
136.01038863702621
 11
-14.0283626941229
 21
142.41038863702622
  0
LINE
  5
386
100
AcDbEntity
  8
0
  6
CONTINUOUS
 62
             2
100
AcDbLine
 10
3.36844950783164
 20
128.01038863702621
 11
-15.5283626941229
 21
128.01038863702621
  0
LINE
  5
387
100
AcDbEntity
  8
0
  6
CONTINUOUS
 62
             2
100
AcDbLine
 10
3.36844950783164
 20
136.01038863702621
 11
-15.5283626941229
 21
136.01038863702621
  0
SOLID
  5
388
100
AcDbEntity
  8
0
 62
             2
100
AcDbTrace
 10
-13.60707470184323
 20
124.81038863702621
 11
-14.44965068640257
 21
124.81038863702621
 12
-14.0283626941229
 22
128.01038863702621
 13
-14.0283626941229
 23
128.01038863702621
  0
SOLID
  5
389
100
AcDbEntity
  8
0
 62
             2
100
AcDbTrace
 10
-14.44965068640257
 20
139.2103886370262
 11
-13.60707470184323
 21
139.2103886370262
 12
-14.0283626941229
 22
136.01038863702621
 13
-14.0283626941229
 23
136.01038863702621
  0
MTEXT
  5
38A
100
AcDbEntity
  8
0
 62
             2
100
AcDbMText
 10
-16.0283626941229
 20
130.87556577226698
 30
0.0
 40
3.2
 41
0.0
 71
             7
 72
             1
  1
8
  7
CONVERTER_1
 11
0.0
 21
1.0
 31
0.0
  0
ENDBLK
  5
38B
100
AcDbEntity
  8
0
100
AcDbBlockEnd
  0
BLOCK
  5
38F
100
AcDbEntity
  8
0
100
AcDbBlockBegin
  2
*D4
 70
             1
 10
0.0
 20
0.0
 30
0.0
  3
*D4
  1

  0
LINE
  5
390
100
AcDbEntity
  8
0
  6
CONTINUOUS
 62
             2
100
AcDbLine
 10
-23.1684047812417
 20
142.51038863702621
 11
-23.1684047812417
 21
123.0103886370262
  0
LINE
  5
391
100
AcDbEntity
  8
0
  6
CONTINUOUS
 62
             2
100
AcDbLine
 10
3.36844950783164
 20
142.51038863702621
 11
-24.6684047812417
 21
142.51038863702621
  0
LINE
  5
392
100
AcDbEntity
  8
0
  6
CONTINUOUS
 62
             2
100
AcDbLine
 10
1.04250848129931
 20
123.0103886370262
 11
-24.6684047812417
 21
123.0103886370262
  0
SOLID
  5
393
100
AcDbEntity
  8
0
 62
             2
100
AcDbTrace
 10
-22.74711678896203
 20
139.31038863702622
 11
-23.58969277352136
 21
139.31038863702622
 12
-23.1684047812417
 22
142.51038863702621
 13
-23.1684047812417
 23
142.51038863702621
  0
SOLID
  5
394
100
AcDbEntity
  8
0
 62
             2
100
AcDbTrace
 10
-23.58969277352136
 20
126.2103886370262
 11
-22.74711678896203
 21
126.2103886370262
 12
-23.1684047812417
 22
123.0103886370262
 13
-23.1684047812417
 23
123.0103886370262
  0
MTEXT
  5
395
100
AcDbEntity
  8
0
 62
             2
100
AcDbMText
 10
-25.1684047812417
 20
129.36781754159298
 30
0.0
 40
3.2
 41
0.0
 71
             7
 72
             1
  1
19.5
  7
CONVERTER_1
 11
0.0
 21
1.0
 31
0.0
  0
ENDBLK
  5
396
100
AcDbEntity
  8
0
100
AcDbBlockEnd
  0
BLOCK
  5
39A
100
AcDbEntity
  8
0
100
AcDbBlockBegin
  2
*D5
 70
             1
 10
0.0
 20
0.0
 30
0.0
  3
*D5
  1

  0
LINE
  5
39B
100
AcDbEntity
  8
0
  6
CONTINUOUS
 62
             2
100
AcDbLine
 10
-3.76913178001003
 20
134.41038863702622
 11
-3.76913178001003
 21
128.01038863702621
  0
LINE
  5
39C
100
AcDbEntity
  8
0
  6
CONTINUOUS
 62
             2
100
AcDbLine
 10
-3.76913178001003
 20
128.01038863702621
 11
-3.76913178001003
 21
123.0103886370262
  0
LINE
  5
39D
100
AcDbEntity
  8
0
  6
CONTINUOUS
 62
             2
100
AcDbLine
 10
-3.76913178001003
 20
123.0103886370262
 11
-3.76913178001003
 21
116.61038863702619
  0
LINE
  5
39E
100
AcDbEntity
  8
0
  6
CONTINUOUS
 62
             2
100
AcDbLine
 10
3.36844950783164
 20
128.01038863702621
 11
-5.26913178001003
 21
128.01038863702621
  0
LINE
  5
39F
100
AcDbEntity
  8
0
  6
CONTINUOUS
 62
             2
100
AcDbLine
 10
1.04250848129931
 20
123.0103886370262
 11
-5.26913178001003
 21
123.0103886370262
  0
SOLID
  5
3A0
100
AcDbEntity
  8
0
 62
             2
100
AcDbTrace
 10
-4.1904197722897
 20
131.2103886370262
 11
-3.34784378773036
 21
131.2103886370262
 12
-3.76913178001003
 22
128.01038863702621
 13
-3.76913178001003
 23
128.01038863702621
  0
SOLID
  5
3A1
100
AcDbEntity
  8
0
 62
             2
100
AcDbTrace
 10
-3.34784378773036
 20
119.81038863702619
 11
-4.1904197722897
 21
119.81038863702619
 12
-3.76913178001003
 22
123.0103886370262
 13
-3.76913178001003
 23
123.0103886370262
  0
MTEXT
  5
3A2
100
AcDbEntity
  8
0
 62
             2
100
AcDbMText
 10
-5.76913178001003
 20
124.53349575263401
 30
0.0
 40
3.2
 41
0.0
 71
             7
 72
             1
  1
5
  7
CONVERTER_1
 11
0.0
 21
1.0
 31
0.0
  0
ENDBLK
  5
3A3
100
AcDbEntity
  8
0
100
AcDbBlockEnd
  0
BLOCK
  5
3A7
100
AcDbEntity
  8
0
100
AcDbBlockBegin
  2
*D6
 70
             1
 10
0.0
 20
0.0
 30
0.0
  3
*D6
  1

  0
LINE
  5
3A8
100
AcDbEntity
  8
0
  6
CONTINUOUS
 62
             2
100
AcDbLine
 10
-5.20749151870069
 20
160.823700802709
 11
1.79250848129931
 21
160.823700802709
  0
LINE
  5
3A9
100
AcDbEntity
  8
0
  6
CONTINUOUS
 62
             2
100
AcDbLine
 10
1.79250848129931
 20
160.823700802709
 11
10.4925084812993
 21
160.823700802709
  0
LINE
  5
3AA
100
AcDbEntity
  8
0
  6
CONTINUOUS
 62
             2
100
AcDbLine
 10
10.4925084812993
 20
160.823700802709
 11
17.4925084812993
 21
160.823700802709
  0
LINE
  5
3AB
100
AcDbEntity
  8
0
  6
CONTINUOUS
 62
             2
100
AcDbLine
 10
1.79250848129931
 20
146.51038863702621
 11
1.79250848129931
 21
161.823700802709
  0
LINE
  5
3AC
100
AcDbEntity
  8
0
  6
CONTINUOUS
 62
             2
100
AcDbLine
 10
10.4925084812993
 20
148.26038863702621
 11
10.4925084812993
 21
161.823700802709
  0
SOLID
  5
3AD
100
AcDbEntity
  8
0
 62
             2
100
AcDbTrace
 10
-1.70749151870069
 20
160.36291706115313
 11
-1.70749151870069
 21
161.28448454426487
 12
1.79250848129931
 22
160.823700802709
 13
1.79250848129931
 23
160.823700802709
  0
SOLID
  5
3AE
100
AcDbEntity
  8
0
 62
             2
100
AcDbTrace
 10
13.9925084812993
 20
161.28448454426487
 11
13.9925084812993
 21
160.36291706115313
 12
10.4925084812993
 22
160.823700802709
 13
10.4925084812993
 23
160.823700802709
  0
MTEXT
  5
3AF
100
AcDbEntity
  8
0
 62
             2
100
AcDbMText
 10
4.03401971294583
 20
161.823700802709
 30
0.0
 40
3.2
 41
0.0
 71
             7
 72
             1
  1
8.7
  7
CONVERTER_1
 11
0.99999999999706
 21
0.00000242406841
 31
0.0
  0
ENDBLK
  5
3B0
100
AcDbEntity
  8
0
100
AcDbBlockEnd
  0
BLOCK
  5
3B4
100
AcDbEntity
  8
0
100
AcDbBlockBegin
  2
*D7
 70
             1
 10
0.0
 20
0.0
 30
0.0
  3
*D7
  1

  0
LINE
  5
3B5
100
AcDbEntity
  8
0
  6
CONTINUOUS
 62
             2
100
AcDbLine
 10
28.91750848129931
 20
148.01038863702621
 11
28.91750848129931
 21
123.0103886370262
  0
LINE
  5
3B6
100
AcDbEntity
  8
0
  6
CONTINUOUS
 62
             2
100
AcDbLine
 10
8.6675084812993
 20
148.01038863702621
 11
29.91750848129931
 21
148.01038863702621
  0
LINE
  5
3B7
100
AcDbEntity
  8
0
  6
CONTINUOUS
 62
             2
100
AcDbLine
 10
10.2425084812993
 20
123.0103886370262
 11
29.91750848129931
 21
123.0103886370262
  0
SOLID
  5
3B8
100
AcDbEntity
  8
0
 62
             2
100
AcDbTrace
 10
29.37829222285519
 20
144.51038863702621
 11
28.45672473974343
 21
144.51038863702621
 12
28.91750848129931
 22
148.01038863702621
 13
28.91750848129931
 23
148.01038863702621
  0
SOLID
  5
3B9
100
AcDbEntity
  8
0
 62
             2
100
AcDbTrace
 10
28.45672473974343
 20
126.5103886370262
 11
29.3782922228552
 21
126.5103886370262
 12
28.91750848129931
 22
123.0103886370262
 13
28.91750848129931
 23
123.0103886370262
  0
MTEXT
  5
3BA
100
AcDbEntity
  8
0
 62
             2
100
AcDbMText
 10
27.91750848129931
 20
133.1103886370262
 30
0.0
 40
3.2
 41
0.0
 71
             7
 72
             1
  1
25
  7
CONVERTER_1
 11
0.0
 21
1.0
 31
0.0
  0
ENDBLK
  5
3BB
100
AcDbEntity
  8
0
100
AcDbBlockEnd
  0
BLOCK
  5
3BF
100
AcDbEntity
  8
0
100
AcDbBlockBegin
  2
*D8
 70
             1
 10
0.0
 20
0.0
 30
0.0
  3
*D8
  1

  0
LINE
  5
3C0
100
AcDbEntity
  8
0
  6
CONTINUOUS
 62
             2
100
AcDbLine
 10
36.89250848129931
 20
122.0103886370262
 11
36.89250848129931
 21
149.01038863702621
  0
LINE
  5
3C1
100
AcDbEntity
  8
0
  6
CONTINUOUS
 62
             2
100
AcDbLine
 10
11.39250848129931
 20
122.0103886370262
 11
37.89250848129931
 21
122.0103886370262
  0
LINE
  5
3C2
100
AcDbEntity
  8
0
  6
CONTINUOUS
 62
             2
100
AcDbLine
 10
11.39250848129931
 20
149.01038863702621
 11
37.89250848129931
 21
149.01038863702621
  0
SOLID
  5
3C3
100
AcDbEntity
  8
0
 62
             2
100
AcDbTrace
 10
36.43172473974342
 20
125.5103886370262
 11
37.3532922228552
 21
125.5103886370262
 12
36.89250848129931
 22
122.0103886370262
 13
36.89250848129931
 23
122.0103886370262
  0
SOLID
  5
3C4
100
AcDbEntity
  8
0
 62
             2
100
AcDbTrace
 10
37.3532922228552
 20
145.51038863702621
 11
36.43172473974342
 21
145.51038863702621
 12
36.89250848129931
 22
149.01038863702621
 13
36.89250848129931
 23
149.01038863702621
  0
MTEXT
  5
3C5
100
AcDbEntity
  8
0
 62
             2
100
AcDbMText
 10
35.89250848129931
 20
133.1103886370262
 30
0.0
 40
3.2
 41
0.0
 71
             7
 72
             1
  1
27
  7
CONVERTER_1
 11
0.0
 21
1.0
 31
0.0
  0
ENDBLK
  5
3C6
100
AcDbEntity
  8
0
100
AcDbBlockEnd
  0
BLOCK
  5
3CA
100
AcDbEntity
  8
0
100
AcDbBlockBegin
  2
*D9
 70
             1
 10
0.0
 20
0.0
 30
0.0
  3
*D9
  1

  0
LINE
  5
3CB
100
AcDbEntity
  8
0
  6
CONTINUOUS
 62
             2
100
AcDbLine
 10
54.81531606949771
 20
169.90865313791102
 11
84.8153160694977
 21
169.90865313791102
  0
LINE
  5
3CC
100
AcDbEntity
  8
0
  6
CONTINUOUS
 62
             2
100
AcDbLine
 10
54.81531606949771
 20
148.01038863702624
 11
54.81531606949771
 21
170.90865313791102
  0
LINE
  5
3CD
100
AcDbEntity
  8
0
  6
CONTINUOUS
 62
             2
100
AcDbLine
 10
84.8153160694977
 20
143.94594172891775
 11
84.8153160694977
 21
170.90865313791102
  0
SOLID
  5
3CE
100
AcDbEntity
  8
0
 62
             2
100
AcDbTrace
 10
58.31531606949771
 20
170.36943687946689
 11
58.31531606949771
 21
169.44786939635514
 12
54.81531606949771
 22
169.90865313791102
 13
54.81531606949771
 23
169.90865313791102
  0
SOLID
  5
3CF
100
AcDbEntity
  8
0
 62
             2
100
AcDbTrace
 10
81.3153160694977
 20
169.44786939635514
 11
81.3153160694977
 21
170.36943687946689
 12
84.8153160694977
 22
169.90865313791102
 13
84.8153160694977
 23
169.90865313791102
  0
MTEXT
  5
3D0
100
AcDbEntity
  8
0
 62
             2
100
AcDbMText
 10
69.3596360416976
 20
170.90865313791102
 30
0.0
 40
3.2
 41
0.0
 71
             7
 72
             1
  1
30
  7
CONVERTER_1
 11
0.99999999999706
 21
0.00000242406841
 31
0.0
  0
ENDBLK
  5
3D1
100
AcDbEntity
  8
0
100
AcDbBlockEnd
  0
BLOCK
  5
3D5
100
AcDbEntity
  8
0
100
AcDbBlockBegin
  2
*D10
 70
             1
 10
0.0
 20
0.0
 30
0.0
  3
*D10
  1

  0
LINE
  5
3D6
100
AcDbEntity
  8
0
  6
CONTINUOUS
 62
             2
100
AcDbLine
 10
72.63629242797919
 20
158.053871008275
 11
80.8153160694977
 21
158.053871008275
  0
LINE
  5
3D7
100
AcDbEntity
  8
0
  6
CONTINUOUS
 62
             2
100
AcDbLine
 10
80.8153160694977
 20
158.053871008275
 11
84.8153160694977
 21
158.053871008275
  0
LINE
  5
3D8
100
AcDbEntity
  8
0
  6
CONTINUOUS
 62
             2
100
AcDbLine
 10
84.8153160694977
 20
158.053871008275
 11
91.8153160694977
 21
158.053871008275
  0
LINE
  5
3D9
100
AcDbEntity
  8
0
  6
CONTINUOUS
 62
             2
100
AcDbLine
 10
80.8153160694977
 20
149.51038863702621
 11
80.8153160694977
 21
159.053871008275
  0
LINE
  5
3DA
100
AcDbEntity
  8
0
  6
CONTINUOUS
 62
             2
100
AcDbLine
 10
84.8153160694977
 20
143.94594172891772
 11
84.8153160694977
 21
159.053871008275
  0
SOLID
  5
3DB
100
AcDbEntity
  8
0
 62
             2
100
AcDbTrace
 10
77.3153160694977
 20
157.59308726671912
 11
77.3153160694977
 21
158.51465474983087
 12
80.8153160694977
 22
158.053871008275
 13
80.8153160694977
 23
158.053871008275
  0
SOLID
  5
3DC
100
AcDbEntity
  8
0
 62
             2
100
AcDbTrace
 10
88.3153160694977
 20
158.51465474983087
 11
88.3153160694977
 21
157.59308726671912
 12
84.8153160694977
 22
158.053871008275
 13
84.8153160694977
 23
158.053871008275
  0
MTEXT
  5
3DD
100
AcDbEntity
  8
0
 62
             2
100
AcDbMText
 10
72.6362924279792
 20
159.053871008275
 30
0.0
 40
3.2
 41
0.0
 71
             7
 72
             1
  1
4
  7
CONVERTER_1
 11
0.99999999999706
 21
0.00000242406841
 31
0.0
  0
ENDBLK
  5
3DE
100
AcDbEntity
  8
0
100
AcDbBlockEnd
  0
BLOCK
  5
3E2
100
AcDbEntity
  8
0
100
AcDbBlockBegin
  2
*D11
 70
             1
 10
0.0
 20
0.0
 30
0.0
  3
*D11
  1

  0
LINE
  5
3E3
100
AcDbEntity
  8
0
  6
CONTINUOUS
 62
             2
100
AcDbLine
 10
84.8153160694977
 20
158.053871008275
 11
99.8153160694977
 21
158.053871008275
  0
LINE
  5
3E4
100
AcDbEntity
  8
0
  6
CONTINUOUS
 62
             2
100
AcDbLine
 10
84.8153160694977
 20
148.76038863702621
 11
84.8153160694977
 21
159.053871008275
  0
LINE
  5
3E5
100
AcDbEntity
  8
0
  6
CONTINUOUS
 62
             2
100
AcDbLine
 10
99.8153160694977
 20
135.51038863702621
 11
99.8153160694977
 21
159.053871008275
  0
SOLID
  5
3E6
100
AcDbEntity
  8
0
 62
             2
100
AcDbTrace
 10
88.3153160694977
 20
158.51465474983087
 11
88.3153160694977
 21
157.59308726671912
 12
84.8153160694977
 22
158.053871008275
 13
84.8153160694977
 23
158.053871008275
  0
SOLID
  5
3E7
100
AcDbEntity
  8
0
 62
             2
100
AcDbTrace
 10
96.3153160694977
 20
157.59308726671912
 11
96.3153160694977
 21
158.51465474983087
 12
99.8153160694977
 22
158.053871008275
 13
99.8153160694977
 23
158.053871008275
  0
MTEXT
  5
3E8
100
AcDbEntity
  8
0
 62
             2
100
AcDbMText
 10
92.5473877266335
 20
159.053871008275
 30
0.0
 40
3.2
 41
0.0
 71
             7
 72
             1
  1
15
  7
CONVERTER_1
 11
0.99999999999706
 21
0.00000242406841
 31
0.0
  0
ENDBLK
  5
3E9
100
AcDbEntity
  8
0
100
AcDbBlockEnd
  0
BLOCK
  5
3ED
100
AcDbEntity
  8
0
100
AcDbBlockBegin
  2
*D12
 70
             1
 10
0.0
 20
0.0
 30
0.0
  3
*D12
  1

  0
LINE
  5
3EE
100
AcDbEntity
  8
0
  6
CONTINUOUS
 62
             2
100
AcDbLine
 10
84.8153160694977
 20
169.90865313791102
 11
152.3153160694977
 21
169.90865313791102
  0
LINE
  5
3EF
100
AcDbEntity
  8
0
  6
CONTINUOUS
 62
             2
100
AcDbLine
 10
84.8153160694977
 20
148.76038863702624
 11
84.8153160694977
 21
170.90865313791102
  0
LINE
  5
3F0
100
AcDbEntity
  8
0
  6
CONTINUOUS
 62
             2
100
AcDbLine
 10
152.3153160694977
 20
134.89567910215769
 11
152.3153160694977
 21
170.90865313791102
  0
SOLID
  5
3F1
100
AcDbEntity
  8
0
 62
             2
100
AcDbTrace
 10
88.3153160694977
 20
170.36943687946689
 11
88.3153160694977
 21
169.44786939635514
 12
84.8153160694977
 22
169.90865313791102
 13
84.8153160694977
 23
169.90865313791102
  0
SOLID
  5
3F2
100
AcDbEntity
  8
0
 62
             2
100
AcDbTrace
 10
148.8153160694977
 20
169.44786939635514
 11
148.8153160694977
 21
170.36943687946689
 12
152.3153160694977
 22
169.90865313791102
 13
152.3153160694977
 23
169.90865313791102
  0
MTEXT
  5
3F3
100
AcDbEntity
  8
0
 62
             2
100
AcDbMText
 10
104.29431750977552
 20
170.90865313791102
 30
0.0
 40
3.2
 41
0.0
 71
             7
 72
             1
  1
2000}30
  7
CONVERTER_1
 11
0.99999999999706
 21
0.00000242406841
 31
0.0
  0
ENDBLK
  5
3F4
100
AcDbEntity
  8
0
100
AcDbBlockEnd
  0
BLOCK
  5
3F8
100
AcDbEntity
  8
0
100
AcDbBlockBegin
  2
*D13
 70
             1
 10
0.0
 20
0.0
 30
0.0
  3
*D13
  1

  0
LINE
  5
3F9
100
AcDbEntity
  8
0
  6
CONTINUOUS
 62
             2
100
AcDbLine
 10
118.09259944053679
 20
76.97562003630708
 11
118.09259944053679
 21
83.97562003630708
  0
LINE
  5
3FA
100
AcDbEntity
  8
0
  6
CONTINUOUS
 62
             2
100
AcDbLine
 10
118.09259944053679
 20
83.97562003630708
 11
118.09259944053679
 21
89.97562003630711
  0
LINE
  5
3FB
100
AcDbEntity
  8
0
  6
CONTINUOUS
 62
             2
100
AcDbLine
 10
118.09259944053679
 20
89.97562003630711
 11
118.09259944053679
 21
96.97562003630711
  0
LINE
  5
3FC
100
AcDbEntity
  8
0
  6
CONTINUOUS
 62
             2
100
AcDbLine
 10
98.31531606949767
 20
83.97562003630708
 11
119.09259944053679
 21
83.97562003630708
  0
LINE
  5
3FD
100
AcDbEntity
  8
0
  6
CONTINUOUS
 62
             2
100
AcDbLine
 10
98.31531606949767
 20
89.97562003630711
 11
119.09259944053679
 21
89.97562003630711
  0
SOLID
  5
3FE
100
AcDbEntity
  8
0
 62
             2
100
AcDbTrace
 10
118.55338318209267
 20
80.47562003630708
 11
117.6318156989809
 21
80.47562003630708
 12
118.09259944053679
 22
83.97562003630708
 13
118.09259944053679
 23
83.97562003630708
  0
SOLID
  5
3FF
100
AcDbEntity
  8
0
 62
             2
100
AcDbTrace
 10
117.6318156989809
 20
93.47562003630711
 11
118.55338318209267
 21
93.47562003630711
 12
118.09259944053679
 22
89.97562003630711
 13
118.09259944053679
 23
89.97562003630711
  0
MTEXT
  5
400
100
AcDbEntity
  8
0
 62
             2
100
AcDbMText
 10
117.09259944053679
 20
94.26615527504414
 30
0.0
 40
3.2
 41
0.0
 71
             7
 72
             1
  1
6
  7
CONVERTER_1
 11
0.0
 21
1.0
 31
0.0
  0
ENDBLK
  5
401
100
AcDbEntity
  8
0
100
AcDbBlockEnd
  0
BLOCK
  5
405
100
AcDbEntity
  8
0
100
AcDbBlockBegin
  2
*D14
 70
             1
 10
0.0
 20
0.0
 30
0.0
  3
*D14
  1

  0
LINE
  5
406
100
AcDbEntity
  8
0
  6
CONTINUOUS
 62
             2
100
AcDbLine
 10
82.2786680722194
 20
96.47562003630711
 11
82.2786680722194
 21
89.47562003630711
  0
LINE
  5
407
100
AcDbEntity
  8
0
  6
CONTINUOUS
 62
             2
100
AcDbLine
 10
82.2786680722194
 20
89.47562003630711
 11
82.2786680722194
 21
84.47562003630708
  0
LINE
  5
408
100
AcDbEntity
  8
0
  6
CONTINUOUS
 62
             2
100
AcDbLine
 10
82.2786680722194
 20
84.47562003630708
 11
82.2786680722194
 21
72.77464600171149
  0
LINE
  5
409
100
AcDbEntity
  8
0
  6
CONTINUOUS
 62
             2
100
AcDbLine
 10
86.3153160694977
 20
89.47562003630711
 11
81.2786680722194
 21
89.47562003630711
  0
LINE
  5
40A
100
AcDbEntity
  8
0
  6
CONTINUOUS
 62
             2
100
AcDbLine
 10
87.1723160694977
 20
84.47562003630708
 11
81.2786680722194
 21
84.47562003630708
  0
SOLID
  5
40B
100
AcDbEntity
  8
0
 62
             2
100
AcDbTrace
 10
81.81788433066352
 20
92.97562003630711
 11
82.73945181377529
 21
92.97562003630711
 12
82.2786680722194
 22
89.47562003630711
 13
82.2786680722194
 23
89.47562003630711
  0
SOLID
  5
40C
100
AcDbEntity
  8
0
 62
             2
100
AcDbTrace
 10
82.73945181377529
 20
80.97562003630708
 11
81.81788433066352
 21
80.97562003630708
 12
82.2786680722194
 22
84.47562003630708
 13
82.2786680722194
 23
84.47562003630708
  0
MTEXT
  5
40D
100
AcDbEntity
  8
0
 62
             2
100
AcDbMText
 10
81.2786680722194
 20
72.7746460017115
 30
0.0
 40
3.2
 41
0.0
 71
             7
 72
             1
  1
5
  7
CONVERTER_1
 11
0.0
 21
1.0
 31
0.0
  0
ENDBLK
  5
40E
100
AcDbEntity
  8
0
100
AcDbBlockEnd
  0
BLOCK
  5
412
100
AcDbEntity
  8
0
100
AcDbBlockBegin
  2
*D15
 70
             1
 10
0.0
 20
0.0
 30
0.0
  3
*D15
  1

  0
LINE
  5
413
100
AcDbEntity
  8
0
  6
CONTINUOUS
 62
             2
100
AcDbLine
 10
138.64033906608503
 20
118.67069074496384
 11
148.29959732897566
 21
116.08250029393852
  0
LINE
  5
414
100
AcDbEntity
  8
0
  6
CONTINUOUS
 62
             2
100
AcDbLine
 10
140.88021947281769
 20
127.03003822576781
 11
138.25211049843125
 21
117.22180200553024
  0
LINE
  5
415
100
AcDbEntity
  8
0
  6
CONTINUOUS
 62
             2
100
AcDbLine
 10
150.67794592483824
 20
124.95861809180741
 11
147.91136876132188
 21
114.63361155450492
  0
SOLID
  5
416
100
AcDbEntity
  8
0
 62
             2
100
AcDbTrace
 10
141.84033906608502
 20
118.24940275268415
 11
141.62226435433507
 21
117.43553684858735
 12
138.64033906608503
 22
118.67069074496384
 13
138.64033906608503
 23
118.67069074496384
  0
SOLID
  5
417
100
AcDbEntity
  8
0
 62
             2
100
AcDbTrace
 10
145.09959732897568
 20
116.50378828621821
 11
145.31767204072563
 21
117.31765419031501
 12
148.29959732897566
 22
116.08250029393852
 13
148.29959732897566
 23
116.08250029393852
  0
MTEXT
  5
418
100
AcDbEntity
  8
0
 62
             2
100
AcDbMText
 10
140.12370340984424
 20
119.85966702318164
 30
0.0
 40
3.2
 41
0.0
 71
             7
 72
             1
  1
\C2;10\C2;\H1.920000;{\Fgdt;`}5
  7
CONVERTER_1
 11
0.96592582628907
 21
-0.25881904510253
 31
0.0
  0
ENDBLK
  5
419
100
AcDbEntity
  8
0
100
AcDbBlockEnd
  0
BLOCK
  5
41D
100
AcDbEntity
  8
0
100
AcDbBlockBegin
  2
*D16
 70
             1
 10
0.0
 20
0.0
 30
0.0
  3
*D16
  1

  0
LINE
  5
41E
100
AcDbEntity
  8
0
  6
CONTINUOUS
 62
             2
100
AcDbLine
 10
124.20029122715329
 20
122.52200763315469
 11
138.6358684988557
 21
118.65400636092498
  0
LINE
  5
41F
100
AcDbEntity
  8
0
  6
CONTINUOUS
 62
             2
100
AcDbLine
 10
126.44464220111529
 20
130.89803949799759
 11
123.8120626594995
 21
121.07311889372109
  0
LINE
  5
420
100
AcDbEntity
  8
0
  6
CONTINUOUS
 62
             2
100
AcDbLine
 10
141.54538441873117
 20
129.51246759933085
 11
138.24763993120192
 21
117.20511762149138
  0
SOLID
  5
421
100
AcDbEntity
  8
0
 62
             2
100
AcDbTrace
 10
127.40029122715329
 20
122.10071964087504
 11
127.18221651540333
 21
121.28685373677824
 12
124.20029122715329
 22
122.52200763315469
 13
124.20029122715329
 23
122.52200763315469
  0
SOLID
  5
422
100
AcDbEntity
  8
0
 62
             2
100
AcDbTrace
 10
135.43586849885568
 20
119.07529435320463
 11
135.65394321060566
 21
119.88916025730143
 12
138.6358684988557
 22
118.65400636092498
 13
138.6358684988557
 23
118.65400636092498
  0
MTEXT
  5
423
100
AcDbEntity
  8
0
 62
             2
100
AcDbMText
 10
127.2019213698393
 20
123.26611342092144
 30
0.0
 40
3.2
 41
0.0
 71
             7
 72
             1
  1
\C2;50\C2;\H1.920000;{\Fgdt;`}10
  7
CONVERTER_1
 11
0.96592582628907
 21
-0.25881904510252
 31
0.0
  0
ENDBLK
  5
424
100
AcDbEntity
  8
0
100
AcDbBlockEnd
  0
ENDSEC
  0
SECTION
  2
ENTITIES
  0
HATCH
  5
42A
100
AcDbEntity
  8
1
  6
CONTINUOUS
 62
             2
100
AcDbHatch
 10
0.0
 20
0.0
 30
0.0
210
0.0
220
0.0
230
1.0
  2
USER
 70
             0
 71
             1
 91
        1
 92
        1
 93
        4
 72
             1
 10
-39.301352029521198
 20
127.0814088566663
 11
-41.530880288989728
 21
127.0814088566663
 72
             4
 94
        3
 73
             0
 74
             0
 95
        8
 96
        4
 40
0.0
 40
0.0
 40
0.0
 40
0.0
 40
0.80212984843283
 40
0.80212984843283
 40
0.80212984843283
 40
0.80212984843283
 10
-41.530880288989721
 20
127.0814088566663
 10
-41.406587997112268
 20
126.84060760769241
 10
-41.243516562544151
 20
126.63014754748453
 10
-41.041665985285363
 20
126.45002867604262
 72
             4
 94
        2
 73
             0
 74
             0
 95
        6
 96
        3
 40
0.0
 40
0.0
 40
0.0
 40
1.75226975239798
 40
1.75226975239798
 40
1.75226975239798
 10
-41.04166598528537
 20
126.45002867604262
 10
-40.160951751137247
 20
126.40132224644847
 10
-39.301352029521205
 20
126.60946147113252
 72
             1
 10
-39.301352029521198
 20
126.60946147113251
 11
-39.301352029521198
 21
127.0814088566663
 97
        4
330
37
330
2A9
330
2AD
330
29
 75
             1
 76
             0
 52
45.0
 41
1.0
 77
             0
 78
             1
 53
45.0
 43
0.0
 44
0.0
 45
-0.7071067811865475
 46
0.7071067811865476
 79
             0
 98
        1
 10
0.0
 20
0.0
  0
HATCH
  5
429
100
AcDbEntity
  8
1
  6
CONTINUOUS
 62
             2
100
AcDbHatch
 10
0.0
 20
0.0
 30
0.0
210
0.0
220
0.0
230
1.0
  2
USER
 70
             0
 71
             1
 91
        1
 92
        1
 93
        4
 72
             1
 10
-39.301352029521198
 20
141.54214280047441
 11
-41.460154830078871
 21
141.54214280047441
 72
             4
 94
        3
 73
             0
 74
             0
 95
        9
 96
        5
 40
0.0
 40
0.0
 40
0.0
 40
0.0
 40
0.19104302502312
 40
0.8177278391308
 40
0.8177278391308
 40
0.8177278391308
 40
0.8177278391308
 10
-41.460154830078871
 20
141.54214280047441
 10
-41.48633984983686
 20
141.48485611404809
 10
-41.569333763775042
 20
141.21473342739989
 10
-41.375465627409085
 20
140.94218888768128
 10
-41.246565401867663
 20
140.80235264365939
 72
             4
 94
        2
 73
             0
 74
             0
 95
        6
 96
        3
 40
0.0
 40
0.0
 40
0.0
 40
1.959085101277
 40
1.959085101277
 40
1.959085101277
 10
-41.246565401867663
 20
140.80235264365939
 10
-40.26159427614391
 20
140.73478144856117
 10
-39.301352029521198
 20
140.97674304617641
 72
             1
 10
-39.301352029521198
 20
140.97674304617641
 11
-39.301352029521198
 21
141.54214280047441
 97
        4
330
39
330
2AA
330
2B0
330
2D
 75
             1
 76
             0
 52
45.0
 41
1.0
 77
             0
 78
             1
 53
45.0
 43
0.0
 44
0.0
 45
-0.7071067811865475
 46
0.7071067811865476
 79
             0
 98
        1
 10
0.0
 20
0.0
  0
HATCH
  5
428
100
AcDbEntity
  8
1
  6
CONTINUOUS
 62
             2
100
AcDbHatch
 10
0.0
 20
0.0
 30
0.0
210
0.0
220
0.0
230
1.0
  2
USER
 70
             0
 71
             1
 91
        1
 92
        1
 93
        4
 72
             4
 94
        2
 73
             0
 74
             0
 95
        6
 96
        3
 40
0.0
 40
0.0
 40
0.0
 40
1.75226975239799
 40
1.75226975239799
 40
1.75226975239799
 10
-39.301352029521205
 20
143.95058185911194
 10
-40.16095175113724
 20
144.15872108379602
 10
-41.04166598528537
 20
144.11001465420193
 72
             4
 94
        3
 73
             0
 74
             0
 95
        8
 96
        4
 40
0.0
 40
0.0
 40
0.0
 40
0.0
 40
0.82831434636304
 40
0.82831434636304
 40
0.82831434636304
 40
0.82831434636304
 10
-41.041665985285363
 20
144.1100146542019
 10
-41.312960762675196
 20
143.98094078300178
 10
-41.478831718956094
 20
143.77048072279385
 10
-41.539278854128057
 20
143.47863447357801
 72
             1
 10
-41.539278854128057
 20
143.47863447357801
 11
-39.301352029521198
 21
143.47863447357801
 72
             1
 10
-39.301352029521198
 20
143.47863447357801
 11
-39.301352029521198
 21
143.95058185911191
 97
        4
330
2B1
330
2B2
330
3A
330
2F
 75
             1
 76
             0
 52
45.0
 41
1.0
 77
             0
 78
             1
 53
45.0
 43
0.0
 44
0.0
 45
-0.7071067811865475
 46
0.7071067811865476
 79
             0
 98
        1
 10
0.0
 20
0.0
  0
HATCH
  5
427
100
AcDbEntity
  8
1
  6
CONTINUOUS
 62
             2
100
AcDbHatch
 10
0.0
 20
0.0
 30
0.0
210
0.0
220
0.0
230
1.0
  2
USER
 70
             0
 71
             1
 91
        1
 92
        1
 93
        4
 72
             4
 94
        2
 73
             0
 74
             0
 95
        6
 96
        3
 40
0.0
 40
0.0
 40
0.0
 40
1.71553970807922
 40
1.71553970807922
 40
1.71553970807922
 10
-39.301352029521198
 20
129.583300284068
 10
-40.140756808629249
 20
129.78520607008474
 10
-41.002741890034073
 20
129.7762163192422
 72
             4
 94
        3
 73
             0
 74
             0
 95
       81
 96
       77
 40
0.0
 40
0.0
 40
0.0
 40
0.0
 40
0.04920850092292
 40
0.07281550043306
 40
0.09577851531219
 40
0.1181136115639
 40
0.13983721986024
 40
0.16096615330325
 40
0.18151762473402
 40
0.20150926321256
 40
0.22095912921437
 40
0.23988572800528
 40
0.25830802056703
 40
0.27624543135576
 40
0.29371785208807
 40
0.31074564067125
 40
0.32734961433337
 40
0.34355103597502
 40
0.35937159276772
 40
0.37483336607653
 40
0.38995879189636
 40
0.40477061117221
 40
0.41929180962721
 40
0.43354554705025
 40
0.44755507638669
 40
0.46134365341698
 40
0.47493443827207
 40
0.4883503904899
 40
0.50161415972684
 40
0.51474797456275
 40
0.52777353204612
 40
0.54071189069224
 40
0.5535833695603
 40
0.56640745579945
 40
0.57920272268925
 40
0.59198675973523
 40
0.60477611585839
 40
0.61758625617847
 40
0.63043153237373
 40
0.64332516614144
 40
0.65627924490135
 40
0.66930472859707
 40
0.68241146625611
 40
0.69560822086805
 40
0.70890270111431
 40
0.72230159852501
 40
0.73581062872758
 40
0.74943457557271
 40
0.76317733706648
 40
0.77704197218787
 40
0.79103074781735
 40
0.80514518514787
 40
0.81938610507651
 40
0.83375367219311
 40
0.84824743708246
 40
0.86286637674316
 40
0.87760893299831
 40
0.89247304883072
 40
0.90745620262344
 40
0.92255544032346
 40
0.93776740557234
 40
0.95308836787139
 40
0.96851424886173
 40
0.98404064680971
 40
0.99966285939557
 40
1.01537590490378
 40
1.03117454191723
 40
1.04705328761311
 40
1.06300643475815
 40
1.07902806749675
 40
1.09511207602068
 40
1.11125217020637
 40
1.12744189229915
 40
1.14367462872161
 40
1.15994362107553
 40
1.16045984449569
 40
1.16045984449569
 40
1.16045984449569
 40
1.16045984449569
 10
-41.002741890034073
 20
129.7762163192422
 10
-41.019136389318533
 20
129.77673912851051
 10
-41.043409638543693
 20
129.77711717391111
 10
-41.075335297853229
 20
129.77672718868388
 10
-41.098293887373146
 20
129.77600920077919
 10
-41.1206068107523
 20
129.77486771372784
 10
-41.142281644744372
 20
129.77330873367771
 10
-41.163325971824776
 20
129.77133827661129
 10
-41.183747370945468
 20
129.76896235173211
 10
-41.203553419181219
 20
129.76618696556548
 10
-41.22275169046496
 20
129.76301812082875
 10
-41.24134975496186
 20
129.75946181677233
 10
-41.259355178179511
 20
129.75552404930551
 10
-41.276775520067446
 20
129.75121081138514
 10
-41.293618334072868
 20
129.74652809358275
 10
-41.309891166210377
 20
129.74148188489454
 10
-41.325601554195586
 20
129.73607817381014
 10
-41.340757026711074
 20
129.73032294965466
 10
-41.355365102885195
 20
129.72422220420262
 10
-41.369433292070177
 20
129.71778193353458
 10
-41.382969094008587
 20
129.71100814008412
 10
-41.395979999468835
 20
129.70390683478857
 10
-41.408473491409424
 20
129.69648403922506
 10
-41.420457046702261
 20
129.68874578759045
 10
-41.431938138397648
 20
129.6806981283591
 10
-41.442924238464975
 20
129.67234712545755
 10
-41.453422820884626
 20
129.66369885880542
 10
-41.463441364918154
 20
129.6547594241124
 10
-41.472987358344461
 20
129.64553493187469
 10
-41.482068300434968
 20
129.636031505586
 10
-41.490691704447869
 20
129.62625527924834
 10
-41.49886509945825
 20
129.61621239434072
 10
-41.506596031398907
 20
129.60590899645024
 10
-41.513892063258794
 20
129.59535123180262
 10
-41.520760774462865
 20
129.58454524392499
 10
-41.527209759527665
 20
129.57349717065233
 10
-41.533246626139373
 20
129.5622131416369
 10
-41.538878992833972
 20
129.55069927646591
 10
-41.544114486468864
 20
129.5389616834259
 10
-41.548960739663023
 20
129.52700645889897
 10
-41.55342538835788
 20
129.51483968732919
 10
-41.557516069611935
 20
129.50246744166489
 10
-41.561240419707744
 20
129.48989578416951
 10
-41.564606072607511
 20
129.47713076748951
 10
-41.567620658766387
 20
129.46417843587335
 10
-41.570291804284722
 20
129.4510448264532
 10
-41.572627130366243
 20
129.43773597051657
 10
-41.574634253037061
 20
129.4242578947115
 10
-41.576320783079503
 20
129.41061662215282
 10
-41.577694326131748
 20
129.39681817340323
 10
-41.578762482911806
 20
129.38286856732302
 10
-41.579532849526281
 20
129.36877382178599
 10
-41.580013017832506
 20
129.35453995426928
 10
-41.580210575828787
 20
129.34017298232598
 10
-41.580133108052024
 20
129.32567892395542
 10
-41.579788195968689
 20
129.31106379788213
 10
-41.579183418348279
 20
129.2963336237593
 10
-41.578326351612816
 20
129.2814944223087
 10
-41.577224570157931
 20
129.26655221540844
 10
-41.575885646644281
 20
129.25151302613963
 10
-41.574317152257841
 20
129.2363828788001
 10
-41.572526656941733
 20
129.22116779889416
 10
-41.570521729598745
 20
129.20587381310236
 10
-41.568309938268669
 20
129.19050694923925
 10
-41.565898850281172
 20
129.17507323620066
 10
-41.563296032387726
 20
129.15957870390659
 10
-41.560509050873321
 20
129.14402938323803
 10
-41.557545471653079
 20
129.12843130598029
 10
-41.554412860347277
 20
129.11279050473934
 10
-41.551118782368199
 20
129.0971130129592
 10
-41.547670802900441
 20
129.08140486456986
 10
-41.544076487229546
 20
129.06567209503018
 10
-41.540343399717358
 20
129.04992073715152
 10
-41.536479107811559
 20
129.03415683650297
 10
-41.533780882260658
 20
129.02348661443398
 10
-41.532389931492126
 20
129.01806719738667
 10
-41.532347135085679
 20
129.01790052977009
 72
             1
 10
-41.532347135085679
 20
129.01790052977009
 11
-39.301352029521198
 21
129.01790052977009
 72
             1
 10
-39.301352029521198
 20
129.01790052977009
 11
-39.301352029521198
 21
129.583300284068
 97
        4
330
2A7
330
2AC
330
38
330
2B
 75
             1
 76
             0
 52
45.0
 41
1.0
 77
             0
 78
             1
 53
45.0
 43
0.0
 44
0.0
 45
-0.7071067811865475
 46
0.7071067811865476
 79
             0
 98
        1
 10
0.0
 20
0.0
  0
DIMENSION
  5
426
100
AcDbEntity
  8
1
100
AcDbDimension
  2
*D16
 10
124.20029122715329
 20
122.52200763315469
 11
132.46884319327961
 21
123.5112878603889
 31
0.0
 53
-14.99999999999932
  1
50
  3
ME10_DIM_16
100
AcDbAlignedDimension
 13
141.80420346383369
 23
130.47839342561991
 14
126.7034612462178
 24
131.8639653242866
 50
-14.99999999999932
100
AcDbRotatedDimension
  0
DIMENSION
  5
41B
100
AcDbEntity
  8
1
100
AcDbDimension
  2
*D15
 10
138.64033906608503
 20
118.67069074496384
 11
144.3706075607233
 21
120.3781543742773
 31
0.0
 53
164.99999999999989
  1
10
  3
ME10_DIM_15
100
AcDbAlignedDimension
 13
150.93676496994081
 23
125.9245439180965
 14
141.13903851792031
 24
127.99596405205691
 50
164.99999999999989
100
AcDbRotatedDimension
  0
DIMENSION
  5
410
100
AcDbEntity
  8
1
100
AcDbDimension
  2
*D14
 10
82.2786680722194
 20
89.47562003630711
 11
79.67866807221941
 21
73.7346460017115
 31
0.0
 53
90.0
  1
5
  3
ME10_DIM_14
100
AcDbAlignedDimension
 13
87.1723160694977
 23
84.47562003630708
 14
86.3153160694977
 24
89.47562003630711
 50
90.0
100
AcDbRotatedDimension
  0
DIMENSION
  5
403
100
AcDbEntity
  8
1
100
AcDbDimension
  2
*D13
 10
118.09259944053679
 20
83.97562003630708
 11
115.49259944053679
 21
95.22615527504414
 31
0.0
 53
90.0
  1
6
  3
ME10_DIM_13
100
AcDbAlignedDimension
 13
98.3153160694977
 23
89.97562003630711
 14
98.3153160694977
 24
83.97562003630708
 50
90.0
100
AcDbRotatedDimension
  0
DIMENSION
  5
3F6
100
AcDbEntity
  8
1
100
AcDbDimension
  2
*D12
 10
84.8153160694977
 20
169.90865313791102
 11
114.336670450952
 21
172.50865313791101
 31
0.0
 53
0.00013888888889
  1
2000}30
  3
ME10_DIM_12
100
AcDbAlignedDimension
 13
152.3153160694977
 23
134.89567910215769
 14
84.8153160694977
 24
148.76038863702621
100
AcDbRotatedDimension
  0
DIMENSION
  5
3EB
100
AcDbEntity
  8
1
100
AcDbDimension
  2
*D11
 10
84.8153160694977
 20
158.053871008275
 11
94.4673877266335
 21
160.65387100827499
 31
0.0
 53
0.00013888888889
  1
15
  3
ME10_DIM_11
100
AcDbAlignedDimension
 13
99.8153160694977
 23
135.51038863702621
 14
84.8153160694977
 24
148.76038863702621
100
AcDbRotatedDimension
  0
DIMENSION
  5
3E0
100
AcDbEntity
  8
1
100
AcDbDimension
  2
*D10
 10
80.8153160694977
 20
158.053871008275
 11
73.59629242797919
 21
160.65387100827499
 31
0.0
 53
0.00013888888889
  1
4
  3
ME10_DIM_10
100
AcDbAlignedDimension
 13
84.8153160694977
 23
143.94594172891769
 14
80.8153160694977
 24
149.51038863702621
100
AcDbRotatedDimension
  0
DIMENSION
  5
3D3
100
AcDbEntity
  8
1
100
AcDbDimension
  2
*D9
 10
54.81531606949771
 20
169.90865313791102
 11
71.7596360416976
 21
172.50865313791101
 31
0.0
 53
0.00013888888889
  1
30
  3
ME10_DIM_9
100
AcDbAlignedDimension
 13
84.8153160694977
 23
143.94594172891769
 14
54.81531606949771
 24
148.01038863702621
100
AcDbRotatedDimension
  0
DIMENSION
  5
3C8
100
AcDbEntity
  8
1
100
AcDbDimension
  2
*D8
 10
36.89250848129931
 20
122.0103886370262
 11
34.29250848129931
 21
135.51038863702621
 31
0.0
 53
90.0
  1
27
  3
ME10_DIM_8
100
AcDbAlignedDimension
 13
11.39250848129931
 23
149.01038863702621
 14
11.39250848129931
 24
122.0103886370262
 50
90.0
100
AcDbRotatedDimension
  0
DIMENSION
  5
3BD
100
AcDbEntity
  8
1
100
AcDbDimension
  2
*D7
 10
28.91750848129931
 20
148.01038863702621
 11
26.31750848129931
 21
135.51038863702621
 31
0.0
 53
90.0
  1
25
  3
ME10_DIM_7
100
AcDbAlignedDimension
 13
10.2425084812993
 23
123.0103886370262
 14
8.66750848129931
 24
148.01038863702621
 50
90.0
100
AcDbRotatedDimension
  0
DIMENSION
  5
3B2
100
AcDbEntity
  8
1
100
AcDbDimension
  2
*D6
 10
1.79250848129931
 20
160.823700802709
 11
7.03401971294583
 21
163.42370080270899
 31
0.0
 53
0.00013888888889
  1
8.7
  3
ME10_DIM_6
100
AcDbAlignedDimension
 13
10.4925084812993
 23
148.26038863702621
 14
1.79250848129931
 24
146.51038863702621
100
AcDbRotatedDimension
  0
DIMENSION
  5
3A5
100
AcDbEntity
  8
1
100
AcDbDimension
  2
*D5
 10
-3.76913178001003
 20
128.01038863702621
 11
-7.36913178001003
 21
125.493495752634
 31
0.0
 53
90.0
  1
5
  3
ME10_DIM_5
100
AcDbAlignedDimension
 13
2.04250848129931
 23
123.0103886370262
 14
4.36844950783164
 24
128.01038863702621
 50
90.0
100
AcDbRotatedDimension
  0
DIMENSION
  5
398
100
AcDbEntity
  8
1
100
AcDbDimension
  2
*D4
 10
-23.1684047812417
 20
142.51038863702621
 11
-26.7684047812417
 21
133.32781754159299
 31
0.0
 53
90.0
  1
19.5
  3
ME10_DIM_4
100
AcDbAlignedDimension
 13
2.04250848129931
 23
123.0103886370262
 14
4.36844950783164
 24
142.51038863702621
 50
90.0
100
AcDbRotatedDimension
  0
DIMENSION
  5
38D
100
AcDbEntity
  8
1
100
AcDbDimension
  2
*D3
 10
-14.0283626941229
 20
128.01038863702621
 11
-17.6283626941229
 21
131.83556577226699
 31
0.0
 53
90.0
  1
8
  3
ME10_DIM_3
100
AcDbAlignedDimension
 13
4.36844950783164
 23
136.01038863702621
 14
4.36844950783164
 24
128.01038863702621
 50
90.0
100
AcDbRotatedDimension
  0
DIMENSION
  5
380
100
AcDbEntity
  8
1
100
AcDbDimension
  2
*D2
 10
113.8879876966039
 20
142.01038863702621
 11
110.28798769660391
 21
146.3214532035866
 31
0.0
 53
90.0
  1
13
  3
ME10_DIM_2
100
AcDbAlignedDimension
 13
99.8153160694977
 23
129.01038863702621
 14
99.8153160694977
 24
142.01038863702621
 50
90.0
100
AcDbRotatedDimension
  0
DIMENSION
  5
374
100
AcDbEntity
  8
1
100
AcDbDimension
  2
*D1
 10
-39.3013520295212
 20
112.16204375028701
 11
-31.6529298593819
 21
115.76204375028701
 31
0.0
 53
0.00013888888889
  1
1.7
  3
ME10_DIM_1
100
AcDbAlignedDimension
 13
-41.0013520295212
 23
127.6000305369119
 14
-39.3013520295212
 24
135.51038863702621
100
AcDbRotatedDimension
  0
DIMENSION
  5
367
100
AcDbEntity
  8
1
100
AcDbDimension
  2
*D0
 10
0.64250848129931
 20
169.213641673816
 11
5.7289177996625
 21
171.81364167381599
 31
0.0
 53
0.00013888888889
  1
11
  3
ME10_DIM_0
100
AcDbAlignedDimension
 13
11.64250848129931
 23
148.76038863702621
 14
0.64250848129931
 24
148.76038863702621
100
AcDbRotatedDimension
  0
MTEXT
  5
35C
100
AcDbEntity
  8
1
 62
             2
100
AcDbMText
 10
91.17509211175336
 20
94.60128882472856
 30
0.0
 40
1.75
 41
0.0
 71
             7
 72
             1
  1
8
  7
CONVERTER_1
 11
0.0
 21
1.0
 31
0.0
  0
MTEXT
  5
35B
100
AcDbEntity
  8
1
 62
             2
100
AcDbMText
 10
90.7935002985153
 20
143.87034208445181
 30
0.0
 40
1.75
 41
0.0
 71
             7
 72
             1
  1
15
  7
CONVERTER_1
 11
0.0
 21
1.0
 31
0.0
  0
LEADER
  5
359
100
AcDbEntity
  8
1
  6
CONTINUOUS
 62
             2
100
AcDbLeader
  3
Standard
 71
             0
 73
             3
 74
             0
 75
             0
 40
0.0
 76
             2
 10
91.95789708085991
 20
84.33685385644174
 30
0.0
 10
91.95789708085991
 20
87.57582606730813
 30
0.0
 77
             2
  0
LEADER
  5
357
100
AcDbEntity
  8
1
  6
CONTINUOUS
 62
             2
100
AcDbLeader
  3
Standard
 71
             0
 73
             3
 74
             0
 75
             0
 40
0.0
 76
             2
 10
91.95789708085991
 20
93.73523897954053
 30
0.0
 10
91.95789708085991
 20
87.57582606730813
 30
0.0
 77
             2
  0
LEADER
  5
355
100
AcDbEntity
  8
1
  6
CONTINUOUS
 62
             2
100
AcDbLeader
  3
Standard
 71
             0
 73
             3
 74
             0
 75
             0
 40
0.0
 76
             2
 10
91.5742164943573
 20
137.26038863702621
 30
0.0
 10
91.5742164943573
 20
144.23239290129661
 30
0.0
 77
             2
  0
LEADER
  5
353
100
AcDbEntity
  8
1
  6
CONTINUOUS
 62
             2
100
AcDbLeader
  3
Standard
 71
             0
 73
             3
 74
             0
 75
             0
 40
0.0
 76
             2
 10
91.5742164943573
 20
149.07986223042971
 30
0.0
 10
91.5742164943573
 20
144.23239290129661
 30
0.0
 77
             2
  0
ARC
  5
351
100
AcDbEntity
  8
1
  6
CONTINUOUS
 62
             3
100
AcDbCircle
 10
-63.65135202952119
 20
122.7603886370262
 40
0.49999999999999
100
AcDbArc
 50
180.0
 51
-90.0
  0
ARC
  5
350
100
AcDbEntity
  8
1
  6
CONTINUOUS
 62
             3
100
AcDbCircle
 10
-63.50135202952118
 20
122.7603886370262
 40
0.5
100
AcDbArc
 50
-90.0
 51
0.0
  0
ARC
  5
34F
100
AcDbEntity
  8
1
  6
CONTINUOUS
 62
             3
100
AcDbCircle
 10
-61.35135202952119
 20
122.7603886370262
 40
0.5
100
AcDbArc
 50
180.0
 51
-90.0
  0
ARC
  5
34E
100
AcDbEntity
  8
1
  6
CONTINUOUS
 62
             3
100
AcDbCircle
 10
-61.20135202952118
 20
122.7603886370262
 40
0.5
100
AcDbArc
 50
-90.0
 51
0.0
  0
ARC
  5
34D
100
AcDbEntity
  8
1
  6
CONTINUOUS
 62
             3
100
AcDbCircle
 10
-59.05135202952119
 20
122.7603886370262
 40
0.5
100
AcDbArc
 50
180.0
 51
-90.0
  0
ARC
  5
34C
100
AcDbEntity
  8
1
  6
CONTINUOUS
 62
             3
100
AcDbCircle
 10
-58.90135202952119
 20
122.7603886370262
 40
0.5
100
AcDbArc
 50
-90.0
 51
0.0
  0
ARC
  5
34B
100
AcDbEntity
  8
1
  6
CONTINUOUS
 62
             3
100
AcDbCircle
 10
-63.65135202952119
 20
148.26038863702621
 40
0.5
100
AcDbArc
 50
90.0
 51
180.0
  0
ARC
  5
34A
100
AcDbEntity
  8
1
  6
CONTINUOUS
 62
             3
100
AcDbCircle
 10
-63.50135202952118
 20
148.26038863702621
 40
0.5
100
AcDbArc
 50
0.0
 51
90.0
  0
ARC
  5
349
100
AcDbEntity
  8
1
  6
CONTINUOUS
 62
             3
100
AcDbCircle
 10
-61.35135202952119
 20
148.26038863702621
 40
0.5
100
AcDbArc
 50
90.0
 51
180.0
  0
ARC
  5
348
100
AcDbEntity
  8
1
  6
CONTINUOUS
 62
             3
100
AcDbCircle
 10
-61.20135202952118
 20
148.26038863702621
 40
0.5
100
AcDbArc
 50
0.0
 51
90.0
  0
ARC
  5
347
100
AcDbEntity
  8
1
  6
CONTINUOUS
 62
             3
100
AcDbCircle
 10
-59.05135202952119
 20
148.26038863702621
 40
0.5
100
AcDbArc
 50
90.0
 51
180.0
  0
ARC
  5
346
100
AcDbEntity
  8
1
  6
CONTINUOUS
 62
             3
100
AcDbCircle
 10
-58.90135202952119
 20
148.26038863702621
 40
0.5
100
AcDbArc
 50
0.0
 51
90.0
  0
ARC
  5
345
100
AcDbEntity
  8
1
  6
CONTINUOUS
 62
             3
100
AcDbCircle
 10
84.05356942897855
 20
92.64627303173691
 40
0.99999999999998
100
AcDbArc
 50
-148.25852288041889
 51
-120.71655410052075
  0
ARC
  5
344
100
AcDbEntity
  8
1
  6
CONTINUOUS
 62
             3
100
AcDbCircle
 10
11.39250848129931
 20
148.76038863702621
 40
0.25
100
AcDbArc
 50
0.0
 51
90.0
  0
ARC
  5
343
100
AcDbEntity
  8
1
  6
CONTINUOUS
 62
             3
100
AcDbCircle
 10
0.8925084812993
 20
148.76038863702621
 40
0.25
100
AcDbArc
 50
90.0
 51
180.0
  0
ARC
  5
342
100
AcDbEntity
  8
1
  6
CONTINUOUS
 62
             3
100
AcDbCircle
 10
0.8925084812993
 20
122.2603886370262
 40
0.24999999999999
100
AcDbArc
 50
180.0
 51
-90.0
  0
ARC
  5
341
100
AcDbEntity
  8
1
  6
CONTINUOUS
 62
             3
100
AcDbCircle
 10
11.39250848129931
 20
122.2603886370262
 40
0.25
100
AcDbArc
 50
-90.0
 51
0.0
  0
ARC
  5
340
100
AcDbEntity
  8
1
  6
CONTINUOUS
 62
             3
100
AcDbCircle
 10
10.2425084812993
 20
123.2603886370262
 40
0.25
100
AcDbArc
 50
-90.0
 51
0.0
  0
ARC
  5
33F
100
AcDbEntity
  8
1
  6
CONTINUOUS
 62
             3
100
AcDbCircle
 10
2.04250848129931
 20
123.2603886370262
 40
0.25
100
AcDbArc
 50
180.0
 51
-90.0
  0
ARC
  5
33E
100
AcDbEntity
  8
1
  6
CONTINUOUS
 62
             3
100
AcDbCircle
 10
2.04250848129931
 20
147.76038863702621
 40
0.25
100
AcDbArc
 50
90.0
 51
180.0
  0
ARC
  5
33D
100
AcDbEntity
  8
1
  6
CONTINUOUS
 62
             3
100
AcDbCircle
 10
10.2425084812993
 20
147.76038863702621
 40
0.25
100
AcDbArc
 50
0.0
 51
90.0
  0
ARC
  5
33C
100
AcDbEntity
  8
1
  6
CONTINUOUS
 62
             3
100
AcDbCircle
 10
85.8153160694977
 20
143.94594172891769
 40
1.0
100
AcDbArc
 50
180.0
 51
-93.814074834289
  0
ARC
  5
33B
100
AcDbEntity
  8
1
  6
CONTINUOUS
 62
             3
100
AcDbCircle
 10
85.8153160694977
 20
127.0748355451347
 40
0.99999999999997
100
AcDbArc
 50
93.814074834289
 51
180.0
  0
ARC
  5
33A
100
AcDbEntity
  8
1
  6
CONTINUOUS
 62
             3
100
AcDbCircle
 10
84.05356942897855
 20
92.64627303173691
 40
1.00000000000001
100
AcDbArc
 50
-120.71655410052075
 51
-96.654425046005
  0
ARC
  5
339
100
AcDbEntity
  8
1
  6
CONTINUOUS
 62
             3
100
AcDbCircle
 10
84.05356942897855
 20
81.30496704087727
 40
0.99999999999994
100
AcDbArc
 50
96.65442504600539
 51
148.25852288041889
  0
ARC
  5
338
100
AcDbEntity
  8
1
  6
CONTINUOUS
 62
             3
100
AcDbCircle
 10
78.56531606949771
 20
82.22562003630708
 40
0.75
100
AcDbArc
 50
0.0
 51
90.0
  0
ARC
  5
337
100
AcDbEntity
  8
1
  6
CONTINUOUS
 62
             3
100
AcDbCircle
 10
82.5653160694977
 20
82.22562003630708
 40
0.75
100
AcDbArc
 50
-90.0
 51
-31.74147711957886
  0
ARC
  5
336
100
AcDbEntity
  8
1
  6
CONTINUOUS
 62
             3
100
AcDbCircle
 10
73.06531606949771
 20
84.47562003630708
 40
0.5
100
AcDbArc
 50
-90.0
 51
0.00000000000326
  0
ARC
  5
335
100
AcDbEntity
  8
1
  6
CONTINUOUS
 62
             3
100
AcDbCircle
 10
72.91531606949771
 20
84.47562003630708
 40
0.5
100
AcDbArc
 50
179.99999999999673
 51
-90.0
  0
ARC
  5
334
100
AcDbEntity
  8
1
  6
CONTINUOUS
 62
             3
100
AcDbCircle
 10
75.36531606949771
 20
84.47562003630708
 40
0.5
100
AcDbArc
 50
-90.0
 51
0.00000000000326
  0
ARC
  5
333
100
AcDbEntity
  8
1
  6
CONTINUOUS
 62
             3
100
AcDbCircle
 10
75.2153160694977
 20
84.47562003630708
 40
0.5
100
AcDbArc
 50
179.99999999999673
 51
-90.0
  0
ARC
  5
332
100
AcDbEntity
  8
1
  6
CONTINUOUS
 62
             3
100
AcDbCircle
 10
77.66531606949771
 20
84.47562003630708
 40
0.5
100
AcDbArc
 50
-90.0
 51
0.00000000000326
  0
ARC
  5
331
100
AcDbEntity
  8
1
  6
CONTINUOUS
 62
             3
100
AcDbCircle
 10
77.5153160694977
 20
84.47562003630708
 40
0.5
100
AcDbArc
 50
179.99999999999673
 51
-90.0
  0
ARC
  5
330
100
AcDbEntity
  8
1
  6
CONTINUOUS
 62
             3
100
AcDbCircle
 10
68.4653160694977
 20
82.72562003630708
 40
0.5
100
AcDbArc
 50
-90.0
 51
0.0
  0
ARC
  5
32F
100
AcDbEntity
  8
1
  6
CONTINUOUS
 62
             3
100
AcDbCircle
 10
68.3153160694977
 20
82.72562003630708
 40
0.5
100
AcDbArc
 50
180.0
 51
-90.0
  0
ARC
  5
32E
100
AcDbEntity
  8
1
  6
CONTINUOUS
 62
             3
100
AcDbCircle
 10
66.16531606949771
 20
82.72562003630708
 40
0.5
100
AcDbArc
 50
-90.0
 51
0.0
  0
ARC
  5
32D
100
AcDbEntity
  8
1
  6
CONTINUOUS
 62
             3
100
AcDbCircle
 10
66.0153160694977
 20
82.72562003630708
 40
0.5
100
AcDbArc
 50
180.0
 51
-90.0
  0
ARC
  5
32C
100
AcDbEntity
  8
1
  6
CONTINUOUS
 62
             3
100
AcDbCircle
 10
70.7653160694977
 20
82.72562003630708
 40
0.5
100
AcDbArc
 50
-90.0
 51
0.0
  0
ARC
  5
32B
100
AcDbEntity
  8
1
  6
CONTINUOUS
 62
             3
100
AcDbCircle
 10
70.6153160694977
 20
82.72562003630708
 40
0.5
100
AcDbArc
 50
180.0
 51
-90.0
  0
ARC
  5
32A
100
AcDbEntity
  8
1
  6
CONTINUOUS
 62
             3
100
AcDbCircle
 10
77.66531606949771
 20
82.72562003630708
 40
0.5
100
AcDbArc
 50
-90.0
 51
0.0
  0
ARC
  5
329
100
AcDbEntity
  8
1
  6
CONTINUOUS
 62
             3
100
AcDbCircle
 10
77.5153160694977
 20
82.72562003630708
 40
0.5
100
AcDbArc
 50
180.0
 51
-90.0
  0
ARC
  5
328
100
AcDbEntity
  8
1
  6
CONTINUOUS
 62
             3
100
AcDbCircle
 10
75.36531606949771
 20
82.72562003630708
 40
0.5
100
AcDbArc
 50
-90.0
 51
0.0
  0
ARC
  5
327
100
AcDbEntity
  8
1
  6
CONTINUOUS
 62
             3
100
AcDbCircle
 10
75.2153160694977
 20
82.72562003630708
 40
0.5
100
AcDbArc
 50
180.0
 51
-90.0
  0
ARC
  5
326
100
AcDbEntity
  8
1
  6
CONTINUOUS
 62
             3
100
AcDbCircle
 10
73.06531606949771
 20
82.72562003630708
 40
0.5
100
AcDbArc
 50
-90.0
 51
0.0
  0
ARC
  5
325
100
AcDbEntity
  8
1
  6
CONTINUOUS
 62
             3
100
AcDbCircle
 10
72.91531606949771
 20
82.72562003630708
 40
0.5
100
AcDbArc
 50
180.0
 51
-90.0
  0
ARC
  5
324
100
AcDbEntity
  8
1
  6
CONTINUOUS
 62
             3
100
AcDbCircle
 10
78.56531606949771
 20
91.72562003630711
 40
0.75
100
AcDbArc
 50
-90.0
 51
0.0
  0
ARC
  5
323
100
AcDbEntity
  8
1
  6
CONTINUOUS
 62
             3
100
AcDbCircle
 10
82.5653160694977
 20
91.72562003630711
 40
0.74999999999999
100
AcDbArc
 50
31.74147711957886
 51
90.0
  0
ARC
  5
322
100
AcDbEntity
  8
1
  6
CONTINUOUS
 62
             3
100
AcDbCircle
 10
73.06531606949771
 20
89.47562003630711
 40
0.5
100
AcDbArc
 50
0.0
 51
90.0
  0
ARC
  5
321
100
AcDbEntity
  8
1
  6
CONTINUOUS
 62
             3
100
AcDbCircle
 10
72.91531606949771
 20
89.47562003630711
 40
0.5
100
AcDbArc
 50
90.0
 51
180.0
  0
ARC
  5
320
100
AcDbEntity
  8
1
  6
CONTINUOUS
 62
             3
100
AcDbCircle
 10
75.36531606949771
 20
89.47562003630711
 40
0.5
100
AcDbArc
 50
0.0
 51
90.0
  0
ARC
  5
31F
100
AcDbEntity
  8
1
  6
CONTINUOUS
 62
             3
100
AcDbCircle
 10
75.2153160694977
 20
89.47562003630711
 40
0.5
100
AcDbArc
 50
90.0
 51
180.0
  0
ARC
  5
31E
100
AcDbEntity
  8
1
  6
CONTINUOUS
 62
             3
100
AcDbCircle
 10
77.66531606949771
 20
89.47562003630711
 40
0.5
100
AcDbArc
 50
0.0
 51
90.0
  0
ARC
  5
31D
100
AcDbEntity
  8
1
  6
CONTINUOUS
 62
             3
100
AcDbCircle
 10
77.5153160694977
 20
89.47562003630711
 40
0.5
100
AcDbArc
 50
90.0
 51
180.0
  0
ARC
  5
31C
100
AcDbEntity
  8
1
  6
CONTINUOUS
 62
             3
100
AcDbCircle
 10
68.4653160694977
 20
91.22562003630711
 40
0.5
100
AcDbArc
 50
0.0
 51
90.0
  0
ARC
  5
31B
100
AcDbEntity
  8
1
  6
CONTINUOUS
 62
             3
100
AcDbCircle
 10
68.3153160694977
 20
91.22562003630711
 40
0.5
100
AcDbArc
 50
90.0
 51
180.0
  0
ARC
  5
31A
100
AcDbEntity
  8
1
  6
CONTINUOUS
 62
             3
100
AcDbCircle
 10
66.16531606949771
 20
91.22562003630711
 40
0.5
100
AcDbArc
 50
0.0
 51
90.0
  0
ARC
  5
319
100
AcDbEntity
  8
1
  6
CONTINUOUS
 62
             3
100
AcDbCircle
 10
66.0153160694977
 20
91.22562003630711
 40
0.5
100
AcDbArc
 50
90.0
 51
180.0
  0
ARC
  5
318
100
AcDbEntity
  8
1
  6
CONTINUOUS
 62
             3
100
AcDbCircle
 10
70.7653160694977
 20
91.22562003630711
 40
0.5
100
AcDbArc
 50
0.0
 51
90.0
  0
ARC
  5
317
100
AcDbEntity
  8
1
  6
CONTINUOUS
 62
             3
100
AcDbCircle
 10
70.6153160694977
 20
91.22562003630711
 40
0.5
100
AcDbArc
 50
90.0
 51
180.0
  0
ARC
  5
316
100
AcDbEntity
  8
1
  6
CONTINUOUS
 62
             3
100
AcDbCircle
 10
77.66531606949771
 20
91.22562003630711
 40
0.5
100
AcDbArc
 50
0.0
 51
90.0
  0
ARC
  5
315
100
AcDbEntity
  8
1
  6
CONTINUOUS
 62
             3
100
AcDbCircle
 10
77.5153160694977
 20
91.22562003630711
 40
0.5
100
AcDbArc
 50
90.0
 51
180.0
  0
ARC
  5
314
100
AcDbEntity
  8
1
  6
CONTINUOUS
 62
             3
100
AcDbCircle
 10
75.36531606949771
 20
91.22562003630711
 40
0.5
100
AcDbArc
 50
0.0
 51
90.0
  0
ARC
  5
313
100
AcDbEntity
  8
1
  6
CONTINUOUS
 62
             3
100
AcDbCircle
 10
75.2153160694977
 20
91.22562003630711
 40
0.5
100
AcDbArc
 50
90.0
 51
180.0
  0
ARC
  5
312
100
AcDbEntity
  8
1
  6
CONTINUOUS
 62
             3
100
AcDbCircle
 10
73.06531606949771
 20
91.22562003630711
 40
0.5
100
AcDbArc
 50
0.0
 51
90.0
  0
ARC
  5
311
100
AcDbEntity
  8
1
  6
CONTINUOUS
 62
             3
100
AcDbCircle
 10
72.91531606949771
 20
91.22562003630711
 40
0.5
100
AcDbArc
 50
90.0
 51
180.0
  0
ARC
  5
310
100
AcDbEntity
  8
1
  6
CONTINUOUS
 62
             3
100
AcDbCircle
 10
79.16531606949771
 20
122.7603886370262
 40
0.5
100
AcDbArc
 50
-90.0
 51
0.0
  0
ARC
  5
30F
100
AcDbEntity
  8
1
  6
CONTINUOUS
 62
             3
100
AcDbCircle
 10
79.0153160694977
 20
122.7603886370262
 40
0.5
100
AcDbArc
 50
180.0
 51
-90.0
  0
ARC
  5
30E
100
AcDbEntity
  8
1
  6
CONTINUOUS
 62
             3
100
AcDbCircle
 10
76.86531606949771
 20
122.7603886370262
 40
0.5
100
AcDbArc
 50
-90.0
 51
0.0
  0
ARC
  5
30D
100
AcDbEntity
  8
1
  6
CONTINUOUS
 62
             3
100
AcDbCircle
 10
76.7153160694977
 20
122.7603886370262
 40
0.5
100
AcDbArc
 50
180.0
 51
-90.0
  0
ARC
  5
30C
100
AcDbEntity
  8
1
  6
CONTINUOUS
 62
             3
100
AcDbCircle
 10
74.56531606949771
 20
122.7603886370262
 40
0.5
100
AcDbArc
 50
-90.0
 51
0.0
  0
ARC
  5
30B
100
AcDbEntity
  8
1
  6
CONTINUOUS
 62
             3
100
AcDbCircle
 10
74.41531606949771
 20
122.7603886370262
 40
0.5
100
AcDbArc
 50
180.0
 51
-90.0
  0
ARC
  5
30A
100
AcDbEntity
  8
1
  6
CONTINUOUS
 62
             3
100
AcDbCircle
 10
79.16531606949771
 20
148.26038863702621
 40
0.5
100
AcDbArc
 50
0.0
 51
90.0
  0
ARC
  5
309
100
AcDbEntity
  8
1
  6
CONTINUOUS
 62
             3
100
AcDbCircle
 10
79.0153160694977
 20
148.26038863702621
 40
0.5
100
AcDbArc
 50
90.0
 51
180.0
  0
ARC
  5
308
100
AcDbEntity
  8
1
  6
CONTINUOUS
 62
             3
100
AcDbCircle
 10
76.86531606949771
 20
148.26038863702621
 40
0.5
100
AcDbArc
 50
0.0
 51
90.0
  0
ARC
  5
307
100
AcDbEntity
  8
1
  6
CONTINUOUS
 62
             3
100
AcDbCircle
 10
76.7153160694977
 20
148.26038863702621
 40
0.5
100
AcDbArc
 50
90.0
 51
180.0
  0
ARC
  5
306
100
AcDbEntity
  8
1
  6
CONTINUOUS
 62
             3
100
AcDbCircle
 10
74.56531606949771
 20
148.26038863702621
 40
0.5
100
AcDbArc
 50
0.0
 51
90.0
  0
ARC
  5
305
100
AcDbEntity
  8
1
  6
CONTINUOUS
 62
             3
100
AcDbCircle
 10
74.41531606949771
 20
148.26038863702621
 40
0.5
100
AcDbArc
 50
90.0
 51
180.0
  0
ARC
  5
304
100
AcDbEntity
  8
1
  6
CONTINUOUS
 62
             3
100
AcDbCircle
 10
-52.15135202952118
 20
125.0103886370262
 40
0.5
100
AcDbArc
 50
180.0
 51
-90.0
  0
ARC
  5
303
100
AcDbEntity
  8
1
  6
CONTINUOUS
 62
             3
100
AcDbCircle
 10
-54.45135202952119
 20
125.0103886370262
 40
0.5
100
AcDbArc
 50
180.0
 51
-90.0
  0
ARC
  5
302
100
AcDbEntity
  8
1
  6
CONTINUOUS
 62
             3
100
AcDbCircle
 10
-56.75135202952118
 20
125.0103886370262
 40
0.5
100
AcDbArc
 50
180.0
 51
-90.0
  0
ARC
  5
301
100
AcDbEntity
  8
1
  6
CONTINUOUS
 62
             3
100
AcDbCircle
 10
-59.05135202952119
 20
125.0103886370262
 40
0.5
100
AcDbArc
 50
180.0
 51
-90.0
  0
ARC
  5
300
100
AcDbEntity
  8
1
  6
CONTINUOUS
 62
             3
100
AcDbCircle
 10
-61.35135202952119
 20
125.0103886370262
 40
0.5
100
AcDbArc
 50
180.0
 51
-90.0
  0
ARC
  5
2FF
100
AcDbEntity
  8
1
  6
CONTINUOUS
 62
             3
100
AcDbCircle
 10
-52.00135202952119
 20
125.0103886370262
 40
0.5
100
AcDbArc
 50
-90.0
 51
0.0
  0
ARC
  5
2FE
100
AcDbEntity
  8
1
  6
CONTINUOUS
 62
             3
100
AcDbCircle
 10
-54.30135202952117
 20
125.0103886370262
 40
0.5
100
AcDbArc
 50
-90.0
 51
0.0
  0
ARC
  5
2FD
100
AcDbEntity
  8
1
  6
CONTINUOUS
 62
             3
100
AcDbCircle
 10
-56.60135202952117
 20
125.0103886370262
 40
0.5
100
AcDbArc
 50
-90.0
 51
0.0
  0
ARC
  5
2FC
100
AcDbEntity
  8
1
  6
CONTINUOUS
 62
             3
100
AcDbCircle
 10
-58.90135202952119
 20
125.0103886370262
 40
0.5
100
AcDbArc
 50
-90.0
 51
0.0
  0
ARC
  5
2FB
100
AcDbEntity
  8
1
  6
CONTINUOUS
 62
             3
100
AcDbCircle
 10
-61.20135202952118
 20
125.0103886370262
 40
0.5
100
AcDbArc
 50
-90.0
 51
0.0
  0
ARC
  5
2FA
100
AcDbEntity
  8
1
  6
CONTINUOUS
 62
             3
100
AcDbCircle
 10
-63.65135202952119
 20
125.0103886370262
 40
0.49999999999999
100
AcDbArc
 50
180.0
 51
-90.0
  0
ARC
  5
2F9
100
AcDbEntity
  8
1
  6
CONTINUOUS
 62
             3
100
AcDbCircle
 10
-63.50135202952118
 20
125.0103886370262
 40
0.5
100
AcDbArc
 50
-90.0
 51
0.0
  0
ARC
  5
2F8
100
AcDbEntity
  8
1
  6
CONTINUOUS
 62
             3
100
AcDbCircle
 10
-68.55135202952121
 20
122.2603886370262
 40
0.75
100
AcDbArc
 50
180.0
 51
-90.0
  0
ARC
  5
2F7
100
AcDbEntity
  8
1
  6
CONTINUOUS
 62
             3
100
AcDbCircle
 10
-64.55135202952118
 20
122.2603886370262
 40
0.75
100
AcDbArc
 50
90.0
 51
180.0
  0
ARC
  5
2F6
100
AcDbEntity
  8
1
  6
CONTINUOUS
 62
             3
100
AcDbCircle
 10
-52.15135202952118
 20
146.01038863702621
 40
0.5
100
AcDbArc
 50
90.0
 51
180.0
  0
ARC
  5
2F5
100
AcDbEntity
  8
1
  6
CONTINUOUS
 62
             3
100
AcDbCircle
 10
-54.45135202952119
 20
146.01038863702621
 40
0.5
100
AcDbArc
 50
90.0
 51
180.0
  0
ARC
  5
2F4
100
AcDbEntity
  8
1
  6
CONTINUOUS
 62
             3
100
AcDbCircle
 10
-56.75135202952118
 20
146.01038863702621
 40
0.5
100
AcDbArc
 50
90.0
 51
180.0
  0
ARC
  5
2F3
100
AcDbEntity
  8
1
  6
CONTINUOUS
 62
             3
100
AcDbCircle
 10
-59.05135202952119
 20
146.01038863702621
 40
0.5
100
AcDbArc
 50
90.0
 51
180.0
  0
ARC
  5
2F2
100
AcDbEntity
  8
1
  6
CONTINUOUS
 62
             3
100
AcDbCircle
 10
-61.35135202952119
 20
146.01038863702621
 40
0.5
100
AcDbArc
 50
90.0
 51
180.0
  0
ARC
  5
2F1
100
AcDbEntity
  8
1
  6
CONTINUOUS
 62
             3
100
AcDbCircle
 10
-52.00135202952119
 20
146.01038863702621
 40
0.5
100
AcDbArc
 50
0.0
 51
90.0
  0
ARC
  5
2F0
100
AcDbEntity
  8
1
  6
CONTINUOUS
 62
             3
100
AcDbCircle
 10
-54.30135202952117
 20
146.01038863702621
 40
0.5
100
AcDbArc
 50
0.0
 51
90.0
  0
ARC
  5
2EF
100
AcDbEntity
  8
1
  6
CONTINUOUS
 62
             3
100
AcDbCircle
 10
-56.60135202952117
 20
146.01038863702621
 40
0.5
100
AcDbArc
 50
0.0
 51
90.0
  0
ARC
  5
2EE
100
AcDbEntity
  8
1
  6
CONTINUOUS
 62
             3
100
AcDbCircle
 10
-58.90135202952119
 20
146.01038863702621
 40
0.5
100
AcDbArc
 50
0.0
 51
90.0
  0
ARC
  5
2ED
100
AcDbEntity
  8
1
  6
CONTINUOUS
 62
             3
100
AcDbCircle
 10
-61.20135202952118
 20
146.01038863702621
 40
0.5
100
AcDbArc
 50
0.0
 51
90.0
  0
ARC
  5
2EC
100
AcDbEntity
  8
1
  6
CONTINUOUS
 62
             3
100
AcDbCircle
 10
-63.65135202952119
 20
146.01038863702621
 40
0.5
100
AcDbArc
 50
90.0
 51
180.0
  0
ARC
  5
2EB
100
AcDbEntity
  8
1
  6
CONTINUOUS
 62
             3
100
AcDbCircle
 10
-63.50135202952118
 20
146.01038863702621
 40
0.5
100
AcDbArc
 50
0.0
 51
90.0
  0
ARC
  5
2EA
100
AcDbEntity
  8
1
  6
CONTINUOUS
 62
             3
100
AcDbCircle
 10
-68.55135202952121
 20
148.76038863702621
 40
0.75
100
AcDbArc
 50
90.0
 51
180.0
  0
ARC
  5
2E9
100
AcDbEntity
  8
1
  6
CONTINUOUS
 62
             3
100
AcDbCircle
 10
-64.55135202952118
 20
148.76038863702621
 40
0.75
100
AcDbArc
 50
180.0
 51
-90.0
  0
ARC
  5
2E8
100
AcDbEntity
  8
1
  6
CONTINUOUS
 62
             3
100
AcDbCircle
 10
67.66531606949771
 20
125.0103886370262
 40
0.5
100
AcDbArc
 50
-90.0
 51
0.0
  0
ARC
  5
2E7
100
AcDbEntity
  8
1
  6
CONTINUOUS
 62
             3
100
AcDbCircle
 10
69.9653160694977
 20
125.0103886370262
 40
0.5
100
AcDbArc
 50
-90.0
 51
0.0
  0
ARC
  5
2E6
100
AcDbEntity
  8
1
  6
CONTINUOUS
 62
             3
100
AcDbCircle
 10
72.2653160694977
 20
125.0103886370262
 40
0.5
100
AcDbArc
 50
-90.0
 51
0.0
  0
ARC
  5
2E5
100
AcDbEntity
  8
1
  6
CONTINUOUS
 62
             3
100
AcDbCircle
 10
74.56531606949771
 20
125.0103886370262
 40
0.5
100
AcDbArc
 50
-90.0
 51
0.0
  0
ARC
  5
2E4
100
AcDbEntity
  8
1
  6
CONTINUOUS
 62
             3
100
AcDbCircle
 10
76.86531606949771
 20
125.0103886370262
 40
0.5
100
AcDbArc
 50
-90.0
 51
0.0
  0
ARC
  5
2E3
100
AcDbEntity
  8
1
  6
CONTINUOUS
 62
             3
100
AcDbCircle
 10
67.5153160694977
 20
125.0103886370262
 40
0.5
100
AcDbArc
 50
180.0
 51
-90.0
  0
ARC
  5
2E2
100
AcDbEntity
  8
1
  6
CONTINUOUS
 62
             3
100
AcDbCircle
 10
69.8153160694977
 20
125.0103886370262
 40
0.5
100
AcDbArc
 50
180.0
 51
-90.0
  0
ARC
  5
2E1
100
AcDbEntity
  8
1
  6
CONTINUOUS
 62
             3
100
AcDbCircle
 10
72.1153160694977
 20
125.0103886370262
 40
0.5
100
AcDbArc
 50
180.0
 51
-90.0
  0
ARC
  5
2E0
100
AcDbEntity
  8
1
  6
CONTINUOUS
 62
             3
100
AcDbCircle
 10
74.41531606949771
 20
125.0103886370262
 40
0.5
100
AcDbArc
 50
180.0
 51
-90.0
  0
ARC
  5
2DF
100
AcDbEntity
  8
1
  6
CONTINUOUS
 62
             3
100
AcDbCircle
 10
76.7153160694977
 20
125.0103886370262
 40
0.5
100
AcDbArc
 50
180.0
 51
-90.0
  0
ARC
  5
2DE
100
AcDbEntity
  8
1
  6
CONTINUOUS
 62
             3
100
AcDbCircle
 10
79.16531606949771
 20
125.0103886370262
 40
0.5
100
AcDbArc
 50
-90.0
 51
0.0
  0
ARC
  5
2DD
100
AcDbEntity
  8
1
  6
CONTINUOUS
 62
             3
100
AcDbCircle
 10
79.0153160694977
 20
125.0103886370262
 40
0.5
100
AcDbArc
 50
180.0
 51
-90.0
  0
ARC
  5
2DC
100
AcDbEntity
  8
1
  6
CONTINUOUS
 62
             3
100
AcDbCircle
 10
84.0653160694977
 20
122.2603886370262
 40
0.75
100
AcDbArc
 50
-90.0
 51
0.0
  0
ARC
  5
2DB
100
AcDbEntity
  8
1
  6
CONTINUOUS
 62
             3
100
AcDbCircle
 10
80.0653160694977
 20
122.2603886370262
 40
0.75
100
AcDbArc
 50
0.0
 51
90.0
  0
ARC
  5
2DA
100
AcDbEntity
  8
1
  6
CONTINUOUS
 62
             3
100
AcDbCircle
 10
67.66531606949771
 20
146.01038863702621
 40
0.5
100
AcDbArc
 50
0.0
 51
90.0
  0
ARC
  5
2D9
100
AcDbEntity
  8
1
  6
CONTINUOUS
 62
             3
100
AcDbCircle
 10
69.9653160694977
 20
146.01038863702621
 40
0.5
100
AcDbArc
 50
0.0
 51
90.0
  0
ARC
  5
2D8
100
AcDbEntity
  8
1
  6
CONTINUOUS
 62
             3
100
AcDbCircle
 10
72.2653160694977
 20
146.01038863702621
 40
0.5
100
AcDbArc
 50
0.0
 51
90.0
  0
ARC
  5
2D7
100
AcDbEntity
  8
1
  6
CONTINUOUS
 62
             3
100
AcDbCircle
 10
74.56531606949771
 20
146.01038863702621
 40
0.5
100
AcDbArc
 50
0.0
 51
90.0
  0
ARC
  5
2D6
100
AcDbEntity
  8
1
  6
CONTINUOUS
 62
             3
100
AcDbCircle
 10
76.86531606949771
 20
146.01038863702621
 40
0.5
100
AcDbArc
 50
0.0
 51
90.0
  0
ARC
  5
2D5
100
AcDbEntity
  8
1
  6
CONTINUOUS
 62
             3
100
AcDbCircle
 10
67.5153160694977
 20
146.01038863702621
 40
0.5
100
AcDbArc
 50
90.0
 51
180.0
  0
ARC
  5
2D4
100
AcDbEntity
  8
1
  6
CONTINUOUS
 62
             3
100
AcDbCircle
 10
69.8153160694977
 20
146.01038863702621
 40
0.5
100
AcDbArc
 50
90.0
 51
180.0
  0
ARC
  5
2D3
100
AcDbEntity
  8
1
  6
CONTINUOUS
 62
             3
100
AcDbCircle
 10
72.1153160694977
 20
146.01038863702621
 40
0.5
100
AcDbArc
 50
90.0
 51
180.0
  0
ARC
  5
2D2
100
AcDbEntity
  8
1
  6
CONTINUOUS
 62
             3
100
AcDbCircle
 10
74.41531606949771
 20
146.01038863702621
 40
0.5
100
AcDbArc
 50
90.0
 51
180.0
  0
ARC
  5
2D1
100
AcDbEntity
  8
1
  6
CONTINUOUS
 62
             3
100
AcDbCircle
 10
76.7153160694977
 20
146.01038863702621
 40
0.5
100
AcDbArc
 50
90.0
 51
180.0
  0
ARC
  5
2D0
100
AcDbEntity
  8
1
  6
CONTINUOUS
 62
             3
100
AcDbCircle
 10
79.16531606949771
 20
146.01038863702621
 40
0.5
100
AcDbArc
 50
0.0
 51
90.0
  0
ARC
  5
2CF
100
AcDbEntity
  8
1
  6
CONTINUOUS
 62
             3
100
AcDbCircle
 10
79.0153160694977
 20
146.01038863702621
 40
0.5
100
AcDbArc
 50
90.0
 51
180.0
  0
ARC
  5
2CE
100
AcDbEntity
  8
1
  6
CONTINUOUS
 62
             3
100
AcDbCircle
 10
84.0653160694977
 20
148.76038863702621
 40
0.75
100
AcDbArc
 50
0.0
 51
90.0
  0
ARC
  5
2CD
100
AcDbEntity
  8
1
  6
CONTINUOUS
 62
             3
100
AcDbCircle
 10
80.0653160694977
 20
148.76038863702621
 40
0.75
100
AcDbArc
 50
-90.0
 51
0.0
  0
ARC
  5
2CC
100
AcDbEntity
  8
1
  6
CONTINUOUS
 62
             3
100
AcDbCircle
 10
10.7425084812993
 20
125.0103886370262
 40
0.5
100
AcDbArc
 50
-90.0
 51
0.0
  0
ARC
  5
2CB
100
AcDbEntity
  8
1
  6
CONTINUOUS
 62
             3
100
AcDbCircle
 10
10.7425084812993
 20
146.01038863702621
 40
0.50000000000001
100
AcDbArc
 50
0.0
 51
90.0
  0
ARC
  5
2CA
100
AcDbEntity
  8
1
  6
CONTINUOUS
 62
             3
100
AcDbCircle
 10
8.51750848129931
 20
122.7603886370262
 40
0.5
100
AcDbArc
 50
-90.0
 51
0.0
  0
ARC
  5
2C9
100
AcDbEntity
  8
1
  6
CONTINUOUS
 62
             3
100
AcDbCircle
 10
3.76750848129931
 20
122.7603886370262
 40
0.5
100
AcDbArc
 50
180.0
 51
-90.0
  0
ARC
  5
2C8
100
AcDbEntity
  8
1
  6
CONTINUOUS
 62
             3
100
AcDbCircle
 10
8.51750848129931
 20
148.26038863702621
 40
0.5
100
AcDbArc
 50
0.0
 51
90.0
  0
ARC
  5
2C7
100
AcDbEntity
  8
1
  6
CONTINUOUS
 62
             3
100
AcDbCircle
 10
3.76750848129931
 20
148.26038863702621
 40
0.5
100
AcDbArc
 50
90.0
 51
180.0
  0
ARC
  5
2C6
100
AcDbEntity
  8
1
  6
CONTINUOUS
 62
             3
100
AcDbCircle
 10
1.54250848129931
 20
125.0103886370262
 40
0.5
100
AcDbArc
 50
180.0
 51
-90.0
  0
ARC
  5
2C5
100
AcDbEntity
  8
1
  6
CONTINUOUS
 62
             3
100
AcDbCircle
 10
65.2153160694977
 20
146.01038863702621
 40
0.5
100
AcDbArc
 50
90.00000000000163
 51
180.0
  0
ARC
  5
2C4
100
AcDbEntity
  8
1
  6
CONTINUOUS
 62
             3
100
AcDbCircle
 10
65.36531606949771
 20
146.01038863702621
 40
0.5
100
AcDbArc
 50
0.0
 51
90.0
  0
ARC
  5
2C3
100
AcDbEntity
  8
1
  6
CONTINUOUS
 62
             3
100
AcDbCircle
 10
65.2153160694977
 20
125.0103886370262
 40
0.5
100
AcDbArc
 50
180.0
 51
-90.0
  0
ARC
  5
2C2
100
AcDbEntity
  8
1
  6
CONTINUOUS
 62
             3
100
AcDbCircle
 10
65.36531606949771
 20
125.0103886370262
 40
0.5
100
AcDbArc
 50
-90.0
 51
0.0
  0
ARC
  5
2C1
100
AcDbEntity
  8
1
  6
CONTINUOUS
 62
             3
100
AcDbCircle
 10
63.7153160694977
 20
91.22562003630711
 40
0.5
100
AcDbArc
 50
90.0
 51
180.0
  0
ARC
  5
2C0
100
AcDbEntity
  8
1
  6
CONTINUOUS
 62
             3
100
AcDbCircle
 10
63.86531606949771
 20
91.22562003630711
 40
0.5
100
AcDbArc
 50
0.0
 51
90.0
  0
ARC
  5
2BF
100
AcDbEntity
  8
1
  6
CONTINUOUS
 62
             3
100
AcDbCircle
 10
63.7153160694977
 20
82.72562003630708
 40
0.5
100
AcDbArc
 50
180.0
 51
-90.0
  0
ARC
  5
2BE
100
AcDbEntity
  8
1
  6
CONTINUOUS
 62
             3
100
AcDbCircle
 10
63.86531606949771
 20
82.72562003630708
 40
0.5
100
AcDbArc
 50
-90.0
 51
0.0
  0
ARC
  5
2BD
100
AcDbEntity
  8
1
  6
CONTINUOUS
 62
             3
100
AcDbCircle
 10
1.54250848129931
 20
146.01038863702621
 40
0.5
100
AcDbArc
 50
90.0
 51
180.0
  0
ARC
  5
2BC
100
AcDbEntity
  8
1
  6
CONTINUOUS
 62
             3
100
AcDbCircle
 10
-49.70135202952118
 20
146.01038863702621
 40
0.50000000000001
100
AcDbArc
 50
0.0
 51
90.0
  0
ARC
  5
2BB
100
AcDbEntity
  8
1
  6
CONTINUOUS
 62
             3
100
AcDbCircle
 10
-49.85135202952117
 20
146.01038863702621
 40
0.5
100
AcDbArc
 50
90.0
 51
180.0
  0
ARC
  5
2BA
100
AcDbEntity
  8
1
  6
CONTINUOUS
 62
             3
100
AcDbCircle
 10
-49.70135202952118
 20
125.0103886370262
 40
0.5
100
AcDbArc
 50
-90.0
 51
0.0
  0
ARC
  5
2B9
100
AcDbEntity
  8
1
  6
CONTINUOUS
 62
             3
100
AcDbCircle
 10
-49.85135202952117
 20
125.0103886370262
 40
0.5
100
AcDbArc
 50
180.0
 51
-90.0
  0
ARC
  5
2B8
100
AcDbEntity
  8
1
  6
CONTINUOUS
 62
             3
100
AcDbCircle
 10
-70.30135202952121
 20
127.0748355451347
 40
1.0
100
AcDbArc
 50
0.0
 51
86.1859251657102
  0
ARC
  5
2B7
100
AcDbEntity
  8
1
  6
CONTINUOUS
 62
             3
100
AcDbCircle
 10
-70.30135202952121
 20
143.94594172891769
 40
0.99999999999997
100
AcDbArc
 50
-86.1859251657102
 51
0.0
  0
SPLINE
  5
2B6
100
AcDbEntity
  8
1
  6
CONTINUOUS
 62
             2
100
AcDbSpline
210
0.0
220
0.0
230
1.0
 70
             0
 71
             3
 72
             9
 73
             5
 74
             5
 42
0.00000000001
 43
0.00000000001
 44
0.00000000001
 40
0.0
 40
0.0
 40
0.0
 40
0.0
 40
1.898683656620106
 40
3.7298251750253519
 40
3.7298251750253519
 40
3.7298251750253519
 40
3.7298251750253519
 10
105.3153160694977
 20
88.260620036307131
 30
0.0
 10
104.0359766936665
 20
87.739444125618007
 30
0.0
 10
105.365398170763
 20
87.147894788564031
 30
0.0
 10
106.408653100018
 20
85.932879811623309
 30
0.0
 10
105.3153160694977
 20
85.690620036307109
 30
0.0
 11
105.3153160694977
 21
88.260620036307131
 31
0.0
 11
104.609591947517
 21
87.59618907143458
 31
0.0
 11
105.31531606949771
 21
86.975620036307134
 31
0.0
 11
105.94325078367253
 21
86.256629745873994
 31
0.0
 11
105.3153160694977
 21
85.690620036307109
 31
0.0
  0
SPLINE
  5
2B5
100
AcDbEntity
  8
1
  6
CONTINUOUS
 62
             2
100
AcDbSpline
210
0.0
220
0.0
230
1.0
 70
             0
 71
             3
 72
            10
 73
             6
 74
             8
 42
0.00000000001
 43
0.00000000001
 44
0.00000000001
 40
0.0
 40
0.0
 40
0.0
 40
0.0
 40
7.9699203357290838
 40
15.208689206086371
 40
28.556236020063441
 40
28.556236020063441
 40
28.556236020063441
 40
28.556236020063441
 10
135.39517631663529
 20
142.48430632154589
 30
0.0
 10
137.17046885469111
 20
141.71931239769231
 30
0.0
 10
136.20261454505979
 20
138.97648056446911
 30
0.0
 10
131.35680747906719
 20
135.67323181131579
 30
0.0
 10
137.1901188952956
 20
131.9617049953527
 30
0.0
 10
133.74785038437889
 20
129.97642694354579
 30
0.0
 11
135.39517631663529
 21
142.48430632154589
 31
0.0
 11
136.57619451072841
 21
140.95035795046232
 31
0.0
 11
135.7131419010488
 21
139.11472141073332
 31
0.0
 11
134.33445809366543
 21
137.64317848806735
 31
0.0
 11
133.54661232216529
 21
136.21539506252134
 31
0.0
 11
134.30211736058865
 21
134.21805863882679
 31
0.0
 11
135.19476649414639
 21
132.06578346190244
 31
0.0
 11
133.74785038437889
 21
129.97642694354579
 31
0.0
  0
SPLINE
  5
2B4
100
AcDbEntity
  8
1
  6
CONTINUOUS
 62
             2
100
AcDbSpline
210
0.0
220
0.0
230
1.0
 70
             0
 71
             3
 72
            10
 73
             6
 74
             7
 42
0.00000000001
 43
0.00000000001
 44
0.00000000001
 40
0.0
 40
0.0
 40
0.0
 40
0.0
 40
7.9699203357290838
 40
15.208689206086371
 40
27.211552667449322
 40
27.211552667449322
 40
27.211552667449322
 40
27.211552667449322
 10
133.02252988316499
 20
142.28534285087139
 30
0.0
 10
134.7978224212207
 20
141.52034892701769
 30
0.0
 10
133.82996811158941
 20
138.77751709379459
 30
0.0
 10
129.21234504320219
 20
135.62981487712409
 30
0.0
 10
134.09521031017721
 20
132.24193461162611
 30
0.0
 10
132.20699322662799
 20
130.3892983746168
 30
0.0
 11
133.02252988316499
 21
142.28534285087139
 31
0.0
 11
134.20354807725803
 21
140.75139447978773
 31
0.0
 11
133.34049546757842
 21
138.9157579400588
 31
0.0
 11
131.96181166019508
 21
137.44421501739279
 31
0.0
 11
131.17396588869491
 21
136.01643159184678
 31
0.0
 11
132.35180972007905
 21
133.27467268592022
 31
0.0
 11
132.20699322662799
 21
130.3892983746168
 31
0.0
  0
SPLINE
  5
2B3
100
AcDbEntity
  8
1
  6
CONTINUOUS
 62
             2
100
AcDbSpline
210
0.0
220
0.0
230
1.0
 70
             0
 71
             3
 72
             9
 73
             5
 74
             5
 42
0.00000000001
 43
0.00000000001
 44
0.00000000001
 40
0.0
 40
0.0
 40
0.0
 40
0.0
 40
14.44525648862176
 40
29.34220171682145
 40
29.34220171682145
 40
29.34220171682145
 40
29.34220171682145
 10
-80.899352029521211
 20
142.23718863702621
 30
0.0
 10
-78.631365102730996
 20
140.1802054087544
 30
0.0
 10
-81.030027039558249
 20
135.2791339331155
 30
0.0
 10
-83.041869678336951
 20
131.0209365543252
 30
0.0
 10
-79.604352029521209
 20
128.69725530369291
 30
0.0
 11
-80.899352029521211
 21
142.23718863702621
 31
0.0
 11
-79.641187588116352
 21
138.94879648416915
 31
0.0
 11
-80.899352029521182
 21
135.51038863702624
 31
0.0
 11
-81.961337904806101
 21
132.10236053217187
 31
0.0
 11
-79.604352029521209
 21
128.69725530369291
 31
0.0
  0
SPLINE
  5
2B2
102
{ACAD_REACTORS
330
428
102
}
100
AcDbEntity
  8
1
  6
CONTINUOUS
 62
             3
100
AcDbSpline
210
0.0
220
0.0
230
1.0
 70
             0
 71
             3
 72
             8
 73
             4
 74
             3
 42
0.00000000001
 43
0.00000000001
 44
0.00000000001
 40
0.0
 40
0.0
 40
0.0
 40
0.0
 40
1.6078053361313609
 40
1.6078053361313609
 40
1.6078053361313609
 40
1.6078053361313609
 10
-41.041665985285363
 20
144.1100146542019
 30
0.0
 10
-41.331412050787563
 20
143.9761569640153
 30
0.0
 10
-41.486833921087822
 20
143.7409979413018
 30
0.0
 10
-41.539278854128057
 20
143.47863447357801
 30
0.0
 11
-41.041665985285363
 21
144.1100146542019
 31
0.0
 11
-41.37946034437995
 21
143.84251423046641
 31
0.0
 11
-41.539278854128057
 21
143.47863447357801
 31
0.0
  0
SPLINE
  5
2B1
102
{ACAD_REACTORS
330
428
102
}
100
AcDbEntity
  8
1
  6
CONTINUOUS
 62
             3
100
AcDbSpline
210
0.0
220
0.0
230
1.0
 70
             0
 71
             2
 72
             6
 73
             3
 74
             3
 42
0.00000000001
 43
0.00000000001
 44
0.00000000001
 40
0.0
 40
0.0
 40
0.0
 40
2.6139714743167231
 40
2.6139714743167231
 40
2.6139714743167231
 10
-41.041665985285363
 20
144.1100146542019
 30
0.0
 10
-40.381425693122992
 20
144.17684558671641
 30
0.0
 10
-39.301352029521198
 20
143.95058185911191
 30
0.0
 11
-41.041665985285363
 21
144.1100146542019
 31
0.0
 11
-40.276467350263133
 21
144.10357192168667
 31
0.0
 11
-39.301352029521198
 21
143.95058185911191
 31
0.0
  0
SPLINE
  5
2B0
102
{ACAD_REACTORS
330
429
102
}
100
AcDbEntity
  8
1
  6
CONTINUOUS
 62
             3
100
AcDbSpline
210
0.0
220
0.0
230
1.0
 70
             0
 71
             2
 72
             6
 73
             3
 74
             3
 42
0.00000000001
 43
0.00000000001
 44
0.00000000001
 40
0.0
 40
0.0
 40
0.0
 40
2.9937966449968738
 40
2.9937966449968738
 40
2.9937966449968738
 10
-41.246565401867663
 20
140.80235264365939
 30
0.0
 10
-40.498886464645373
 20
140.71582394234801
 30
0.0
 10
-39.301352029521198
 20
140.97674304617641
 30
0.0
 11
-41.246565401867663
 21
140.80235264365939
 31
0.0
 11
-40.3864225901699
 21
140.80268589363294
 31
0.0
 11
-39.301352029521198
 21
140.97674304617641
 31
0.0
  0
SPLINE
  5
2AF
100
AcDbEntity
  8
1
  6
CONTINUOUS
 62
             3
100
AcDbSpline
210
0.0
220
0.0
230
1.0
 70
             0
 71
             2
 72
             6
 73
             3
 74
             3
 42
0.00000000001
 43
0.00000000001
 44
0.00000000001
 40
0.0
 40
0.0
 40
0.0
 40
4.5568353675787154
 40
4.5568353675787154
 40
4.5568353675787154
 10
-41.55698818171021
 20
143.34661136359449
 30
0.0
 10
-40.422299076127253
 20
143.23764404402871
 30
0.0
 10
-39.301352029521198
 20
143.02911397149589
 30
0.0
 11
-41.55698818171021
 21
143.34661136359449
 31
0.0
 11
-40.425734590871478
 21
143.21275335578696
 31
0.0
 11
-39.301352029521198
 21
143.02911397149589
 31
0.0
  0
SPLINE
  5
2AE
100
AcDbEntity
  8
1
  6
CONTINUOUS
 62
             3
100
AcDbSpline
210
0.0
220
0.0
230
1.0
 70
             0
 71
             2
 72
             6
 73
             3
 74
             3
 42
0.00000000001
 43
0.00000000001
 44
0.00000000001
 40
0.3449455140461148
 40
0.3449455140461148
 40
0.3449455140461148
 40
4.5568353675787154
 40
4.5568353675787154
 40
4.5568353675787154
 10
-41.385278444601212
 20
141.69123375198691
 30
0.0
 10
-40.337445087773602
 20
141.7989186396911
 30
0.0
 10
-39.301352029521198
 20
141.9916633025565
 30
0.0
 11
-41.385278444601212
 21
141.69123375198691
 31
0.0
 11
-40.340380162417404
 21
141.82018358348142
 31
0.0
 11
-39.301352029521198
 21
141.9916633025565
 31
0.0
  0
SPLINE
  5
2AD
102
{ACAD_REACTORS
330
42A
102
}
100
AcDbEntity
  8
1
  6
CONTINUOUS
 62
             3
100
AcDbSpline
210
0.0
220
0.0
230
1.0
 70
             0
 71
             2
 72
             6
 73
             3
 74
             3
 42
0.00000000001
 43
0.00000000001
 44
0.00000000001
 40
0.0
 40
0.0
 40
0.0
 40
2.6139714743167231
 40
2.6139714743167231
 40
2.6139714743167231
 10
-41.041665985285363
 20
126.45002867604261
 30
0.0
 10
-40.381425693122992
 20
126.3831977435281
 30
0.0
 10
-39.301352029521198
 20
126.60946147113251
 30
0.0
 11
-41.041665985285363
 21
126.45002867604261
 31
0.0
 11
-40.276467350263133
 21
126.45647140855783
 31
0.0
 11
-39.301352029521198
 21
126.60946147113251
 31
0.0
  0
SPLINE
  5
2AC
102
{ACAD_REACTORS
330
427
102
}
100
AcDbEntity
  8
1
  6
CONTINUOUS
 62
             3
100
AcDbSpline
210
0.0
220
0.0
230
1.0
 70
             0
 71
             3
 72
            11
 73
             7
 74
            77
 42
0.00000000001
 43
0.00000000001
 44
0.00000000001
 40
0.0
 40
0.0
 40
0.0
 40
0.0
 40
2.2277820940005109
 40
2.2277820940005109
 40
2.2277820940005109
 40
2.2287363878592221
 40
2.2287363878592221
 40
2.2287363878592221
 40
2.2287363878592221
 10
-41.002741890034073
 20
129.7762163192422
 30
0.0
 10
-41.626113732973003
 20
129.79610814461901
 30
0.0
 10
-41.632295036983123
 20
129.40749385726301
 30
0.0
 10
-41.532475469677017
 20
129.01840054662119
 30
0.0
 10
-41.53243271091695
 20
129.0182338744149
 30
0.0
 10
-41.532389932706479
 20
129.0180672021207
 30
0.0
 10
-41.532347135085679
 20
129.01790052977009
 30
0.0
 11
-41.002741890034073
 21
129.7762163192422
 31
0.0
 11
-41.027676858164853
 21
129.77679995342319
 31
0.0
 11
-41.051943145612157
 21
129.77694203292938
 31
0.0
 11
-41.075548321369951
 21
129.7766485992652
 31
0.0
 11
-41.098499954432164
 21
129.77592569393488
 31
0.0
 11
-41.12080561379279
 21
129.77477935844263
 31
0.0
 11
-41.142472868445751
 21
129.77321563429288
 31
0.0
 11
-41.16350928738499
 21
129.77124056298985
 31
0.0
 11
-41.183922439604487
 21
129.76886018603787
 31
0.0
 11
-41.203719894098192
 21
129.76608054494122
 31
0.0
 11
-41.222909219860043
 21
129.76290768120415
 31
0.0
 11
-41.24149798588401
 21
129.75934763633106
 31
0.0
 11
-41.25949376116403
 21
129.75540645182616
 31
0.0
 11
-41.276904114694069
 21
129.75109016919376
 31
0.0
 11
-41.293736615468077
 21
129.7464048299382
 31
0.0
 11
-41.309998832480012
 21
129.74135647556372
 31
0.0
 11
-41.325698334723803
 21
129.73595114757464
 31
0.0
 11
-41.340842691193423
 21
129.73019488747528
 31
0.0
 11
-41.355439470882828
 21
129.72409373676987
 31
0.0
 11
-41.369496242785978
 21
129.71765373696275
 31
0.0
 11
-41.383020575896794
 21
129.71088092955821
 31
0.0
 11
-41.396020039209276
 21
129.7037813560606
 31
0.0
 11
-41.408502201717319
 21
129.69636105797412
 31
0.0
 11
-41.420474632414923
 21
129.6886260768031
 31
0.0
 11
-41.431944900296024
 21
129.68058245405186
 31
0.0
 11
-41.442920574354581
 21
129.6722362312247
 31
0.0
 11
-41.453409223584529
 21
129.66359344982584
 31
0.0
 11
-41.463418416979856
 21
129.65466015135965
 31
0.0
 11
-41.472955723534483
 21
129.64544237733043
 31
0.0
 11
-41.482028712242375
 21
129.63594616924243
 31
0.0
 11
-41.490644952097497
 21
129.62617756859999
 31
0.0
 11
-41.498812012093772
 21
129.61614261690738
 31
0.0
 11
-41.506537461225179
 21
129.60584735566889
 31
0.0
 11
-41.51382886848566
 21
129.59529782638882
 31
0.0
 11
-41.520693802869175
 21
129.58450007057147
 31
0.0
 11
-41.527139833369681
 21
129.5734601297211
 31
0.0
 11
-41.533174528981107
 21
129.56218404534209
 31
0.0
 11
-41.538805458697432
 21
129.55067785893868
 31
0.0
 11
-41.544040191512615
 21
129.53894761201519
 31
0.0
 11
-41.548886296420562
 21
129.52699934607585
 31
0.0
 11
-41.55335134241529
 21
129.51483910262505
 31
0.0
 11
-41.557442898490692
 21
129.50247292316698
 31
0.0
 11
-41.561168533640767
 21
129.48990684920605
 31
0.0
 11
-41.564535816859447
 21
129.4771469222465
 31
0.0
 11
-41.567552317140695
 21
129.46419918379257
 31
0.0
 11
-41.570225603478455
 21
129.45106967534866
 31
0.0
 11
-41.572563244866672
 21
129.43776443841901
 31
0.0
 11
-41.574572810299316
 21
129.42428951450788
 31
0.0
 11
-41.576261868770352
 21
129.4106509451197
 31
0.0
 11
-41.577637989273697
 21
129.3968547717586
 31
0.0
 11
-41.578708740803322
 21
129.38290703592895
 31
0.0
 11
-41.579481692353198
 21
129.36881377913505
 31
0.0
 11
-41.579964412917242
 21
129.35458104288122
 31
0.0
 11
-41.580164471489439
 21
129.34021486867172
 31
0.0
 11
-41.58008943706372
 21
129.32572129801082
 31
0.0
 11
-41.579746878634054
 21
129.31110637240289
 31
0.0
 11
-41.579144365194395
 21
129.29637613335217
 31
0.0
 11
-41.578289465738678
 21
129.28153662236292
 31
0.0
 11
-41.577189749260882
 21
129.26659388093958
 31
0.0
 11
-41.575852784754943
 21
129.2515539505863
 31
0.0
 11
-41.574286141214799
 21
129.2364228728074
 31
0.0
 11
-41.572497387634428
 21
129.22120668910722
 31
0.0
 11
-41.570494093007774
 21
129.20591144099001
 31
0.0
 11
-41.568283826328809
 21
129.19054316996016
 31
0.0
 11
-41.565874156591448
 21
129.17510791752184
 31
0.0
 11
-41.563272652789678
 21
129.15961172517945
 31
0.0
 11
-41.560486883917449
 21
129.14406063443721
 31
0.0
 11
-41.557524418968676
 21
129.12846068679943
 31
0.0
 11
-41.554392826937359
 21
129.11281792377045
 31
0.0
 11
-41.551099676817429
 21
129.09713838685451
 31
0.0
 11
-41.54765253760285
 21
129.08142811755596
 31
0.0
 11
-41.544058978287552
 21
129.065693157379
 31
0.0
 11
-41.540326567865527
 21
129.04993954782807
 31
0.0
 11
-41.536462875330685
 21
129.03417333040736
 31
0.0
 11
-41.532475469677017
 21
129.01840054662119
 31
0.0
 11
-41.532411316954125
 21
129.01815053824976
 31
0.0
 11
-41.532347135085679
 21
129.01790052977009
 31
0.0
  0
SPLINE
  5
2AB
100
AcDbEntity
  8
1
  6
CONTINUOUS
 62
             3
100
AcDbSpline
210
0.0
220
0.0
230
1.0
 70
             0
 71
             3
 72
            11
 73
             7
 74
             9
 42
0.00000000001
 43
0.00000000001
 44
0.00000000001
 40
1.6078053361313609
 40
1.6078053361313609
 40
1.6078053361313609
 40
1.6078053361313609
 40
3.201661595510509
 40
3.790736054975369
 40
4.9922882313329993
 40
5.6077665393211946
 40
5.6077665393211946
 40
5.6077665393211946
 40
5.6077665393211946
 10
-41.539278854128057
 20
143.47863447357801
 30
0.0
 10
-41.591268782834391
 20
143.2185472317536
 30
0.0
 10
-41.523874052565247
 20
142.82571890934079
 30
0.0
 10
-41.213886817675082
 20
142.34884807698171
 30
0.0
 10
-41.247891516820907
 20
141.9076048809271
 30
0.0
 10
-41.418945325066382
 20
141.63549823509231
 30
0.0
 10
-41.460154830078871
 20
141.54214280047441
 30
0.0
 11
-41.539278854128057
 21
143.47863447357801
 31
0.0
 11
-41.545182652459943
 21
143.07747590015691
 31
0.0
 11
-41.422193473223899
 21
142.69035441073896
 31
0.0
 11
-41.352269282501631
 21
142.55939271422719
 31
0.0
 11
-41.290472419706703
 21
142.42691230370446
 31
0.0
 11
-41.24930396463737
 21
142.12970588768314
 31
0.0
 11
-41.319743764932753
 21
141.82684972657091
 31
0.0
 11
-41.38996857831836
 21
141.68231150008955
 31
0.0
 11
-41.460154830078871
 21
141.54214280047441
 31
0.0
  0
SPLINE
  5
2AA
102
{ACAD_REACTORS
330
429
102
}
100
AcDbEntity
  8
1
  6
CONTINUOUS
 62
             3
100
AcDbSpline
210
0.0
220
0.0
230
1.0
 70
             0
 71
             3
 72
             9
 73
             5
 74
             5
 42
0.00000000001
 43
0.00000000001
 44
0.00000000001
 40
5.6077665393211946
 40
5.6077665393211946
 40
5.6077665393211946
 40
5.6077665393211946
 40
6.0033155801482314
 40
7.2576571243182064
 40
7.2576571243182064
 40
7.2576571243182064
 40
7.2576571243182064
 10
-41.460154830078871
 20
141.54214280047441
 30
0.0
 10
-41.486638915657977
 20
141.4821461244903
 30
0.0
 10
-41.568283680562892
 20
141.229849357794
 30
0.0
 10
-41.375401309477702
 20
140.93117953602629
 30
0.0
 10
-41.246565401867663
 20
140.80235264365939
 30
0.0
 11
-41.460154830078871
 21
141.54214280047441
 31
0.0
 11
-41.493589626867482
 21
141.45150861375603
 31
0.0
 11
-41.510007508902007
 21
141.35850820295391
 31
0.0
 11
-41.431112690462157
 21
141.05364198735867
 31
0.0
 11
-41.246565401867663
 21
140.80235264365939
 31
0.0
  0
SPLINE
  5
2A9
102
{ACAD_REACTORS
330
42A
102
}
100
AcDbEntity
  8
1
  6
CONTINUOUS
 62
             3
100
AcDbSpline
210
0.0
220
0.0
230
1.0
 70
             0
 71
             3
 72
             8
 73
             4
 74
             3
 42
0.00000000001
 43
0.00000000001
 44
0.00000000001
 40
6.1886074041704227
 40
6.1886074041704227
 40
6.1886074041704227
 40
6.1886074041704227
 40
7.7797929553850276
 40
7.7797929553850276
 40
7.7797929553850276
 40
7.7797929553850276
 10
-41.530880288989728
 20
127.0814088566663
 30
0.0
 10
-41.423566628835999
 20
126.82961721801961
 30
0.0
 10
-41.193061166315459
 20
126.5983512079499
 30
0.0
 10
-41.041665985285363
 20
126.45002867604261
 30
0.0
 11
-41.530880288989728
 21
127.0814088566663
 31
0.0
 11
-41.302803707466182
 21
126.72691785132719
 31
0.0
 11
-41.041665985285363
 21
126.45002867604261
 31
0.0
  0
SPLINE
  5
2A8
100
AcDbEntity
  8
1
  6
CONTINUOUS
 62
             3
100
AcDbSpline
210
0.0
220
0.0
230
1.0
 70
             0
 71
             3
 72
            12
 73
             8
 74
            11
 42
0.00000000001
 43
0.00000000001
 44
0.00000000001
 40
2.2287363878592221
 40
2.2287363878592221
 40
2.2287363878592221
 40
2.2287363878592221
 40
2.5996110252689451
 40
3.585591881546923
 40
4.9929800965317304
 40
5.6232796903007767
 40
6.1886074041704227
 40
6.1886074041704227
 40
6.1886074041704227
 40
6.1886074041704227
 10
-41.532347135085679
 20
129.01790052977009
 30
0.0
 10
-41.515714363215807
 20
128.95312535928781
 30
0.0
 10
-41.444137165207927
 20
128.71611269262661
 30
0.0
 10
-41.282688227262007
 20
128.2843648211871
 30
0.0
 10
-41.480927993350349
 20
127.7873506371585
 30
0.0
 10
-41.616755731672093
 20
127.3655447022697
 30
0.0
 10
-41.569007449028078
 20
127.170867179952
 30
0.0
 10
-41.530880288989728
 20
127.0814088566663
 30
0.0
 11
-41.532347135085679
 21
129.01790052977009
 31
0.0
 11
-41.505494017767106
 21
128.92096677198114
 31
0.0
 11
-41.476012257118896
 21
128.82543229753497
 31
0.0
 11
-41.399470070344741
 21
128.58242561186205
 31
0.0
 11
-41.357655707353196
 21
128.34686016152591
 31
0.0
 11
-41.404666352560064
 21
128.00606163470366
 31
0.0
 11
-41.518868220320201
 21
127.6618813862471
 31
0.0
 11
-41.566659472516122
 21
127.50824617154619
 31
0.0
 11
-41.589537916043355
 21
127.35475732567427
 31
0.0
 11
-41.575274158909117
 21
127.21718962703537
 31
0.0
 11
-41.530880288989728
 21
127.0814088566663
 31
0.0
  0
SPLINE
  5
2A7
102
{ACAD_REACTORS
330
427
102
}
100
AcDbEntity
  8
1
  6
CONTINUOUS
 62
             3
100
AcDbSpline
210
0.0
220
0.0
230
1.0
 70
             0
 71
             2
 72
             6
 73
             3
 74
             3
 42
0.00000000001
 43
0.00000000001
 44
0.00000000001
 40
0.466300119271939
 40
0.466300119271939
 40
0.466300119271939
 40
2.9937966449968738
 40
2.9937966449968738
 40
2.9937966449968738
 10
-41.002741890034073
 20
129.7762163192422
 30
0.0
 10
-40.312363959563449
 20
129.8035798175907
 30
0.0
 10
-39.301352029521198
 20
129.583300284068
 30
0.0
 11
-41.002741890034073
 21
129.7762163192422
 31
0.0
 11
-40.232205459670539
 21
129.74166905962289
 31
0.0
 11
-39.301352029521198
 21
129.583300284068
 31
0.0
  0
CIRCLE
  5
2A6
100
AcDbEntity
  8
1
  6
CONTINUOUS
 62
             3
100
AcDbCircle
 10
6.14250848129931
 20
136.01038863702621
 40
1.5
  0
CIRCLE
  5
2A5
100
AcDbEntity
  8
1
  6
CONTINUOUS
 62
             3
100
AcDbCircle
 10
6.14250848129931
 20
142.51038863702621
 40
1.5
  0
CIRCLE
  5
2A4
100
AcDbEntity
  8
1
  6
CONTINUOUS
 62
             3
100
AcDbCircle
 10
6.14250848129931
 20
128.01038863702621
 40
1.5
  0
ARC
  5
2A3
100
AcDbEntity
  8
1
  6
CONTINUOUS
 62
             3
100
AcDbCircle
 10
82.5653160694977
 20
91.72562003630711
 40
0.75
100
AcDbArc
 50
0.0
 51
31.74147711957886
  0
ARC
  5
2A2
100
AcDbEntity
  8
1
  6
CONTINUOUS
 62
             3
100
AcDbCircle
 10
82.5653160694977
 20
82.22562003630708
 40
0.74999999999999
100
AcDbArc
 50
-31.74147711957886
 51
0.0
  0
ARC
  5
2A1
100
AcDbEntity
  8
1
  6
CONTINUOUS
 62
             3
100
AcDbCircle
 10
6.14250848129931
 20
136.01038863702621
 40
1.0
100
AcDbArc
 50
-165.52248781407013
 51
-14.47751218592986
  0
ARC
  5
2A0
100
AcDbEntity
  8
1
  6
CONTINUOUS
 62
             3
100
AcDbCircle
 10
6.14250848129931
 20
136.01038863702621
 40
1.0
100
AcDbArc
 50
14.47751218592986
 51
165.52248781407013
  0
ARC
  5
29F
100
AcDbEntity
  8
1
  6
CONTINUOUS
 62
             3
100
AcDbCircle
 10
6.14250848129931
 20
142.51038863702621
 40
0.99999999999995
100
AcDbArc
 50
-75.52248781406932
 51
75.52248781406932
  0
ARC
  5
29E
100
AcDbEntity
  8
1
  6
CONTINUOUS
 62
             3
100
AcDbCircle
 10
6.14250848129931
 20
142.51038863702621
 40
0.99999999999995
100
AcDbArc
 50
104.47751218593068
 51
-104.47751218593068
  0
ARC
  5
29D
100
AcDbEntity
  8
1
  6
CONTINUOUS
 62
             3
100
AcDbCircle
 10
6.14250848129931
 20
128.01038863702621
 40
1.0
100
AcDbArc
 50
14.47751218592986
 51
165.52248781407013
  0
ARC
  5
29C
100
AcDbEntity
  8
1
  6
CONTINUOUS
 62
             3
100
AcDbCircle
 10
6.14250848129931
 20
128.01038863702621
 40
1.00000000000001
100
AcDbArc
 50
-165.52248781406936
 51
-14.47751218593065
  0
LINE
  5
29B
100
AcDbEntity
  8
1
  6
CONTINUOUS
 62
             3
100
AcDbLine
 10
127.3153160694977
 20
134.3606791021576
 11
131.7316491687487
 21
134.3606791021576
  0
LINE
  5
29A
100
AcDbEntity
  8
1
  6
CONTINUOUS
 62
             3
100
AcDbLine
 10
99.8153160694977
 20
134.3606791021576
 11
127.3153160694977
 21
134.3606791021576
  0
LINE
  5
299
100
AcDbEntity
  8
1
  6
CONTINUOUS
 62
             3
100
AcDbLine
 10
127.3686261921313
 20
134.3463946978496
 11
132.50332343437421
 21
132.9705567184123
  0
LINE
  5
298
100
AcDbEntity
  8
1
  6
CONTINUOUS
 62
             2
100
AcDbLine
 10
127.3686261921313
 20
134.3463946978496
 11
126.7034612462178
 21
131.8639653242866
  0
LINE
  5
297
100
AcDbEntity
  8
1
  6
CONTINUOUS
 62
             3
100
AcDbLine
 10
-64.15135202952118
 20
122.7603886370262
 11
-64.15135202952118
 21
123.0103886370262
  0
LINE
  5
296
100
AcDbEntity
  8
1
  6
CONTINUOUS
 62
             3
100
AcDbLine
 10
-63.00135202952118
 20
123.0103886370262
 11
-63.00135202952118
 21
122.7603886370262
  0
LINE
  5
295
100
AcDbEntity
  8
1
  6
CONTINUOUS
 62
             3
100
AcDbLine
 10
-61.85135202952119
 20
122.7603886370262
 11
-61.85135202952119
 21
123.0103886370262
  0
LINE
  5
294
100
AcDbEntity
  8
1
  6
CONTINUOUS
 62
             3
100
AcDbLine
 10
-60.70135202952118
 20
123.0103886370262
 11
-60.70135202952118
 21
122.7603886370262
  0
LINE
  5
293
100
AcDbEntity
  8
1
  6
CONTINUOUS
 62
             3
100
AcDbLine
 10
-59.55135202952119
 20
122.7603886370262
 11
-59.55135202952119
 21
123.0103886370262
  0
LINE
  5
292
100
AcDbEntity
  8
1
  6
CONTINUOUS
 62
             3
100
AcDbLine
 10
-58.40135202952119
 20
123.0103886370262
 11
-58.40135202952119
 21
122.7603886370262
  0
LINE
  5
291
100
AcDbEntity
  8
1
  6
CONTINUOUS
 62
             3
100
AcDbLine
 10
-63.50135202952118
 20
122.2603886370262
 11
-63.65135202952119
 21
122.2603886370262
  0
LINE
  5
290
100
AcDbEntity
  8
1
  6
CONTINUOUS
 62
             3
100
AcDbLine
 10
-61.20135202952118
 20
122.2603886370262
 11
-61.35135202952119
 21
122.2603886370262
  0
LINE
  5
28F
100
AcDbEntity
  8
1
  6
CONTINUOUS
 62
             3
100
AcDbLine
 10
-58.90135202952119
 20
122.2603886370262
 11
-59.05135202952119
 21
122.2603886370262
  0
LINE
  5
28E
100
AcDbEntity
  8
1
  6
CONTINUOUS
 62
             3
100
AcDbLine
 10
-63.00135202952118
 20
148.01038863702621
 11
-64.15135202952118
 21
148.01038863702621
  0
LINE
  5
28D
100
AcDbEntity
  8
1
  6
CONTINUOUS
 62
             3
100
AcDbLine
 10
-64.15135202952118
 20
148.01038863702621
 11
-64.15135202952118
 21
148.26038863702621
  0
LINE
  5
28C
100
AcDbEntity
  8
1
  6
CONTINUOUS
 62
             3
100
AcDbLine
 10
-63.65135202952119
 20
148.76038863702621
 11
-63.50135202952118
 21
148.76038863702621
  0
LINE
  5
28B
100
AcDbEntity
  8
1
  6
CONTINUOUS
 62
             3
100
AcDbLine
 10
-61.85135202952119
 20
148.01038863702621
 11
-63.00135202952118
 21
148.01038863702621
  0
LINE
  5
28A
100
AcDbEntity
  8
1
  6
CONTINUOUS
 62
             3
100
AcDbLine
 10
-63.00135202952118
 20
148.26038863702621
 11
-63.00135202952118
 21
148.01038863702621
  0
LINE
  5
289
100
AcDbEntity
  8
1
  6
CONTINUOUS
 62
             3
100
AcDbLine
 10
-60.70135202952118
 20
148.01038863702621
 11
-61.85135202952119
 21
148.01038863702621
  0
LINE
  5
288
100
AcDbEntity
  8
1
  6
CONTINUOUS
 62
             3
100
AcDbLine
 10
-61.85135202952119
 20
148.01038863702621
 11
-61.85135202952119
 21
148.26038863702621
  0
LINE
  5
287
100
AcDbEntity
  8
1
  6
CONTINUOUS
 62
             3
100
AcDbLine
 10
-61.35135202952119
 20
148.76038863702621
 11
-61.20135202952118
 21
148.76038863702621
  0
LINE
  5
286
100
AcDbEntity
  8
1
  6
CONTINUOUS
 62
             3
100
AcDbLine
 10
-59.55135202952119
 20
148.01038863702621
 11
-60.70135202952118
 21
148.01038863702621
  0
LINE
  5
285
100
AcDbEntity
  8
1
  6
CONTINUOUS
 62
             3
100
AcDbLine
 10
-60.70135202952118
 20
148.26038863702621
 11
-60.70135202952118
 21
148.01038863702621
  0
LINE
  5
284
100
AcDbEntity
  8
1
  6
CONTINUOUS
 62
             3
100
AcDbLine
 10
-58.40135202952119
 20
148.01038863702621
 11
-59.55135202952119
 21
148.01038863702621
  0
LINE
  5
283
100
AcDbEntity
  8
1
  6
CONTINUOUS
 62
             3
100
AcDbLine
 10
-59.55135202952119
 20
148.01038863702621
 11
-59.55135202952119
 21
148.26038863702621
  0
LINE
  5
282
100
AcDbEntity
  8
1
  6
CONTINUOUS
 62
             3
100
AcDbLine
 10
-59.05135202952119
 20
148.76038863702621
 11
-58.90135202952119
 21
148.76038863702621
  0
LINE
  5
281
100
AcDbEntity
  8
1
  6
CONTINUOUS
 62
             3
100
AcDbLine
 10
-58.40135202952119
 20
148.26038863702621
 11
-58.40135202952119
 21
148.01038863702621
  0
LINE
  5
280
100
AcDbEntity
  8
1
  6
CONTINUOUS
 62
             2
100
AcDbLine
 10
91.95789708085991
 20
93.73523897954053
 11
91.95789708085991
 21
93.83804588284542
  0
LINE
  5
27F
100
AcDbEntity
  8
1
  6
CONTINUOUS
 62
             2
100
AcDbLine
 10
91.95789708085991
 20
93.73523897954053
 11
91.95789708085991
 21
96.58120713800216
  0
LINE
  5
27E
100
AcDbEntity
  8
1
  6
CONTINUOUS
 62
             2
100
AcDbLine
 10
83.3153160694977
 20
82.22562003630708
 11
91.95789708085991
 21
84.33685385644174
  0
LINE
  5
27D
100
AcDbEntity
  8
1
  6
CONTINUOUS
 62
             2
100
AcDbLine
 10
83.3153160694977
 20
91.72562003630711
 11
91.95789708085991
 21
93.73523897954053
  0
LINE
  5
27C
100
AcDbEntity
  8
1
  6
CONTINUOUS
 62
             3
100
AcDbLine
 10
84.8153160694977
 20
128.01038863702621
 11
84.8153160694977
 21
127.0748355451347
  0
LINE
  5
27B
100
AcDbEntity
  8
1
  6
CONTINUOUS
 62
             3
100
AcDbLine
 10
94.26131606949771
 20
142.38065530369289
 11
94.26131606949771
 21
137.54458863702629
  0
LINE
  5
27A
100
AcDbEntity
  8
1
  6
CONTINUOUS
 62
             3
100
AcDbLine
 10
84.8153160694977
 20
135.51038863702621
 11
84.8153160694977
 21
128.01038863702621
  0
LINE
  5
279
100
AcDbEntity
  8
1
  6
CONTINUOUS
 62
             3
100
AcDbLine
 10
84.8153160694977
 20
143.01038863702621
 11
84.8153160694977
 21
135.51038863702621
  0
LINE
  5
278
100
AcDbEntity
  8
1
  6
DASH_CENTER
 62
             2
100
AcDbLine
 10
4.36844950783164
 20
136.01038863702621
 11
7.93980705897315
 21
136.01038863702621
  0
LINE
  5
277
100
AcDbEntity
  8
1
  6
DASH_CENTER
 62
             2
100
AcDbLine
 10
6.14250848129931
 20
140.73632966355851
 11
6.14250848129931
 21
144.30768721470011
  0
LINE
  5
276
100
AcDbEntity
  8
1
  6
CONTINUOUS
 62
             3
100
AcDbLine
 10
98.3153160694977
 20
85.69062003630711
 11
98.3153160694977
 21
83.97562003630708
  0
LINE
  5
275
100
AcDbEntity
  8
1
  6
CONTINUOUS
 62
             3
100
AcDbLine
 10
105.3153160694977
 20
85.69062003630711
 11
98.3153160694977
 21
85.69062003630711
  0
LINE
  5
274
100
AcDbEntity
  8
1
  6
CONTINUOUS
 62
             3
100
AcDbLine
 10
98.3153160694977
 20
88.26062003630713
 11
98.3153160694977
 21
86.97562003630711
  0
LINE
  5
273
100
AcDbEntity
  8
1
  6
CONTINUOUS
 62
             3
100
AcDbLine
 10
98.3153160694977
 20
88.26062003630713
 11
105.3153160694977
 21
88.26062003630713
  0
LINE
  5
272
100
AcDbEntity
  8
1
  6
DASH_CENTER
 62
             2
100
AcDbLine
 10
52.9318140516808
 20
86.97562003630711
 11
107.2034480710217
 21
86.97562003630711
  0
LINE
  5
271
100
AcDbEntity
  8
1
  6
CONTINUOUS
 62
             3
100
AcDbLine
 10
84.8153160694977
 20
143.94594172891769
 11
84.8153160694977
 21
143.01038863702621
  0
LINE
  5
270
100
AcDbEntity
  8
1
  6
CONTINUOUS
 62
             3
100
AcDbLine
 10
86.3153160694977
 20
82.57562003630707
 11
86.3153160694977
 21
85.47562003630708
  0
LINE
  5
26F
100
AcDbEntity
  8
1
  6
CONTINUOUS
 62
             3
100
AcDbLine
 10
87.1723160694977
 20
85.97562003630711
 11
87.1723160694977
 21
85.47562003630708
  0
LINE
  5
26E
100
AcDbEntity
  8
1
  6
CONTINUOUS
 62
             3
100
AcDbLine
 10
86.3153160694977
 20
85.47562003630708
 11
87.1723160694977
 21
85.47562003630708
  0
LINE
  5
26D
100
AcDbEntity
  8
1
  6
CONTINUOUS
 62
             3
100
AcDbLine
 10
88.45731606949771
 20
82.82552003630707
 11
88.45731606949771
 21
85.47562003630708
  0
LINE
  5
26C
100
AcDbEntity
  8
1
  6
CONTINUOUS
 62
             3
100
AcDbLine
 10
89.31431606949771
 20
85.97562003630711
 11
89.31431606949771
 21
85.47562003630708
  0
LINE
  5
26B
100
AcDbEntity
  8
1
  6
CONTINUOUS
 62
             3
100
AcDbLine
 10
88.45731606949771
 20
85.47562003630708
 11
89.31431606949771
 21
85.47562003630708
  0
LINE
  5
26A
100
AcDbEntity
  8
1
  6
CONTINUOUS
 62
             3
100
AcDbLine
 10
90.60931606949769
 20
83.07658670297377
 11
90.60931606949769
 21
85.47562003630708
  0
LINE
  5
269
100
AcDbEntity
  8
1
  6
CONTINUOUS
 62
             3
100
AcDbLine
 10
91.46631606949771
 20
85.97562003630711
 11
91.46631606949771
 21
85.47562003630708
  0
LINE
  5
268
100
AcDbEntity
  8
1
  6
CONTINUOUS
 62
             3
100
AcDbLine
 10
90.60931606949769
 20
85.47562003630708
 11
91.46631606949771
 21
85.47562003630708
  0
LINE
  5
267
100
AcDbEntity
  8
1
  6
CONTINUOUS
 62
             3
100
AcDbLine
 10
92.7613160694977
 20
83.32765336964042
 11
92.7613160694977
 21
85.47562003630708
  0
LINE
  5
266
100
AcDbEntity
  8
1
  6
CONTINUOUS
 62
             3
100
AcDbLine
 10
93.6183160694977
 20
85.97562003630711
 11
93.6183160694977
 21
85.47562003630708
  0
LINE
  5
265
100
AcDbEntity
  8
1
  6
CONTINUOUS
 62
             3
100
AcDbLine
 10
92.7613160694977
 20
85.47562003630708
 11
93.6183160694977
 21
85.47562003630708
  0
LINE
  5
264
100
AcDbEntity
  8
1
  6
CONTINUOUS
 62
             3
100
AcDbLine
 10
94.91331606949771
 20
83.57872003630706
 11
94.91331606949771
 21
85.47562003630708
  0
LINE
  5
263
100
AcDbEntity
  8
1
  6
CONTINUOUS
 62
             3
100
AcDbLine
 10
95.77031606949771
 20
85.97562003630711
 11
95.77031606949771
 21
85.47562003630708
  0
LINE
  5
262
100
AcDbEntity
  8
1
  6
CONTINUOUS
 62
             3
100
AcDbLine
 10
94.91331606949771
 20
85.47562003630708
 11
95.77031606949771
 21
85.47562003630708
  0
LINE
  5
261
100
AcDbEntity
  8
1
  6
CONTINUOUS
 62
             3
100
AcDbLine
 10
95.77031606949771
 20
85.97562003630711
 11
94.91331606949771
 21
85.97562003630711
  0
LINE
  5
260
100
AcDbEntity
  8
1
  6
CONTINUOUS
 62
             3
100
AcDbLine
 10
93.6183160694977
 20
85.97562003630711
 11
92.7613160694977
 21
85.97562003630711
  0
LINE
  5
25F
100
AcDbEntity
  8
1
  6
CONTINUOUS
 62
             3
100
AcDbLine
 10
91.46631606949771
 20
85.97562003630711
 11
90.60931606949769
 21
85.97562003630711
  0
LINE
  5
25E
100
AcDbEntity
  8
1
  6
CONTINUOUS
 62
             3
100
AcDbLine
 10
89.31431606949771
 20
85.97562003630711
 11
88.45731606949771
 21
85.97562003630711
  0
LINE
  5
25D
100
AcDbEntity
  8
1
  6
CONTINUOUS
 62
             3
100
AcDbLine
 10
87.1723160694977
 20
85.97562003630711
 11
86.3153160694977
 21
85.97562003630711
  0
LINE
  5
25C
100
AcDbEntity
  8
1
  6
CONTINUOUS
 62
             3
100
AcDbLine
 10
86.3153160694977
 20
85.47562003630708
 11
86.3153160694977
 21
85.97562003630711
  0
LINE
  5
25B
100
AcDbEntity
  8
1
  6
CONTINUOUS
 62
             3
100
AcDbLine
 10
88.45731606949771
 20
82.82552003630707
 11
87.1723160694977
 21
82.67560336964041
  0
LINE
  5
25A
100
AcDbEntity
  8
1
  6
CONTINUOUS
 62
             3
100
AcDbLine
 10
87.1723160694977
 20
85.47562003630708
 11
87.1723160694977
 21
82.67560336964041
  0
LINE
  5
259
100
AcDbEntity
  8
1
  6
CONTINUOUS
 62
             3
100
AcDbLine
 10
88.45731606949771
 20
85.47562003630708
 11
88.45731606949771
 21
85.97562003630711
  0
LINE
  5
258
100
AcDbEntity
  8
1
  6
CONTINUOUS
 62
             3
100
AcDbLine
 10
90.60931606949769
 20
83.07658670297377
 11
89.31431606949771
 21
82.92550336964041
  0
LINE
  5
257
100
AcDbEntity
  8
1
  6
CONTINUOUS
 62
             3
100
AcDbLine
 10
89.31431606949771
 20
85.47562003630708
 11
89.31431606949771
 21
82.92550336964041
  0
LINE
  5
256
100
AcDbEntity
  8
1
  6
CONTINUOUS
 62
             3
100
AcDbLine
 10
90.60931606949769
 20
85.47562003630708
 11
90.60931606949769
 21
85.97562003630711
  0
LINE
  5
255
100
AcDbEntity
  8
1
  6
CONTINUOUS
 62
             3
100
AcDbLine
 10
92.7613160694977
 20
83.32765336964042
 11
91.46631606949771
 21
83.17657003630708
  0
LINE
  5
254
100
AcDbEntity
  8
1
  6
CONTINUOUS
 62
             3
100
AcDbLine
 10
91.46631606949771
 20
85.47562003630708
 11
91.46631606949771
 21
83.17657003630708
  0
LINE
  5
253
100
AcDbEntity
  8
1
  6
CONTINUOUS
 62
             3
100
AcDbLine
 10
92.7613160694977
 20
85.47562003630708
 11
92.7613160694977
 21
85.97562003630711
  0
LINE
  5
252
100
AcDbEntity
  8
1
  6
CONTINUOUS
 62
             3
100
AcDbLine
 10
94.91331606949771
 20
83.57872003630706
 11
93.6183160694977
 21
83.42763670297376
  0
LINE
  5
251
100
AcDbEntity
  8
1
  6
CONTINUOUS
 62
             3
100
AcDbLine
 10
93.6183160694977
 20
85.47562003630708
 11
93.6183160694977
 21
83.42763670297376
  0
LINE
  5
250
100
AcDbEntity
  8
1
  6
CONTINUOUS
 62
             3
100
AcDbLine
 10
94.91331606949771
 20
85.47562003630708
 11
94.91331606949771
 21
85.97562003630711
  0
LINE
  5
24F
100
AcDbEntity
  8
1
  6
CONTINUOUS
 62
             3
100
AcDbLine
 10
98.3153160694977
 20
83.97562003630708
 11
95.77031606949771
 21
83.67870336964043
  0
LINE
  5
24E
100
AcDbEntity
  8
1
  6
CONTINUOUS
 62
             3
100
AcDbLine
 10
95.77031606949771
 20
85.47562003630708
 11
95.77031606949771
 21
83.67870336964043
  0
LINE
  5
24D
100
AcDbEntity
  8
1
  6
CONTINUOUS
 62
             3
100
AcDbLine
 10
86.3153160694977
 20
84.47562003630708
 11
87.1723160694977
 21
84.47562003630708
  0
LINE
  5
24C
100
AcDbEntity
  8
1
  6
CONTINUOUS
 62
             3
100
AcDbLine
 10
88.45731606949771
 20
84.47562003630708
 11
89.31431606949771
 21
84.47562003630708
  0
LINE
  5
24B
100
AcDbEntity
  8
1
  6
CONTINUOUS
 62
             3
100
AcDbLine
 10
90.60931606949769
 20
84.47562003630708
 11
91.46631606949771
 21
84.47562003630708
  0
LINE
  5
24A
100
AcDbEntity
  8
1
  6
CONTINUOUS
 62
             3
100
AcDbLine
 10
92.7613160694977
 20
84.47562003630708
 11
93.6183160694977
 21
84.47562003630708
  0
LINE
  5
249
100
AcDbEntity
  8
1
  6
CONTINUOUS
 62
             3
100
AcDbLine
 10
94.91331606949771
 20
84.47562003630708
 11
95.77031606949771
 21
84.47562003630708
  0
LINE
  5
248
100
AcDbEntity
  8
1
  6
CONTINUOUS
 62
             3
100
AcDbLine
 10
98.3153160694977
 20
86.97562003630711
 11
98.3153160694977
 21
85.69062003630711
  0
LINE
  5
247
100
AcDbEntity
  8
1
  6
CONTINUOUS
 62
             3
100
AcDbLine
 10
86.3153160694977
 20
82.57562003630707
 11
83.9376887294184
 21
82.29823017996446
  0
LINE
  5
246
100
AcDbEntity
  8
1
  6
CONTINUOUS
 62
             3
100
AcDbLine
 10
79.31531606949771
 20
82.22562003630708
 11
79.31531606949771
 21
86.97562003630711
  0
LINE
  5
245
100
AcDbEntity
  8
1
  6
CONTINUOUS
 62
             3
100
AcDbLine
 10
73.56531606949771
 20
86.97562003630711
 11
73.56531606949771
 21
84.47562003630711
  0
LINE
  5
244
100
AcDbEntity
  8
1
  6
CONTINUOUS
 62
             3
100
AcDbLine
 10
73.06531606949771
 20
83.97562003630708
 11
72.91531606949771
 21
83.97562003630708
  0
LINE
  5
243
100
AcDbEntity
  8
1
  6
CONTINUOUS
 62
             3
100
AcDbLine
 10
72.41531606949771
 20
84.47562003630711
 11
72.41531606949771
 21
86.97562003630711
  0
LINE
  5
242
100
AcDbEntity
  8
1
  6
CONTINUOUS
 62
             3
100
AcDbLine
 10
75.86531606949771
 20
86.97562003630711
 11
75.86531606949771
 21
84.47562003630711
  0
LINE
  5
241
100
AcDbEntity
  8
1
  6
CONTINUOUS
 62
             3
100
AcDbLine
 10
75.36531606949771
 20
83.97562003630708
 11
75.2153160694977
 21
83.97562003630708
  0
LINE
  5
240
100
AcDbEntity
  8
1
  6
CONTINUOUS
 62
             3
100
AcDbLine
 10
74.7153160694977
 20
84.47562003630711
 11
74.7153160694977
 21
86.97562003630711
  0
LINE
  5
23F
100
AcDbEntity
  8
1
  6
CONTINUOUS
 62
             3
100
AcDbLine
 10
78.16531606949771
 20
86.97562003630711
 11
78.16531606949771
 21
84.47562003630711
  0
LINE
  5
23E
100
AcDbEntity
  8
1
  6
CONTINUOUS
 62
             3
100
AcDbLine
 10
77.66531606949771
 20
83.97562003630708
 11
77.5153160694977
 21
83.97562003630708
  0
LINE
  5
23D
100
AcDbEntity
  8
1
  6
CONTINUOUS
 62
             3
100
AcDbLine
 10
77.0153160694977
 20
84.47562003630711
 11
77.0153160694977
 21
86.97562003630711
  0
LINE
  5
23C
100
AcDbEntity
  8
1
  6
CONTINUOUS
 62
             3
100
AcDbLine
 10
68.9653160694977
 20
82.97562003630708
 11
68.9653160694977
 21
82.72562003630708
  0
LINE
  5
23B
100
AcDbEntity
  8
1
  6
CONTINUOUS
 62
             3
100
AcDbLine
 10
67.8153160694977
 20
82.72562003630708
 11
67.8153160694977
 21
82.97562003630708
  0
LINE
  5
23A
100
AcDbEntity
  8
1
  6
CONTINUOUS
 62
             3
100
AcDbLine
 10
66.66531606949771
 20
82.97562003630708
 11
66.66531606949771
 21
82.72562003630708
  0
LINE
  5
239
100
AcDbEntity
  8
1
  6
CONTINUOUS
 62
             3
100
AcDbLine
 10
65.5153160694977
 20
82.72562003630708
 11
65.5153160694977
 21
82.97562003630708
  0
LINE
  5
238
100
AcDbEntity
  8
1
  6
CONTINUOUS
 62
             3
100
AcDbLine
 10
68.4653160694977
 20
82.22562003630708
 11
68.3153160694977
 21
82.22562003630708
  0
LINE
  5
237
100
AcDbEntity
  8
1
  6
CONTINUOUS
 62
             3
100
AcDbLine
 10
66.16531606949771
 20
82.22562003630708
 11
66.0153160694977
 21
82.22562003630708
  0
LINE
  5
236
100
AcDbEntity
  8
1
  6
CONTINUOUS
 62
             3
100
AcDbLine
 10
70.1153160694977
 20
82.72562003630708
 11
70.1153160694977
 21
82.97562003630708
  0
LINE
  5
235
100
AcDbEntity
  8
1
  6
CONTINUOUS
 62
             3
100
AcDbLine
 10
71.2653160694977
 20
82.97562003630708
 11
71.2653160694977
 21
82.72562003630708
  0
LINE
  5
234
100
AcDbEntity
  8
1
  6
CONTINUOUS
 62
             3
100
AcDbLine
 10
70.7653160694977
 20
82.22562003630708
 11
70.6153160694977
 21
82.22562003630708
  0
LINE
  5
233
100
AcDbEntity
  8
1
  6
CONTINUOUS
 62
             3
100
AcDbLine
 10
78.16531606949771
 20
82.97562003630708
 11
78.16531606949771
 21
82.72562003630708
  0
LINE
  5
232
100
AcDbEntity
  8
1
  6
CONTINUOUS
 62
             3
100
AcDbLine
 10
77.0153160694977
 20
82.72562003630708
 11
77.0153160694977
 21
82.97562003630708
  0
LINE
  5
231
100
AcDbEntity
  8
1
  6
CONTINUOUS
 62
             3
100
AcDbLine
 10
75.86531606949771
 20
82.97562003630708
 11
75.86531606949771
 21
82.72562003630708
  0
LINE
  5
230
100
AcDbEntity
  8
1
  6
CONTINUOUS
 62
             3
100
AcDbLine
 10
74.7153160694977
 20
82.72562003630708
 11
74.7153160694977
 21
82.97562003630708
  0
LINE
  5
22F
100
AcDbEntity
  8
1
  6
CONTINUOUS
 62
             3
100
AcDbLine
 10
73.56531606949771
 20
82.97562003630708
 11
73.56531606949771
 21
82.72562003630708
  0
LINE
  5
22E
100
AcDbEntity
  8
1
  6
CONTINUOUS
 62
             3
100
AcDbLine
 10
72.41531606949771
 20
82.72562003630708
 11
72.41531606949771
 21
82.97562003630708
  0
LINE
  5
22D
100
AcDbEntity
  8
1
  6
CONTINUOUS
 62
             3
100
AcDbLine
 10
77.66531606949771
 20
82.22562003630708
 11
77.5153160694977
 21
82.22562003630708
  0
LINE
  5
22C
100
AcDbEntity
  8
1
  6
CONTINUOUS
 62
             3
100
AcDbLine
 10
75.36531606949771
 20
82.22562003630708
 11
75.2153160694977
 21
82.22562003630708
  0
LINE
  5
22B
100
AcDbEntity
  8
1
  6
CONTINUOUS
 62
             3
100
AcDbLine
 10
73.06531606949771
 20
82.22562003630708
 11
72.91531606949771
 21
82.22562003630708
  0
LINE
  5
22A
100
AcDbEntity
  8
1
  6
CONTINUOUS
 62
             3
100
AcDbLine
 10
82.5653160694977
 20
81.47562003630708
 11
79.31531606949771
 21
81.47562003630708
  0
LINE
  5
229
100
AcDbEntity
  8
1
  6
CONTINUOUS
 62
             3
100
AcDbLine
 10
79.31531606949771
 20
81.47562003630708
 11
79.31531606949771
 21
82.22562003630708
  0
LINE
  5
228
100
AcDbEntity
  8
1
  6
CONTINUOUS
 62
             3
100
AcDbLine
 10
78.56531606949771
 20
82.97562003630708
 11
54.81531606949771
 21
82.97562003630708
  0
LINE
  5
227
100
AcDbEntity
  8
1
  6
CONTINUOUS
 62
             3
100
AcDbLine
 10
83.3153160694977
 20
86.97562003630711
 11
83.3153160694977
 21
82.22562003630708
  0
LINE
  5
226
100
AcDbEntity
  8
1
  6
CONTINUOUS
 62
             3
100
AcDbLine
 10
54.81531606949771
 20
82.97562003630708
 11
54.81531606949771
 21
86.97562003630711
  0
LINE
  5
225
100
AcDbEntity
  8
1
  6
CONTINUOUS
 62
             3
100
AcDbLine
 10
86.3153160694977
 20
88.47562003630711
 11
86.3153160694977
 21
91.37562003630711
  0
LINE
  5
224
100
AcDbEntity
  8
1
  6
CONTINUOUS
 62
             3
100
AcDbLine
 10
87.1723160694977
 20
88.47562003630711
 11
87.1723160694977
 21
87.97562003630711
  0
LINE
  5
223
100
AcDbEntity
  8
1
  6
CONTINUOUS
 62
             3
100
AcDbLine
 10
87.1723160694977
 20
88.47562003630711
 11
86.3153160694977
 21
88.47562003630711
  0
LINE
  5
222
100
AcDbEntity
  8
1
  6
CONTINUOUS
 62
             3
100
AcDbLine
 10
88.45731606949771
 20
88.47562003630711
 11
88.45731606949771
 21
91.12572003630712
  0
LINE
  5
221
100
AcDbEntity
  8
1
  6
CONTINUOUS
 62
             3
100
AcDbLine
 10
89.31431606949771
 20
88.47562003630711
 11
89.31431606949771
 21
87.97562003630711
  0
LINE
  5
220
100
AcDbEntity
  8
1
  6
CONTINUOUS
 62
             3
100
AcDbLine
 10
89.31431606949771
 20
88.47562003630711
 11
88.45731606949771
 21
88.47562003630711
  0
LINE
  5
21F
100
AcDbEntity
  8
1
  6
CONTINUOUS
 62
             3
100
AcDbLine
 10
90.60931606949769
 20
88.47562003630711
 11
90.60931606949769
 21
90.87465336964041
  0
LINE
  5
21E
100
AcDbEntity
  8
1
  6
CONTINUOUS
 62
             3
100
AcDbLine
 10
91.46631606949771
 20
88.47562003630711
 11
91.46631606949771
 21
87.97562003630711
  0
LINE
  5
21D
100
AcDbEntity
  8
1
  6
CONTINUOUS
 62
             3
100
AcDbLine
 10
91.46631606949771
 20
88.47562003630711
 11
90.60931606949769
 21
88.47562003630711
  0
LINE
  5
21C
100
AcDbEntity
  8
1
  6
CONTINUOUS
 62
             3
100
AcDbLine
 10
92.7613160694977
 20
88.47562003630711
 11
92.7613160694977
 21
90.62358670297377
  0
LINE
  5
21B
100
AcDbEntity
  8
1
  6
CONTINUOUS
 62
             3
100
AcDbLine
 10
93.6183160694977
 20
88.47562003630711
 11
93.6183160694977
 21
87.97562003630711
  0
LINE
  5
21A
100
AcDbEntity
  8
1
  6
CONTINUOUS
 62
             3
100
AcDbLine
 10
93.6183160694977
 20
88.47562003630711
 11
92.7613160694977
 21
88.47562003630711
  0
LINE
  5
219
100
AcDbEntity
  8
1
  6
CONTINUOUS
 62
             3
100
AcDbLine
 10
94.91331606949771
 20
88.47562003630711
 11
94.91331606949771
 21
90.37252003630712
  0
LINE
  5
218
100
AcDbEntity
  8
1
  6
CONTINUOUS
 62
             3
100
AcDbLine
 10
95.77031606949771
 20
88.47562003630711
 11
95.77031606949771
 21
87.97562003630711
  0
LINE
  5
217
100
AcDbEntity
  8
1
  6
CONTINUOUS
 62
             3
100
AcDbLine
 10
95.77031606949771
 20
88.47562003630711
 11
94.91331606949771
 21
88.47562003630711
  0
LINE
  5
216
100
AcDbEntity
  8
1
  6
CONTINUOUS
 62
             3
100
AcDbLine
 10
94.91331606949771
 20
87.97562003630711
 11
95.77031606949771
 21
87.97562003630711
  0
LINE
  5
215
100
AcDbEntity
  8
1
  6
CONTINUOUS
 62
             3
100
AcDbLine
 10
92.7613160694977
 20
87.97562003630711
 11
93.6183160694977
 21
87.97562003630711
  0
LINE
  5
214
100
AcDbEntity
  8
1
  6
CONTINUOUS
 62
             3
100
AcDbLine
 10
90.60931606949769
 20
87.97562003630711
 11
91.46631606949771
 21
87.97562003630711
  0
LINE
  5
213
100
AcDbEntity
  8
1
  6
CONTINUOUS
 62
             3
100
AcDbLine
 10
88.45731606949771
 20
87.97562003630711
 11
89.31431606949771
 21
87.97562003630711
  0
LINE
  5
212
100
AcDbEntity
  8
1
  6
CONTINUOUS
 62
             3
100
AcDbLine
 10
86.3153160694977
 20
87.97562003630711
 11
87.1723160694977
 21
87.97562003630711
  0
LINE
  5
211
100
AcDbEntity
  8
1
  6
CONTINUOUS
 62
             3
100
AcDbLine
 10
86.3153160694977
 20
87.97562003630711
 11
86.3153160694977
 21
88.47562003630711
  0
LINE
  5
210
100
AcDbEntity
  8
1
  6
CONTINUOUS
 62
             3
100
AcDbLine
 10
87.1723160694977
 20
91.27563670297377
 11
88.45731606949771
 21
91.12572003630712
  0
LINE
  5
20F
100
AcDbEntity
  8
1
  6
CONTINUOUS
 62
             3
100
AcDbLine
 10
87.1723160694977
 20
91.27563670297377
 11
87.1723160694977
 21
88.47562003630711
  0
LINE
  5
20E
100
AcDbEntity
  8
1
  6
CONTINUOUS
 62
             3
100
AcDbLine
 10
88.45731606949771
 20
87.97562003630711
 11
88.45731606949771
 21
88.47562003630711
  0
LINE
  5
20D
100
AcDbEntity
  8
1
  6
CONTINUOUS
 62
             3
100
AcDbLine
 10
89.31431606949771
 20
91.02573670297377
 11
90.60931606949769
 21
90.87465336964041
  0
LINE
  5
20C
100
AcDbEntity
  8
1
  6
CONTINUOUS
 62
             3
100
AcDbLine
 10
89.31431606949771
 20
91.02573670297377
 11
89.31431606949771
 21
88.47562003630711
  0
LINE
  5
20B
100
AcDbEntity
  8
1
  6
CONTINUOUS
 62
             3
100
AcDbLine
 10
90.60931606949769
 20
87.97562003630711
 11
90.60931606949769
 21
88.47562003630711
  0
LINE
  5
20A
100
AcDbEntity
  8
1
  6
CONTINUOUS
 62
             3
100
AcDbLine
 10
91.46631606949771
 20
90.77467003630713
 11
92.7613160694977
 21
90.62358670297377
  0
LINE
  5
209
100
AcDbEntity
  8
1
  6
CONTINUOUS
 62
             3
100
AcDbLine
 10
91.46631606949771
 20
90.77467003630713
 11
91.46631606949771
 21
88.47562003630711
  0
LINE
  5
208
100
AcDbEntity
  8
1
  6
CONTINUOUS
 62
             3
100
AcDbLine
 10
92.7613160694977
 20
87.97562003630711
 11
92.7613160694977
 21
88.47562003630711
  0
LINE
  5
207
100
AcDbEntity
  8
1
  6
CONTINUOUS
 62
             3
100
AcDbLine
 10
93.6183160694977
 20
90.52360336964043
 11
94.91331606949771
 21
90.37252003630712
  0
LINE
  5
206
100
AcDbEntity
  8
1
  6
CONTINUOUS
 62
             3
100
AcDbLine
 10
93.6183160694977
 20
90.52360336964043
 11
93.6183160694977
 21
88.47562003630711
  0
LINE
  5
205
100
AcDbEntity
  8
1
  6
CONTINUOUS
 62
             3
100
AcDbLine
 10
94.91331606949771
 20
87.97562003630711
 11
94.91331606949771
 21
88.47562003630711
  0
LINE
  5
204
100
AcDbEntity
  8
1
  6
CONTINUOUS
 62
             3
100
AcDbLine
 10
95.77031606949771
 20
90.27253670297378
 11
98.3153160694977
 21
89.97562003630711
  0
LINE
  5
203
100
AcDbEntity
  8
1
  6
CONTINUOUS
 62
             3
100
AcDbLine
 10
95.77031606949771
 20
90.27253670297378
 11
95.77031606949771
 21
88.47562003630711
  0
LINE
  5
202
100
AcDbEntity
  8
1
  6
CONTINUOUS
 62
             3
100
AcDbLine
 10
87.1723160694977
 20
89.47562003630711
 11
86.3153160694977
 21
89.47562003630711
  0
LINE
  5
201
100
AcDbEntity
  8
1
  6
CONTINUOUS
 62
             3
100
AcDbLine
 10
89.31431606949771
 20
89.47562003630711
 11
88.45731606949771
 21
89.47562003630711
  0
LINE
  5
200
100
AcDbEntity
  8
1
  6
CONTINUOUS
 62
             3
100
AcDbLine
 10
91.46631606949771
 20
89.47562003630711
 11
90.60931606949769
 21
89.47562003630711
  0
LINE
  5
1FF
100
AcDbEntity
  8
1
  6
CONTINUOUS
 62
             3
100
AcDbLine
 10
93.6183160694977
 20
89.47562003630711
 11
92.7613160694977
 21
89.47562003630711
  0
LINE
  5
1FE
100
AcDbEntity
  8
1
  6
CONTINUOUS
 62
             3
100
AcDbLine
 10
95.77031606949771
 20
89.47562003630711
 11
94.91331606949771
 21
89.47562003630711
  0
LINE
  5
1FD
100
AcDbEntity
  8
1
  6
CONTINUOUS
 62
             3
100
AcDbLine
 10
98.3153160694977
 20
89.97562003630711
 11
98.3153160694977
 21
88.26062003630713
  0
LINE
  5
1FC
100
AcDbEntity
  8
1
  6
CONTINUOUS
 62
             3
100
AcDbLine
 10
83.9376887294184
 20
91.65300989264966
 11
86.3153160694977
 21
91.37562003630711
  0
LINE
  5
1FB
100
AcDbEntity
  8
1
  6
CONTINUOUS
 62
             3
100
AcDbLine
 10
79.31531606949771
 20
86.97562003630711
 11
79.31531606949771
 21
91.72562003630711
  0
LINE
  5
1FA
100
AcDbEntity
  8
1
  6
CONTINUOUS
 62
             3
100
AcDbLine
 10
73.56531606949771
 20
89.47562003630711
 11
73.56531606949771
 21
86.97562003630711
  0
LINE
  5
1F9
100
AcDbEntity
  8
1
  6
CONTINUOUS
 62
             3
100
AcDbLine
 10
72.91531606949771
 20
89.97562003630711
 11
73.06531606949771
 21
89.97562003630711
  0
LINE
  5
1F8
100
AcDbEntity
  8
1
  6
CONTINUOUS
 62
             3
100
AcDbLine
 10
72.41531606949771
 20
86.97562003630711
 11
72.41531606949771
 21
89.47562003630711
  0
LINE
  5
1F7
100
AcDbEntity
  8
1
  6
CONTINUOUS
 62
             3
100
AcDbLine
 10
75.86531606949771
 20
89.47562003630711
 11
75.86531606949771
 21
86.97562003630711
  0
LINE
  5
1F6
100
AcDbEntity
  8
1
  6
CONTINUOUS
 62
             3
100
AcDbLine
 10
75.2153160694977
 20
89.97562003630711
 11
75.36531606949771
 21
89.97562003630711
  0
LINE
  5
1F5
100
AcDbEntity
  8
1
  6
CONTINUOUS
 62
             3
100
AcDbLine
 10
74.7153160694977
 20
86.97562003630711
 11
74.7153160694977
 21
89.47562003630711
  0
LINE
  5
1F4
100
AcDbEntity
  8
1
  6
CONTINUOUS
 62
             3
100
AcDbLine
 10
78.16531606949771
 20
89.47562003630711
 11
78.16531606949771
 21
86.97562003630711
  0
LINE
  5
1F3
100
AcDbEntity
  8
1
  6
CONTINUOUS
 62
             3
100
AcDbLine
 10
77.5153160694977
 20
89.97562003630711
 11
77.66531606949771
 21
89.97562003630711
  0
LINE
  5
1F2
100
AcDbEntity
  8
1
  6
CONTINUOUS
 62
             3
100
AcDbLine
 10
77.0153160694977
 20
86.97562003630711
 11
77.0153160694977
 21
89.47562003630711
  0
LINE
  5
1F1
100
AcDbEntity
  8
1
  6
CONTINUOUS
 62
             3
100
AcDbLine
 10
68.9653160694977
 20
91.22562003630711
 11
68.9653160694977
 21
90.97562003630711
  0
LINE
  5
1F0
100
AcDbEntity
  8
1
  6
CONTINUOUS
 62
             3
100
AcDbLine
 10
67.8153160694977
 20
90.97562003630711
 11
67.8153160694977
 21
91.22562003630711
  0
LINE
  5
1EF
100
AcDbEntity
  8
1
  6
CONTINUOUS
 62
             3
100
AcDbLine
 10
66.66531606949771
 20
91.22562003630711
 11
66.66531606949771
 21
90.97562003630711
  0
LINE
  5
1EE
100
AcDbEntity
  8
1
  6
CONTINUOUS
 62
             3
100
AcDbLine
 10
65.5153160694977
 20
90.97562003630711
 11
65.5153160694977
 21
91.22562003630711
  0
LINE
  5
1ED
100
AcDbEntity
  8
1
  6
CONTINUOUS
 62
             3
100
AcDbLine
 10
68.3153160694977
 20
91.72562003630711
 11
68.4653160694977
 21
91.72562003630711
  0
LINE
  5
1EC
100
AcDbEntity
  8
1
  6
CONTINUOUS
 62
             3
100
AcDbLine
 10
66.0153160694977
 20
91.72562003630711
 11
66.16531606949771
 21
91.72562003630711
  0
LINE
  5
1EB
100
AcDbEntity
  8
1
  6
CONTINUOUS
 62
             3
100
AcDbLine
 10
70.1153160694977
 20
90.97562003630711
 11
70.1153160694977
 21
91.22562003630711
  0
LINE
  5
1EA
100
AcDbEntity
  8
1
  6
CONTINUOUS
 62
             3
100
AcDbLine
 10
71.2653160694977
 20
91.22562003630711
 11
71.2653160694977
 21
90.97562003630711
  0
LINE
  5
1E9
100
AcDbEntity
  8
1
  6
CONTINUOUS
 62
             3
100
AcDbLine
 10
70.6153160694977
 20
91.72562003630711
 11
70.7653160694977
 21
91.72562003630711
  0
LINE
  5
1E8
100
AcDbEntity
  8
1
  6
CONTINUOUS
 62
             3
100
AcDbLine
 10
78.16531606949771
 20
91.22562003630711
 11
78.16531606949771
 21
90.97562003630713
  0
LINE
  5
1E7
100
AcDbEntity
  8
1
  6
CONTINUOUS
 62
             3
100
AcDbLine
 10
77.0153160694977
 20
90.97562003630713
 11
77.0153160694977
 21
91.22562003630711
  0
LINE
  5
1E6
100
AcDbEntity
  8
1
  6
CONTINUOUS
 62
             3
100
AcDbLine
 10
75.86531606949771
 20
91.22562003630711
 11
75.86531606949771
 21
90.97562003630713
  0
LINE
  5
1E5
100
AcDbEntity
  8
1
  6
CONTINUOUS
 62
             3
100
AcDbLine
 10
74.7153160694977
 20
90.97562003630713
 11
74.7153160694977
 21
91.22562003630711
  0
LINE
  5
1E4
100
AcDbEntity
  8
1
  6
CONTINUOUS
 62
             3
100
AcDbLine
 10
73.56531606949771
 20
91.22562003630711
 11
73.56531606949771
 21
90.97562003630713
  0
LINE
  5
1E3
100
AcDbEntity
  8
1
  6
CONTINUOUS
 62
             3
100
AcDbLine
 10
72.41531606949771
 20
90.97562003630713
 11
72.41531606949771
 21
91.22562003630711
  0
LINE
  5
1E2
100
AcDbEntity
  8
1
  6
CONTINUOUS
 62
             3
100
AcDbLine
 10
77.5153160694977
 20
91.72562003630711
 11
77.66531606949771
 21
91.72562003630711
  0
LINE
  5
1E1
100
AcDbEntity
  8
1
  6
CONTINUOUS
 62
             3
100
AcDbLine
 10
75.2153160694977
 20
91.72562003630711
 11
75.36531606949771
 21
91.72562003630711
  0
LINE
  5
1E0
100
AcDbEntity
  8
1
  6
CONTINUOUS
 62
             3
100
AcDbLine
 10
72.91531606949771
 20
91.72562003630711
 11
73.06531606949771
 21
91.72562003630711
  0
LINE
  5
1DF
100
AcDbEntity
  8
1
  6
CONTINUOUS
 62
             3
100
AcDbLine
 10
79.66531606949771
 20
123.0103886370262
 11
79.66531606949771
 21
122.7603886370262
  0
LINE
  5
1DE
100
AcDbEntity
  8
1
  6
CONTINUOUS
 62
             3
100
AcDbLine
 10
78.5153160694977
 20
122.7603886370262
 11
78.5153160694977
 21
123.0103886370262
  0
LINE
  5
1DD
100
AcDbEntity
  8
1
  6
CONTINUOUS
 62
             3
100
AcDbLine
 10
77.36531606949771
 20
123.0103886370262
 11
77.36531606949771
 21
122.7603886370262
  0
LINE
  5
1DC
100
AcDbEntity
  8
1
  6
CONTINUOUS
 62
             3
100
AcDbLine
 10
76.2153160694977
 20
122.7603886370262
 11
76.2153160694977
 21
123.0103886370262
  0
LINE
  5
1DB
100
AcDbEntity
  8
1
  6
CONTINUOUS
 62
             3
100
AcDbLine
 10
75.06531606949771
 20
123.0103886370262
 11
75.06531606949771
 21
122.7603886370262
  0
LINE
  5
1DA
100
AcDbEntity
  8
1
  6
CONTINUOUS
 62
             3
100
AcDbLine
 10
73.91531606949771
 20
122.7603886370262
 11
73.91531606949771
 21
123.0103886370262
  0
LINE
  5
1D9
100
AcDbEntity
  8
1
  6
CONTINUOUS
 62
             3
100
AcDbLine
 10
79.16531606949771
 20
122.2603886370262
 11
79.0153160694977
 21
122.2603886370262
  0
LINE
  5
1D8
100
AcDbEntity
  8
1
  6
CONTINUOUS
 62
             3
100
AcDbLine
 10
76.86531606949771
 20
122.2603886370262
 11
76.7153160694977
 21
122.2603886370262
  0
LINE
  5
1D7
100
AcDbEntity
  8
1
  6
CONTINUOUS
 62
             3
100
AcDbLine
 10
74.56531606949771
 20
122.2603886370262
 11
74.41531606949771
 21
122.2603886370262
  0
LINE
  5
1D6
100
AcDbEntity
  8
1
  6
CONTINUOUS
 62
             3
100
AcDbLine
 10
79.66531606949771
 20
148.01038863702621
 11
78.5153160694977
 21
148.01038863702621
  0
LINE
  5
1D5
100
AcDbEntity
  8
1
  6
CONTINUOUS
 62
             3
100
AcDbLine
 10
79.66531606949771
 20
148.26038863702621
 11
79.66531606949771
 21
148.01038863702621
  0
LINE
  5
1D4
100
AcDbEntity
  8
1
  6
CONTINUOUS
 62
             3
100
AcDbLine
 10
79.0153160694977
 20
148.76038863702621
 11
79.16531606949771
 21
148.76038863702621
  0
LINE
  5
1D3
100
AcDbEntity
  8
1
  6
CONTINUOUS
 62
             3
100
AcDbLine
 10
78.5153160694977
 20
148.01038863702621
 11
77.36531606949771
 21
148.01038863702621
  0
LINE
  5
1D2
100
AcDbEntity
  8
1
  6
CONTINUOUS
 62
             3
100
AcDbLine
 10
78.5153160694977
 20
148.01038863702621
 11
78.5153160694977
 21
148.26038863702621
  0
LINE
  5
1D1
100
AcDbEntity
  8
1
  6
CONTINUOUS
 62
             3
100
AcDbLine
 10
77.36531606949771
 20
148.01038863702621
 11
76.2153160694977
 21
148.01038863702621
  0
LINE
  5
1D0
100
AcDbEntity
  8
1
  6
CONTINUOUS
 62
             3
100
AcDbLine
 10
77.36531606949771
 20
148.26038863702621
 11
77.36531606949771
 21
148.01038863702621
  0
LINE
  5
1CF
100
AcDbEntity
  8
1
  6
CONTINUOUS
 62
             3
100
AcDbLine
 10
76.7153160694977
 20
148.76038863702621
 11
76.86531606949771
 21
148.76038863702621
  0
LINE
  5
1CE
100
AcDbEntity
  8
1
  6
CONTINUOUS
 62
             3
100
AcDbLine
 10
76.2153160694977
 20
148.01038863702621
 11
75.06531606949771
 21
148.01038863702621
  0
LINE
  5
1CD
100
AcDbEntity
  8
1
  6
CONTINUOUS
 62
             3
100
AcDbLine
 10
76.2153160694977
 20
148.01038863702621
 11
76.2153160694977
 21
148.26038863702621
  0
LINE
  5
1CC
100
AcDbEntity
  8
1
  6
CONTINUOUS
 62
             3
100
AcDbLine
 10
75.06531606949771
 20
148.01038863702621
 11
73.91531606949771
 21
148.01038863702621
  0
LINE
  5
1CB
100
AcDbEntity
  8
1
  6
CONTINUOUS
 62
             3
100
AcDbLine
 10
75.06531606949771
 20
148.26038863702621
 11
75.06531606949771
 21
148.01038863702621
  0
LINE
  5
1CA
100
AcDbEntity
  8
1
  6
CONTINUOUS
 62
             3
100
AcDbLine
 10
74.41531606949771
 20
148.76038863702621
 11
74.56531606949771
 21
148.76038863702621
  0
LINE
  5
1C9
100
AcDbEntity
  8
1
  6
CONTINUOUS
 62
             3
100
AcDbLine
 10
73.91531606949771
 20
148.01038863702621
 11
54.81531606949771
 21
148.01038863702621
  0
LINE
  5
1C8
100
AcDbEntity
  8
1
  6
CONTINUOUS
 62
             3
100
AcDbLine
 10
73.91531606949771
 20
148.01038863702621
 11
73.91531606949771
 21
148.26038863702621
  0
LINE
  5
1C7
100
AcDbEntity
  8
1
  6
CONTINUOUS
 62
             3
100
AcDbLine
 10
79.31531606949771
 20
92.47562003630711
 11
82.5653160694977
 21
92.47562003630711
  0
LINE
  5
1C6
100
AcDbEntity
  8
1
  6
CONTINUOUS
 62
             3
100
AcDbLine
 10
79.31531606949771
 20
91.72562003630711
 11
79.31531606949771
 21
92.47562003630711
  0
LINE
  5
1C5
100
AcDbEntity
  8
1
  6
CONTINUOUS
 62
             3
100
AcDbLine
 10
54.81531606949771
 20
90.97562003630711
 11
78.56531606949771
 21
90.97562003630711
  0
LINE
  5
1C4
100
AcDbEntity
  8
1
  6
CONTINUOUS
 62
             3
100
AcDbLine
 10
83.3153160694977
 20
91.72562003630711
 11
83.3153160694977
 21
86.97562003630711
  0
LINE
  5
1C3
100
AcDbEntity
  8
1
  6
CONTINUOUS
 62
             3
100
AcDbLine
 10
54.81531606949771
 20
86.97562003630711
 11
54.81531606949771
 21
90.97562003630711
  0
LINE
  5
1C2
100
AcDbEntity
  8
1
  6
CONTINUOUS
 62
             3
100
AcDbLine
 10
-52.65135202952118
 20
125.0103886370262
 11
-52.65135202952118
 21
135.51038863702621
  0
LINE
  5
1C1
100
AcDbEntity
  8
1
  6
CONTINUOUS
 62
             3
100
AcDbLine
 10
-54.95135202952119
 20
125.0103886370262
 11
-54.95135202952119
 21
135.51038863702621
  0
LINE
  5
1C0
100
AcDbEntity
  8
1
  6
CONTINUOUS
 62
             3
100
AcDbLine
 10
-57.25135202952118
 20
125.0103886370262
 11
-57.25135202952118
 21
135.51038863702621
  0
LINE
  5
1BF
100
AcDbEntity
  8
1
  6
CONTINUOUS
 62
             3
100
AcDbLine
 10
-59.55135202952119
 20
125.0103886370262
 11
-59.55135202952119
 21
135.51038863702621
  0
LINE
  5
1BE
100
AcDbEntity
  8
1
  6
CONTINUOUS
 62
             3
100
AcDbLine
 10
-61.85135202952119
 20
125.0103886370262
 11
-61.85135202952119
 21
135.51038863702621
  0
LINE
  5
1BD
100
AcDbEntity
  8
1
  6
CONTINUOUS
 62
             3
100
AcDbLine
 10
-51.50135202952119
 20
135.51038863702621
 11
-51.50135202952119
 21
125.0103886370262
  0
LINE
  5
1BC
100
AcDbEntity
  8
1
  6
CONTINUOUS
 62
             3
100
AcDbLine
 10
-53.80135202952117
 20
135.51038863702621
 11
-53.80135202952117
 21
125.0103886370262
  0
LINE
  5
1BB
100
AcDbEntity
  8
1
  6
CONTINUOUS
 62
             3
100
AcDbLine
 10
-56.10135202952117
 20
135.51038863702621
 11
-56.10135202952117
 21
125.0103886370262
  0
LINE
  5
1BA
100
AcDbEntity
  8
1
  6
CONTINUOUS
 62
             3
100
AcDbLine
 10
-58.40135202952119
 20
135.51038863702621
 11
-58.40135202952119
 21
125.0103886370262
  0
LINE
  5
1B9
100
AcDbEntity
  8
1
  6
CONTINUOUS
 62
             3
100
AcDbLine
 10
-60.70135202952118
 20
135.51038863702621
 11
-60.70135202952118
 21
125.0103886370262
  0
LINE
  5
1B8
100
AcDbEntity
  8
1
  6
CONTINUOUS
 62
             3
100
AcDbLine
 10
-52.00135202952119
 20
124.5103886370262
 11
-52.15135202952118
 21
124.5103886370262
  0
LINE
  5
1B7
100
AcDbEntity
  8
1
  6
CONTINUOUS
 62
             3
100
AcDbLine
 10
-54.30135202952117
 20
124.5103886370262
 11
-54.45135202952119
 21
124.5103886370262
  0
LINE
  5
1B6
100
AcDbEntity
  8
1
  6
CONTINUOUS
 62
             3
100
AcDbLine
 10
-56.60135202952117
 20
124.5103886370262
 11
-56.75135202952118
 21
124.5103886370262
  0
LINE
  5
1B5
100
AcDbEntity
  8
1
  6
CONTINUOUS
 62
             3
100
AcDbLine
 10
-58.90135202952119
 20
124.5103886370262
 11
-59.05135202952119
 21
124.5103886370262
  0
LINE
  5
1B4
100
AcDbEntity
  8
1
  6
CONTINUOUS
 62
             3
100
AcDbLine
 10
-61.20135202952118
 20
124.5103886370262
 11
-61.35135202952119
 21
124.5103886370262
  0
LINE
  5
1B3
100
AcDbEntity
  8
1
  6
CONTINUOUS
 62
             3
100
AcDbLine
 10
-64.15135202952118
 20
125.0103886370262
 11
-64.15135202952118
 21
135.51038863702621
  0
LINE
  5
1B2
100
AcDbEntity
  8
1
  6
CONTINUOUS
 62
             3
100
AcDbLine
 10
-63.50135202952118
 20
124.5103886370262
 11
-63.65135202952119
 21
124.5103886370262
  0
LINE
  5
1B1
100
AcDbEntity
  8
1
  6
CONTINUOUS
 62
             3
100
AcDbLine
 10
-63.00135202952118
 20
135.51038863702621
 11
-63.00135202952118
 21
125.0103886370262
  0
LINE
  5
1B0
100
AcDbEntity
  8
1
  6
CONTINUOUS
 62
             3
100
AcDbLine
 10
-65.30135202952118
 20
121.5103886370262
 11
-65.30135202952118
 21
135.51038863702621
  0
LINE
  5
1AF
100
AcDbEntity
  8
1
  6
CONTINUOUS
 62
             3
100
AcDbLine
 10
-69.30135202952121
 20
122.2603886370262
 11
-69.30135202952121
 21
129.76038863702621
  0
LINE
  5
1AE
100
AcDbEntity
  8
1
  6
CONTINUOUS
 62
             3
100
AcDbLine
 10
-65.30135202952118
 20
121.5103886370262
 11
-65.30135202952118
 21
122.2603886370262
  0
LINE
  5
1AD
100
AcDbEntity
  8
1
  6
CONTINUOUS
 62
             3
100
AcDbLine
 10
-39.3013520295212
 20
123.0103886370262
 11
-39.3013520295212
 21
126.60946147113251
  0
LINE
  5
1AC
100
AcDbEntity
  8
1
  6
CONTINUOUS
 62
             3
100
AcDbLine
 10
-64.55135202952118
 20
123.0103886370262
 11
-39.3013520295212
 21
123.0103886370262
  0
LINE
  5
1AB
100
AcDbEntity
  8
1
  6
CONTINUOUS
 62
             3
100
AcDbLine
 10
-65.30135202952118
 20
121.5103886370262
 11
-68.55135202952121
 21
121.5103886370262
  0
LINE
  5
1AA
100
AcDbEntity
  8
1
  6
CONTINUOUS
 62
             3
100
AcDbLine
 10
-52.65135202952118
 20
135.51038863702621
 11
-52.65135202952118
 21
146.01038863702621
  0
LINE
  5
1A9
100
AcDbEntity
  8
1
  6
CONTINUOUS
 62
             3
100
AcDbLine
 10
-54.95135202952119
 20
135.51038863702621
 11
-54.95135202952119
 21
146.01038863702621
  0
LINE
  5
1A8
100
AcDbEntity
  8
1
  6
CONTINUOUS
 62
             3
100
AcDbLine
 10
-57.25135202952118
 20
135.51038863702621
 11
-57.25135202952118
 21
146.01038863702621
  0
LINE
  5
1A7
100
AcDbEntity
  8
1
  6
CONTINUOUS
 62
             3
100
AcDbLine
 10
-59.55135202952119
 20
135.51038863702621
 11
-59.55135202952119
 21
146.01038863702621
  0
LINE
  5
1A6
100
AcDbEntity
  8
1
  6
CONTINUOUS
 62
             3
100
AcDbLine
 10
-61.85135202952119
 20
135.51038863702621
 11
-61.85135202952119
 21
146.01038863702621
  0
LINE
  5
1A5
100
AcDbEntity
  8
1
  6
CONTINUOUS
 62
             3
100
AcDbLine
 10
-51.50135202952119
 20
146.01038863702621
 11
-51.50135202952119
 21
135.51038863702621
  0
LINE
  5
1A4
100
AcDbEntity
  8
1
  6
CONTINUOUS
 62
             3
100
AcDbLine
 10
-53.80135202952117
 20
146.01038863702621
 11
-53.80135202952117
 21
135.51038863702621
  0
LINE
  5
1A3
100
AcDbEntity
  8
1
  6
CONTINUOUS
 62
             3
100
AcDbLine
 10
-56.10135202952117
 20
146.01038863702621
 11
-56.10135202952117
 21
135.51038863702621
  0
LINE
  5
1A2
100
AcDbEntity
  8
1
  6
CONTINUOUS
 62
             3
100
AcDbLine
 10
-58.40135202952119
 20
146.01038863702621
 11
-58.40135202952119
 21
135.51038863702621
  0
LINE
  5
1A1
100
AcDbEntity
  8
1
  6
CONTINUOUS
 62
             3
100
AcDbLine
 10
-60.70135202952118
 20
146.01038863702621
 11
-60.70135202952118
 21
135.51038863702621
  0
LINE
  5
1A0
100
AcDbEntity
  8
1
  6
CONTINUOUS
 62
             3
100
AcDbLine
 10
-52.15135202952118
 20
146.51038863702621
 11
-52.00135202952119
 21
146.51038863702621
  0
LINE
  5
19F
100
AcDbEntity
  8
1
  6
CONTINUOUS
 62
             3
100
AcDbLine
 10
-54.45135202952119
 20
146.51038863702621
 11
-54.30135202952117
 21
146.51038863702621
  0
LINE
  5
19E
100
AcDbEntity
  8
1
  6
CONTINUOUS
 62
             3
100
AcDbLine
 10
-56.75135202952118
 20
146.51038863702621
 11
-56.60135202952117
 21
146.51038863702621
  0
LINE
  5
19D
100
AcDbEntity
  8
1
  6
CONTINUOUS
 62
             3
100
AcDbLine
 10
-59.05135202952119
 20
146.51038863702621
 11
-58.90135202952119
 21
146.51038863702621
  0
LINE
  5
19C
100
AcDbEntity
  8
1
  6
CONTINUOUS
 62
             3
100
AcDbLine
 10
-61.35135202952119
 20
146.51038863702621
 11
-61.20135202952118
 21
146.51038863702621
  0
LINE
  5
19B
100
AcDbEntity
  8
1
  6
CONTINUOUS
 62
             3
100
AcDbLine
 10
-64.15135202952118
 20
135.51038863702621
 11
-64.15135202952118
 21
146.01038863702621
  0
LINE
  5
19A
100
AcDbEntity
  8
1
  6
CONTINUOUS
 62
             3
100
AcDbLine
 10
-63.65135202952119
 20
146.51038863702621
 11
-63.50135202952118
 21
146.51038863702621
  0
LINE
  5
199
100
AcDbEntity
  8
1
  6
CONTINUOUS
 62
             3
100
AcDbLine
 10
-63.00135202952118
 20
146.01038863702621
 11
-63.00135202952118
 21
135.51038863702621
  0
LINE
  5
198
100
AcDbEntity
  8
1
  6
CONTINUOUS
 62
             3
100
AcDbLine
 10
-65.30135202952118
 20
135.51038863702621
 11
-65.30135202952118
 21
149.51038863702621
  0
LINE
  5
197
100
AcDbEntity
  8
1
  6
CONTINUOUS
 62
             3
100
AcDbLine
 10
-69.30135202952121
 20
141.26038863702621
 11
-69.30135202952121
 21
148.76038863702621
  0
LINE
  5
196
100
AcDbEntity
  8
1
  6
CONTINUOUS
 62
             3
100
AcDbLine
 10
-65.30135202952118
 20
148.76038863702621
 11
-65.30135202952118
 21
149.51038863702621
  0
LINE
  5
195
100
AcDbEntity
  8
1
  6
CONTINUOUS
 62
             3
100
AcDbLine
 10
-39.3013520295212
 20
135.51038863702621
 11
-39.3013520295212
 21
140.97674304617641
  0
LINE
  5
194
100
AcDbEntity
  8
1
  6
CONTINUOUS
 62
             3
100
AcDbLine
 10
-39.3013520295212
 20
148.01038863702621
 11
-64.55135202952118
 21
148.01038863702621
  0
LINE
  5
193
100
AcDbEntity
  8
1
  6
CONTINUOUS
 62
             3
100
AcDbLine
 10
-68.55135202952121
 20
149.51038863702621
 11
-65.30135202952118
 21
149.51038863702621
  0
LINE
  5
192
100
AcDbEntity
  8
1
  6
CONTINUOUS
 62
             3
100
AcDbLine
 10
142.3153160694977
 20
136.9306791021576
 11
133.78887304064429
 21
136.9306791021576
  0
LINE
  5
191
100
AcDbEntity
  8
1
  6
CONTINUOUS
 62
             3
100
AcDbLine
 10
152.3153160694977
 20
136.39567910215769
 11
152.3153160694977
 21
134.89567910215769
  0
LINE
  5
190
100
AcDbEntity
  8
1
  6
CONTINUOUS
 62
             3
100
AcDbLine
 10
142.3153160694977
 20
134.89567910215769
 11
142.3153160694977
 21
134.3606791021576
  0
LINE
  5
18F
100
AcDbEntity
  8
1
  6
CONTINUOUS
 62
             3
100
AcDbLine
 10
152.3153160694977
 20
134.89567910215769
 11
142.3153160694977
 21
134.89567910215769
  0
LINE
  5
18E
100
AcDbEntity
  8
1
  6
CONTINUOUS
 62
             3
100
AcDbLine
 10
142.3153160694977
 20
136.39567910215769
 11
142.3153160694977
 21
134.89567910215769
  0
LINE
  5
18D
100
AcDbEntity
  8
1
  6
CONTINUOUS
 62
             3
100
AcDbLine
 10
142.3153160694977
 20
136.39567910215769
 11
152.3153160694977
 21
136.39567910215769
  0
LINE
  5
18C
100
AcDbEntity
  8
1
  6
CONTINUOUS
 62
             3
100
AcDbLine
 10
142.3153160694977
 20
136.9306791021576
 11
142.3153160694977
 21
136.39567910215769
  0
LINE
  5
18B
100
AcDbEntity
  8
1
  6
CONTINUOUS
 62
             3
100
AcDbLine
 10
127.3153160694977
 20
136.9306791021576
 11
99.8153160694977
 21
136.9306791021576
  0
LINE
  5
18A
100
AcDbEntity
  8
1
  6
CONTINUOUS
 62
             3
100
AcDbLine
 10
99.8153160694977
 20
142.01038863702621
 11
99.8153160694977
 21
135.51038863702621
  0
LINE
  5
189
100
AcDbEntity
  8
1
  6
CONTINUOUS
 62
             3
100
AcDbLine
 10
99.8153160694977
 20
135.51038863702621
 11
99.8153160694977
 21
129.01038863702621
  0
LINE
  5
188
100
AcDbEntity
  8
1
  6
DASH_CENTER
 62
             2
100
AcDbLine
 10
52.28549152344601
 20
135.51038863702621
 11
99.8153160694977
 21
135.51038863702621
  0
LINE
  5
187
100
AcDbEntity
  8
1
  6
CONTINUOUS
 62
             3
100
AcDbLine
 10
88.6723160694977
 20
135.51038863702621
 11
88.6723160694977
 21
134.54618863702629
  0
LINE
  5
186
100
AcDbEntity
  8
1
  6
CONTINUOUS
 62
             3
100
AcDbLine
 10
87.8153160694977
 20
135.51038863702621
 11
87.8153160694977
 21
134.54618863702629
  0
LINE
  5
185
100
AcDbEntity
  8
1
  6
CONTINUOUS
 62
             3
100
AcDbLine
 10
90.81431606949771
 20
135.51038863702621
 11
90.81431606949771
 21
134.54618863702629
  0
LINE
  5
184
100
AcDbEntity
  8
1
  6
CONTINUOUS
 62
             3
100
AcDbLine
 10
89.95731606949771
 20
135.51038863702621
 11
89.95731606949771
 21
134.54618863702629
  0
LINE
  5
183
100
AcDbEntity
  8
1
  6
CONTINUOUS
 62
             3
100
AcDbLine
 10
92.96631606949771
 20
135.51038863702621
 11
92.96631606949771
 21
134.54618863702629
  0
LINE
  5
182
100
AcDbEntity
  8
1
  6
CONTINUOUS
 62
             3
100
AcDbLine
 10
92.10931606949769
 20
135.51038863702621
 11
92.10931606949769
 21
134.54618863702629
  0
LINE
  5
181
100
AcDbEntity
  8
1
  6
CONTINUOUS
 62
             3
100
AcDbLine
 10
95.11831606949771
 20
135.51038863702621
 11
95.11831606949771
 21
134.54618863702629
  0
LINE
  5
180
100
AcDbEntity
  8
1
  6
CONTINUOUS
 62
             3
100
AcDbLine
 10
94.26131606949771
 20
135.51038863702621
 11
94.26131606949771
 21
134.54618863702629
  0
LINE
  5
17F
100
AcDbEntity
  8
1
  6
CONTINUOUS
 62
             3
100
AcDbLine
 10
97.27031606949771
 20
135.51038863702621
 11
97.27031606949771
 21
134.54618863702629
  0
LINE
  5
17E
100
AcDbEntity
  8
1
  6
CONTINUOUS
 62
             3
100
AcDbLine
 10
96.41331606949771
 20
135.51038863702621
 11
96.41331606949771
 21
134.54618863702629
  0
LINE
  5
17D
100
AcDbEntity
  8
1
  6
CONTINUOUS
 62
             3
100
AcDbLine
 10
97.27031606949771
 20
131.79067910215761
 11
96.41331606949771
 21
131.79067910215761
  0
LINE
  5
17C
100
AcDbEntity
  8
1
  6
CONTINUOUS
 62
             3
100
AcDbLine
 10
95.11831606949771
 20
131.79067910215761
 11
94.26131606949771
 21
131.79067910215761
  0
LINE
  5
17B
100
AcDbEntity
  8
1
  6
CONTINUOUS
 62
             3
100
AcDbLine
 10
92.96631606949771
 20
131.79067910215761
 11
92.10931606949769
 21
131.79067910215761
  0
LINE
  5
17A
100
AcDbEntity
  8
1
  6
CONTINUOUS
 62
             3
100
AcDbLine
 10
90.81431606949771
 20
131.79067910215761
 11
89.95731606949771
 21
131.79067910215761
  0
LINE
  5
179
100
AcDbEntity
  8
1
  6
CONTINUOUS
 62
             3
100
AcDbLine
 10
88.6723160694977
 20
131.79067910215761
 11
87.8153160694977
 21
131.79067910215761
  0
LINE
  5
178
100
AcDbEntity
  8
1
  6
CONTINUOUS
 62
             3
100
AcDbLine
 10
96.41331606949771
 20
128.78358863702621
 11
97.27031606949771
 21
128.84072197035951
  0
LINE
  5
177
100
AcDbEntity
  8
1
  6
CONTINUOUS
 62
             3
100
AcDbLine
 10
97.27031606949771
 20
134.54618863702629
 11
97.27031606949771
 21
128.84072197035951
  0
LINE
  5
176
100
AcDbEntity
  8
1
  6
CONTINUOUS
 62
             3
100
AcDbLine
 10
95.11831606949771
 20
128.69725530369291
 11
96.41331606949771
 21
128.78358863702621
  0
LINE
  5
175
100
AcDbEntity
  8
1
  6
CONTINUOUS
 62
             3
100
AcDbLine
 10
96.41331606949771
 20
134.54618863702629
 11
96.41331606949771
 21
128.78358863702621
  0
LINE
  5
174
100
AcDbEntity
  8
1
  6
CONTINUOUS
 62
             3
100
AcDbLine
 10
94.26131606949771
 20
128.6401219703595
 11
95.11831606949771
 21
128.69725530369291
  0
LINE
  5
173
100
AcDbEntity
  8
1
  6
CONTINUOUS
 62
             3
100
AcDbLine
 10
95.11831606949771
 20
134.54618863702629
 11
95.11831606949771
 21
128.69725530369291
  0
LINE
  5
172
100
AcDbEntity
  8
1
  6
CONTINUOUS
 62
             3
100
AcDbLine
 10
92.96631606949771
 20
128.55378863702609
 11
94.26131606949771
 21
128.6401219703595
  0
LINE
  5
171
100
AcDbEntity
  8
1
  6
CONTINUOUS
 62
             3
100
AcDbLine
 10
94.26131606949771
 20
134.54618863702629
 11
94.26131606949771
 21
128.6401219703595
  0
LINE
  5
170
100
AcDbEntity
  8
1
  6
CONTINUOUS
 62
             3
100
AcDbLine
 10
92.10931606949769
 20
128.4966553036929
 11
92.96631606949771
 21
128.55378863702609
  0
LINE
  5
16F
100
AcDbEntity
  8
1
  6
CONTINUOUS
 62
             3
100
AcDbLine
 10
92.96631606949771
 20
134.54618863702629
 11
92.96631606949771
 21
128.55378863702609
  0
LINE
  5
16E
100
AcDbEntity
  8
1
  6
CONTINUOUS
 62
             3
100
AcDbLine
 10
90.81431606949771
 20
128.41032197035949
 11
92.10931606949769
 21
128.4966553036929
  0
LINE
  5
16D
100
AcDbEntity
  8
1
  6
CONTINUOUS
 62
             3
100
AcDbLine
 10
92.10931606949769
 20
134.54618863702629
 11
92.10931606949769
 21
128.4966553036929
  0
LINE
  5
16C
100
AcDbEntity
  8
1
  6
CONTINUOUS
 62
             3
100
AcDbLine
 10
89.95731606949771
 20
128.35318863702619
 11
90.81431606949771
 21
128.41032197035949
  0
LINE
  5
16B
100
AcDbEntity
  8
1
  6
CONTINUOUS
 62
             3
100
AcDbLine
 10
90.81431606949771
 20
134.54618863702629
 11
90.81431606949771
 21
128.41032197035949
  0
LINE
  5
16A
100
AcDbEntity
  8
1
  6
CONTINUOUS
 62
             3
100
AcDbLine
 10
88.6723160694977
 20
128.26752197035941
 11
89.95731606949771
 21
128.35318863702619
  0
LINE
  5
169
100
AcDbEntity
  8
1
  6
CONTINUOUS
 62
             3
100
AcDbLine
 10
89.95731606949771
 20
134.54618863702629
 11
89.95731606949771
 21
128.35318863702619
  0
LINE
  5
168
100
AcDbEntity
  8
1
  6
CONTINUOUS
 62
             3
100
AcDbLine
 10
87.8153160694977
 20
128.21038863702631
 11
88.6723160694977
 21
128.26752197035941
  0
LINE
  5
167
100
AcDbEntity
  8
1
  6
CONTINUOUS
 62
             3
100
AcDbLine
 10
88.6723160694977
 20
134.54618863702629
 11
88.6723160694977
 21
128.26752197035941
  0
LINE
  5
166
100
AcDbEntity
  8
1
  6
CONTINUOUS
 62
             3
100
AcDbLine
 10
85.74879705897395
 20
128.07262070299129
 11
87.8153160694977
 21
128.21038863702631
  0
LINE
  5
165
100
AcDbEntity
  8
1
  6
CONTINUOUS
 62
             3
100
AcDbLine
 10
87.8153160694977
 20
134.54618863702629
 11
87.8153160694977
 21
128.21038863702631
  0
LINE
  5
164
100
AcDbEntity
  8
1
  6
CONTINUOUS
 62
             3
100
AcDbLine
 10
68.16531606949771
 20
135.51038863702621
 11
68.16531606949771
 21
125.0103886370262
  0
LINE
  5
163
100
AcDbEntity
  8
1
  6
CONTINUOUS
 62
             3
100
AcDbLine
 10
70.4653160694977
 20
135.51038863702621
 11
70.4653160694977
 21
125.0103886370262
  0
LINE
  5
162
100
AcDbEntity
  8
1
  6
CONTINUOUS
 62
             3
100
AcDbLine
 10
72.7653160694977
 20
135.51038863702621
 11
72.7653160694977
 21
125.0103886370262
  0
LINE
  5
161
100
AcDbEntity
  8
1
  6
CONTINUOUS
 62
             3
100
AcDbLine
 10
75.06531606949771
 20
135.51038863702621
 11
75.06531606949771
 21
125.0103886370262
  0
LINE
  5
160
100
AcDbEntity
  8
1
  6
CONTINUOUS
 62
             3
100
AcDbLine
 10
77.36531606949771
 20
135.51038863702621
 11
77.36531606949771
 21
125.0103886370262
  0
LINE
  5
15F
100
AcDbEntity
  8
1
  6
CONTINUOUS
 62
             3
100
AcDbLine
 10
67.0153160694977
 20
125.0103886370262
 11
67.0153160694977
 21
135.51038863702621
  0
LINE
  5
15E
100
AcDbEntity
  8
1
  6
CONTINUOUS
 62
             3
100
AcDbLine
 10
69.3153160694977
 20
125.0103886370262
 11
69.3153160694977
 21
135.51038863702621
  0
LINE
  5
15D
100
AcDbEntity
  8
1
  6
CONTINUOUS
 62
             3
100
AcDbLine
 10
71.6153160694977
 20
125.0103886370262
 11
71.6153160694977
 21
135.51038863702621
  0
LINE
  5
15C
100
AcDbEntity
  8
1
  6
CONTINUOUS
 62
             3
100
AcDbLine
 10
73.91531606949771
 20
125.0103886370262
 11
73.91531606949771
 21
135.51038863702621
  0
LINE
  5
15B
100
AcDbEntity
  8
1
  6
CONTINUOUS
 62
             3
100
AcDbLine
 10
76.2153160694977
 20
125.0103886370262
 11
76.2153160694977
 21
135.51038863702621
  0
LINE
  5
15A
100
AcDbEntity
  8
1
  6
CONTINUOUS
 62
             3
100
AcDbLine
 10
67.66531606949771
 20
124.5103886370262
 11
67.5153160694977
 21
124.5103886370262
  0
LINE
  5
159
100
AcDbEntity
  8
1
  6
CONTINUOUS
 62
             3
100
AcDbLine
 10
69.9653160694977
 20
124.5103886370262
 11
69.8153160694977
 21
124.5103886370262
  0
LINE
  5
158
100
AcDbEntity
  8
1
  6
CONTINUOUS
 62
             3
100
AcDbLine
 10
72.2653160694977
 20
124.5103886370262
 11
72.1153160694977
 21
124.5103886370262
  0
LINE
  5
157
100
AcDbEntity
  8
1
  6
CONTINUOUS
 62
             3
100
AcDbLine
 10
74.56531606949771
 20
124.5103886370262
 11
74.41531606949771
 21
124.5103886370262
  0
LINE
  5
156
100
AcDbEntity
  8
1
  6
CONTINUOUS
 62
             3
100
AcDbLine
 10
76.86531606949771
 20
124.5103886370262
 11
76.7153160694977
 21
124.5103886370262
  0
LINE
  5
155
100
AcDbEntity
  8
1
  6
CONTINUOUS
 62
             3
100
AcDbLine
 10
79.66531606949771
 20
135.51038863702621
 11
79.66531606949771
 21
125.0103886370262
  0
LINE
  5
154
100
AcDbEntity
  8
1
  6
CONTINUOUS
 62
             3
100
AcDbLine
 10
79.16531606949771
 20
124.5103886370262
 11
79.0153160694977
 21
124.5103886370262
  0
LINE
  5
153
100
AcDbEntity
  8
1
  6
CONTINUOUS
 62
             3
100
AcDbLine
 10
78.5153160694977
 20
125.0103886370262
 11
78.5153160694977
 21
135.51038863702621
  0
LINE
  5
152
100
AcDbEntity
  8
1
  6
CONTINUOUS
 62
             3
100
AcDbLine
 10
80.8153160694977
 20
135.51038863702621
 11
80.8153160694977
 21
121.5103886370262
  0
LINE
  5
151
100
AcDbEntity
  8
1
  6
CONTINUOUS
 62
             3
100
AcDbLine
 10
97.27031606949771
 20
128.84072197035951
 11
99.8153160694977
 21
129.01038863702621
  0
LINE
  5
150
100
AcDbEntity
  8
1
  6
CONTINUOUS
 62
             3
100
AcDbLine
 10
84.8153160694977
 20
127.0748355451347
 11
84.8153160694977
 21
122.2603886370262
  0
LINE
  5
14F
100
AcDbEntity
  8
1
  6
CONTINUOUS
 62
             3
100
AcDbLine
 10
80.8153160694977
 20
122.2603886370262
 11
80.8153160694977
 21
121.5103886370262
  0
LINE
  5
14E
100
AcDbEntity
  8
1
  6
CONTINUOUS
 62
             3
100
AcDbLine
 10
54.81531606949771
 20
135.51038863702621
 11
54.81531606949771
 21
123.0103886370262
  0
LINE
  5
14D
100
AcDbEntity
  8
1
  6
CONTINUOUS
 62
             3
100
AcDbLine
 10
54.81531606949771
 20
123.0103886370262
 11
80.0653160694977
 21
123.0103886370262
  0
LINE
  5
14C
100
AcDbEntity
  8
1
  6
CONTINUOUS
 62
             3
100
AcDbLine
 10
84.0653160694977
 20
121.5103886370262
 11
80.8153160694977
 21
121.5103886370262
  0
LINE
  5
14B
100
AcDbEntity
  8
1
  6
CONTINUOUS
 62
             3
100
AcDbLine
 10
88.6723160694977
 20
136.47458863702619
 11
88.6723160694977
 21
135.51038863702621
  0
LINE
  5
14A
100
AcDbEntity
  8
1
  6
CONTINUOUS
 62
             3
100
AcDbLine
 10
87.8153160694977
 20
136.47458863702619
 11
87.8153160694977
 21
135.51038863702621
  0
LINE
  5
149
100
AcDbEntity
  8
1
  6
CONTINUOUS
 62
             3
100
AcDbLine
 10
88.6723160694977
 20
137.38676956728901
 11
87.8153160694977
 21
137.38676956728901
  0
LINE
  5
148
100
AcDbEntity
  8
1
  6
CONTINUOUS
 62
             3
100
AcDbLine
 10
90.81431606949771
 20
136.47458863702619
 11
90.81431606949771
 21
135.51038863702621
  0
LINE
  5
147
100
AcDbEntity
  8
1
  6
CONTINUOUS
 62
             3
100
AcDbLine
 10
89.95731606949771
 20
136.47458863702619
 11
89.95731606949771
 21
135.51038863702621
  0
LINE
  5
146
100
AcDbEntity
  8
1
  6
CONTINUOUS
 62
             3
100
AcDbLine
 10
90.81431606949771
 20
137.38676956728901
 11
89.95731606949771
 21
137.38676956728901
  0
LINE
  5
145
100
AcDbEntity
  8
1
  6
CONTINUOUS
 62
             3
100
AcDbLine
 10
92.96631606949771
 20
136.47458863702619
 11
92.96631606949771
 21
135.51038863702621
  0
LINE
  5
144
100
AcDbEntity
  8
1
  6
CONTINUOUS
 62
             3
100
AcDbLine
 10
92.10931606949769
 20
136.47458863702619
 11
92.10931606949769
 21
135.51038863702621
  0
LINE
  5
143
100
AcDbEntity
  8
1
  6
CONTINUOUS
 62
             3
100
AcDbLine
 10
92.96631606949771
 20
137.38676956728901
 11
92.10931606949769
 21
137.38676956728901
  0
LINE
  5
142
100
AcDbEntity
  8
1
  6
CONTINUOUS
 62
             3
100
AcDbLine
 10
95.11831606949771
 20
136.47458863702619
 11
95.11831606949771
 21
135.51038863702621
  0
LINE
  5
141
100
AcDbEntity
  8
1
  6
CONTINUOUS
 62
             3
100
AcDbLine
 10
94.26131606949771
 20
136.47458863702619
 11
94.26131606949771
 21
135.51038863702621
  0
LINE
  5
140
100
AcDbEntity
  8
1
  6
CONTINUOUS
 62
             3
100
AcDbLine
 10
95.11831606949771
 20
137.38676956728901
 11
94.26131606949771
 21
137.38676956728901
  0
LINE
  5
13F
100
AcDbEntity
  8
1
  6
CONTINUOUS
 62
             3
100
AcDbLine
 10
97.27031606949771
 20
136.47458863702619
 11
97.27031606949771
 21
135.51038863702621
  0
LINE
  5
13E
100
AcDbEntity
  8
1
  6
CONTINUOUS
 62
             3
100
AcDbLine
 10
96.41331606949771
 20
136.47458863702619
 11
96.41331606949771
 21
135.51038863702621
  0
LINE
  5
13D
100
AcDbEntity
  8
1
  6
CONTINUOUS
 62
             3
100
AcDbLine
 10
97.27031606949771
 20
137.38676956728901
 11
96.41331606949771
 21
137.38676956728901
  0
LINE
  5
13C
100
AcDbEntity
  8
1
  6
CONTINUOUS
 62
             3
100
AcDbLine
 10
97.27031606949771
 20
137.54458863702629
 11
97.27031606949771
 21
136.47458863702619
  0
LINE
  5
13B
100
AcDbEntity
  8
1
  6
CONTINUOUS
 62
             3
100
AcDbLine
 10
96.41331606949771
 20
137.54458863702629
 11
96.41331606949771
 21
136.47458863702619
  0
LINE
  5
13A
100
AcDbEntity
  8
1
  6
CONTINUOUS
 62
             3
100
AcDbLine
 10
96.41331606949771
 20
139.5006791021577
 11
97.27031606949771
 21
139.5006791021577
  0
LINE
  5
139
100
AcDbEntity
  8
1
  6
CONTINUOUS
 62
             3
100
AcDbLine
 10
95.11831606949771
 20
137.54458863702629
 11
95.11831606949771
 21
136.47458863702619
  0
LINE
  5
138
100
AcDbEntity
  8
1
  6
CONTINUOUS
 62
             3
100
AcDbLine
 10
94.26131606949771
 20
137.54458863702629
 11
94.26131606949771
 21
136.47458863702619
  0
LINE
  5
137
100
AcDbEntity
  8
1
  6
CONTINUOUS
 62
             3
100
AcDbLine
 10
94.26131606949771
 20
139.5006791021577
 11
95.11831606949771
 21
139.5006791021577
  0
LINE
  5
136
100
AcDbEntity
  8
1
  6
CONTINUOUS
 62
             3
100
AcDbLine
 10
92.96631606949771
 20
137.54458863702629
 11
92.96631606949771
 21
136.47458863702619
  0
LINE
  5
135
100
AcDbEntity
  8
1
  6
CONTINUOUS
 62
             3
100
AcDbLine
 10
92.10931606949769
 20
137.54458863702629
 11
92.10931606949769
 21
136.47458863702619
  0
LINE
  5
134
100
AcDbEntity
  8
1
  6
CONTINUOUS
 62
             3
100
AcDbLine
 10
92.10931606949769
 20
139.5006791021577
 11
92.96631606949771
 21
139.5006791021577
  0
LINE
  5
133
100
AcDbEntity
  8
1
  6
CONTINUOUS
 62
             3
100
AcDbLine
 10
90.81431606949771
 20
137.54458863702629
 11
90.81431606949771
 21
136.47458863702619
  0
LINE
  5
132
100
AcDbEntity
  8
1
  6
CONTINUOUS
 62
             3
100
AcDbLine
 10
89.95731606949771
 20
137.54458863702629
 11
89.95731606949771
 21
136.47458863702619
  0
LINE
  5
131
100
AcDbEntity
  8
1
  6
CONTINUOUS
 62
             3
100
AcDbLine
 10
89.95731606949771
 20
139.5006791021577
 11
90.81431606949771
 21
139.5006791021577
  0
LINE
  5
130
100
AcDbEntity
  8
1
  6
CONTINUOUS
 62
             3
100
AcDbLine
 10
88.6723160694977
 20
137.54458863702629
 11
88.6723160694977
 21
136.47458863702619
  0
LINE
  5
12F
100
AcDbEntity
  8
1
  6
CONTINUOUS
 62
             3
100
AcDbLine
 10
87.8153160694977
 20
137.54458863702629
 11
87.8153160694977
 21
136.47458863702619
  0
LINE
  5
12E
100
AcDbEntity
  8
1
  6
CONTINUOUS
 62
             3
100
AcDbLine
 10
87.8153160694977
 20
139.5006791021577
 11
88.6723160694977
 21
139.5006791021577
  0
LINE
  5
12D
100
AcDbEntity
  8
1
  6
CONTINUOUS
 62
             3
100
AcDbLine
 10
97.27031606949771
 20
142.18005530369291
 11
96.41331606949771
 21
142.23718863702621
  0
LINE
  5
12C
100
AcDbEntity
  8
1
  6
CONTINUOUS
 62
             3
100
AcDbLine
 10
97.27031606949771
 20
142.18005530369291
 11
97.27031606949771
 21
137.54458863702629
  0
LINE
  5
12B
100
AcDbEntity
  8
1
  6
CONTINUOUS
 62
             3
100
AcDbLine
 10
96.41331606949771
 20
142.23718863702621
 11
95.11831606949771
 21
142.32352197035959
  0
LINE
  5
12A
100
AcDbEntity
  8
1
  6
CONTINUOUS
 62
             3
100
AcDbLine
 10
96.41331606949771
 20
142.23718863702621
 11
96.41331606949771
 21
137.54458863702629
  0
LINE
  5
129
100
AcDbEntity
  8
1
  6
CONTINUOUS
 62
             3
100
AcDbLine
 10
95.11831606949771
 20
142.32352197035959
 11
94.26131606949771
 21
142.38065530369289
  0
LINE
  5
128
100
AcDbEntity
  8
1
  6
CONTINUOUS
 62
             3
100
AcDbLine
 10
95.11831606949771
 20
142.32352197035959
 11
95.11831606949771
 21
137.54458863702629
  0
LINE
  5
127
100
AcDbEntity
  8
1
  6
CONTINUOUS
 62
             3
100
AcDbLine
 10
94.26131606949771
 20
142.38065530369289
 11
92.96631606949771
 21
142.4669886370263
  0
LINE
  5
126
100
AcDbEntity
  8
1
  6
CONTINUOUS
 62
             3
100
AcDbLine
 10
92.96631606949771
 20
142.4669886370263
 11
92.10931606949769
 21
142.52412197035949
  0
LINE
  5
125
100
AcDbEntity
  8
1
  6
CONTINUOUS
 62
             3
100
AcDbLine
 10
92.96631606949771
 20
142.4669886370263
 11
92.96631606949771
 21
137.54458863702629
  0
LINE
  5
124
100
AcDbEntity
  8
1
  6
CONTINUOUS
 62
             3
100
AcDbLine
 10
92.10931606949769
 20
142.52412197035949
 11
90.81431606949771
 21
142.61045530369299
  0
LINE
  5
123
100
AcDbEntity
  8
1
  6
CONTINUOUS
 62
             3
100
AcDbLine
 10
92.10931606949769
 20
142.52412197035949
 11
92.10931606949769
 21
137.54458863702629
  0
LINE
  5
122
100
AcDbEntity
  8
1
  6
CONTINUOUS
 62
             3
100
AcDbLine
 10
90.81431606949771
 20
142.61045530369299
 11
89.95731606949771
 21
142.66758863702631
  0
LINE
  5
121
100
AcDbEntity
  8
1
  6
CONTINUOUS
 62
             3
100
AcDbLine
 10
90.81431606949771
 20
142.61045530369299
 11
90.81431606949771
 21
137.54458863702629
  0
LINE
  5
120
100
AcDbEntity
  8
1
  6
CONTINUOUS
 62
             3
100
AcDbLine
 10
89.95731606949771
 20
142.66758863702631
 11
88.6723160694977
 21
142.7532553036929
  0
LINE
  5
11F
100
AcDbEntity
  8
1
  6
CONTINUOUS
 62
             3
100
AcDbLine
 10
89.95731606949771
 20
142.66758863702631
 11
89.95731606949771
 21
137.54458863702629
  0
LINE
  5
11E
100
AcDbEntity
  8
1
  6
CONTINUOUS
 62
             3
100
AcDbLine
 10
88.6723160694977
 20
142.7532553036929
 11
87.8153160694977
 21
142.81038863702619
  0
LINE
  5
11D
100
AcDbEntity
  8
1
  6
CONTINUOUS
 62
             3
100
AcDbLine
 10
88.6723160694977
 20
142.7532553036929
 11
88.6723160694977
 21
137.54458863702629
  0
LINE
  5
11C
100
AcDbEntity
  8
1
  6
CONTINUOUS
 62
             3
100
AcDbLine
 10
87.8153160694977
 20
142.81038863702619
 11
85.74879705897395
 21
142.94815657106111
  0
LINE
  5
11B
100
AcDbEntity
  8
1
  6
CONTINUOUS
 62
             3
100
AcDbLine
 10
87.8153160694977
 20
142.81038863702619
 11
87.8153160694977
 21
137.54458863702629
  0
LINE
  5
11A
100
AcDbEntity
  8
1
  6
CONTINUOUS
 62
             3
100
AcDbLine
 10
68.16531606949771
 20
146.01038863702621
 11
68.16531606949771
 21
135.51038863702621
  0
LINE
  5
119
100
AcDbEntity
  8
1
  6
CONTINUOUS
 62
             3
100
AcDbLine
 10
70.4653160694977
 20
146.01038863702621
 11
70.4653160694977
 21
135.51038863702621
  0
LINE
  5
118
100
AcDbEntity
  8
1
  6
CONTINUOUS
 62
             3
100
AcDbLine
 10
72.7653160694977
 20
146.01038863702621
 11
72.7653160694977
 21
135.51038863702621
  0
LINE
  5
117
100
AcDbEntity
  8
1
  6
CONTINUOUS
 62
             3
100
AcDbLine
 10
75.06531606949771
 20
146.01038863702621
 11
75.06531606949771
 21
135.51038863702621
  0
LINE
  5
116
100
AcDbEntity
  8
1
  6
CONTINUOUS
 62
             3
100
AcDbLine
 10
77.36531606949771
 20
146.01038863702621
 11
77.36531606949771
 21
135.51038863702621
  0
LINE
  5
115
100
AcDbEntity
  8
1
  6
CONTINUOUS
 62
             3
100
AcDbLine
 10
67.0153160694977
 20
135.51038863702621
 11
67.0153160694977
 21
146.01038863702621
  0
LINE
  5
114
100
AcDbEntity
  8
1
  6
CONTINUOUS
 62
             3
100
AcDbLine
 10
69.3153160694977
 20
135.51038863702621
 11
69.3153160694977
 21
146.01038863702621
  0
LINE
  5
113
100
AcDbEntity
  8
1
  6
CONTINUOUS
 62
             3
100
AcDbLine
 10
71.6153160694977
 20
135.51038863702621
 11
71.6153160694977
 21
146.01038863702621
  0
LINE
  5
112
100
AcDbEntity
  8
1
  6
CONTINUOUS
 62
             3
100
AcDbLine
 10
73.91531606949771
 20
135.51038863702621
 11
73.91531606949771
 21
146.01038863702621
  0
LINE
  5
111
100
AcDbEntity
  8
1
  6
CONTINUOUS
 62
             3
100
AcDbLine
 10
76.2153160694977
 20
135.51038863702621
 11
76.2153160694977
 21
146.01038863702621
  0
LINE
  5
110
100
AcDbEntity
  8
1
  6
CONTINUOUS
 62
             3
100
AcDbLine
 10
67.5153160694977
 20
146.51038863702621
 11
67.66531606949771
 21
146.51038863702621
  0
LINE
  5
10F
100
AcDbEntity
  8
1
  6
CONTINUOUS
 62
             3
100
AcDbLine
 10
69.8153160694977
 20
146.51038863702621
 11
69.9653160694977
 21
146.51038863702621
  0
LINE
  5
10E
100
AcDbEntity
  8
1
  6
CONTINUOUS
 62
             3
100
AcDbLine
 10
72.1153160694977
 20
146.51038863702621
 11
72.2653160694977
 21
146.51038863702621
  0
LINE
  5
10D
100
AcDbEntity
  8
1
  6
CONTINUOUS
 62
             3
100
AcDbLine
 10
74.41531606949771
 20
146.51038863702621
 11
74.56531606949771
 21
146.51038863702621
  0
LINE
  5
10C
100
AcDbEntity
  8
1
  6
CONTINUOUS
 62
             3
100
AcDbLine
 10
76.7153160694977
 20
146.51038863702621
 11
76.86531606949771
 21
146.51038863702621
  0
LINE
  5
10B
100
AcDbEntity
  8
1
  6
CONTINUOUS
 62
             3
100
AcDbLine
 10
79.66531606949771
 20
146.01038863702621
 11
79.66531606949771
 21
135.51038863702621
  0
LINE
  5
10A
100
AcDbEntity
  8
1
  6
CONTINUOUS
 62
             3
100
AcDbLine
 10
79.0153160694977
 20
146.51038863702621
 11
79.16531606949771
 21
146.51038863702621
  0
LINE
  5
109
100
AcDbEntity
  8
1
  6
CONTINUOUS
 62
             3
100
AcDbLine
 10
78.5153160694977
 20
135.51038863702621
 11
78.5153160694977
 21
146.01038863702621
  0
LINE
  5
108
100
AcDbEntity
  8
1
  6
CONTINUOUS
 62
             3
100
AcDbLine
 10
80.8153160694977
 20
149.51038863702621
 11
80.8153160694977
 21
135.51038863702621
  0
LINE
  5
107
100
AcDbEntity
  8
1
  6
CONTINUOUS
 62
             3
100
AcDbLine
 10
99.8153160694977
 20
142.01038863702621
 11
97.27031606949771
 21
142.18005530369291
  0
LINE
  5
106
100
AcDbEntity
  8
1
  6
CONTINUOUS
 62
             3
100
AcDbLine
 10
84.8153160694977
 20
148.76038863702621
 11
84.8153160694977
 21
143.94594172891769
  0
LINE
  5
105
100
AcDbEntity
  8
1
  6
CONTINUOUS
 62
             3
100
AcDbLine
 10
80.8153160694977
 20
149.51038863702621
 11
80.8153160694977
 21
148.76038863702621
  0
LINE
  5
104
100
AcDbEntity
  8
1
  6
CONTINUOUS
 62
             3
100
AcDbLine
 10
54.81531606949771
 20
148.01038863702621
 11
54.81531606949771
 21
135.51038863702621
  0
LINE
  5
103
100
AcDbEntity
  8
1
  6
CONTINUOUS
 62
             3
100
AcDbLine
 10
80.0653160694977
 20
148.01038863702621
 11
79.66531606949771
 21
148.01038863702621
  0
LINE
  5
102
100
AcDbEntity
  8
1
  6
CONTINUOUS
 62
             3
100
AcDbLine
 10
80.8153160694977
 20
149.51038863702621
 11
84.0653160694977
 21
149.51038863702621
  0
LINE
  5
101
100
AcDbEntity
  8
1
  6
CONTINUOUS
 62
             3
100
AcDbLine
 10
7.11075431785116
 20
135.76038863702621
 11
5.17426264474745
 21
135.76038863702621
  0
LINE
  5
100
100
AcDbEntity
  8
1
  6
CONTINUOUS
 62
             3
100
AcDbLine
 10
5.17426264474745
 20
136.26038863702621
 11
7.11075431785116
 21
136.26038863702621
  0
LINE
  5
FF
100
AcDbEntity
  8
1
  6
CONTINUOUS
 62
             3
100
AcDbLine
 10
6.39250848129931
 20
143.47863447357801
 11
6.39250848129931
 21
141.54214280047441
  0
LINE
  5
FE
100
AcDbEntity
  8
1
  6
CONTINUOUS
 62
             3
100
AcDbLine
 10
5.89250848129931
 20
141.54214280047441
 11
5.89250848129931
 21
143.47863447357801
  0
LINE
  5
FD
100
AcDbEntity
  8
1
  6
CONTINUOUS
 62
             3
100
AcDbLine
 10
10.4925084812993
 20
124.5103886370262
 11
10.7425084812993
 21
124.5103886370262
  0
LINE
  5
FC
100
AcDbEntity
  8
1
  6
CONTINUOUS
 62
             3
100
AcDbLine
 10
11.24250848129931
 20
125.0103886370262
 11
11.24250848129931
 21
146.01038863702621
  0
LINE
  5
FB
100
AcDbEntity
  8
1
  6
CONTINUOUS
 62
             3
100
AcDbLine
 10
10.7425084812993
 20
146.51038863702621
 11
10.4925084812993
 21
146.51038863702621
  0
LINE
  5
FA
100
AcDbEntity
  8
1
  6
CONTINUOUS
 62
             3
100
AcDbLine
 10
9.01750848129931
 20
123.0103886370262
 11
9.01750848129931
 21
122.7603886370262
  0
LINE
  5
F9
100
AcDbEntity
  8
1
  6
CONTINUOUS
 62
             3
100
AcDbLine
 10
8.51750848129931
 20
122.2603886370262
 11
3.76750848129931
 21
122.2603886370262
  0
LINE
  5
F8
100
AcDbEntity
  8
1
  6
CONTINUOUS
 62
             3
100
AcDbLine
 10
3.26750848129931
 20
122.7603886370262
 11
3.26750848129931
 21
123.0103886370262
  0
LINE
  5
F7
100
AcDbEntity
  8
1
  6
CONTINUOUS
 62
             3
100
AcDbLine
 10
1.79250848129931
 20
124.5103886370262
 11
1.79250848129931
 21
123.2603886370262
  0
LINE
  5
F6
100
AcDbEntity
  8
1
  6
CONTINUOUS
 62
             3
100
AcDbLine
 10
1.54250848129931
 20
124.5103886370262
 11
1.79250848129931
 21
124.5103886370262
  0
LINE
  5
F5
100
AcDbEntity
  8
1
  6
CONTINUOUS
 62
             3
100
AcDbLine
 10
1.79250848129931
 20
146.51038863702621
 11
1.79250848129931
 21
124.5103886370262
  0
LINE
  5
F4
100
AcDbEntity
  8
1
  6
CONTINUOUS
 62
             3
100
AcDbLine
 10
1.79250848129931
 20
146.51038863702621
 11
1.54250848129931
 21
146.51038863702621
  0
LINE
  5
F3
100
AcDbEntity
  8
1
  6
CONTINUOUS
 62
             3
100
AcDbLine
 10
9.01750848129931
 20
148.01038863702621
 11
3.26750848129931
 21
148.01038863702621
  0
LINE
  5
F2
100
AcDbEntity
  8
1
  6
CONTINUOUS
 62
             3
100
AcDbLine
 10
9.01750848129931
 20
148.26038863702621
 11
9.01750848129931
 21
148.01038863702621
  0
LINE
  5
F1
100
AcDbEntity
  8
1
  6
CONTINUOUS
 62
             3
100
AcDbLine
 10
3.76750848129931
 20
148.76038863702621
 11
8.51750848129931
 21
148.76038863702621
  0
LINE
  5
F0
100
AcDbEntity
  8
1
  6
CONTINUOUS
 62
             3
100
AcDbLine
 10
2.91750848129931
 20
148.01038863702621
 11
2.04250848129931
 21
148.01038863702621
  0
LINE
  5
EF
100
AcDbEntity
  8
1
  6
CONTINUOUS
 62
             3
100
AcDbLine
 10
3.26750848129931
 20
148.01038863702621
 11
3.26750848129931
 21
148.26038863702621
  0
LINE
  5
EE
100
AcDbEntity
  8
1
  6
CONTINUOUS
 62
             3
100
AcDbLine
 10
0.64250848129931
 20
148.76038863702621
 11
0.64250848129931
 21
122.2603886370262
  0
LINE
  5
ED
100
AcDbEntity
  8
1
  6
CONTINUOUS
 62
             3
100
AcDbLine
 10
11.39250848129931
 20
149.01038863702621
 11
0.8925084812993
 21
149.01038863702621
  0
LINE
  5
EC
100
AcDbEntity
  8
1
  6
CONTINUOUS
 62
             3
100
AcDbLine
 10
0.8925084812993
 20
122.0103886370262
 11
11.39250848129931
 21
122.0103886370262
  0
LINE
  5
EB
100
AcDbEntity
  8
1
  6
CONTINUOUS
 62
             3
100
AcDbLine
 10
1.79250848129931
 20
147.76038863702621
 11
1.79250848129931
 21
146.51038863702621
  0
LINE
  5
EA
100
AcDbEntity
  8
1
  6
CONTINUOUS
 62
             3
100
AcDbLine
 10
10.2425084812993
 20
148.01038863702621
 11
8.66750848129931
 21
148.01038863702621
  0
LINE
  5
E9
100
AcDbEntity
  8
1
  6
CONTINUOUS
 62
             3
100
AcDbLine
 10
10.4925084812993
 20
123.2603886370262
 11
10.4925084812993
 21
148.26038863702621
  0
LINE
  5
E8
100
AcDbEntity
  8
1
  6
CONTINUOUS
 62
             3
100
AcDbLine
 10
2.04250848129931
 20
123.0103886370262
 11
10.2425084812993
 21
123.0103886370262
  0
LINE
  5
E7
100
AcDbEntity
  8
1
  6
DASH_CENTER
 62
             2
100
AcDbLine
 10
6.14250848129931
 20
150.1891041997512
 11
6.14250848129931
 21
121.5167759081573
  0
LINE
  5
E6
100
AcDbEntity
  8
1
  6
DASH_CENTER
 62
             2
100
AcDbLine
 10
-0.98462937419
 20
135.51038863702621
 11
13.23927342769431
 21
135.51038863702621
  0
LINE
  5
E5
100
AcDbEntity
  8
1
  6
CONTINUOUS
 62
             3
100
AcDbLine
 10
65.21531606949769
 20
146.51038863702621
 11
65.36531606949771
 21
146.51038863702621
  0
LINE
  5
E4
100
AcDbEntity
  8
1
  6
CONTINUOUS
 62
             3
100
AcDbLine
 10
64.7153160694977
 20
135.51038863702621
 11
64.7153160694977
 21
146.01038863702621
  0
LINE
  5
E3
100
AcDbEntity
  8
1
  6
CONTINUOUS
 62
             3
100
AcDbLine
 10
65.86531606949771
 20
146.01038863702621
 11
65.86531606949771
 21
135.51038863702621
  0
LINE
  5
E2
100
AcDbEntity
  8
1
  6
CONTINUOUS
 62
             3
100
AcDbLine
 10
65.36531606949771
 20
124.5103886370262
 11
65.2153160694977
 21
124.5103886370262
  0
LINE
  5
E1
100
AcDbEntity
  8
1
  6
CONTINUOUS
 62
             3
100
AcDbLine
 10
64.7153160694977
 20
125.0103886370262
 11
64.7153160694977
 21
135.51038863702621
  0
LINE
  5
E0
100
AcDbEntity
  8
1
  6
CONTINUOUS
 62
             3
100
AcDbLine
 10
65.86531606949771
 20
135.51038863702621
 11
65.86531606949771
 21
125.0103886370262
  0
LINE
  5
DF
100
AcDbEntity
  8
1
  6
CONTINUOUS
 62
             3
100
AcDbLine
 10
63.7153160694977
 20
91.72562003630711
 11
63.86531606949771
 21
91.72562003630711
  0
LINE
  5
DE
100
AcDbEntity
  8
1
  6
CONTINUOUS
 62
             3
100
AcDbLine
 10
63.2153160694977
 20
90.97562003630711
 11
63.2153160694977
 21
91.22562003630711
  0
LINE
  5
DD
100
AcDbEntity
  8
1
  6
CONTINUOUS
 62
             3
100
AcDbLine
 10
64.36531606949771
 20
91.22562003630711
 11
64.36531606949771
 21
90.97562003630711
  0
LINE
  5
DC
100
AcDbEntity
  8
1
  6
CONTINUOUS
 62
             3
100
AcDbLine
 10
63.86531606949771
 20
82.22562003630708
 11
63.7153160694977
 21
82.22562003630708
  0
LINE
  5
DB
100
AcDbEntity
  8
1
  6
CONTINUOUS
 62
             3
100
AcDbLine
 10
63.2153160694977
 20
82.72562003630708
 11
63.2153160694977
 21
82.97562003630708
  0
LINE
  5
DA
100
AcDbEntity
  8
1
  6
CONTINUOUS
 62
             3
100
AcDbLine
 10
64.36531606949771
 20
82.97562003630708
 11
64.36531606949771
 21
82.72562003630708
  0
LINE
  5
D9
100
AcDbEntity
  8
1
  6
CONTINUOUS
 62
             3
100
AcDbLine
 10
1.04250848129931
 20
146.01038863702621
 11
1.04250848129931
 21
125.0103886370262
  0
LINE
  5
D8
100
AcDbEntity
  8
1
  6
CONTINUOUS
 62
             3
100
AcDbLine
 10
5.17426264474745
 20
128.26038863702621
 11
7.11075431785116
 21
128.26038863702621
  0
LINE
  5
D7
100
AcDbEntity
  8
1
  6
CONTINUOUS
 62
             3
100
AcDbLine
 10
7.11075431785116
 20
127.7603886370262
 11
5.17426264474745
 21
127.7603886370262
  0
LINE
  5
D6
100
AcDbEntity
  8
1
  6
DASH_CENTER
 62
             2
100
AcDbLine
 10
4.36844950783164
 20
128.01038863702621
 11
7.93980705897315
 21
128.01038863702621
  0
LINE
  5
D5
100
AcDbEntity
  8
1
  6
DASH_CENTER
 62
             2
100
AcDbLine
 10
4.36844950783164
 20
142.51038863702621
 11
7.93980705897315
 21
142.51038863702621
  0
LINE
  5
D4
100
AcDbEntity
  8
1
  6
CONTINUOUS
 62
             2
100
AcDbLine
 10
84.8153160694977
 20
128.01038863702621
 11
91.5742164943573
 21
137.26038863702621
  0
LINE
  5
D3
100
AcDbEntity
  8
1
  6
CONTINUOUS
 62
             2
100
AcDbLine
 10
84.8153160694977
 20
143.01038863702621
 11
91.5742164943573
 21
149.07986223042971
  0
LINE
  5
D2
100
AcDbEntity
  8
1
  6
CONTINUOUS
 62
             3
100
AcDbLine
 10
99.8153160694977
 20
142.01038863702621
 11
99.8153160694977
 21
142.94594172891769
  0
LINE
  5
D1
100
AcDbEntity
  8
1
  6
CONTINUOUS
 62
             3
100
AcDbLine
 10
126.7034612462178
 20
131.8639653242866
 11
99.8153160694977
 21
131.79067910215761
  0
LINE
  5
D0
100
AcDbEntity
  8
1
  6
CONTINUOUS
 62
             3
100
AcDbLine
 10
141.13903851792031
 20
127.99596405205691
 11
133.74785038437889
 21
129.97642694354579
  0
LINE
  5
CF
100
AcDbEntity
  8
1
  6
CONTINUOUS
 62
             3
100
AcDbLine
 10
141.66573527470391
 20
129.96162310855519
 11
151.32499353759459
 21
127.3734326575301
  0
LINE
  5
CE
100
AcDbEntity
  8
1
  6
CONTINUOUS
 62
             3
100
AcDbLine
 10
150.93676496994081
 20
125.9245439180965
 11
141.27750670705009
 21
128.5127343691216
  0
LINE
  5
CD
100
AcDbEntity
  8
1
  6
CONTINUOUS
 62
             3
100
AcDbLine
 10
151.32499353759459
 20
127.3734326575301
 11
150.93676496994081
 21
125.9245439180965
  0
LINE
  5
CC
100
AcDbEntity
  8
1
  6
CONTINUOUS
 62
             3
100
AcDbLine
 10
141.66573527470391
 20
129.96162310855519
 11
151.32499353759459
 21
127.3734326575301
  0
LINE
  5
CB
100
AcDbEntity
  8
1
  6
CONTINUOUS
 62
             3
100
AcDbLine
 10
99.8153160694977
 20
136.9306791021576
 11
133.9231545379713
 21
139.790866706667
  0
LINE
  5
CA
100
AcDbEntity
  8
1
  6
CONTINUOUS
 62
             3
100
AcDbLine
 10
99.8153160694977
 20
139.5006791021577
 11
133.02252988316499
 21
142.28534285087139
  0
LINE
  5
C9
100
AcDbEntity
  8
1
  6
CONTINUOUS
 62
             3
100
AcDbLine
 10
141.80420346383369
 20
130.47839342561991
 11
141.13903851792031
 21
127.99596405205691
  0
LINE
  5
C8
100
AcDbEntity
  8
1
  6
CONTINUOUS
 62
             3
100
AcDbLine
 10
141.59460500584311
 20
143.00417301167059
 11
141.78397086133941
 21
140.45005270082501
  0
LINE
  5
C7
100
AcDbEntity
  8
1
  6
CONTINUOUS
 62
             3
100
AcDbLine
 10
141.64678498768879
 20
142.30038218780641
 11
150.8678185794067
 21
143.07363218440679
  0
LINE
  5
C6
100
AcDbEntity
  8
1
  6
CONTINUOUS
 62
             3
100
AcDbLine
 10
141.75114495138001
 20
140.89280054007779
 11
150.97217854309801
 21
141.6660505366782
  0
LINE
  5
C5
100
AcDbEntity
  8
1
  6
CONTINUOUS
 62
             3
100
AcDbLine
 10
150.97217854309801
 20
141.6660505366782
 11
150.8678185794067
 21
143.07363218440679
  0
LINE
  5
C4
100
AcDbEntity
  8
1
  6
CONTINUOUS
 62
             3
100
AcDbLine
 10
132.20699322662799
 20
130.3892983746168
 11
126.7034612462178
 21
131.8639653242866
  0
LINE
  5
C3
100
AcDbEntity
  8
1
  6
CONTINUOUS
 62
             3
100
AcDbLine
 10
135.17419433441211
 20
132.25489901765931
 11
141.80420346383369
 21
130.47839342561991
  0
LINE
  5
C2
100
AcDbEntity
  8
1
  6
CONTINUOUS
 62
             3
100
AcDbLine
 10
131.54387948850331
 20
136.9306791021576
 11
127.3153160694977
 21
136.9306791021576
  0
LINE
  5
C1
100
AcDbEntity
  8
1
  6
CONTINUOUS
 62
             3
100
AcDbLine
 10
136.29580097144171
 20
139.98983017734159
 11
141.78397086133941
 21
140.45005270082501
  0
LINE
  5
C0
100
AcDbEntity
  8
1
  6
CONTINUOUS
 62
             3
100
AcDbLine
 10
135.39517631663529
 20
142.48430632154589
 11
141.59460500584311
 21
143.00417301167059
  0
LINE
  5
BF
100
AcDbEntity
  8
1
  6
CONTINUOUS
 62
             3
100
AcDbLine
 10
134.21878677115811
 20
134.3606791021576
 11
142.3153160694977
 21
134.3606791021576
  0
LINE
  5
BE
100
AcDbEntity
  8
1
  6
CONTINUOUS
 62
             3
100
AcDbLine
 10
96.41331606949771
 20
136.9306791021576
 11
97.27031606949771
 21
136.9306791021576
  0
LINE
  5
BD
100
AcDbEntity
  8
1
  6
CONTINUOUS
 62
             3
100
AcDbLine
 10
94.26131606949771
 20
136.9306791021576
 11
95.11831606949771
 21
136.9306791021576
  0
LINE
  5
BC
100
AcDbEntity
  8
1
  6
CONTINUOUS
 62
             3
100
AcDbLine
 10
92.10931606949769
 20
136.9306791021576
 11
92.96631606949771
 21
136.9306791021576
  0
LINE
  5
BB
100
AcDbEntity
  8
1
  6
CONTINUOUS
 62
             3
100
AcDbLine
 10
89.95731606949771
 20
136.9306791021576
 11
90.81431606949771
 21
136.9306791021576
  0
LINE
  5
BA
100
AcDbEntity
  8
1
  6
CONTINUOUS
 62
             3
100
AcDbLine
 10
87.8153160694977
 20
136.9306791021576
 11
88.6723160694977
 21
136.9306791021576
  0
LINE
  5
B9
100
AcDbEntity
  8
1
  6
CONTINUOUS
 62
             3
100
AcDbLine
 10
88.6723160694977
 20
134.09009817189479
 11
87.8153160694977
 21
134.09009817189479
  0
LINE
  5
B8
100
AcDbEntity
  8
1
  6
CONTINUOUS
 62
             3
100
AcDbLine
 10
90.81431606949771
 20
134.09009817189479
 11
89.95731606949771
 21
134.09009817189479
  0
LINE
  5
B7
100
AcDbEntity
  8
1
  6
CONTINUOUS
 62
             3
100
AcDbLine
 10
92.96631606949771
 20
134.09009817189479
 11
92.10931606949769
 21
134.09009817189479
  0
LINE
  5
B6
100
AcDbEntity
  8
1
  6
CONTINUOUS
 62
             3
100
AcDbLine
 10
95.11831606949771
 20
134.09009817189479
 11
94.26131606949771
 21
134.09009817189479
  0
LINE
  5
B5
100
AcDbEntity
  8
1
  6
CONTINUOUS
 62
             3
100
AcDbLine
 10
97.27031606949771
 20
134.09009817189479
 11
96.41331606949771
 21
134.09009817189479
  0
LINE
  5
B4
100
AcDbEntity
  8
1
  6
CONTINUOUS
 62
             3
100
AcDbLine
 10
87.8153160694977
 20
134.54618863702629
 11
87.8153160694977
 21
133.47618863702621
  0
LINE
  5
B3
100
AcDbEntity
  8
1
  6
CONTINUOUS
 62
             3
100
AcDbLine
 10
88.6723160694977
 20
134.54618863702629
 11
88.6723160694977
 21
133.47618863702621
  0
LINE
  5
B2
100
AcDbEntity
  8
1
  6
CONTINUOUS
 62
             3
100
AcDbLine
 10
89.95731606949771
 20
134.54618863702629
 11
89.95731606949771
 21
133.47618863702621
  0
LINE
  5
B1
100
AcDbEntity
  8
1
  6
CONTINUOUS
 62
             3
100
AcDbLine
 10
90.81431606949771
 20
134.54618863702629
 11
90.81431606949771
 21
133.47618863702621
  0
LINE
  5
B0
100
AcDbEntity
  8
1
  6
CONTINUOUS
 62
             3
100
AcDbLine
 10
92.10931606949769
 20
134.54618863702629
 11
92.10931606949769
 21
133.47618863702621
  0
LINE
  5
AF
100
AcDbEntity
  8
1
  6
CONTINUOUS
 62
             3
100
AcDbLine
 10
92.96631606949771
 20
134.54618863702629
 11
92.96631606949771
 21
133.47618863702621
  0
LINE
  5
AE
100
AcDbEntity
  8
1
  6
CONTINUOUS
 62
             3
100
AcDbLine
 10
94.26131606949771
 20
134.54618863702629
 11
94.26131606949771
 21
133.47618863702621
  0
LINE
  5
AD
100
AcDbEntity
  8
1
  6
CONTINUOUS
 62
             3
100
AcDbLine
 10
95.11831606949771
 20
134.54618863702629
 11
95.11831606949771
 21
133.47618863702621
  0
LINE
  5
AC
100
AcDbEntity
  8
1
  6
CONTINUOUS
 62
             3
100
AcDbLine
 10
96.41331606949771
 20
134.54618863702629
 11
96.41331606949771
 21
133.47618863702621
  0
LINE
  5
AB
100
AcDbEntity
  8
1
  6
CONTINUOUS
 62
             3
100
AcDbLine
 10
97.27031606949771
 20
134.54618863702629
 11
97.27031606949771
 21
133.47618863702621
  0
LINE
  5
AA
100
AcDbEntity
  8
1
  6
CONTINUOUS
 62
             3
100
AcDbLine
 10
96.41331606949771
 20
133.6340077067633
 11
97.27031606949771
 21
133.6340077067633
  0
LINE
  5
A9
100
AcDbEntity
  8
1
  6
CONTINUOUS
 62
             3
100
AcDbLine
 10
94.26131606949771
 20
133.6340077067633
 11
95.11831606949771
 21
133.6340077067633
  0
LINE
  5
A8
100
AcDbEntity
  8
1
  6
CONTINUOUS
 62
             3
100
AcDbLine
 10
92.10931606949769
 20
133.6340077067633
 11
92.96631606949771
 21
133.6340077067633
  0
LINE
  5
A7
100
AcDbEntity
  8
1
  6
CONTINUOUS
 62
             3
100
AcDbLine
 10
89.95731606949771
 20
133.6340077067633
 11
90.81431606949771
 21
133.6340077067633
  0
LINE
  5
A6
100
AcDbEntity
  8
1
  6
CONTINUOUS
 62
             3
100
AcDbLine
 10
87.8153160694977
 20
133.6340077067633
 11
88.6723160694977
 21
133.6340077067633
  0
LINE
  5
A5
100
AcDbEntity
  8
1
  6
CONTINUOUS
 62
             3
100
AcDbLine
 10
-49.85135202952117
 20
146.51038863702621
 11
-49.70135202952118
 21
146.51038863702621
  0
LINE
  5
A4
100
AcDbEntity
  8
1
  6
CONTINUOUS
 62
             3
100
AcDbLine
 10
-49.20135202952117
 20
146.01038863702621
 11
-49.20135202952117
 21
135.51038863702621
  0
LINE
  5
A3
100
AcDbEntity
  8
1
  6
CONTINUOUS
 62
             3
100
AcDbLine
 10
-50.35135202952117
 20
135.51038863702621
 11
-50.35135202952117
 21
146.01038863702621
  0
LINE
  5
A2
100
AcDbEntity
  8
1
  6
CONTINUOUS
 62
             3
100
AcDbLine
 10
-49.70135202952118
 20
124.5103886370262
 11
-49.85135202952117
 21
124.5103886370262
  0
LINE
  5
A1
100
AcDbEntity
  8
1
  6
CONTINUOUS
 62
             3
100
AcDbLine
 10
-49.20135202952117
 20
135.51038863702621
 11
-49.20135202952117
 21
125.0103886370262
  0
LINE
  5
A0
100
AcDbEntity
  8
1
  6
CONTINUOUS
 62
             3
100
AcDbLine
 10
-50.35135202952117
 20
125.0103886370262
 11
-50.35135202952117
 21
135.51038863702621
  0
LINE
  5
9F
100
AcDbEntity
  8
1
  6
CONTINUOUS
 62
             3
100
AcDbLine
 10
-73.15835202952121
 20
133.6340077067633
 11
-72.30135202952121
 21
133.6340077067633
  0
LINE
  5
9E
100
AcDbEntity
  8
1
  6
CONTINUOUS
 62
             3
100
AcDbLine
 10
-75.30035202952121
 20
133.6340077067633
 11
-74.44335202952121
 21
133.6340077067633
  0
LINE
  5
9D
100
AcDbEntity
  8
1
  6
CONTINUOUS
 62
             3
100
AcDbLine
 10
-77.45235202952119
 20
133.6340077067633
 11
-76.59535202952119
 21
133.6340077067633
  0
LINE
  5
9C
100
AcDbEntity
  8
1
  6
CONTINUOUS
 62
             3
100
AcDbLine
 10
-79.60435202952121
 20
133.6340077067633
 11
-78.74735202952121
 21
133.6340077067633
  0
LINE
  5
9B
100
AcDbEntity
  8
1
  6
CONTINUOUS
 62
             3
100
AcDbLine
 10
-80.89935202952121
 20
133.47618863702621
 11
-80.89935202952121
 21
134.54618863702629
  0
LINE
  5
9A
100
AcDbEntity
  8
1
  6
CONTINUOUS
 62
             3
100
AcDbLine
 10
-79.60435202952121
 20
133.47618863702621
 11
-79.60435202952121
 21
134.54618863702629
  0
LINE
  5
99
100
AcDbEntity
  8
1
  6
CONTINUOUS
 62
             3
100
AcDbLine
 10
-78.74735202952121
 20
133.47618863702621
 11
-78.74735202952121
 21
134.54618863702629
  0
LINE
  5
98
100
AcDbEntity
  8
1
  6
CONTINUOUS
 62
             3
100
AcDbLine
 10
-77.45235202952119
 20
133.47618863702621
 11
-77.45235202952119
 21
134.54618863702629
  0
LINE
  5
97
100
AcDbEntity
  8
1
  6
CONTINUOUS
 62
             3
100
AcDbLine
 10
-76.59535202952119
 20
133.47618863702621
 11
-76.59535202952119
 21
134.54618863702629
  0
LINE
  5
96
100
AcDbEntity
  8
1
  6
CONTINUOUS
 62
             3
100
AcDbLine
 10
-75.30035202952121
 20
133.47618863702621
 11
-75.30035202952121
 21
134.54618863702629
  0
LINE
  5
95
100
AcDbEntity
  8
1
  6
CONTINUOUS
 62
             3
100
AcDbLine
 10
-74.44335202952121
 20
133.47618863702621
 11
-74.44335202952121
 21
134.54618863702629
  0
LINE
  5
94
100
AcDbEntity
  8
1
  6
CONTINUOUS
 62
             3
100
AcDbLine
 10
-73.15835202952121
 20
133.47618863702621
 11
-73.15835202952121
 21
134.54618863702629
  0
LINE
  5
93
100
AcDbEntity
  8
1
  6
CONTINUOUS
 62
             3
100
AcDbLine
 10
-72.30135202952121
 20
133.47618863702621
 11
-72.30135202952121
 21
134.54618863702629
  0
LINE
  5
92
100
AcDbEntity
  8
1
  6
CONTINUOUS
 62
             3
100
AcDbLine
 10
-80.89935202952121
 20
134.09009817189479
 11
-81.54142940236881
 21
134.09009817189479
  0
LINE
  5
91
100
AcDbEntity
  8
1
  6
CONTINUOUS
 62
             3
100
AcDbLine
 10
-78.74735202952121
 20
134.09009817189479
 11
-79.60435202952121
 21
134.09009817189479
  0
LINE
  5
90
100
AcDbEntity
  8
1
  6
CONTINUOUS
 62
             3
100
AcDbLine
 10
-76.59535202952119
 20
134.09009817189479
 11
-77.45235202952119
 21
134.09009817189479
  0
LINE
  5
8F
100
AcDbEntity
  8
1
  6
CONTINUOUS
 62
             3
100
AcDbLine
 10
-74.44335202952121
 20
134.09009817189479
 11
-75.30035202952121
 21
134.09009817189479
  0
LINE
  5
8E
100
AcDbEntity
  8
1
  6
CONTINUOUS
 62
             3
100
AcDbLine
 10
-72.30135202952121
 20
134.09009817189479
 11
-73.15835202952121
 21
134.09009817189479
  0
LINE
  5
8D
100
AcDbEntity
  8
1
  6
CONTINUOUS
 62
             3
100
AcDbLine
 10
-73.15835202952121
 20
136.9306791021576
 11
-72.30135202952121
 21
136.9306791021576
  0
LINE
  5
8C
100
AcDbEntity
  8
1
  6
CONTINUOUS
 62
             3
100
AcDbLine
 10
-75.30035202952121
 20
136.9306791021576
 11
-74.44335202952121
 21
136.9306791021576
  0
LINE
  5
8B
100
AcDbEntity
  8
1
  6
CONTINUOUS
 62
             3
100
AcDbLine
 10
-77.45235202952119
 20
136.9306791021576
 11
-76.59535202952119
 21
136.9306791021576
  0
LINE
  5
8A
100
AcDbEntity
  8
1
  6
CONTINUOUS
 62
             3
100
AcDbLine
 10
-79.60435202952121
 20
136.9306791021576
 11
-78.74735202952121
 21
136.9306791021576
  0
LINE
  5
89
100
AcDbEntity
  8
1
  6
CONTINUOUS
 62
             3
100
AcDbLine
 10
-72.30135202952121
 20
137.54458863702629
 11
-72.30135202952121
 21
142.81038863702619
  0
LINE
  5
88
100
AcDbEntity
  8
1
  6
CONTINUOUS
 62
             3
100
AcDbLine
 10
-70.23483301899745
 20
142.94815657106111
 11
-72.30135202952121
 21
142.81038863702619
  0
LINE
  5
87
100
AcDbEntity
  8
1
  6
CONTINUOUS
 62
             3
100
AcDbLine
 10
-73.15835202952121
 20
137.54458863702629
 11
-73.15835202952121
 21
142.7532553036929
  0
LINE
  5
86
100
AcDbEntity
  8
1
  6
CONTINUOUS
 62
             3
100
AcDbLine
 10
-72.30135202952121
 20
142.81038863702619
 11
-73.15835202952121
 21
142.7532553036929
  0
LINE
  5
85
100
AcDbEntity
  8
1
  6
CONTINUOUS
 62
             3
100
AcDbLine
 10
-74.44335202952121
 20
137.54458863702629
 11
-74.44335202952121
 21
142.66758863702631
  0
LINE
  5
84
100
AcDbEntity
  8
1
  6
CONTINUOUS
 62
             3
100
AcDbLine
 10
-73.15835202952121
 20
142.7532553036929
 11
-74.44335202952121
 21
142.66758863702631
  0
LINE
  5
83
100
AcDbEntity
  8
1
  6
CONTINUOUS
 62
             3
100
AcDbLine
 10
-75.30035202952121
 20
137.54458863702629
 11
-75.30035202952121
 21
142.61045530369299
  0
LINE
  5
82
100
AcDbEntity
  8
1
  6
CONTINUOUS
 62
             3
100
AcDbLine
 10
-74.44335202952121
 20
142.66758863702631
 11
-75.30035202952121
 21
142.61045530369299
  0
LINE
  5
81
100
AcDbEntity
  8
1
  6
CONTINUOUS
 62
             3
100
AcDbLine
 10
-76.59535202952119
 20
137.54458863702629
 11
-76.59535202952119
 21
142.52412197035949
  0
LINE
  5
80
100
AcDbEntity
  8
1
  6
CONTINUOUS
 62
             3
100
AcDbLine
 10
-75.30035202952121
 20
142.61045530369299
 11
-76.59535202952119
 21
142.52412197035949
  0
LINE
  5
7F
100
AcDbEntity
  8
1
  6
CONTINUOUS
 62
             3
100
AcDbLine
 10
-77.45235202952119
 20
137.54458863702629
 11
-77.45235202952119
 21
142.4669886370263
  0
LINE
  5
7E
100
AcDbEntity
  8
1
  6
CONTINUOUS
 62
             3
100
AcDbLine
 10
-76.59535202952119
 20
142.52412197035949
 11
-77.45235202952119
 21
142.4669886370263
  0
LINE
  5
7D
100
AcDbEntity
  8
1
  6
CONTINUOUS
 62
             3
100
AcDbLine
 10
-77.45235202952119
 20
142.4669886370263
 11
-78.74735202952121
 21
142.38065530369289
  0
LINE
  5
7C
100
AcDbEntity
  8
1
  6
CONTINUOUS
 62
             3
100
AcDbLine
 10
-79.60435202952121
 20
137.54458863702629
 11
-79.60435202952121
 21
142.32352197035959
  0
LINE
  5
7B
100
AcDbEntity
  8
1
  6
CONTINUOUS
 62
             3
100
AcDbLine
 10
-78.74735202952121
 20
142.38065530369289
 11
-79.60435202952121
 21
142.32352197035959
  0
LINE
  5
7A
100
AcDbEntity
  8
1
  6
CONTINUOUS
 62
             3
100
AcDbLine
 10
-79.60435202952121
 20
142.32352197035959
 11
-80.89935202952121
 21
142.23718863702621
  0
LINE
  5
79
100
AcDbEntity
  8
1
  6
CONTINUOUS
 62
             3
100
AcDbLine
 10
-73.15835202952121
 20
139.5006791021577
 11
-72.30135202952121
 21
139.5006791021577
  0
LINE
  5
78
100
AcDbEntity
  8
1
  6
CONTINUOUS
 62
             3
100
AcDbLine
 10
-72.30135202952121
 20
136.47458863702619
 11
-72.30135202952121
 21
137.54458863702629
  0
LINE
  5
77
100
AcDbEntity
  8
1
  6
CONTINUOUS
 62
             3
100
AcDbLine
 10
-73.15835202952121
 20
136.47458863702619
 11
-73.15835202952121
 21
137.54458863702629
  0
LINE
  5
76
100
AcDbEntity
  8
1
  6
CONTINUOUS
 62
             3
100
AcDbLine
 10
-75.30035202952121
 20
139.5006791021577
 11
-74.44335202952121
 21
139.5006791021577
  0
LINE
  5
75
100
AcDbEntity
  8
1
  6
CONTINUOUS
 62
             3
100
AcDbLine
 10
-74.44335202952121
 20
136.47458863702619
 11
-74.44335202952121
 21
137.54458863702629
  0
LINE
  5
74
100
AcDbEntity
  8
1
  6
CONTINUOUS
 62
             3
100
AcDbLine
 10
-75.30035202952121
 20
136.47458863702619
 11
-75.30035202952121
 21
137.54458863702629
  0
LINE
  5
73
100
AcDbEntity
  8
1
  6
CONTINUOUS
 62
             3
100
AcDbLine
 10
-77.45235202952119
 20
139.5006791021577
 11
-76.59535202952119
 21
139.5006791021577
  0
LINE
  5
72
100
AcDbEntity
  8
1
  6
CONTINUOUS
 62
             3
100
AcDbLine
 10
-76.59535202952119
 20
136.47458863702619
 11
-76.59535202952119
 21
137.54458863702629
  0
LINE
  5
71
100
AcDbEntity
  8
1
  6
CONTINUOUS
 62
             3
100
AcDbLine
 10
-77.45235202952119
 20
136.47458863702619
 11
-77.45235202952119
 21
137.54458863702629
  0
LINE
  5
70
100
AcDbEntity
  8
1
  6
CONTINUOUS
 62
             3
100
AcDbLine
 10
-79.60435202952121
 20
139.5006791021577
 11
-78.74735202952121
 21
139.5006791021577
  0
LINE
  5
6F
100
AcDbEntity
  8
1
  6
CONTINUOUS
 62
             3
100
AcDbLine
 10
-78.74735202952121
 20
136.47458863702619
 11
-78.74735202952121
 21
137.54458863702629
  0
LINE
  5
6E
100
AcDbEntity
  8
1
  6
CONTINUOUS
 62
             3
100
AcDbLine
 10
-79.60435202952121
 20
136.47458863702619
 11
-79.60435202952121
 21
137.54458863702629
  0
LINE
  5
6D
100
AcDbEntity
  8
1
  6
CONTINUOUS
 62
             3
100
AcDbLine
 10
-78.74735202952121
 20
137.38676956728901
 11
-79.60435202952121
 21
137.38676956728901
  0
LINE
  5
6C
100
AcDbEntity
  8
1
  6
CONTINUOUS
 62
             3
100
AcDbLine
 10
-78.74735202952121
 20
135.51038863702621
 11
-78.74735202952121
 21
136.47458863702619
  0
LINE
  5
6B
100
AcDbEntity
  8
1
  6
CONTINUOUS
 62
             3
100
AcDbLine
 10
-79.60435202952121
 20
135.51038863702621
 11
-79.60435202952121
 21
136.47458863702619
  0
LINE
  5
6A
100
AcDbEntity
  8
1
  6
CONTINUOUS
 62
             3
100
AcDbLine
 10
-76.59535202952119
 20
137.38676956728901
 11
-77.45235202952119
 21
137.38676956728901
  0
LINE
  5
69
100
AcDbEntity
  8
1
  6
CONTINUOUS
 62
             3
100
AcDbLine
 10
-76.59535202952119
 20
135.51038863702621
 11
-76.59535202952119
 21
136.47458863702619
  0
LINE
  5
68
100
AcDbEntity
  8
1
  6
CONTINUOUS
 62
             3
100
AcDbLine
 10
-77.45235202952119
 20
135.51038863702621
 11
-77.45235202952119
 21
136.47458863702619
  0
LINE
  5
67
100
AcDbEntity
  8
1
  6
CONTINUOUS
 62
             3
100
AcDbLine
 10
-74.44335202952121
 20
137.38676956728901
 11
-75.30035202952121
 21
137.38676956728901
  0
LINE
  5
66
100
AcDbEntity
  8
1
  6
CONTINUOUS
 62
             3
100
AcDbLine
 10
-74.44335202952121
 20
135.51038863702621
 11
-74.44335202952121
 21
136.47458863702619
  0
LINE
  5
65
100
AcDbEntity
  8
1
  6
CONTINUOUS
 62
             3
100
AcDbLine
 10
-75.30035202952121
 20
135.51038863702621
 11
-75.30035202952121
 21
136.47458863702619
  0
LINE
  5
64
100
AcDbEntity
  8
1
  6
CONTINUOUS
 62
             3
100
AcDbLine
 10
-72.30135202952121
 20
137.38676956728901
 11
-73.15835202952121
 21
137.38676956728901
  0
LINE
  5
63
100
AcDbEntity
  8
1
  6
CONTINUOUS
 62
             3
100
AcDbLine
 10
-72.30135202952121
 20
135.51038863702621
 11
-72.30135202952121
 21
136.47458863702619
  0
LINE
  5
62
100
AcDbEntity
  8
1
  6
CONTINUOUS
 62
             3
100
AcDbLine
 10
-73.15835202952121
 20
135.51038863702621
 11
-73.15835202952121
 21
136.47458863702619
  0
LINE
  5
61
100
AcDbEntity
  8
1
  6
CONTINUOUS
 62
             3
100
AcDbLine
 10
-72.30135202952121
 20
128.21038863702631
 11
-72.30135202952121
 21
134.54618863702629
  0
LINE
  5
60
100
AcDbEntity
  8
1
  6
CONTINUOUS
 62
             3
100
AcDbLine
 10
-72.30135202952121
 20
128.21038863702631
 11
-70.23483301899745
 21
128.07262070299129
  0
LINE
  5
5F
100
AcDbEntity
  8
1
  6
CONTINUOUS
 62
             3
100
AcDbLine
 10
-73.15835202952121
 20
128.26752197035941
 11
-73.15835202952121
 21
134.54618863702629
  0
LINE
  5
5E
100
AcDbEntity
  8
1
  6
CONTINUOUS
 62
             3
100
AcDbLine
 10
-73.15835202952121
 20
128.26752197035941
 11
-72.30135202952121
 21
128.21038863702631
  0
LINE
  5
5D
100
AcDbEntity
  8
1
  6
CONTINUOUS
 62
             3
100
AcDbLine
 10
-74.44335202952121
 20
128.35318863702619
 11
-74.44335202952121
 21
134.54618863702629
  0
LINE
  5
5C
100
AcDbEntity
  8
1
  6
CONTINUOUS
 62
             3
100
AcDbLine
 10
-74.44335202952121
 20
128.35318863702619
 11
-73.15835202952121
 21
128.26752197035941
  0
LINE
  5
5B
100
AcDbEntity
  8
1
  6
CONTINUOUS
 62
             3
100
AcDbLine
 10
-75.30035202952121
 20
128.41032197035949
 11
-75.30035202952121
 21
134.54618863702629
  0
LINE
  5
5A
100
AcDbEntity
  8
1
  6
CONTINUOUS
 62
             3
100
AcDbLine
 10
-75.30035202952121
 20
128.41032197035949
 11
-74.44335202952121
 21
128.35318863702619
  0
LINE
  5
59
100
AcDbEntity
  8
1
  6
CONTINUOUS
 62
             3
100
AcDbLine
 10
-76.59535202952119
 20
128.4966553036929
 11
-76.59535202952119
 21
134.54618863702629
  0
LINE
  5
58
100
AcDbEntity
  8
1
  6
CONTINUOUS
 62
             3
100
AcDbLine
 10
-76.59535202952119
 20
128.4966553036929
 11
-75.30035202952121
 21
128.41032197035949
  0
LINE
  5
57
100
AcDbEntity
  8
1
  6
CONTINUOUS
 62
             3
100
AcDbLine
 10
-77.45235202952119
 20
128.55378863702609
 11
-77.45235202952119
 21
134.54618863702629
  0
LINE
  5
56
100
AcDbEntity
  8
1
  6
CONTINUOUS
 62
             3
100
AcDbLine
 10
-77.45235202952119
 20
128.55378863702609
 11
-76.59535202952119
 21
128.4966553036929
  0
LINE
  5
55
100
AcDbEntity
  8
1
  6
CONTINUOUS
 62
             3
100
AcDbLine
 10
-78.74735202952121
 20
128.6401219703595
 11
-78.74735202952121
 21
134.54618863702629
  0
LINE
  5
54
100
AcDbEntity
  8
1
  6
CONTINUOUS
 62
             3
100
AcDbLine
 10
-78.74735202952121
 20
128.6401219703595
 11
-77.45235202952119
 21
128.55378863702609
  0
LINE
  5
53
100
AcDbEntity
  8
1
  6
CONTINUOUS
 62
             3
100
AcDbLine
 10
-79.60435202952121
 20
128.69725530369291
 11
-79.60435202952121
 21
134.54618863702629
  0
LINE
  5
52
100
AcDbEntity
  8
1
  6
CONTINUOUS
 62
             3
100
AcDbLine
 10
-79.60435202952121
 20
128.69725530369291
 11
-78.74735202952121
 21
128.6401219703595
  0
LINE
  5
51
100
AcDbEntity
  8
1
  6
CONTINUOUS
 62
             3
100
AcDbLine
 10
-72.30135202952121
 20
131.79067910215761
 11
-73.15835202952121
 21
131.79067910215761
  0
LINE
  5
50
100
AcDbEntity
  8
1
  6
CONTINUOUS
 62
             3
100
AcDbLine
 10
-74.44335202952121
 20
131.79067910215761
 11
-75.30035202952121
 21
131.79067910215761
  0
LINE
  5
4F
100
AcDbEntity
  8
1
  6
CONTINUOUS
 62
             3
100
AcDbLine
 10
-76.59535202952119
 20
131.79067910215761
 11
-77.45235202952119
 21
131.79067910215761
  0
LINE
  5
4E
100
AcDbEntity
  8
1
  6
CONTINUOUS
 62
             3
100
AcDbLine
 10
-78.74735202952121
 20
131.79067910215761
 11
-79.60435202952121
 21
131.79067910215761
  0
LINE
  5
4D
100
AcDbEntity
  8
1
  6
CONTINUOUS
 62
             3
100
AcDbLine
 10
-80.89935202952121
 20
131.79067910215761
 11
-81.7563520295212
 21
131.79067910215761
  0
LINE
  5
4C
100
AcDbEntity
  8
1
  6
CONTINUOUS
 62
             3
100
AcDbLine
 10
-80.89935202952121
 20
134.54618863702629
 11
-80.89935202952121
 21
135.51038863702621
  0
LINE
  5
4B
100
AcDbEntity
  8
1
  6
CONTINUOUS
 62
             3
100
AcDbLine
 10
-78.74735202952121
 20
134.54618863702629
 11
-78.74735202952121
 21
135.51038863702621
  0
LINE
  5
4A
100
AcDbEntity
  8
1
  6
CONTINUOUS
 62
             3
100
AcDbLine
 10
-79.60435202952121
 20
134.54618863702629
 11
-79.60435202952121
 21
135.51038863702621
  0
LINE
  5
49
100
AcDbEntity
  8
1
  6
CONTINUOUS
 62
             3
100
AcDbLine
 10
-76.59535202952119
 20
134.54618863702629
 11
-76.59535202952119
 21
135.51038863702621
  0
LINE
  5
48
100
AcDbEntity
  8
1
  6
CONTINUOUS
 62
             3
100
AcDbLine
 10
-77.45235202952119
 20
134.54618863702629
 11
-77.45235202952119
 21
135.51038863702621
  0
LINE
  5
47
100
AcDbEntity
  8
1
  6
CONTINUOUS
 62
             3
100
AcDbLine
 10
-74.44335202952121
 20
134.54618863702629
 11
-74.44335202952121
 21
135.51038863702621
  0
LINE
  5
46
100
AcDbEntity
  8
1
  6
CONTINUOUS
 62
             3
100
AcDbLine
 10
-75.30035202952121
 20
134.54618863702629
 11
-75.30035202952121
 21
135.51038863702621
  0
LINE
  5
45
100
AcDbEntity
  8
1
  6
CONTINUOUS
 62
             3
100
AcDbLine
 10
-72.30135202952121
 20
134.54618863702629
 11
-72.30135202952121
 21
135.51038863702621
  0
LINE
  5
44
100
AcDbEntity
  8
1
  6
CONTINUOUS
 62
             3
100
AcDbLine
 10
-73.15835202952121
 20
134.54618863702629
 11
-73.15835202952121
 21
135.51038863702621
  0
LINE
  5
43
100
AcDbEntity
  8
1
  6
CONTINUOUS
 62
             3
100
AcDbLine
 10
-69.30135202952121
 20
143.01038863702621
 11
-69.30135202952121
 21
143.94594172891769
  0
LINE
  5
42
100
AcDbEntity
  8
1
  6
CONTINUOUS
 62
             3
100
AcDbLine
 10
-69.30135202952121
 20
135.51038863702621
 11
-69.30135202952121
 21
143.01038863702621
  0
LINE
  5
41
100
AcDbEntity
  8
1
  6
CONTINUOUS
 62
             3
100
AcDbLine
 10
-69.30135202952121
 20
128.01038863702621
 11
-69.30135202952121
 21
135.51038863702621
  0
LINE
  5
40
100
AcDbEntity
  8
1
  6
CONTINUOUS
 62
             3
100
AcDbLine
 10
-78.74735202952121
 20
137.54458863702629
 11
-78.74735202952121
 21
142.38065530369289
  0
LINE
  5
3F
100
AcDbEntity
  8
1
  6
CONTINUOUS
 62
             3
100
AcDbLine
 10
-69.30135202952121
 20
127.0748355451347
 11
-69.30135202952121
 21
128.01038863702621
  0
LINE
  5
3E
100
AcDbEntity
  8
1
  6
DASH_CENTER
 62
             2
100
AcDbLine
 10
-83.5622079227509
 20
135.51038863702621
 11
-36.77152748346948
 21
135.51038863702621
  0
LINE
  5
3D
100
AcDbEntity
  8
1
  6
CONTINUOUS
 62
             3
100
AcDbLine
 10
-80.89935202952121
 20
129.76911871359641
 11
-80.89935202952121
 21
134.54618863702629
  0
LINE
  5
3C
100
AcDbEntity
  8
1
  6
CONTINUOUS
 62
             3
100
AcDbLine
 10
-81.7563520295212
 20
131.07688059754889
 11
-81.7563520295212
 21
133.47618863702621
  0
LINE
  5
3B
100
AcDbEntity
  8
1
  6
CONTINUOUS
 62
             3
100
AcDbLine
 10
-81.7067123875012
 20
133.6340077067633
 11
-80.89935202952121
 21
133.6340077067633
  0
LINE
  5
3A
102
{ACAD_REACTORS
330
428
102
}
100
AcDbEntity
  8
1
  6
CONTINUOUS
 62
             3
100
AcDbLine
 10
-41.53927885412806
 20
143.47863447357801
 11
-39.3013520295212
 21
143.47863447357801
  0
LINE
  5
39
102
{ACAD_REACTORS
330
429
102
}
100
AcDbEntity
  8
1
  6
CONTINUOUS
 62
             3
100
AcDbLine
 10
-41.46015483007887
 20
141.54214280047441
 11
-39.3013520295212
 21
141.54214280047441
  0
LINE
  5
38
102
{ACAD_REACTORS
330
427
102
}
100
AcDbEntity
  8
1
  6
CONTINUOUS
 62
             3
100
AcDbLine
 10
-39.3013520295212
 20
129.01790052977009
 11
-41.53234713508568
 21
129.01790052977009
  0
LINE
  5
37
102
{ACAD_REACTORS
330
42A
102
}
100
AcDbEntity
  8
1
  6
CONTINUOUS
 62
             3
100
AcDbLine
 10
-39.3013520295212
 20
127.0814088566663
 11
-41.53088028898973
 21
127.0814088566663
  0
LINE
  5
36
100
AcDbEntity
  8
1
  6
CONTINUOUS
 62
             3
100
AcDbLine
 10
-41.0013520295212
 20
128.7331936036735
 11
-41.0013520295212
 21
128.48792039243591
  0
LINE
  5
35
100
AcDbEntity
  8
1
  6
CONTINUOUS
 62
             3
100
AcDbLine
 10
-41.0013520295212
 20
128.48792039243591
 11
-41.36719843250877
 21
128.43845431883679
  0
LINE
  5
34
100
AcDbEntity
  8
1
  6
CONTINUOUS
 62
             3
100
AcDbLine
 10
-41.5188682203202
 20
127.6618813862472
 11
-41.0013520295212
 21
127.6000305369119
  0
LINE
  5
33
100
AcDbEntity
  8
1
  6
CONTINUOUS
 62
             3
100
AcDbLine
 10
-41.0013520295212
 20
127.6000305369119
 11
-41.0013520295212
 21
127.3547573256743
  0
LINE
  5
32
100
AcDbEntity
  8
1
  6
CONTINUOUS
 62
             3
100
AcDbLine
 10
-41.0013520295212
 20
127.3547573256743
 11
-41.58953791604335
 21
127.3547573256743
  0
LINE
  5
31
100
AcDbEntity
  8
1
  6
CONTINUOUS
 62
             3
100
AcDbLine
 10
-41.44600876408375
 20
128.7331936036735
 11
-41.0013520295212
 21
128.7331936036735
  0
LINE
  5
30
100
AcDbEntity
  8
1
  6
CONTINUOUS
 62
             3
100
AcDbLine
 10
-39.3013520295212
 20
143.95058185911191
 11
-39.3013520295212
 21
148.01038863702621
  0
LINE
  5
2F
102
{ACAD_REACTORS
330
428
102
}
100
AcDbEntity
  8
1
  6
CONTINUOUS
 62
             3
100
AcDbLine
 10
-39.3013520295212
 20
143.47863447357801
 11
-39.3013520295212
 21
143.95058185911191
  0
LINE
  5
2E
100
AcDbEntity
  8
1
  6
CONTINUOUS
 62
             3
100
AcDbLine
 10
-39.3013520295212
 20
141.54214280047441
 11
-39.3013520295212
 21
143.47863447357801
  0
LINE
  5
2D
102
{ACAD_REACTORS
330
429
102
}
100
AcDbEntity
  8
1
  6
CONTINUOUS
 62
             3
100
AcDbLine
 10
-39.3013520295212
 20
140.97674304617641
 11
-39.3013520295212
 21
141.54214280047441
  0
LINE
  5
2C
100
AcDbEntity
  8
1
  6
CONTINUOUS
 62
             3
100
AcDbLine
 10
-39.3013520295212
 20
129.583300284068
 11
-39.3013520295212
 21
135.51038863702621
  0
LINE
  5
2B
102
{ACAD_REACTORS
330
427
102
}
100
AcDbEntity
  8
1
  6
CONTINUOUS
 62
             3
100
AcDbLine
 10
-39.3013520295212
 20
129.01790052977009
 11
-39.3013520295212
 21
129.583300284068
  0
LINE
  5
2A
100
AcDbEntity
  8
1
  6
CONTINUOUS
 62
             3
100
AcDbLine
 10
-39.3013520295212
 20
127.0814088566663
 11
-39.3013520295212
 21
129.01790052977009
  0
LINE
  5
29
102
{ACAD_REACTORS
330
42A
102
}
100
AcDbEntity
  8
1
  6
CONTINUOUS
 62
             3
100
AcDbLine
 10
-39.3013520295212
 20
126.60946147113251
 11
-39.3013520295212
 21
127.0814088566663
  0
LINE
  5
28
100
AcDbEntity
  8
1
  6
CONTINUOUS
 62
             3
100
AcDbLine
 10
11.64250848129931
 20
122.2603886370262
 11
11.64250848129931
 21
148.76038863702621
  0
SOLID
  5
352
100
AcDbEntity
  8
1
 62
             2
100
AcDbTrace
 10
92.03500023591319
 20
145.57986223042971
 11
91.11343275280142
 21
145.57986223042971
 12
91.5742164943573
 22
149.07986223042971
 13
91.5742164943573
 23
149.07986223042971
  0
SOLID
  5
354
100
AcDbEntity
  8
1
 62
             2
100
AcDbTrace
 10
91.11343275280142
 20
140.76038863702621
 11
92.03500023591319
 21
140.76038863702621
 12
91.5742164943573
 22
137.26038863702621
 13
91.5742164943573
 23
137.26038863702621
  0
SOLID
  5
356
100
AcDbEntity
  8
1
 62
             2
100
AcDbTrace
 10
92.41868082241579
 20
90.23523897954053
 11
91.49711333930402
 21
90.23523897954053
 12
91.95789708085991
 22
93.73523897954053
 13
91.95789708085991
 23
93.73523897954053
  0
SOLID
  5
358
100
AcDbEntity
  8
1
 62
             2
100
AcDbTrace
 10
91.49711333930402
 20
87.83685385644174
 11
92.41868082241579
 21
87.83685385644174
 12
91.95789708085991
 22
84.33685385644174
 13
91.95789708085991
 23
84.33685385644174
  0
ENDSEC
  0
SECTION
  2
OBJECTS
  0
DICTIONARY
  5
19
100
AcDbDictionary
  3
ACAD_GROUP
350
1A
  3
ACAD_MLINESTYLE
350
1B
  0
DICTIONARY
  5
1A
102
{ACAD_REACTORS
330
19
102
}
100
AcDbDictionary
  0
DICTIONARY
  5
1B
102
{ACAD_REACTORS
330
19
102
}
100
AcDbDictionary
  3
STANDARD
350
1C
  0
MLINESTYLE
  5
1C
102
{ACAD_REACTORS
330
1B
102
}
100
AcDbMlineStyle
  2
STANDARD
 70
             0
  3

 62
             0
 51
90.0
 52
90.0
 71
             2
 49
0.5
 62
           256
  6
BYLAYER
 49
-0.5
 62
           256
  6
BYLAYER
  0
ENDSEC
  0
EOF
