  0
SECTION
  2
HEADER
  9
$ACADVER
  1
AC1014
  9
$ACADMAINTVER
 70
             0
  9
$DWGCODEPAGE
  3
ANSI_1252
  9
$INSBASE
 10
0.0
 20
0.0
 30
0.0
  9
$EXTMIN
 10
-94.92750912819187
 20
-47.7504522704546
 30
0.0
  9
$EXTMAX
 10
115.3190189361753
 20
34.5186487990041
 30
0.0
  9
$LIMMIN
 10
0.0
 20
0.0
  9
$LIMMAX
 10
0.0
 20
0.0
  9
$ORTHOMODE
 70
             0
  9
$REGENMODE
 70
             1
  9
$FILLMODE
 70
             1
  9
$QTEXTMODE
 70
             0
  9
$MIRRTEXT
 70
             1
  9
$DRAGMODE
 70
             2
  9
$LTSCALE
 40
1.0
  9
$OSMODE
 70
             0
  9
$ATTMODE
 70
             1
  9
$TEXTSIZE
 40
0.2
  9
$TRACEWID
 40
0.05
  9
$TEXTSTYLE
  7
STANDARD
  9
$CLAYER
  8
0
  9
$CELTYPE
  6
CONTINUOUS
  9
$CECOLOR
 62
           256
  9
$CELTSCALE
 40
1.0
  9
$DELOBJ
 70
             1
  9
$DISPSILH
 70
             0
  9
$DIMSCALE
 40
1.0
  9
$DIMASZ
 40
0.18
  9
$DIMEXO
 40
0.0625
  9
$DIMDLI
 40
0.38
  9
$DIMRND
 40
0.0
  9
$DIMDLE
 40
0.0
  9
$DIMEXE
 40
0.18
  9
$DIMTP
 40
0.0
  9
$DIMTM
 40
0.0
  9
$DIMTXT
 40
0.18
  9
$DIMCEN
 40
0.09
  9
$DIMTSZ
 40
0.0
  9
$DIMTOL
 70
             0
  9
$DIMLIM
 70
             0
  9
$DIMTIH
 70
             1
  9
$DIMTOH
 70
             1
  9
$DIMSE1
 70
             0
  9
$DIMSE2
 70
             0
  9
$DIMTAD
 70
             0
  9
$DIMZIN
 70
             0
  9
$DIMBLK
  1

  9
$DIMASO
 70
             1
  9
$DIMSHO
 70
             1
  9
$DIMPOST
  1

  9
$DIMAPOST
  1

  9
$DIMALT
 70
             0
  9
$DIMALTD
 70
             2
  9
$DIMALTF
 40
25.4
  9
$DIMLFAC
 40
1.0
  9
$DIMTOFL
 70
             0
  9
$DIMTVP
 40
0.0
  9
$DIMTIX
 70
             0
  9
$DIMSOXD
 70
             0
  9
$DIMSAH
 70
             0
  9
$DIMBLK1
  1

  9
$DIMBLK2
  1

  9
$DIMSTYLE
  2
STANDARD
  9
$DIMCLRD
 70
             0
  9
$DIMCLRE
 70
             0
  9
$DIMCLRT
 70
             0
  9
$DIMTFAC
 40
1.0
  9
$DIMGAP
 40
0.09
  9
$DIMJUST
 70
             0
  9
$DIMSD1
 70
             0
  9
$DIMSD2
 70
             0
  9
$DIMTOLJ
 70
             1
  9
$DIMTZIN
 70
             0
  9
$DIMALTZ
 70
             0
  9
$DIMALTTZ
 70
             0
  9
$DIMFIT
 70
             3
  9
$DIMUPT
 70
             0
  9
$DIMUNIT
 70
             2
  9
$DIMDEC
 70
             4
  9
$DIMTDEC
 70
             4
  9
$DIMALTU
 70
             2
  9
$DIMALTTD
 70
             2
  9
$DIMTXSTY
  7
STANDARD
  9
$DIMAUNIT
 70
             0
  9
$LUNITS
 70
             2
  9
$LUPREC
 70
             4
  9
$SKETCHINC
 40
0.1
  9
$FILLETRAD
 40
0.0
  9
$AUNITS
 70
             0
  9
$AUPREC
 70
             0
  9
$MENU
  1
acad
  9
$ELEVATION
 40
0.0
  9
$PELEVATION
 40
0.0
  9
$THICKNESS
 40
0.0
  9
$LIMCHECK
 70
             0
  9
$BLIPMODE
 70
             1
  9
$CHAMFERA
 40
0.0
  9
$CHAMFERB
 40
0.0
  9
$CHAMFERC
 40
0.0
  9
$CHAMFERD
 40
0.0
  9
$SKPOLY
 70
             0
  9
$TDCREATE
 40
0.000000000
  9
$TDUPDATE
 40
0.000000000
  9
$TDINDWG
 40
0.0000000000
  9
$TDUSRTIMER
 40
0.0000000000
  9
$USRTIMER
 70
             1
  9
$ANGBASE
 50
0.0
  9
$ANGDIR
 70
             0
  9
$PDMODE
 70
             0
  9
$PDSIZE
 40
0.0
  9
$PLINEWID
 40
0.0
  9
$COORDS
 70
             0
  9
$SPLFRAME
 70
             0
  9
$SPLINETYPE
 70
             6
  9
$SPLINESEGS
 70
             8
  9
$ATTDIA
 70
             0
  9
$ATTREQ
 70
             1
  9
$HANDLING
 70
             1
  9
$HANDSEED
  5
392
  9
$SURFTAB1
 70
             6
  9
$SURFTAB2
 70
             6
  9
$SURFTYPE
 70
             6
  9
$SURFU
 70
             6
  9
$SURFV
 70
             6
  9
$UCSNAME
  2

  9
$UCSORG
 10
0.0
 20
0.0
 30
0.0
  9
$UCSXDIR
 10
1.0
 20
0.0
 30
0.0
  9
$UCSYDIR
 10
0.0
 20
1.0
 30
0.0
  9
$PUCSNAME
  2

  9
$PUCSORG
 10
0.0
 20
0.0
 30
0.0
  9
$PUCSXDIR
 10
1.0
 20
0.0
 30
0.0
  9
$PUCSYDIR
 10
0.0
 20
1.0
 30
0.0
  9
$USERI1
 70
             0
  9
$USERI2
 70
             0
  9
$USERI3
 70
             0
  9
$USERI4
 70
             0
  9
$USERI5
 70
             0
  9
$USERR1
 40
12.01
  9
$USERR2
 40
0.0
  9
$USERR3
 40
0.0
  9
$USERR4
 40
0.0
  9
$USERR5
 40
0.0
  9
$WORLDVIEW
 70
             1
  9
$SHADEDGE
 70
             3
  9
$SHADEDIF
 70
            70
  9
$TILEMODE
 70
             1
  9
$MAXACTVP
 70
            16
  9
$PINSBASE
 10
0.0
 20
0.0
 30
0.0
  9
$PLIMCHECK
 70
             0
  9
$PEXTMIN
 10
1.00000000000000E+20
 20
1.00000000000000E+20
 30
1.00000000000000E+20
  9
$PEXTMAX
 10
-1.00000000000000E+20
 20
-1.00000000000000E+20
 30
-1.00000000000000E+20
  9
$PLIMMIN
 10
0.0
 20
0.0
  9
$PLIMMAX
 10
12.0
 20
9.0
  9
$UNITMODE
 70
             0
  9
$VISRETAIN
 70
             0
  9
$PLINEGEN
 70
             1
  9
$PSLTSCALE
 70
             0
  9
$TREEDEPTH
 70
          3020
  9
$PICKSTYLE
 70
             1
  9
$CMLSTYLE
  2
STANDARD
  9
$CMLJUST
 70
             0
  9
$CMLSCALE
 40
1.0
  9
$PROXYGRAPHICS
 70
             0
  9
$MEASUREMENT
 70
             1
  0
ENDSEC
  0
SECTION
  2
CLASSES
  0
CLASS
  1
LWPOLYLINE
  2
AcDbPolyline
  3
"AutoCAD"
 90
        0
280
             0
281
             1
  0
CLASS
  1
IMAGE
  2
AcDbRasterImage
  3
ISM
 90
      127
280
             0
281
             1
  0
CLASS
  1
OLE2FRAME
  2
AcDbOle2Frame
  3
""
 90
        0
280
             0
281
             1
  0
CLASS
  1
HATCH
  2
AcDbHatch
  3
"ACAD_SEDONA"
 90
        0
280
             0
281
             1
  0
CLASS
  1
DICTIONARYVAR
  2
AcDbDictionaryVar
  3
"AutoCAD"
 90
        0
280
             0
281
             0
  0
CLASS
  1
RASTERVARIABLES
  2
AcDbRasterVariables
  3
ISM
 90
        0
280
             0
281
             0
  0
CLASS
  1
IMAGEDEF
  2
AcDbRasterImageDef
  3
ISM
 90
        0
280
             0
281
             0
  0
CLASS
  1
IMAGEDEF_REACTOR
  2
AcDbRasterImageDefReactor
  3
ISM
 90
        1
280
             0
281
             0
  0
CLASS
  1
IDBUFFER
  2
AcDbIdBuffer
  3
"Acad"
 90
        0
280
             0
281
             0
  0
CLASS
  1
SPATIAL_FILTER
  2
AcDbSpatialFilter
  3
"Acad"
 90
        0
280
             0
281
             0
  0
CLASS
  1
XRECORD
  2
AcDbXrecord
  3
"<Built In>"
 90
        0
280
             0
281
             0
  0
CLASS
  1
SORTENTSTABLE
  2
AcDbSortentsTable
  3
"AutoCAD"
 90
        0
280
             0
281
             0
  0
CLASS
  1
LAYER_INDEX
  2
AcDbLayerIndex
  3
"Acad"
 90
        0
280
             0
281
             0
  0
CLASS
  1
SPATIAL_INDEX
  2
AcDbSpatialIndex
  3
"Acad"
 90
        0
280
             0
281
             0
  0
CLASS
  1
OBJECT_PTR
  2
CAseDLPNTableRecord
  3
"ASE-LPNTableRecord"
 90
        1
280
             0
281
             0
  0
CLASS
  1
LAYOUT
  2
AcDbLayout
  3
"AutoCAD 2000"
 90
        0
280
             0
281
             0
  0
CLASS
  1
PLOTSETTINGS
  2
AcDbPlotSettings
  3
"AutoCAD 2000"
 90
        0
280
             0
281
             0
  0
CLASS
  1
ACDBDICTIONARYWDFLT
  2
AcDbDictionaryWithDefault
  3
"AutoCAD 2000"
 90
        0
280
             0
281
             0
  0
CLASS
  1
ACDBPLACEHOLDER
  2
AcDbPlaceHolder
  3
"AutoCAD 2000"
 90
        0
280
             0
281
             0
  0
ENDSEC
  0
SECTION
  2
TABLES
  0
TABLE
  2
VPORT
  5
7
100
AcDbSymbolTable
 70
             1
  0
VPORT
  5
15
100
AcDbSymbolTableRecord
100
AcDbViewportTableRecord
  2
*ACTIVE
 70
             0
 10
0.0
 20
0.0
 11
1.0
 21
1.0
 12
10.19575490399171
 22
-6.61590173572525
 13
0.0
 23
0.0
 14
1.0
 24
1.0
 15
0.0
 25
0.0
 16
0.0
 26
0.0
 36
1.0
 17
0.0
 27
0.0
 37
0.0
 40
144.30290951270223
 41
1.60267857142857
 42
50.0
 43
0.0
 44
0.0
 50
0.0
 51
0.0
 71
             0
 72
           100
 73
             1
 74
             1
 75
             0
 76
             0
 77
             0
 78
             0
  0
ENDTAB
  0
TABLE
  2
LTYPE
  5
4
100
AcDbSymbolTable
 70
            10
  0
LTYPE
  5
11
100
AcDbSymbolTableRecord
100
AcDbLinetypeTableRecord
  2
BYBLOCK
 70
            64
  3

 72
            65
 73
             0
 40
0.0
  0
LTYPE
  5
12
100
AcDbSymbolTableRecord
100
AcDbLinetypeTableRecord
  2
BYLAYER
 70
            64
  3

 72
            65
 73
             0
 40
0.0
  0
LTYPE
  5
13
100
AcDbSymbolTableRecord
100
AcDbLinetypeTableRecord
  2
CONTINUOUS
 70
            64
  3
Solid line
 72
            65
 73
             0
 40
0.0
  0
LTYPE
  5
1D
100
AcDbSymbolTableRecord
100
AcDbLinetypeTableRecord
  2
DASHED
 70
            64
  3
Dashed
 72
            65
 73
             2
 40
15.0
 49
7.0
 74
             0
 49
-8.0
 74
             0
  0
LTYPE
  5
1E
100
AcDbSymbolTableRecord
100
AcDbLinetypeTableRecord
  2
DOTTED
 70
            64
  3
Dotted
 72
            65
 73
             2
 40
1.0
 49
0.0
 74
             0
 49
-1.0
 74
             0
  0
LTYPE
  5
1F
100
AcDbSymbolTableRecord
100
AcDbLinetypeTableRecord
  2
DOT_CENTER
 70
            64
  3
Dot_Center
 72
            65
 73
             4
 40
14.0
 49
12.0
 74
             0
 49
-1.0
 74
             0
 49
0.0
 74
             0
 49
-1.0
 74
             0
  0
LTYPE
  5
20
100
AcDbSymbolTableRecord
100
AcDbLinetypeTableRecord
  2
LONG_DASHED
 70
            64
  3
Long_Dashed
 72
            65
 73
             2
 40
15.0
 49
10.0
 74
             0
 49
-5.0
 74
             0
  0
LTYPE
  5
21
100
AcDbSymbolTableRecord
100
AcDbLinetypeTableRecord
  2
DASH_CENTER
 70
            64
  3
Dash_Center
 72
            65
 73
             4
 40
14.0
 49
11.0
 74
             0
 49
-1.0
 74
             0
 49
1.0
 74
             0
 49
-1.0
 74
             0
  0
LTYPE
  5
22
100
AcDbSymbolTableRecord
100
AcDbLinetypeTableRecord
  2
PHANTOM
 70
            64
  3
Phantom
 72
            65
 73
             6
 40
13.0
 49
10.0
 74
             0
 49
-1.0
 74
             0
 49
0.0
 74
             0
 49
-1.0
 74
             0
 49
0.0
 74
             0
 49
-1.0
 74
             0
  0
LTYPE
  5
23
100
AcDbSymbolTableRecord
100
AcDbLinetypeTableRecord
  2
CENTER_DASH_DASH
 70
            64
  3
Center_Dash_Dash
 72
            65
 73
             6
 40
14.0
 49
9.0
 74
             0
 49
-1.0
 74
             0
 49
1.0
 74
             0
 49
-1.0
 74
             0
 49
1.0
 74
             0
 49
-1.0
 74
             0
  0
ENDTAB
  0
TABLE
  2
LAYER
  5
2
100
AcDbSymbolTable
 70
             2
  0
LAYER
  5
14
100
AcDbSymbolTableRecord
100
AcDbLayerTableRecord
  2
0
 70
             0
 62
             7
  6
CONTINUOUS
  0
LAYER
  5
24
100
AcDbSymbolTableRecord
100
AcDbLayerTableRecord
  2
1
 70
             0
 62
             7
  6
CONTINUOUS
  0
ENDTAB
  0
TABLE
  2
STYLE
  5
3
100
AcDbSymbolTable
 70
             2
  0
STYLE
  5
17
100
AcDbSymbolTableRecord
100
AcDbTextStyleTableRecord
  2
STANDARD
 70
             0
 40
0.0
 41
1.0
 50
0.0
 71
             0
 42
0.0
  3
txt
  4

  0
STYLE
  5
2D8
100
AcDbSymbolTableRecord
100
AcDbTextStyleTableRecord
  2
CONVERTER_1
 70
             0
 40
0.0
 41
0.9
 50
0.0
 71
             0
 42
0.0
  3
txt.shx
  4

  0
ENDTAB
  0
TABLE
  2
VIEW
  5
5
100
AcDbSymbolTable
 70
             0
  0
ENDTAB
  0
TABLE
  2
UCS
  5
6
100
AcDbSymbolTable
 70
             0
  0
ENDTAB
  0
TABLE
  2
APPID
  5
8
100
AcDbSymbolTable
 70
             1
  0
APPID
  5
16
100
AcDbSymbolTableRecord
100
AcDbRegAppTableRecord
  2
ACAD
 70
             0
  0
ENDTAB
  0
TABLE
  2
DIMSTYLE
  5
9
100
AcDbSymbolTable
 70
            17
  0
DIMSTYLE
105
18
100
AcDbSymbolTableRecord
100
AcDbDimStyleTableRecord
  2
STANDARD
 70
             0
  3

  4

  5

  6

  7

 40
1.0
 41
0.18
 42
0.0625
 43
0.38
 44
0.18
 45
0.0
 46
0.0
 47
0.0
 48
0.0
 71
             0
 72
             0
 73
             1
 74
             1
 75
             0
 76
             0
 77
             0
 78
             0
140
0.18
141
0.09
142
0.0
143
25.4
144
1.0
145
0.0
146
1.0
147
0.09
170
             0
171
             2
172
             0
173
             0
174
             0
175
             0
176
             0
177
             0
178
             0
270
             2
271
             4
272
             4
273
             2
274
             2
275
             0
280
             0
281
             0
282
             0
283
             1
284
             0
285
             0
286
             0
287
             3
288
             0
340
17
  0
DIMSTYLE
105
2DB
100
AcDbSymbolTableRecord
100
AcDbDimStyleTableRecord
  2
ME10_DIM_0
 70
             0
  3

  4

  5

  6

  7

 40
1.0
 41
3.5
 42
0.0
 43
0.38
 44
1.0
 45
0.0
 46
0.0
 47
0.0
 48
0.0
 71
             0
 72
             0
 73
             0
 74
             0
 75
             0
 76
             0
 77
             1
 78
             8
140
3.2
141
0.09
142
0.0
143
25.4
144
1.0
145
0.0
146
1.0
147
0.625
170
             0
171
             2
172
             1
173
             1
174
             0
175
             0
176
             2
177
             2
178
             2
270
             2
271
             3
272
             4
273
             2
274
             2
275
             0
280
             0
281
             0
282
             0
283
             1
284
             0
285
             0
286
             0
287
             3
288
             0
340
2D8
  0
DIMSTYLE
105
2E8
100
AcDbSymbolTableRecord
100
AcDbDimStyleTableRecord
  2
ME10_DIM_1
 70
             0
  3

  4

  5

  6

  7

 40
1.0
 41
3.5
 42
0.0
 43
0.38
 44
1.0
 45
0.0
 46
0.0
 47
0.0
 48
0.0
 71
             0
 72
             0
 73
             0
 74
             0
 75
             0
 76
             0
 77
             1
 78
             8
140
3.2
141
0.09
142
0.0
143
25.4
144
1.0
145
0.0
146
1.0
147
0.625
170
             0
171
             2
172
             1
173
             1
174
             0
175
             0
176
             2
177
             2
178
             2
270
             2
271
             3
272
             4
273
             2
274
             2
275
             0
280
             0
281
             0
282
             0
283
             1
284
             0
285
             0
286
             0
287
             3
288
             0
340
2D8
  0
DIMSTYLE
105
2F3
100
AcDbSymbolTableRecord
100
AcDbDimStyleTableRecord
  2
ME10_DIM_2
 70
             0
  3

  4

  5

  6

  7

 40
1.0
 41
3.5
 42
0.0
 43
0.38
 44
1.0
 45
0.0
 46
0.0
 47
0.0
 48
0.0
 71
             0
 72
             0
 73
             0
 74
             0
 75
             0
 76
             0
 77
             1
 78
             8
140
3.2
141
0.09
142
0.0
143
25.4
144
1.0
145
0.0
146
1.0
147
0.625
170
             0
171
             2
172
             1
173
             1
174
             0
175
             0
176
             2
177
             2
178
             2
270
             2
271
             3
272
             4
273
             2
274
             2
275
             0
280
             0
281
             0
282
             0
283
             1
284
             0
285
             0
286
             0
287
             3
288
             0
340
2D8
  0
DIMSTYLE
105
300
100
AcDbSymbolTableRecord
100
AcDbDimStyleTableRecord
  2
ME10_DIM_3
 70
             0
  3

  4

  5

  6

  7

 40
1.0
 41
3.5
 42
0.0
 43
0.38
 44
1.0
 45
0.0
 46
0.0
 47
0.0
 48
0.0
 71
             0
 72
             0
 73
             0
 74
             0
 75
             0
 76
             0
 77
             1
 78
             8
140
3.2
141
0.09
142
0.0
143
25.4
144
1.0
145
0.0
146
1.0
147
0.625
170
             0
171
             2
172
             1
173
             1
174
             0
175
             0
176
             2
177
             2
178
             2
270
             2
271
             3
272
             4
273
             2
274
             2
275
             0
280
             0
281
             0
282
             0
283
             1
284
             0
285
             0
286
             0
287
             3
288
             0
340
2D8
  0
DIMSTYLE
105
30B
100
AcDbSymbolTableRecord
100
AcDbDimStyleTableRecord
  2
ME10_DIM_4
 70
             0
  3

  4

  5

  6

  7

 40
1.0
 41
3.5
 42
0.0
 43
0.38
 44
1.0
 45
0.0
 46
0.0
 47
30.0
 48
30.0
 71
             1
 72
             0
 73
             0
 74
             0
 75
             0
 76
             0
 77
             1
 78
             8
140
3.2
141
0.09
142
0.0
143
25.4
144
1.0
145
0.0
146
0.6
147
0.625
170
             0
171
             2
172
             1
173
             1
174
             0
175
             0
176
             2
177
             2
178
             2
270
             2
271
             3
272
             0
273
             2
274
             2
275
             0
280
             0
281
             0
282
             0
283
             1
284
             0
285
             0
286
             0
287
             3
288
             0
340
2D8
  0
DIMSTYLE
105
316
100
AcDbSymbolTableRecord
100
AcDbDimStyleTableRecord
  2
ME10_DIM_5
 70
             0
  3

  4

  5

  6

  7

 40
1.0
 41
3.5
 42
0.0
 43
0.38
 44
1.0
 45
0.0
 46
0.0
 47
10.0
 48
10.0
 71
             1
 72
             0
 73
             0
 74
             0
 75
             0
 76
             0
 77
             1
 78
             8
140
3.2
141
0.09
142
0.0
143
25.4
144
1.0
145
0.0
146
0.6
147
0.625
170
             0
171
             2
172
             1
173
             1
174
             0
175
             0
176
             2
177
             2
178
             2
270
             2
271
             3
272
             0
273
             2
274
             2
275
             0
280
             0
281
             0
282
             0
283
             1
284
             0
285
             0
286
             0
287
             3
288
             0
340
2D8
  0
DIMSTYLE
105
321
100
AcDbSymbolTableRecord
100
AcDbDimStyleTableRecord
  2
ME10_DIM_6
 70
             0
  3

  4

  5

  6

  7

 40
1.0
 41
3.5
 42
0.0
 43
0.38
 44
1.0
 45
0.0
 46
0.0
 47
5.0
 48
5.0
 71
             1
 72
             0
 73
             0
 74
             0
 75
             0
 76
             0
 77
             1
 78
             8
140
3.2
141
0.09
142
0.0
143
25.4
144
1.0
145
0.0
146
0.6
147
0.625
170
             0
171
             2
172
             1
173
             1
174
             0
175
             0
176
             2
177
             2
178
             2
270
             2
271
             3
272
             0
273
             2
274
             2
275
             0
280
             0
281
             0
282
             0
283
             1
284
             0
285
             0
286
             0
287
             3
288
             0
340
2D8
  0
DIMSTYLE
105
32C
100
AcDbSymbolTableRecord
100
AcDbDimStyleTableRecord
  2
ME10_DIM_7
 70
             0
  3

  4

  5

  6

  7

 40
1.0
 41
3.2
 42
1.0
 43
0.38
 44
1.5
 45
0.0
 46
0.0
 47
0.0
 48
0.0
 71
             0
 72
             0
 73
             0
 74
             0
 75
             0
 76
             0
 77
             1
 78
             8
140
3.2
141
0.09
142
0.0
143
25.4
144
1.0
145
0.0
146
1.0
147
0.625
170
             0
171
             2
172
             1
173
             1
174
             0
175
             0
176
             2
177
             2
178
             2
270
             2
271
             4
272
             4
273
             2
274
             2
275
             0
280
             0
281
             0
282
             0
283
             1
284
             0
285
             0
286
             0
287
             3
288
             0
340
2D8
  0
DIMSTYLE
105
339
100
AcDbSymbolTableRecord
100
AcDbDimStyleTableRecord
  2
ME10_DIM_8
 70
             0
  3

  4

  5

  6

  7

 40
1.0
 41
3.5
 42
0.0
 43
0.38
 44
1.0
 45
0.0
 46
0.0
 47
0.0
 48
0.0
 71
             0
 72
             0
 73
             0
 74
             0
 75
             0
 76
             0
 77
             1
 78
             8
140
3.2
141
0.09
142
0.0
143
25.4
144
1.0
145
0.0
146
1.0
147
0.625
170
             0
171
             2
172
             1
173
             1
174
             0
175
             0
176
             2
177
             2
178
             2
270
             2
271
             3
272
             4
273
             2
274
             2
275
             0
280
             0
281
             0
282
             0
283
             1
284
             0
285
             0
286
             0
287
             3
288
             0
340
2D8
  0
DIMSTYLE
105
346
100
AcDbSymbolTableRecord
100
AcDbDimStyleTableRecord
  2
ME10_DIM_9
 70
             0
  3

  4

  5

  6

  7

 40
1.0
 41
3.5
 42
0.0
 43
0.38
 44
1.0
 45
0.0
 46
0.0
 47
0.0
 48
0.0
 71
             0
 72
             0
 73
             0
 74
             0
 75
             0
 76
             0
 77
             1
 78
             8
140
3.2
141
0.09
142
0.0
143
25.4
144
1.0
145
0.0
146
1.0
147
0.625
170
             0
171
             2
172
             1
173
             1
174
             0
175
             0
176
             2
177
             2
178
             2
270
             2
271
             3
272
             4
273
             2
274
             2
275
             0
280
             0
281
             0
282
             0
283
             1
284
             0
285
             0
286
             0
287
             3
288
             0
340
2D8
  0
DIMSTYLE
105
353
100
AcDbSymbolTableRecord
100
AcDbDimStyleTableRecord
  2
ME10_DIM_10
 70
             0
  3

  4

  5

  6

  7

 40
1.0
 41
3.5
 42
0.0
 43
0.38
 44
1.0
 45
0.0
 46
0.0
 47
0.0
 48
0.0
 71
             0
 72
             0
 73
             0
 74
             0
 75
             0
 76
             0
 77
             1
 78
             8
140
3.2
141
0.09
142
0.0
143
25.4
144
1.0
145
0.0
146
1.0
147
0.625
170
             0
171
             2
172
             1
173
             1
174
             0
175
             0
176
             2
177
             2
178
             2
270
             2
271
             3
272
             4
273
             2
274
             2
275
             0
280
             0
281
             0
282
             0
283
             1
284
             0
285
             0
286
             0
287
             3
288
             0
340
2D8
  0
DIMSTYLE
105
35E
100
AcDbSymbolTableRecord
100
AcDbDimStyleTableRecord
  2
ME10_DIM_11
 70
             0
  3

  4

  5

  6

  7

 40
1.0
 41
3.5
 42
0.0
 43
0.38
 44
1.0
 45
0.0
 46
0.0
 47
0.0
 48
0.0
 71
             0
 72
             0
 73
             0
 74
             0
 75
             0
 76
             0
 77
             1
 78
             8
140
3.2
141
0.09
142
0.0
143
25.4
144
1.0
145
0.0
146
1.0
147
0.625
170
             0
171
             2
172
             1
173
             1
174
             0
175
             0
176
             2
177
             2
178
             2
270
             2
271
             3
272
             4
273
             2
274
             2
275
             0
280
             0
281
             0
282
             0
283
             1
284
             0
285
             0
286
             0
287
             3
288
             0
340
2D8
  0
DIMSTYLE
105
369
100
AcDbSymbolTableRecord
100
AcDbDimStyleTableRecord
  2
ME10_DIM_12
 70
             0
  3

  4

  5

  6

  7

 40
1.0
 41
3.5
 42
0.0
 43
0.38
 44
1.0
 45
0.0
 46
0.0
 47
0.0
 48
0.0
 71
             0
 72
             0
 73
             0
 74
             0
 75
             0
 76
             0
 77
             1
 78
             8
140
3.2
141
0.09
142
0.0
143
25.4
144
1.0
145
0.0
146
1.0
147
0.625
170
             0
171
             2
172
             1
173
             1
174
             0
175
             0
176
             2
177
             2
178
             2
270
             2
271
             3
272
             4
273
             2
274
             2
275
             0
280
             0
281
             0
282
             0
283
             1
284
             0
285
             0
286
             0
287
             3
288
             0
340
2D8
  0
DIMSTYLE
105
376
100
AcDbSymbolTableRecord
100
AcDbDimStyleTableRecord
  2
ME10_DIM_13
 70
             0
  3

  4

  5

  6

  7

 40
1.0
 41
3.5
 42
1.0
 43
0.38
 44
1.5
 45
0.0
 46
0.0
 47
0.0
 48
0.0
 71
             0
 72
             0
 73
             0
 74
             0
 75
             0
 76
             0
 77
             1
 78
             8
140
3.2
141
0.09
142
0.0
143
25.4
144
1.0
145
0.0
146
1.0
147
0.625
170
             0
171
             2
172
             1
173
             1
174
             0
175
             0
176
             2
177
             2
178
             2
270
             2
271
             4
272
             4
273
             2
274
             2
275
             0
280
             0
281
             0
282
             0
283
             1
284
             0
285
             0
286
             0
287
             3
288
             0
340
2D8
  0
DIMSTYLE
105
383
100
AcDbSymbolTableRecord
100
AcDbDimStyleTableRecord
  2
ME10_DIM_14
 70
             0
  3

  4

  5

  6

  7

 40
1.0
 41
3.2
 42
1.0
 43
0.38
 44
1.5
 45
0.0
 46
0.0
 47
0.0
 48
0.0
 71
             0
 72
             0
 73
             0
 74
             0
 75
             0
 76
             0
 77
             1
 78
             8
140
3.2
141
0.09
142
0.0
143
25.4
144
1.0
145
0.0
146
1.0
147
0.625
170
             0
171
             2
172
             1
173
             1
174
             0
175
             0
176
             2
177
             2
178
             2
270
             2
271
             4
272
             4
273
             2
274
             2
275
             0
280
             0
281
             0
282
             0
283
             1
284
             0
285
             0
286
             0
287
             3
288
             0
340
2D8
  0
DIMSTYLE
105
38F
100
AcDbSymbolTableRecord
100
AcDbDimStyleTableRecord
  2
ME10_DIM_15
 70
             0
  3

  4

  5

  6

  7

 40
1.0
 41
3.2
 42
1.0
 43
0.38
 44
1.5
 45
0.0
 46
0.0
 47
0.0
 48
0.0
 71
             0
 72
             0
 73
             0
 74
             0
 75
             0
 76
             0
 77
             1
 78
             8
140
3.2
141
0.09
142
0.0
143
25.4
144
1.0
145
0.0
146
1.0
147
0.625
170
             0
171
             2
172
             1
173
             1
174
             0
175
             0
176
             2
177
             2
178
             2
270
             2
271
             4
272
             4
273
             2
274
             2
275
             0
280
             0
281
             0
282
             0
283
             1
284
             0
285
             0
286
             0
287
             3
288
             0
340
2D8
  0
ENDTAB
  0
TABLE
  2
BLOCK_RECORD
  5
1
100
AcDbSymbolTable
 70
            16
  0
BLOCK_RECORD
  5
A
100
AcDbSymbolTableRecord
100
AcDbBlockTableRecord
  2
*MODEL_SPACE
  0
BLOCK_RECORD
  5
B
100
AcDbSymbolTableRecord
100
AcDbBlockTableRecord
  2
*PAPER_SPACE
  0
BLOCK_RECORD
  5
2D1
100
AcDbSymbolTableRecord
100
AcDbBlockTableRecord
  2
*D0
  0
BLOCK_RECORD
  5
2DD
100
AcDbSymbolTableRecord
100
AcDbBlockTableRecord
  2
*D1
  0
BLOCK_RECORD
  5
2EA
100
AcDbSymbolTableRecord
100
AcDbBlockTableRecord
  2
*D2
  0
BLOCK_RECORD
  5
2F5
100
AcDbSymbolTableRecord
100
AcDbBlockTableRecord
  2
*D3
  0
BLOCK_RECORD
  5
302
100
AcDbSymbolTableRecord
100
AcDbBlockTableRecord
  2
*D4
  0
BLOCK_RECORD
  5
30D
100
AcDbSymbolTableRecord
100
AcDbBlockTableRecord
  2
*D5
  0
BLOCK_RECORD
  5
318
100
AcDbSymbolTableRecord
100
AcDbBlockTableRecord
  2
*D6
  0
BLOCK_RECORD
  5
323
100
AcDbSymbolTableRecord
100
AcDbBlockTableRecord
  2
*D7
  0
BLOCK_RECORD
  5
32E
100
AcDbSymbolTableRecord
100
AcDbBlockTableRecord
  2
*D8
  0
BLOCK_RECORD
  5
33B
100
AcDbSymbolTableRecord
100
AcDbBlockTableRecord
  2
*D9
  0
BLOCK_RECORD
  5
348
100
AcDbSymbolTableRecord
100
AcDbBlockTableRecord
  2
*D10
  0
BLOCK_RECORD
  5
355
100
AcDbSymbolTableRecord
100
AcDbBlockTableRecord
  2
*D11
  0
BLOCK_RECORD
  5
360
100
AcDbSymbolTableRecord
100
AcDbBlockTableRecord
  2
*D12
  0
BLOCK_RECORD
  5
36B
100
AcDbSymbolTableRecord
100
AcDbBlockTableRecord
  2
*D13
  0
BLOCK_RECORD
  5
378
100
AcDbSymbolTableRecord
100
AcDbBlockTableRecord
  2
*D14
  0
BLOCK_RECORD
  5
385
100
AcDbSymbolTableRecord
100
AcDbBlockTableRecord
  2
*D15
  0
ENDTAB
  0
ENDSEC
  0
SECTION
  2
BLOCKS
  0
BLOCK
  5
D
100
AcDbEntity
  8
0
100
AcDbBlockBegin
  2
*MODEL_SPACE
 70
             0
 10
0.0
 20
0.0
 30
0.0
  3
*MODEL_SPACE
  1

  0
ENDBLK
  5
E
100
AcDbEntity
  8
0
100
AcDbBlockEnd
  0
BLOCK
  5
F
100
AcDbEntity
 67
             1
  8
0
100
AcDbBlockBegin
  2
*PAPER_SPACE
 70
             0
 10
0.0
 20
0.0
 30
0.0
  3
*PAPER_SPACE
  1

  0
ENDBLK
  5
10
100
AcDbEntity
 67
             1
  8
0
100
AcDbBlockEnd
  0
BLOCK
  5
2D2
100
AcDbEntity
  8
0
100
AcDbBlockBegin
  2
*D0
 70
             1
 10
0.0
 20
0.0
 30
0.0
  3
*D0
  1

  0
LINE
  5
2D3
100
AcDbEntity
  8
0
  6
CONTINUOUS
 62
             2
100
AcDbLine
 10
23.71568635828091
 20
30.3186487990041
 11
50.71568635828092
 21
30.3186487990041
  0
LINE
  5
2D4
100
AcDbEntity
  8
0
  6
CONTINUOUS
 62
             2
100
AcDbLine
 10
23.71568635828091
 20
9.1033798852528
 11
23.71568635828091
 21
31.3186487990041
  0
LINE
  5
2D5
100
AcDbEntity
  8
0
  6
CONTINUOUS
 62
             2
100
AcDbLine
 10
50.71568635828092
 20
9.6033798852528
 11
50.71568635828092
 21
31.3186487990041
  0
SOLID
  5
2D6
100
AcDbEntity
  8
0
 62
             2
100
AcDbTrace
 10
27.21568635828091
 20
30.77943254055999
 11
27.21568635828091
 21
29.85786505744822
 12
23.71568635828091
 22
30.3186487990041
 13
23.71568635828091
 23
30.3186487990041
  0
SOLID
  5
2D7
100
AcDbEntity
  8
0
 62
             2
100
AcDbTrace
 10
47.21568635828092
 20
29.85786505744822
 11
47.21568635828092
 21
30.77943254055999
 12
50.71568635828092
 22
30.3186487990041
 13
50.71568635828092
 23
30.3186487990041
  0
MTEXT
  5
2D9
100
AcDbEntity
  8
0
 62
             2
100
AcDbMText
 10
34.2313807679055
 20
31.3186487990041
 30
0.0
 40
3.2
 41
0.0
 71
             7
 72
             1
  1
27
  7
CONVERTER_1
 11
0.99999999999706
 21
0.00000242406841
 31
0.0
  0
ENDBLK
  5
2DA
100
AcDbEntity
  8
0
100
AcDbBlockEnd
  0
BLOCK
  5
2DE
100
AcDbEntity
  8
0
100
AcDbBlockBegin
  2
*D1
 70
             1
 10
0.0
 20
0.0
 30
0.0
  3
*D1
  1

  0
LINE
  5
2DF
100
AcDbEntity
  8
0
  6
CONTINUOUS
 62
             2
100
AcDbLine
 10
57.71568635828091
 20
21.0742888343226
 11
50.71568635828091
 21
21.0742888343226
  0
LINE
  5
2E0
100
AcDbEntity
  8
0
  6
CONTINUOUS
 62
             2
100
AcDbLine
 10
46.71568635828091
 20
21.0742888343226
 11
50.71568635828091
 21
21.0742888343226
  0
LINE
  5
2E1
100
AcDbEntity
  8
0
  6
CONTINUOUS
 62
             2
100
AcDbLine
 10
46.71568635828091
 20
21.0742888343226
 11
39.71568635828091
 21
21.0742888343226
  0
LINE
  5
2E2
100
AcDbEntity
  8
0
  6
CONTINUOUS
 62
             2
100
AcDbLine
 10
46.71568635828091
 20
10.10337988525281
 11
46.71568635828091
 21
22.0742888343226
  0
LINE
  5
2E3
100
AcDbEntity
  8
0
  6
CONTINUOUS
 62
             2
100
AcDbLine
 10
50.71568635828091
 20
9.6033798852528
 11
50.71568635828091
 21
22.0742888343226
  0
SOLID
  5
2E4
100
AcDbEntity
  8
0
 62
             2
100
AcDbTrace
 10
43.21568635828091
 20
20.61350509276671
 11
43.21568635828091
 21
21.53507257587848
 12
46.71568635828091
 22
21.0742888343226
 13
46.71568635828091
 23
21.0742888343226
  0
SOLID
  5
2E5
100
AcDbEntity
  8
0
 62
             2
100
AcDbTrace
 10
54.21568635828091
 20
21.53507257587848
 11
54.21568635828091
 21
20.61350509276671
 12
50.71568635828091
 22
21.0742888343226
 13
50.71568635828091
 23
21.0742888343226
  0
MTEXT
  5
2E6
100
AcDbEntity
  8
0
 62
             2
100
AcDbMText
 10
42.3208326723255
 20
22.0742888343226
 30
0.0
 40
3.2
 41
0.0
 71
             7
 72
             1
  1
4
  7
CONVERTER_1
 11
0.99999999999706
 21
0.00000242406841
 31
0.0
  0
ENDBLK
  5
2E7
100
AcDbEntity
  8
0
100
AcDbBlockEnd
  0
BLOCK
  5
2EB
100
AcDbEntity
  8
0
100
AcDbBlockBegin
  2
*D2
 70
             1
 10
0.0
 20
0.0
 30
0.0
  3
*D2
  1

  0
LINE
  5
2EC
100
AcDbEntity
  8
0
  6
CONTINUOUS
 62
             2
100
AcDbLine
 10
50.71568635828091
 20
21.0742888343226
 11
65.71568635828091
 21
21.0742888343226
  0
LINE
  5
2ED
100
AcDbEntity
  8
0
  6
CONTINUOUS
 62
             2
100
AcDbLine
 10
50.71568635828091
 20
9.6033798852528
 11
50.71568635828091
 21
22.0742888343226
  0
LINE
  5
2EE
100
AcDbEntity
  8
0
  6
CONTINUOUS
 62
             2
100
AcDbLine
 10
65.71568635828091
 20
4.8533798852528
 11
65.71568635828091
 21
22.0742888343226
  0
SOLID
  5
2EF
100
AcDbEntity
  8
0
 62
             2
100
AcDbTrace
 10
54.21568635828091
 20
21.53507257587848
 11
54.21568635828091
 21
20.61350509276671
 12
50.71568635828091
 22
21.0742888343226
 13
50.71568635828091
 23
21.0742888343226
  0
SOLID
  5
2F0
100
AcDbEntity
  8
0
 62
             2
100
AcDbTrace
 10
62.21568635828091
 20
20.61350509276671
 11
62.21568635828091
 21
21.53507257587848
 12
65.71568635828091
 22
21.0742888343226
 13
65.71568635828091
 23
21.0742888343226
  0
MTEXT
  5
2F1
100
AcDbEntity
  8
0
 62
             2
100
AcDbMText
 10
56.4437357725953
 20
22.0742888343226
 30
0.0
 40
3.2
 41
0.0
 71
             7
 72
             1
  1
15
  7
CONVERTER_1
 11
0.99999999999706
 21
0.00000242406841
 31
0.0
  0
ENDBLK
  5
2F2
100
AcDbEntity
  8
0
100
AcDbBlockEnd
  0
BLOCK
  5
2F6
100
AcDbEntity
  8
0
100
AcDbBlockBegin
  2
*D3
 70
             1
 10
0.0
 20
0.0
 30
0.0
  3
*D3
  1

  0
LINE
  5
2F7
100
AcDbEntity
  8
0
  6
CONTINUOUS
 62
             2
100
AcDbLine
 10
74.90627465676221
 20
-11.6466201147472
 11
74.90627465676221
 21
-4.6466201147472
  0
LINE
  5
2F8
100
AcDbEntity
  8
0
  6
CONTINUOUS
 62
             2
100
AcDbLine
 10
74.90627465676221
 20
-4.6466201147472
 11
74.90627465676221
 21
4.85337988525281
  0
LINE
  5
2F9
100
AcDbEntity
  8
0
  6
CONTINUOUS
 62
             2
100
AcDbLine
 10
74.90627465676221
 20
4.85337988525281
 11
74.90627465676221
 21
16.1273828997719
  0
LINE
  5
2FA
100
AcDbEntity
  8
0
  6
CONTINUOUS
 62
             2
100
AcDbLine
 10
65.71568635828092
 20
-4.6466201147472
 11
75.90627465676221
 21
-4.6466201147472
  0
LINE
  5
2FB
100
AcDbEntity
  8
0
  6
CONTINUOUS
 62
             2
100
AcDbLine
 10
65.71568635828091
 20
4.85337988525281
 11
75.90627465676221
 21
4.85337988525281
  0
SOLID
  5
2FC
100
AcDbEntity
  8
0
 62
             2
100
AcDbTrace
 10
75.36705839831809
 20
-8.1466201147472
 11
74.44549091520632
 21
-8.1466201147472
 12
74.90627465676221
 22
-4.6466201147472
 13
74.90627465676221
 23
-4.6466201147472
  0
SOLID
  5
2FD
100
AcDbEntity
  8
0
 62
             2
100
AcDbTrace
 10
74.44549091520632
 20
8.35337988525281
 11
75.36705839831809
 21
8.35337988525281
 12
74.90627465676221
 22
4.85337988525281
 13
74.90627465676221
 23
4.85337988525281
  0
MTEXT
  5
2FE
100
AcDbEntity
  8
0
 62
             2
100
AcDbMText
 10
73.90627465676221
 20
10.1273828997719
 30
0.0
 40
3.2
 41
0.0
 71
             7
 72
             1
  1
9.5
  7
CONVERTER_1
 11
0.0
 21
1.0
 31
0.0
  0
ENDBLK
  5
2FF
100
AcDbEntity
  8
0
100
AcDbBlockEnd
  0
BLOCK
  5
303
100
AcDbEntity
  8
0
100
AcDbBlockBegin
  2
*D4
 70
             1
 10
0.0
 20
0.0
 30
0.0
  3
*D4
  1

  0
LINE
  5
304
100
AcDbEntity
  8
0
  6
CONTINUOUS
 62
             2
100
AcDbLine
 10
50.71568635828091
 20
30.3186487990041
 11
112.41529222527031
 21
30.3186487990041
  0
LINE
  5
305
100
AcDbEntity
  8
0
  6
CONTINUOUS
 62
             2
100
AcDbLine
 10
50.71568635828091
 20
9.6033798852528
 11
50.71568635828091
 21
31.3186487990041
  0
LINE
  5
306
100
AcDbEntity
  8
0
  6
CONTINUOUS
 62
             2
100
AcDbLine
 10
112.41529222527031
 20
1.94337988525281
 11
112.41529222527031
 21
31.3186487990041
  0
SOLID
  5
307
100
AcDbEntity
  8
0
 62
             2
100
AcDbTrace
 10
54.21568635828091
 20
30.77943254055999
 11
54.21568635828091
 21
29.85786505744822
 12
50.71568635828091
 22
30.3186487990041
 13
50.71568635828091
 23
30.3186487990041
  0
SOLID
  5
308
100
AcDbEntity
  8
0
 62
             2
100
AcDbTrace
 10
108.91529222527031
 20
29.85786505744822
 11
108.91529222527031
 21
30.77943254055999
 12
112.41529222527031
 22
30.3186487990041
 13
112.41529222527031
 23
30.3186487990041
  0
MTEXT
  5
309
100
AcDbEntity
  8
0
 62
             2
100
AcDbMText
 10
73.19499954611689
 20
31.3186487990041
 30
0.0
 40
3.2
 41
0.0
 71
             7
 72
             1
  1
\C2;1000\C2;\H1.920000;{\Fgdt;`}30
  7
CONVERTER_1
 11
0.99999999999706
 21
0.00000242406841
 31
0.0
  0
ENDBLK
  5
30A
100
AcDbEntity
  8
0
100
AcDbBlockEnd
  0
BLOCK
  5
30E
100
AcDbEntity
  8
0
100
AcDbBlockBegin
  2
*D5
 70
             1
 10
0.0
 20
0.0
 30
0.0
  3
*D5
  1

  0
LINE
  5
30F
100
AcDbEntity
  8
0
  6
CONTINUOUS
 62
             2
100
AcDbLine
 10
81.4704326354007
 20
-10.92646694848394
 11
100.1817799426327
 21
-14.22578232415559
  0
LINE
  5
310
100
AcDbEntity
  8
0
  6
CONTINUOUS
 62
             2
100
AcDbLine
 10
83.41529222527031
 20
0.10337988525281
 11
81.29678445773376
 21
-11.91127470149615
  0
LINE
  5
311
100
AcDbEntity
  8
0
  6
CONTINUOUS
 62
             2
100
AcDbLine
 10
101.65778945280159
 20
-5.85491642355182
 11
100.00813176496577
 21
-15.2105900771678
  0
SOLID
  5
312
100
AcDbEntity
  8
0
 62
             2
100
AcDbTrace
 10
84.99727402796316
 20
-11.08045216917198
 11
84.83724551392371
 21
-11.9880189714644
 12
81.4704326354007
 22
-10.92646694848394
 13
81.4704326354007
 23
-10.92646694848394
  0
SOLID
  5
313
100
AcDbEntity
  8
0
 62
             2
100
AcDbTrace
 10
96.65493855007024
 20
-14.07179710346755
 11
96.8149670641097
 21
-13.16423030117513
 12
100.1817799426327
 22
-14.22578232415559
 13
100.1817799426327
 23
-14.22578232415559
  0
MTEXT
  5
314
100
AcDbEntity
  8
0
 62
             2
100
AcDbMText
 10
86.05208031555026
 20
-10.71890843870891
 30
0.0
 40
3.2
 41
0.0
 71
             7
 72
             1
  1
\C2;50\C2;\H1.920000;{\Fgdt;`}10
  7
CONVERTER_1
 11
0.98480775301221
 21
-0.17364817766693
 31
0.0
  0
ENDBLK
  5
315
100
AcDbEntity
  8
0
100
AcDbBlockEnd
  0
BLOCK
  5
319
100
AcDbEntity
  8
0
100
AcDbBlockBegin
  2
*D6
 70
             1
 10
0.0
 20
0.0
 30
0.0
  3
*D6
  1

  0
LINE
  5
31A
100
AcDbEntity
  8
0
  6
CONTINUOUS
 62
             2
100
AcDbLine
 10
100.18177994263266
 20
-14.22578232415561
 11
110.0298574727547
 21
-15.96226410082489
  0
LINE
  5
31B
100
AcDbEntity
  8
0
  6
CONTINUOUS
 62
             2
100
AcDbLine
 10
101.65778945280155
 20
-5.85491642355182
 11
100.00813176496573
 21
-15.21059007716782
  0
LINE
  5
31C
100
AcDbEntity
  8
0
  6
CONTINUOUS
 62
             2
100
AcDbLine
 10
111.65520441571715
 20
-6.74446353263063
 11
109.85620929508777
 21
-16.9470718538371
  0
SOLID
  5
31D
100
AcDbEntity
  8
0
 62
             2
100
AcDbTrace
 10
103.70862133519512
 20
-14.37976754484365
 11
103.54859282115567
 21
-15.28733434713607
 12
100.18177994263266
 22
-14.22578232415561
 13
100.18177994263266
 23
-14.22578232415561
  0
SOLID
  5
31E
100
AcDbEntity
  8
0
 62
             2
100
AcDbTrace
 10
106.50301608019224
 20
-15.80827888013685
 11
106.66304459423169
 21
-14.90071207784443
 12
110.0298574727547
 22
-15.96226410082489
 13
110.0298574727547
 23
-15.96226410082489
  0
MTEXT
  5
31F
100
AcDbEntity
  8
0
 62
             2
100
AcDbMText
 10
101.37174972140816
 20
-13.42017949049567
 30
0.0
 40
3.2
 41
0.0
 71
             7
 72
             1
  1
\C2;10\C2;\H1.920000;{\Fgdt;`}5
  7
CONVERTER_1
 11
0.98480775301221
 21
-0.17364817766693
 31
0.0
  0
ENDBLK
  5
320
100
AcDbEntity
  8
0
100
AcDbBlockEnd
  0
BLOCK
  5
324
100
AcDbEntity
  8
0
100
AcDbBlockBegin
  2
*D7
 70
             1
 10
0.0
 20
0.0
 30
0.0
  3
*D7
  1

  0
LINE
  5
325
100
AcDbEntity
  8
0
  6
CONTINUOUS
 62
             2
100
AcDbLine
 10
-28.87106160307819
 20
29.1833765226397
 11
-17.87106160307819
 21
29.1833765226397
  0
LINE
  5
326
100
AcDbEntity
  8
0
  6
CONTINUOUS
 62
             2
100
AcDbLine
 10
-28.87106160307819
 20
10.7844638563959
 11
-28.87106160307819
 21
30.6833765226397
  0
LINE
  5
327
100
AcDbEntity
  8
0
  6
CONTINUOUS
 62
             2
100
AcDbLine
 10
-17.87106160307819
 20
10.7844638563959
 11
-17.87106160307819
 21
30.6833765226397
  0
SOLID
  5
328
100
AcDbEntity
  8
0
 62
             2
100
AcDbTrace
 10
-25.67106160307819
 20
29.60466451491936
 11
-25.67106160307819
 21
28.76208853036003
 12
-28.87106160307819
 22
29.1833765226397
 13
-28.87106160307819
 23
29.1833765226397
  0
SOLID
  5
329
100
AcDbEntity
  8
0
 62
             2
100
AcDbTrace
 10
-21.07106160307819
 20
28.76208853036003
 11
-21.07106160307819
 21
29.60466451491936
 12
-17.87106160307819
 22
29.1833765226397
 13
-17.87106160307819
 23
29.1833765226397
  0
MTEXT
  5
32A
100
AcDbEntity
  8
0
 62
             2
100
AcDbMText
 10
-25.6267768944728
 20
31.1833765226397
 30
0.0
 40
3.2
 41
0.0
 71
             7
 72
             1
  1
11
  7
CONVERTER_1
 11
0.99999999999706
 21
0.00000242406841
 31
0.0
  0
ENDBLK
  5
32B
100
AcDbEntity
  8
0
100
AcDbBlockEnd
  0
BLOCK
  5
32F
100
AcDbEntity
  8
0
100
AcDbBlockBegin
  2
*D8
 70
             1
 10
0.0
 20
0.0
 30
0.0
  3
*D8
  1

  0
LINE
  5
330
100
AcDbEntity
  8
0
  6
CONTINUOUS
 62
             2
100
AcDbLine
 10
48.7950123003812
 20
-47.7504522704546
 11
48.7950123003812
 21
-40.7504522704546
  0
LINE
  5
331
100
AcDbEntity
  8
0
  6
CONTINUOUS
 62
             2
100
AcDbLine
 10
48.7950123003812
 20
-40.7504522704546
 11
48.7950123003812
 21
-32.75045227045462
  0
LINE
  5
332
100
AcDbEntity
  8
0
  6
CONTINUOUS
 62
             2
100
AcDbLine
 10
48.7950123003812
 20
-32.75045227045462
 11
48.7950123003812
 21
-25.75045227045462
  0
LINE
  5
333
100
AcDbEntity
  8
0
  6
CONTINUOUS
 62
             2
100
AcDbLine
 10
50.71568635828091
 20
-40.7504522704546
 11
47.7950123003812
 21
-40.7504522704546
  0
LINE
  5
334
100
AcDbEntity
  8
0
  6
CONTINUOUS
 62
             2
100
AcDbLine
 10
50.71568635828091
 20
-32.75045227045462
 11
47.7950123003812
 21
-32.75045227045462
  0
SOLID
  5
335
100
AcDbEntity
  8
0
 62
             2
100
AcDbTrace
 10
48.33422855882532
 20
-29.25045227045462
 11
49.25579604193709
 21
-29.25045227045462
 12
48.7950123003812
 22
-32.75045227045462
 13
48.7950123003812
 23
-32.75045227045462
  0
SOLID
  5
336
100
AcDbEntity
  8
0
 62
             2
100
AcDbTrace
 10
49.25579604193709
 20
-44.2504522704546
 11
48.33422855882532
 21
-44.2504522704546
 12
48.7950123003812
 22
-40.7504522704546
 13
48.7950123003812
 23
-40.7504522704546
  0
MTEXT
  5
337
100
AcDbEntity
  8
0
 62
             2
100
AcDbMText
 10
47.7950123003812
 20
-29.6755095719444
 30
0.0
 40
3.2
 41
0.0
 71
             7
 72
             1
  1
8
  7
CONVERTER_1
 11
0.0
 21
1.0
 31
0.0
  0
ENDBLK
  5
338
100
AcDbEntity
  8
0
100
AcDbBlockEnd
  0
BLOCK
  5
33C
100
AcDbEntity
  8
0
100
AcDbBlockBegin
  2
*D9
 70
             1
 10
0.0
 20
0.0
 30
0.0
  3
*D9
  1

  0
LINE
  5
33D
100
AcDbEntity
  8
0
  6
CONTINUOUS
 62
             2
100
AcDbLine
 10
75.7171834255939
 20
-46.50045227045465
 11
75.7171834255939
 21
-39.50045227045465
  0
LINE
  5
33E
100
AcDbEntity
  8
0
  6
CONTINUOUS
 62
             2
100
AcDbLine
 10
75.7171834255939
 20
-39.50045227045465
 11
75.7171834255939
 21
-33.50012968980946
  0
LINE
  5
33F
100
AcDbEntity
  8
0
  6
CONTINUOUS
 62
             2
100
AcDbLine
 10
75.7171834255939
 20
-33.50012968980946
 11
75.7171834255939
 21
-26.50012968980946
  0
LINE
  5
340
100
AcDbEntity
  8
0
  6
CONTINUOUS
 62
             2
100
AcDbLine
 10
66.21568635828091
 20
-39.50045227045465
 11
76.7171834255939
 21
-39.50045227045465
  0
LINE
  5
341
100
AcDbEntity
  8
0
  6
CONTINUOUS
 62
             2
100
AcDbLine
 10
66.21568635828091
 20
-33.50012968980946
 11
76.7171834255939
 21
-33.50012968980946
  0
SOLID
  5
342
100
AcDbEntity
  8
0
 62
             2
100
AcDbTrace
 10
76.17796716714979
 20
-43.00045227045465
 11
75.25639968403802
 21
-43.00045227045465
 12
75.7171834255939
 22
-39.50045227045465
 13
75.7171834255939
 23
-39.50045227045465
  0
SOLID
  5
343
100
AcDbEntity
  8
0
 62
             2
100
AcDbTrace
 10
75.25639968403802
 20
-30.00012968980946
 11
76.17796716714979
 21
-30.00012968980946
 12
75.7171834255939
 22
-33.50012968980946
 13
75.7171834255939
 23
-33.50012968980946
  0
MTEXT
  5
344
100
AcDbEntity
  8
0
 62
             2
100
AcDbMText
 10
74.7171834255939
 20
-29.5133278181781
 30
0.0
 40
3.2
 41
0.0
 71
             7
 72
             1
  1
6
  7
CONVERTER_1
 11
0.0
 21
1.0
 31
0.0
  0
ENDBLK
  5
345
100
AcDbEntity
  8
0
100
AcDbBlockEnd
  0
BLOCK
  5
349
100
AcDbEntity
  8
0
100
AcDbBlockBegin
  2
*D10
 70
             1
 10
0.0
 20
0.0
 30
0.0
  3
*D10
  1

  0
LINE
  5
34A
100
AcDbEntity
  8
0
  6
CONTINUOUS
 62
             2
100
AcDbLine
 10
-4.8871481962781
 20
-3.89662011474719
 11
-4.8871481962781
 21
4.10337988525281
  0
LINE
  5
34B
100
AcDbEntity
  8
0
  6
CONTINUOUS
 62
             2
100
AcDbLine
 10
-4.8871481962781
 20
-3.89662011474719
 11
-4.8871481962781
 21
-10.89662011474719
  0
LINE
  5
34C
100
AcDbEntity
  8
0
  6
CONTINUOUS
 62
             2
100
AcDbLine
 10
-4.8871481962781
 20
4.10337988525281
 11
-4.8871481962781
 21
11.10337988525281
  0
LINE
  5
34D
100
AcDbEntity
  8
0
  6
CONTINUOUS
 62
             2
100
AcDbLine
 10
-21.04626113782418
 20
-3.89662011474719
 11
-3.8871481962781
 21
-3.89662011474719
  0
LINE
  5
34E
100
AcDbEntity
  8
0
  6
CONTINUOUS
 62
             2
100
AcDbLine
 10
-21.04626113782418
 20
4.10337988525281
 11
-3.8871481962781
 21
4.10337988525281
  0
SOLID
  5
34F
100
AcDbEntity
  8
0
 62
             2
100
AcDbTrace
 10
-5.34793193783399
 20
7.60337988525281
 11
-4.42636445472222
 21
7.60337988525281
 12
-4.8871481962781
 22
4.10337988525281
 13
-4.8871481962781
 23
4.10337988525281
  0
SOLID
  5
350
100
AcDbEntity
  8
0
 62
             2
100
AcDbTrace
 10
-4.42636445472222
 20
-7.39662011474719
 11
-5.34793193783399
 21
-7.39662011474719
 12
-4.8871481962781
 22
-3.89662011474719
 13
-4.8871481962781
 23
-3.89662011474719
  0
MTEXT
  5
351
100
AcDbEntity
  8
0
 62
             2
100
AcDbMText
 10
-5.8871481962781
 20
-0.64497564776916
 30
0.0
 40
3.2
 41
0.0
 71
             7
 72
             1
  1
8
  7
CONVERTER_1
 11
0.0
 21
1.0
 31
0.0
  0
ENDBLK
  5
352
100
AcDbEntity
  8
0
100
AcDbBlockEnd
  0
BLOCK
  5
356
100
AcDbEntity
  8
0
100
AcDbBlockBegin
  2
*D11
 70
             1
 10
0.0
 20
0.0
 30
0.0
  3
*D11
  1

  0
LINE
  5
357
100
AcDbEntity
  8
0
  6
CONTINUOUS
 62
             2
100
AcDbLine
 10
14.8990257632156
 20
-9.89662011474719
 11
14.8990257632156
 21
10.10337988525281
  0
LINE
  5
358
100
AcDbEntity
  8
0
  6
CONTINUOUS
 62
             2
100
AcDbLine
 10
-19.37106160307819
 20
-9.89662011474719
 11
15.8990257632156
 21
-9.89662011474719
  0
LINE
  5
359
100
AcDbEntity
  8
0
  6
CONTINUOUS
 62
             2
100
AcDbLine
 10
-19.37106160307819
 20
10.10337988525281
 11
15.8990257632156
 21
10.10337988525281
  0
SOLID
  5
35A
100
AcDbEntity
  8
0
 62
             2
100
AcDbTrace
 10
14.43824202165971
 20
-6.39662011474719
 11
15.35980950477149
 21
-6.39662011474719
 12
14.8990257632156
 22
-9.89662011474719
 13
14.8990257632156
 23
-9.89662011474719
  0
SOLID
  5
35B
100
AcDbEntity
  8
0
 62
             2
100
AcDbTrace
 10
15.35980950477148
 20
6.60337988525281
 11
14.43824202165971
 21
6.60337988525281
 12
14.8990257632156
 22
10.10337988525281
 13
14.8990257632156
 23
10.10337988525281
  0
MTEXT
  5
35C
100
AcDbEntity
  8
0
 62
             2
100
AcDbMText
 10
13.8990257632156
 20
-1.27406687893746
 30
0.0
 40
3.2
 41
0.0
 71
             7
 72
             1
  1
20
  7
CONVERTER_1
 11
0.0
 21
1.0
 31
0.0
  0
ENDBLK
  5
35D
100
AcDbEntity
  8
0
100
AcDbBlockEnd
  0
BLOCK
  5
361
100
AcDbEntity
  8
0
100
AcDbBlockBegin
  2
*D12
 70
             1
 10
0.0
 20
0.0
 30
0.0
  3
*D12
  1

  0
LINE
  5
362
100
AcDbEntity
  8
0
  6
CONTINUOUS
 62
             2
100
AcDbLine
 10
5.33030229100146
 20
-8.39662011474719
 11
5.33030229100146
 21
8.60337988525281
  0
LINE
  5
363
100
AcDbEntity
  8
0
  6
CONTINUOUS
 62
             2
100
AcDbLine
 10
-19.87106160307819
 20
-8.39662011474719
 11
6.33030229100146
 21
-8.39662011474719
  0
LINE
  5
364
100
AcDbEntity
  8
0
  6
CONTINUOUS
 62
             2
100
AcDbLine
 10
-19.87106160307819
 20
8.60337988525281
 11
6.33030229100146
 21
8.60337988525281
  0
SOLID
  5
365
100
AcDbEntity
  8
0
 62
             2
100
AcDbTrace
 10
5.79108603255734
 20
5.10337988525281
 11
4.86951854944557
 21
5.10337988525281
 12
5.33030229100146
 22
8.60337988525281
 13
5.33030229100146
 23
8.60337988525281
  0
SOLID
  5
366
100
AcDbEntity
  8
0
 62
             2
100
AcDbTrace
 10
4.86951854944557
 20
-4.89662011474719
 11
5.79108603255735
 21
-4.89662011474719
 12
5.33030229100146
 22
-8.39662011474719
 13
5.33030229100146
 23
-8.39662011474719
  0
MTEXT
  5
367
100
AcDbEntity
  8
0
 62
             2
100
AcDbMText
 10
4.33030229100146
 20
-1.60497564776916
 30
0.0
 40
3.2
 41
0.0
 71
             7
 72
             1
  1
17
  7
CONVERTER_1
 11
0.0
 21
1.0
 31
0.0
  0
ENDBLK
  5
368
100
AcDbEntity
  8
0
100
AcDbBlockEnd
  0
BLOCK
  5
36C
100
AcDbEntity
  8
0
100
AcDbBlockBegin
  2
*D13
 70
             1
 10
0.0
 20
0.0
 30
0.0
  3
*D13
  1

  0
LINE
  5
36D
100
AcDbEntity
  8
0
  6
CONTINUOUS
 62
             2
100
AcDbLine
 10
-27.37106160307819
 20
21.3986523418553
 11
-19.37106160307819
 21
21.3986523418553
  0
LINE
  5
36E
100
AcDbEntity
  8
0
  6
CONTINUOUS
 62
             2
100
AcDbLine
 10
-27.37106160307819
 20
21.3986523418553
 11
-34.37106160307819
 21
21.3986523418553
  0
LINE
  5
36F
100
AcDbEntity
  8
0
  6
CONTINUOUS
 62
             2
100
AcDbLine
 10
-19.37106160307819
 20
21.3986523418553
 11
-12.37106160307819
 21
21.3986523418553
  0
LINE
  5
370
100
AcDbEntity
  8
0
  6
CONTINUOUS
 62
             2
100
AcDbLine
 10
-27.37106160307819
 20
9.6033798852528
 11
-27.37106160307819
 21
22.8986523418553
  0
LINE
  5
371
100
AcDbEntity
  8
0
  6
CONTINUOUS
 62
             2
100
AcDbLine
 10
-19.37106160307819
 20
9.6033798852528
 11
-19.37106160307819
 21
22.8986523418553
  0
SOLID
  5
372
100
AcDbEntity
  8
0
 62
             2
100
AcDbTrace
 10
-30.87106160307819
 20
20.93786860029941
 11
-30.87106160307819
 21
21.85943608341119
 12
-27.37106160307819
 22
21.3986523418553
 13
-27.37106160307819
 23
21.3986523418553
  0
SOLID
  5
373
100
AcDbEntity
  8
0
 62
             2
100
AcDbTrace
 10
-15.87106160307819
 20
21.85943608341119
 11
-15.87106160307819
 21
20.93786860029941
 12
-19.37106160307819
 22
21.3986523418553
 13
-19.37106160307819
 23
21.3986523418553
  0
MTEXT
  5
374
100
AcDbEntity
  8
0
 62
             2
100
AcDbMText
 10
-24.3358681256411
 20
23.3986523418553
 30
0.0
 40
3.2
 41
0.0
 71
             7
 72
             1
  1
8
  7
CONVERTER_1
 11
0.99999999999706
 21
0.00000242406841
 31
0.0
  0
ENDBLK
  5
375
100
AcDbEntity
  8
0
100
AcDbBlockEnd
  0
BLOCK
  5
379
100
AcDbEntity
  8
0
100
AcDbBlockBegin
  2
*D14
 70
             1
 10
0.0
 20
0.0
 30
0.0
  3
*D14
  1

  0
LINE
  5
37A
100
AcDbEntity
  8
0
  6
CONTINUOUS
 62
             2
100
AcDbLine
 10
56.4175547273992
 20
-27.60032968980945
 11
56.4175547273992
 21
-34.00032968980945
  0
LINE
  5
37B
100
AcDbEntity
  8
0
  6
CONTINUOUS
 62
             2
100
AcDbLine
 10
56.4175547273992
 20
-39.00030227045461
 11
56.4175547273992
 21
-34.00032968980945
  0
LINE
  5
37C
100
AcDbEntity
  8
0
  6
CONTINUOUS
 62
             2
100
AcDbLine
 10
56.4175547273992
 20
-39.00030227045461
 11
56.4175547273992
 21
-46.8667754711767
  0
LINE
  5
37D
100
AcDbEntity
  8
0
  6
CONTINUOUS
 62
             2
100
AcDbLine
 10
54.21568635828091
 20
-39.00030227045461
 11
57.9175547273992
 21
-39.00030227045461
  0
LINE
  5
37E
100
AcDbEntity
  8
0
  6
CONTINUOUS
 62
             2
100
AcDbLine
 10
54.21568635828091
 20
-34.00032968980945
 11
57.9175547273992
 21
-34.00032968980945
  0
SOLID
  5
37F
100
AcDbEntity
  8
0
 62
             2
100
AcDbTrace
 10
55.99626673511953
 20
-30.80032968980945
 11
56.83884271967887
 21
-30.80032968980945
 12
56.4175547273992
 22
-34.00032968980945
 13
56.4175547273992
 23
-34.00032968980945
  0
SOLID
  5
380
100
AcDbEntity
  8
0
 62
             2
100
AcDbTrace
 10
56.83884271967887
 20
-42.20030227045461
 11
55.99626673511953
 21
-42.20030227045461
 12
56.4175547273992
 22
-39.00030227045461
 13
56.4175547273992
 23
-39.00030227045461
  0
MTEXT
  5
381
100
AcDbEntity
  8
0
 62
             2
100
AcDbMText
 10
54.4175547273992
 20
-46.8667754711767
 30
0.0
 40
3.2
 41
0.0
 71
             7
 72
             1
  1
5
  7
CONVERTER_1
 11
0.0
 21
1.0
 31
0.0
  0
ENDBLK
  5
382
100
AcDbEntity
  8
0
100
AcDbBlockEnd
  0
BLOCK
  5
386
100
AcDbEntity
  8
0
100
AcDbBlockBegin
  2
*D15
 70
             1
 10
0.0
 20
0.0
 30
0.0
  3
*D15
  1

  0
LINE
  5
387
100
AcDbEntity
  8
0
  6
CONTINUOUS
 62
             2
100
AcDbLine
 10
49.4437393154465
 20
-5.64662011474721
 11
49.4437393154465
 21
5.85337988525281
  0
LINE
  5
388
100
AcDbEntity
  8
0
  6
CONTINUOUS
 62
             2
100
AcDbLine
 10
49.4437393154465
 20
-5.64662011474721
 11
49.4437393154465
 21
-21.0049685620668
  0
LINE
  5
389
100
AcDbEntity
  8
0
  6
CONTINUOUS
 62
             2
100
AcDbLine
 10
49.71568635828091
 20
-5.64662011474721
 11
47.9437393154465
 21
-5.64662011474721
  0
LINE
  5
38A
100
AcDbEntity
  8
0
  6
CONTINUOUS
 62
             2
100
AcDbLine
 10
49.71568635828091
 20
5.85337988525281
 11
47.9437393154465
 21
5.85337988525281
  0
SOLID
  5
38B
100
AcDbEntity
  8
0
 62
             2
100
AcDbTrace
 10
49.86502730772617
 20
2.65337988525281
 11
49.02245132316683
 21
2.65337988525281
 12
49.4437393154465
 22
5.85337988525281
 13
49.4437393154465
 23
5.85337988525281
  0
SOLID
  5
38C
100
AcDbEntity
  8
0
 62
             2
100
AcDbTrace
 10
49.02245132316683
 20
-2.44662011474721
 11
49.86502730772617
 21
-2.44662011474721
 12
49.4437393154465
 22
-5.64662011474721
 13
49.4437393154465
 23
-5.64662011474721
  0
MTEXT
  5
38D
100
AcDbEntity
  8
0
 62
             2
100
AcDbMText
 10
47.4437393154465
 20
-21.0049685620668
 30
0.0
 40
3.2
 41
0.0
 71
             7
 72
             1
  1
11.5
  7
CONVERTER_1
 11
0.0
 21
1.0
 31
0.0
  0
ENDBLK
  5
38E
100
AcDbEntity
  8
0
100
AcDbBlockEnd
  0
ENDSEC
  0
SECTION
  2
ENTITIES
  0
DIMENSION
  5
390
100
AcDbEntity
  8
1
100
AcDbDimension
  2
*D15
 10
49.4437393154465
 20
5.85337988525281
 11
45.8437393154465
 21
-17.5249685620668
 31
0.0
 53
90.0
  1
<>
  3
ME10_DIM_15
100
AcDbAlignedDimension
 13
50.71568635828091
 23
-5.64662011474721
 14
50.71568635828091
 24
5.85337988525281
 50
90.0
100
AcDbRotatedDimension
  0
DIMENSION
  5
384
100
AcDbEntity
  8
1
100
AcDbDimension
  2
*D14
 10
56.4175547273992
 20
-34.00032968980945
 11
52.8175547273992
 21
-45.9067754711767
 31
0.0
 53
90.0
  1
<>
  3
ME10_DIM_14
100
AcDbAlignedDimension
 13
53.21568635828091
 23
-39.00030227045461
 14
53.21568635828091
 24
-34.00032968980945
 50
90.0
100
AcDbRotatedDimension
  0
DIMENSION
  5
377
100
AcDbEntity
  8
1
100
AcDbDimension
  2
*D13
 10
-27.37106160307819
 20
21.3986523418553
 11
-23.3758681256411
 21
24.9986523418553
 31
0.0
 53
0.00013888888889
  1
<>
  3
ME10_DIM_13
100
AcDbAlignedDimension
 13
-19.37106160307819
 23
8.60337988525281
 14
-27.37106160307819
 24
8.60337988525281
100
AcDbRotatedDimension
  0
DIMENSION
  5
36A
100
AcDbEntity
  8
1
100
AcDbDimension
  2
*D12
 10
5.33030229100146
 20
8.60337988525281
 11
2.73030229100146
 21
0.31502435223084
 31
0.0
 53
90.0
  1
<>
  3
ME10_DIM_12
100
AcDbAlignedDimension
 13
-19.87106160307819
 23
-8.39662011474719
 14
-19.87106160307819
 24
8.60337988525281
 50
90.0
100
AcDbRotatedDimension
  0
DIMENSION
  5
35F
100
AcDbEntity
  8
1
100
AcDbDimension
  2
*D11
 10
14.8990257632156
 20
-9.89662011474719
 11
12.2990257632156
 21
1.12593312106254
 31
0.0
 53
90.0
  1
<>
  3
ME10_DIM_11
100
AcDbAlignedDimension
 13
-19.37106160307819
 23
10.10337988525281
 14
-19.37106160307819
 24
-9.89662011474719
 50
90.0
100
AcDbRotatedDimension
  0
DIMENSION
  5
354
100
AcDbEntity
  8
1
100
AcDbDimension
  2
*D10
 10
-4.8871481962781
 20
4.10337988525281
 11
-7.4871481962781
 21
0.31502435223084
 31
0.0
 53
90.0
  1
<>
  3
ME10_DIM_10
100
AcDbAlignedDimension
 13
-21.04626113782418
 23
-3.89662011474719
 14
-21.04626113782418
 24
4.10337988525281
 50
90.0
100
AcDbRotatedDimension
  0
DIMENSION
  5
347
100
AcDbEntity
  8
1
100
AcDbDimension
  2
*D9
 10
75.7171834255939
 20
-39.50045227045465
 11
73.11718342559391
 21
-28.5533278181781
 31
0.0
 53
90.0
  1
<>
  3
ME10_DIM_9
100
AcDbAlignedDimension
 13
66.21568635828091
 23
-33.50012968980946
 14
66.21568635828091
 24
-39.50045227045464
 50
90.0
100
AcDbRotatedDimension
  0
DIMENSION
  5
33A
100
AcDbEntity
  8
1
100
AcDbDimension
  2
*D8
 10
48.7950123003812
 20
-32.75045227045462
 11
46.1950123003812
 21
-28.7155095719444
 31
0.0
 53
90.0
  1
<>
  3
ME10_DIM_8
100
AcDbAlignedDimension
 13
50.71568635828091
 23
-40.7504522704546
 14
50.71568635828091
 24
-32.75045227045462
 50
90.0
100
AcDbRotatedDimension
  0
DIMENSION
  5
32D
100
AcDbEntity
  8
1
100
AcDbDimension
  2
*D7
 10
-28.87106160307819
 20
29.1833765226397
 11
-24.1867768944728
 21
32.7833765226397
 31
0.0
 53
0.00013888888889
  1
<>
  3
ME10_DIM_7
100
AcDbAlignedDimension
 13
-17.87106160307819
 23
9.7844638563959
 14
-28.87106160307819
 24
9.7844638563959
100
AcDbRotatedDimension
  0
DIMENSION
  5
322
100
AcDbEntity
  8
1
100
AcDbDimension
  2
*D6
 10
100.18177994263266
 20
-14.22578232415561
 11
105.5573039696277
 21
-12.53352305465851
 31
0.0
 53
350.00000000000011
  1
<>
  3
ME10_DIM_6
100
AcDbAlignedDimension
 13
111.65520441571719
 23
-6.74446353263063
 14
101.65778945280159
 24
-5.85491642355182
 50
350.00000000000011
100
AcDbRotatedDimension
  0
DIMENSION
  5
317
100
AcDbEntity
  8
1
100
AcDbDimension
  2
*D5
 10
81.4704326354007
 20
-10.92646694848394
 11
91.27759155095068
 21
-10.01562447848802
 31
0.0
 53
350.00000000000011
  1
50
  3
ME10_DIM_5
100
AcDbAlignedDimension
 13
101.65778945280159
 23
-5.85491642355182
 14
83.41529222527031
 24
0.10337988525281
 50
350.00000000000011
100
AcDbRotatedDimension
  0
DIMENSION
  5
30C
100
AcDbEntity
  8
1
100
AcDbDimension
  2
*D4
 10
50.71568635828091
 20
30.3186487990041
 11
80.90699954611689
 21
32.9186487990041
 31
0.0
 53
0.00013888888889
  1
1000
  3
ME10_DIM_4
100
AcDbAlignedDimension
 13
112.41529222527031
 23
1.94337988525281
 14
50.71568635828091
 24
9.60337988525281
100
AcDbRotatedDimension
  0
DIMENSION
  5
301
100
AcDbEntity
  8
1
100
AcDbDimension
  2
*D3
 10
74.90627465676221
 20
-4.6466201147472
 11
72.30627465676221
 21
13.1273828997719
 31
0.0
 53
90.0
  1
<>
  3
ME10_DIM_3
100
AcDbAlignedDimension
 13
65.71568635828091
 23
4.85337988525281
 14
65.71568635828092
 24
-4.64662011474719
 50
90.0
100
AcDbRotatedDimension
  0
DIMENSION
  5
2F4
100
AcDbEntity
  8
1
100
AcDbDimension
  2
*D2
 10
50.71568635828091
 20
21.0742888343226
 11
58.3637357725953
 21
23.6742888343226
 31
0.0
 53
0.00013888888889
  1
<>
  3
ME10_DIM_2
100
AcDbAlignedDimension
 13
65.71568635828091
 23
4.85337988525281
 14
50.71568635828091
 24
9.60337988525281
100
AcDbRotatedDimension
  0
DIMENSION
  5
2E9
100
AcDbEntity
  8
1
100
AcDbDimension
  2
*D1
 10
46.71568635828091
 20
21.0742888343226
 11
43.2808326723255
 21
23.6742888343226
 31
0.0
 53
0.00013888888889
  1
<>
  3
ME10_DIM_1
100
AcDbAlignedDimension
 13
50.71568635828091
 23
9.60337988525281
 14
46.71568635828091
 24
10.10337988525281
100
AcDbRotatedDimension
  0
DIMENSION
  5
2DC
100
AcDbEntity
  8
1
100
AcDbDimension
  2
*D0
 10
23.71568635828091
 20
30.3186487990041
 11
36.6313807679055
 21
32.9186487990041
 31
0.0
 53
0.00013888888889
  1
<>
  3
ME10_DIM_0
100
AcDbAlignedDimension
 13
50.71568635828091
 23
9.60337988525281
 14
23.71568635828091
 24
9.10337988525281
100
AcDbRotatedDimension
  0
ARC
  5
2D0
100
AcDbEntity
  8
1
  6
CONTINUOUS
 62
             3
100
AcDbCircle
 10
45.71568635828091
 20
-32.24202993285542
 40
1.0
100
AcDbArc
 50
-90.00000000000081
 51
0.0
  0
ARC
  5
2CF
100
AcDbEntity
  8
1
  6
CONTINUOUS
 62
             3
100
AcDbCircle
 10
45.71568635828091
 20
-41.7504522704546
 40
1.0
100
AcDbArc
 50
0.0
 51
90.0
  0
ARC
  5
2CE
100
AcDbEntity
  8
1
  6
CONTINUOUS
 62
             3
100
AcDbCircle
 10
-27.59537902641078
 20
-6.38592682469186
 40
0.5
100
AcDbArc
 50
180.0
 51
-90.0
  0
ARC
  5
2CD
100
AcDbEntity
  8
1
  6
CONTINUOUS
 62
             3
100
AcDbCircle
 10
-27.59537902641078
 20
6.54168047721969
 40
0.5
100
AcDbArc
 50
90.0
 51
180.0
  0
ARC
  5
2CC
100
AcDbEntity
  8
1
  6
CONTINUOUS
 62
             3
100
AcDbCircle
 10
-19.1467441797456
 20
-6.38592682469186
 40
0.5
100
AcDbArc
 50
-90.0
 51
0.0
  0
ARC
  5
2CB
100
AcDbEntity
  8
1
  6
CONTINUOUS
 62
             3
100
AcDbCircle
 10
-19.1467441797456
 20
6.54168047721969
 40
0.5
100
AcDbArc
 50
0.0
 51
90.0
  0
ARC
  5
2CA
100
AcDbEntity
  8
1
  6
CONTINUOUS
 62
             3
100
AcDbCircle
 10
-25.81686407722681
 20
-8.62093753807978
 40
0.5
100
AcDbArc
 50
-179.9999999999998
 51
-90.0
  0
ARC
  5
2C9
100
AcDbEntity
  8
1
  6
CONTINUOUS
 62
             3
100
AcDbCircle
 10
-20.92525912892957
 20
-8.62093753807978
 40
0.5
100
AcDbArc
 50
-90.0
 51
-0.0000000000002
  0
ARC
  5
2C8
100
AcDbEntity
  8
1
  6
CONTINUOUS
 62
             3
100
AcDbCircle
 10
-25.81686407722681
 20
8.8276973085854
 40
0.5
100
AcDbArc
 50
90.0
 51
179.9999999999998
  0
ARC
  5
2C7
100
AcDbEntity
  8
1
  6
CONTINUOUS
 62
             3
100
AcDbCircle
 10
-20.92525912892957
 20
8.8276973085854
 40
0.5
100
AcDbArc
 50
0.0000000000002
 51
90.0
  0
ARC
  5
2C6
100
AcDbEntity
  8
1
  6
CONTINUOUS
 62
             3
100
AcDbCircle
 10
-18.38602019054859
 20
-9.3816615272768
 40
0.51517580120636
100
AcDbArc
 50
-88.33613224348966
 51
1.66386775651015
  0
ARC
  5
2C5
100
AcDbEntity
  8
1
  6
CONTINUOUS
 62
             3
100
AcDbCircle
 10
-18.37106160307819
 20
9.60337988525281
 40
0.5
100
AcDbArc
 50
0.0
 51
90.0
  0
ARC
  5
2C4
100
AcDbEntity
  8
1
  6
CONTINUOUS
 62
             3
100
AcDbCircle
 10
-28.37106160307819
 20
9.60337988525281
 40
0.5
100
AcDbArc
 50
90.0
 51
180.0
  0
ARC
  5
2C3
100
AcDbEntity
  8
1
  6
CONTINUOUS
 62
             3
100
AcDbCircle
 10
-28.35610301560779
 20
-9.3816615272768
 40
0.51517580120636
100
AcDbArc
 50
178.33613224348986
 51
-91.66386775651036
  0
ARC
  5
2C2
100
AcDbEntity
  8
1
  6
CONTINUOUS
 62
             3
100
AcDbCircle
 10
-63.76806916758033
 20
6.32216132289825
 40
0.49999999999999
100
AcDbArc
 50
-86.30861401354787
 51
0.0
  0
ARC
  5
2C1
100
AcDbEntity
  8
1
  6
CONTINUOUS
 62
             3
100
AcDbCircle
 10
-63.76806916758032
 20
-6.11540155239264
 40
0.5
100
AcDbArc
 50
0.0
 51
86.30861401354866
  0
ARC
  5
2C0
100
AcDbEntity
  8
1
  6
CONTINUOUS
 62
             3
100
AcDbCircle
 10
-77.2347716009026
 20
-3.67783867710175
 40
1.14791282826795
100
AcDbArc
 50
154.17823045317107
 51
-119.51315553328126
  0
ARC
  5
2BF
100
AcDbEntity
  8
1
  6
CONTINUOUS
 62
             3
100
AcDbCircle
 10
-77.76806916758034
 20
4.38459844760736
 40
0.49999999999999
100
AcDbArc
 50
93.6913859864497
 51
180.0
  0
ARC
  5
2BE
100
AcDbEntity
  8
1
  6
CONTINUOUS
 62
             3
100
AcDbCircle
 10
-62.76806916758033
 20
9.60337988525281
 40
0.5
100
AcDbArc
 50
90.0
 51
180.0
  0
ARC
  5
2BD
100
AcDbEntity
  8
1
  6
CONTINUOUS
 62
             3
100
AcDbCircle
 10
-62.76806916758032
 20
-8.39662011474719
 40
0.50000000000001
100
AcDbArc
 50
180.0
 51
-90.00000000000081
  0
ARC
  5
2BC
100
AcDbEntity
  8
1
  6
CONTINUOUS
 62
             3
100
AcDbCircle
 10
-58.26806916758033
 20
-8.89662011474719
 40
1.00000000000001
100
AcDbArc
 50
90.0
 51
180.0
  0
ARC
  5
2BB
100
AcDbEntity
  8
1
  6
CONTINUOUS
 62
             3
100
AcDbCircle
 10
-58.26806916758033
 20
10.10337988525282
 40
1.0
100
AcDbArc
 50
-179.99999999999937
 51
-90.0
  0
ARC
  5
2BA
100
AcDbEntity
  8
1
  6
CONTINUOUS
 62
             3
100
AcDbCircle
 10
51.21568635828091
 20
6.32216132289825
 40
0.5
100
AcDbArc
 50
180.0
 51
-93.69138598645215
  0
ARC
  5
2B9
100
AcDbEntity
  8
1
  6
CONTINUOUS
 62
             3
100
AcDbCircle
 10
51.21568635828091
 20
-6.11540155239264
 40
0.49999999999999
100
AcDbArc
 50
93.69138598645216
 51
180.0
  0
ARC
  5
2B8
100
AcDbEntity
  8
1
  6
CONTINUOUS
 62
             3
100
AcDbCircle
 10
64.68238879160319
 20
-3.67783867710175
 40
1.14791282826791
100
AcDbArc
 50
-60.48684446671874
 51
25.82176954682925
  0
ARC
  5
2B7
100
AcDbEntity
  8
1
  6
CONTINUOUS
 62
             3
100
AcDbCircle
 10
65.21568635828091
 20
4.38459844760736
 40
0.5
100
AcDbArc
 50
0.0
 51
86.30861401354866
  0
ARC
  5
2B6
100
AcDbEntity
  8
1
  6
CONTINUOUS
 62
             3
100
AcDbCircle
 10
50.21568635828091
 20
9.60337988525281
 40
0.5
100
AcDbArc
 50
0.0
 51
90.0
  0
ARC
  5
2B5
100
AcDbEntity
  8
1
  6
CONTINUOUS
 62
             3
100
AcDbCircle
 10
50.21568635828091
 20
-8.39662011474719
 40
0.5
100
AcDbArc
 50
-90.0
 51
0.0
  0
ARC
  5
2B4
100
AcDbEntity
  8
1
  6
CONTINUOUS
 62
             3
100
AcDbCircle
 10
45.71568635828091
 20
-8.89662011474719
 40
1.0
100
AcDbArc
 50
0.0
 51
90.0
  0
ARC
  5
2B3
100
AcDbEntity
  8
1
  6
CONTINUOUS
 62
             3
100
AcDbCircle
 10
45.71568635828091
 20
10.10337988525282
 40
1.00000000000001
100
AcDbArc
 50
-90.0
 51
-0.00000000000061
  0
ARC
  5
2B2
100
AcDbEntity
  8
1
  6
CONTINUOUS
 62
             3
100
AcDbCircle
 10
-26.87106160307819
 20
8.10337988525281
 40
0.5
100
AcDbArc
 50
90.0
 51
180.0
  0
ARC
  5
2B1
100
AcDbEntity
  8
1
  6
CONTINUOUS
 62
             3
100
AcDbCircle
 10
-26.87106160307819
 20
-7.89662011474719
 40
0.5
100
AcDbArc
 50
179.9999999999996
 51
-90.0
  0
ARC
  5
2B0
100
AcDbEntity
  8
1
  6
CONTINUOUS
 62
             3
100
AcDbCircle
 10
-19.87106160307819
 20
-7.89662011474719
 40
0.5
100
AcDbArc
 50
-90.0
 51
0.0
  0
ARC
  5
2AF
100
AcDbEntity
  8
1
  6
CONTINUOUS
 62
             3
100
AcDbCircle
 10
-19.87106160307819
 20
8.10337988525281
 40
0.5
100
AcDbArc
 50
-0.0000000000002
 51
90.0
  0
ARC
  5
2AE
100
AcDbEntity
  8
1
  6
CONTINUOUS
 62
             3
100
AcDbCircle
 10
50.21568635828091
 20
-41.2504522704546
 40
0.5
100
AcDbArc
 50
-90.0
 51
0.0
  0
ARC
  5
2AD
100
AcDbEntity
  8
1
  6
CONTINUOUS
 62
             3
100
AcDbCircle
 10
50.21568635828091
 20
-32.2504522704546
 40
0.5
100
AcDbArc
 50
0.0
 51
90.0
  0
ARC
  5
2AC
100
AcDbEntity
  8
1
  6
CONTINUOUS
 62
             3
100
AcDbCircle
 10
51.21568635828091
 20
-32.25845175439243
 40
0.5
100
AcDbArc
 50
180.0
 51
-90.9240453527726
  0
ARC
  5
2AB
100
AcDbEntity
  8
1
  6
CONTINUOUS
 62
             3
100
AcDbCircle
 10
51.21568635828091
 20
-41.24245278651679
 40
0.5
100
AcDbArc
 50
90.92404535277261
 51
180.0
  0
ARC
  5
2AA
100
AcDbEntity
  8
1
  6
CONTINUOUS
 62
             3
100
AcDbCircle
 10
65.71568635828091
 20
-33.99213020587163
 40
0.5
100
AcDbArc
 50
0.0
 51
89.07595464722496
  0
ARC
  5
2A9
100
AcDbEntity
  8
1
  6
CONTINUOUS
 62
             3
100
AcDbCircle
 10
65.71568635828091
 20
-39.00845175439245
 40
0.49999999999999
100
AcDbArc
 50
-89.07595464722495
 51
0.0
  0
SPLINE
  5
2A8
100
AcDbEntity
  8
1
  6
CONTINUOUS
 62
             2
100
AcDbSpline
210
0.0
220
0.0
230
1.0
 70
             0
 71
             3
 72
             8
 73
             4
 74
             3
 42
0.00000000001
 43
0.00000000001
 44
0.00000000001
 40
3.0353868399111339
 40
3.0353868399111339
 40
3.0353868399111339
 40
3.0353868399111339
 40
5.8752373722757056
 40
5.8752373722757056
 40
5.8752373722757056
 40
5.8752373722757056
 10
70.951080193594564
 20
0.1033798852528101
 30
0.0
 10
71.531792330487136
 20
-0.6993547701488687
 30
0.0
 10
72.060106005626366
 20
-1.534573624637414
 30
0.0
 10
70.940686146891409
 20
-2.5966201147471919
 30
0.0
 11
70.951080193594564
 21
0.1033798852528098
 31
0.0
 11
71.583432668603308
 21
-1.1493781767316538
 31
0.0
 11
70.940686146891409
 21
-2.5966201147471919
 31
0.0
  0
SPLINE
  5
2A7
100
AcDbEntity
  8
1
  6
CONTINUOUS
 62
             2
100
AcDbSpline
210
0.0
220
0.0
230
1.0
 70
             0
 71
             3
 72
             8
 73
             4
 74
             3
 42
0.00000000001
 43
0.00000000001
 44
0.00000000001
 40
0.0
 40
0.0
 40
0.0
 40
0.0
 40
2.8575442467739518
 40
2.8575442467739518
 40
2.8575442467739518
 40
2.8575442467739518
 10
94.06289635322031
 20
2.8033798852528129
 30
0.0
 10
93.140273488250941
 20
1.8980256082252009
 30
0.0
 10
94.826123966579644
 20
0.9879117567913376
 30
0.0
 10
94.010015431669316
 20
0.1033798852528101
 30
0.0
 11
94.06289635322031
 21
2.8033798852528129
 31
0.0
 11
93.996513018672673
 21
1.4455714831944049
 31
0.0
 11
94.010015431669316
 21
0.1033798852528101
 31
0.0
  0
SPLINE
  5
2A6
100
AcDbEntity
  8
1
  6
CONTINUOUS
 62
             2
100
AcDbSpline
210
0.0
220
0.0
230
1.0
 70
             0
 71
             3
 72
             8
 73
             4
 74
             3
 42
0.00000000001
 43
0.00000000001
 44
0.00000000001
 40
0.0
 40
0.0
 40
0.0
 40
0.0
 40
2.8575442467739518
 40
2.8575442467739518
 40
2.8575442467739518
 40
2.8575442467739518
 10
93.551714111568302
 20
2.8033798852528129
 30
0.0
 10
92.629091246598932
 20
1.8980256082252009
 30
0.0
 10
94.314941724927635
 20
0.9879117567913376
 30
0.0
 10
93.498833190017308
 20
0.1033798852528101
 30
0.0
 11
93.551714111568302
 21
2.8033798852528129
 31
0.0
 11
93.485330777020664
 21
1.4455714831944049
 31
0.0
 11
93.498833190017308
 21
0.1033798852528101
 31
0.0
  0
SPLINE
  5
2A5
100
AcDbEntity
  8
1
  6
CONTINUOUS
 62
             2
100
AcDbSpline
210
0.0
220
0.0
230
1.0
 70
             0
 71
             3
 72
             8
 73
             4
 74
             3
 42
0.00000000001
 43
0.00000000001
 44
0.00000000001
 40
0.0
 40
0.0
 40
0.0
 40
0.0
 40
2.9848529686490721
 40
2.9848529686490721
 40
2.9848529686490721
 40
2.9848529686490721
 10
93.263351805852011
 20
-4.3747505785197482
 30
0.0
 10
94.919412647225371
 20
-3.8703444668896738
 30
0.0
 10
92.818270510698227
 20
-2.5668204304310049
 30
0.0
 10
94.057193910015258
 20
-1.773074507814596
 30
0.0
 11
93.263351805852011
 21
-4.3747505785197482
 31
0.0
 11
93.816699398704756
 21
-3.1824149722870474
 31
0.0
 11
94.057193910015258
 21
-1.773074507814596
 31
0.0
  0
SPLINE
  5
2A4
100
AcDbEntity
  8
1
  6
CONTINUOUS
 62
             2
100
AcDbSpline
210
0.0
220
0.0
230
1.0
 70
             0
 71
             3
 72
             8
 73
             4
 74
             3
 42
0.00000000001
 43
0.00000000001
 44
0.00000000001
 40
0.0
 40
0.0
 40
0.0
 40
0.0
 40
2.9848529686490721
 40
2.9848529686490721
 40
2.9848529686490721
 40
2.9848529686490721
 10
92.7689085395441
 20
-4.2875668902400399
 30
0.0
 10
94.42496938091746
 20
-3.783160778609965
 30
0.0
 10
92.323827244390316
 20
-2.4796367421513099
 30
0.0
 10
93.562750643707346
 20
-1.685890819534887
 30
0.0
 11
92.7689085395441
 21
-4.2875668902400399
 31
0.0
 11
93.322256132396845
 21
-3.0952312840073439
 31
0.0
 11
93.562750643707346
 21
-1.685890819534887
 31
0.0
  0
SPLINE
  5
2A3
100
AcDbEntity
  8
1
  6
CONTINUOUS
 62
             2
100
AcDbSpline
210
0.0
220
0.0
230
1.0
 70
             0
 71
             3
 72
             8
 73
             4
 74
             3
 42
0.00000000001
 43
0.00000000001
 44
0.00000000001
 40
3.0353868399110588
 40
3.0353868399110588
 40
3.0353868399110588
 40
3.0353868399110588
 40
5.8752373722757056
 40
5.8752373722757056
 40
5.8752373722757056
 40
5.8752373722757056
 10
72.63193132285717
 20
0.1033798852528101
 30
0.0
 10
73.212643459749714
 20
-0.6993547701488261
 30
0.0
 10
73.740957134889015
 20
-1.534573624637386
 30
0.0
 10
72.621537276154015
 20
-2.5966201147471919
 30
0.0
 11
72.63193132285717
 21
0.1033798852528101
 31
0.0
 11
73.264283797865914
 21
-1.1493781767316271
 31
0.0
 11
72.621537276154015
 21
-2.5966201147471919
 31
0.0
  0
SPLINE
  5
2A2
100
AcDbEntity
  8
1
  6
CONTINUOUS
 62
             2
100
AcDbSpline
210
0.0
220
0.0
230
1.0
 70
             0
 71
             3
 72
             8
 73
             4
 74
             3
 42
0.00000000001
 43
0.00000000001
 44
0.00000000001
 40
0.0
 40
0.0
 40
0.0
 40
0.0
 40
3.0353868399110588
 40
3.0353868399110588
 40
3.0353868399110588
 40
3.0353868399110588
 10
72.538336921707213
 20
2.8033798852528129
 30
0.0
 10
71.330675222947036
 20
1.782281313483939
 30
0.0
 10
72.011234579133699
 20
0.9613863828403775
 30
0.0
 10
72.63193132285717
 20
0.1033798852528101
 30
0.0
 11
72.538336921707213
 21
2.8033798852528129
 31
0.0
 11
71.899499706350824
 21
1.3922203574348218
 31
0.0
 11
72.63193132285717
 21
0.1033798852528101
 31
0.0
  0
SPLINE
  5
2A1
100
AcDbEntity
  8
1
  6
CONTINUOUS
 62
             2
100
AcDbSpline
210
0.0
220
0.0
230
1.0
 70
             0
 71
             3
 72
             8
 73
             4
 74
             3
 42
0.00000000001
 43
0.00000000001
 44
0.00000000001
 40
0.0
 40
0.0
 40
0.0
 40
0.0
 40
3.0353868399111339
 40
3.0353868399111339
 40
3.0353868399111339
 40
3.0353868399111339
 10
70.857485792444606
 20
2.8033798852528129
 30
0.0
 10
69.649824093684387
 20
1.7822813134839111
 30
0.0
 10
70.330383449871121
 20
0.9613863828403346
 30
0.0
 10
70.951080193594564
 20
0.1033798852528101
 30
0.0
 11
70.857485792444606
 21
2.8033798852528129
 31
0.0
 11
70.218648577088203
 21
1.3922203574347951
 31
0.0
 11
70.951080193594564
 21
0.1033798852528101
 31
0.0
  0
SPLINE
  5
2A0
100
AcDbEntity
  8
1
  6
CONTINUOUS
 62
             2
100
AcDbSpline
210
0.0
220
0.0
230
1.0
 70
             0
 71
             3
 72
             8
 73
             4
 74
             3
 42
0.00000000001
 43
0.00000000001
 44
0.00000000001
 40
0.0
 40
0.0
 40
0.0
 40
0.0
 40
5.7336345279773342
 40
5.7336345279773342
 40
5.7336345279773342
 40
5.7336345279773342
 10
-92.000822996564679
 20
2.8033798852528129
 30
0.0
 10
-94.023547640641439
 20
0.8468344131564185
 30
0.0
 10
-90.260856293862417
 20
-0.6681830643121138
 30
0.0
 10
-92.000822996564679
 20
-2.5966201147471919
 30
0.0
 11
-92.000822996564679
 21
2.8033798852528129
 31
0.0
 11
-92.106857224580125
 21
0.0928392271298168
 31
0.0
 11
-92.000822996564679
 21
-2.5966201147471919
 31
0.0
  0
SPLINE
  5
29F
100
AcDbEntity
  8
1
  6
CONTINUOUS
 62
             2
100
AcDbSpline
210
0.0
220
0.0
230
1.0
 70
             0
 71
             3
 72
             8
 73
             4
 74
             3
 42
0.00000000001
 43
0.00000000001
 44
0.00000000001
 40
0.0
 40
0.0
 40
0.0
 40
0.0
 40
2.7901414999465461
 40
2.7901414999465461
 40
2.7901414999465461
 40
2.7901414999465461
 10
81.655811094338901
 20
-35.150290980132063
 30
0.0
 10
82.167289452071984
 20
-36.071390234319942
 30
0.0
 10
80.933417631208386
 20
-36.962181104202926
 30
0.0
 10
81.679744474041811
 20
-37.850290980132037
 30
0.0
 11
81.655811094338901
 21
-35.150290980132063
 31
0.0
 11
81.579709602277731
 21
-36.512661996979091
 31
0.0
 11
81.679744474041811
 21
-37.850290980132037
 31
0.0
  0
CIRCLE
  5
29E
100
AcDbEntity
  8
1
  6
CONTINUOUS
 62
             3
100
AcDbCircle
 10
-23.37106160307819
 20
4.10337988525281
 40
2.0
  0
CIRCLE
  5
29D
100
AcDbEntity
  8
1
  6
CONTINUOUS
 62
             3
100
AcDbCircle
 10
-23.37106160307819
 20
-3.89662011474719
 40
2.0
  0
ARC
  5
29C
100
AcDbEntity
  8
1
  6
CONTINUOUS
 62
             3
100
AcDbCircle
 10
45.29517347189136
 20
-40.94448844905048
 40
0.50290128699431
100
AcDbArc
 50
-168.82975426835679
 51
-97.43140797117513
  0
ARC
  5
29B
100
AcDbEntity
  8
1
  6
CONTINUOUS
 62
             3
100
AcDbCircle
 10
45.29517347189136
 20
-40.94448844905048
 40
0.50290128699431
100
AcDbArc
 50
-97.43140797117513
 51
0.16314551997566
  0
ARC
  5
29A
100
AcDbEntity
  8
1
  6
CONTINUOUS
 62
             3
100
AcDbCircle
 10
40.2804041494073
 20
-34.39925655518612
 40
0.50290128699431
100
AcDbArc
 50
97.43140797117434
 51
168.829754268356
  0
ARC
  5
299
100
AcDbEntity
  8
1
  6
CONTINUOUS
 62
             3
100
AcDbCircle
 10
40.2804041494073
 20
-34.39925655518612
 40
0.50290128699431
100
AcDbArc
 50
-0.16314551997484
 51
97.43140797117434
  0
ARC
  5
298
100
AcDbEntity
  8
1
  6
CONTINUOUS
 62
             3
100
AcDbCircle
 10
40.2804041494073
 20
-39.59322564812386
 40
0.50290128699431
100
AcDbArc
 50
-168.82975426835756
 51
-97.43140797117444
  0
ARC
  5
297
100
AcDbEntity
  8
1
  6
CONTINUOUS
 62
             3
100
AcDbCircle
 10
40.2804041494073
 20
-39.59322564812386
 40
0.5029012869943
100
AcDbArc
 50
-97.43140797117444
 51
0.16314551997565
  0
ARC
  5
296
100
AcDbEntity
  8
1
  6
CONTINUOUS
 62
             3
100
AcDbCircle
 10
42.78778881064933
 20
-34.39925655518612
 40
0.50290128699431
100
AcDbArc
 50
97.43140797117434
 51
168.829754268356
  0
ARC
  5
295
100
AcDbEntity
  8
1
  6
CONTINUOUS
 62
             3
100
AcDbCircle
 10
42.78778881064933
 20
-34.39925655518612
 40
0.5029012869943
100
AcDbArc
 50
-0.16314551997485
 51
97.43140797117434
  0
ARC
  5
294
100
AcDbEntity
  8
1
  6
CONTINUOUS
 62
             3
100
AcDbCircle
 10
42.78778881064933
 20
-39.59322564812386
 40
0.50290128699431
100
AcDbArc
 50
-168.82975426835756
 51
-97.43140797117444
  0
ARC
  5
293
100
AcDbEntity
  8
1
  6
CONTINUOUS
 62
             3
100
AcDbCircle
 10
42.78778881064933
 20
-39.59322564812386
 40
0.5029012869943
100
AcDbArc
 50
-97.43140797117444
 51
0.16314551997566
  0
ARC
  5
292
100
AcDbEntity
  8
1
  6
CONTINUOUS
 62
             3
100
AcDbCircle
 10
45.29517347189136
 20
-34.39925655518612
 40
0.50290128699431
100
AcDbArc
 50
97.43140797117513
 51
168.829754268356
  0
ARC
  5
291
100
AcDbEntity
  8
1
  6
CONTINUOUS
 62
             3
100
AcDbCircle
 10
45.29517347189136
 20
-34.39925655518612
 40
0.5029012869943
100
AcDbArc
 50
-0.16314551997485
 51
97.43140797117513
  0
ARC
  5
290
100
AcDbEntity
  8
1
  6
CONTINUOUS
 62
             3
100
AcDbCircle
 10
45.29517347189136
 20
-39.59322564812386
 40
0.50290128699431
100
AcDbArc
 50
-168.82975426835756
 51
-97.43140797117523
  0
ARC
  5
28F
100
AcDbEntity
  8
1
  6
CONTINUOUS
 62
             3
100
AcDbCircle
 10
45.29517347189136
 20
-39.59322564812386
 40
0.5029012869943
100
AcDbArc
 50
-97.43140797117523
 51
0.16314551997566
  0
ARC
  5
28E
100
AcDbEntity
  8
1
  6
CONTINUOUS
 62
             3
100
AcDbCircle
 10
32.75825016568128
 20
-33.04799375425954
 40
0.5029012869943
100
AcDbArc
 50
97.43140797117603
 51
168.82975426835614
  0
ARC
  5
28D
100
AcDbEntity
  8
1
  6
CONTINUOUS
 62
             3
100
AcDbCircle
 10
32.75825016568128
 20
-33.04799375425954
 40
0.50290128699429
100
AcDbArc
 50
-0.16314551997566
 51
97.43140797117603
  0
ARC
  5
28C
100
AcDbEntity
  8
1
  6
CONTINUOUS
 62
             3
100
AcDbCircle
 10
35.26563482692329
 20
-33.04799375425954
 40
0.5029012869943
100
AcDbArc
 50
97.43140797117523
 51
168.829754268356
  0
ARC
  5
28B
100
AcDbEntity
  8
1
  6
CONTINUOUS
 62
             3
100
AcDbCircle
 10
35.26563482692329
 20
-33.04799375425954
 40
0.5029012869943
100
AcDbArc
 50
-0.16314551997566
 51
97.43140797117523
  0
ARC
  5
28A
100
AcDbEntity
  8
1
  6
CONTINUOUS
 62
             3
100
AcDbCircle
 10
37.7730194881653
 20
-33.04799375425954
 40
0.5029012869943
100
AcDbArc
 50
97.43140797117523
 51
168.829754268356
  0
ARC
  5
289
100
AcDbEntity
  8
1
  6
CONTINUOUS
 62
             3
100
AcDbCircle
 10
37.7730194881653
 20
-33.04799375425954
 40
0.50290128699431
100
AcDbArc
 50
-0.16314551997565
 51
97.43140797117523
  0
ARC
  5
288
100
AcDbEntity
  8
1
  6
CONTINUOUS
 62
             3
100
AcDbCircle
 10
42.78778881064933
 20
-33.04799375425954
 40
0.5029012869943
100
AcDbArc
 50
97.43140797117444
 51
168.829754268356
  0
ARC
  5
287
100
AcDbEntity
  8
1
  6
CONTINUOUS
 62
             3
100
AcDbCircle
 10
42.78778881064933
 20
-33.04799375425954
 40
0.5029012869943
100
AcDbArc
 50
-0.16314551997566
 51
97.43140797117444
  0
ARC
  5
286
100
AcDbEntity
  8
1
  6
CONTINUOUS
 62
             3
100
AcDbCircle
 10
40.28040414940732
 20
-33.04799375425954
 40
0.5029012869943
100
AcDbArc
 50
97.43140797117523
 51
168.82975426835586
  0
ARC
  5
285
100
AcDbEntity
  8
1
  6
CONTINUOUS
 62
             3
100
AcDbCircle
 10
40.28040414940732
 20
-33.04799375425954
 40
0.5029012869943
100
AcDbArc
 50
-0.16314551997566
 51
97.43140797117523
  0
ARC
  5
284
100
AcDbEntity
  8
1
  6
CONTINUOUS
 62
             3
100
AcDbCircle
 10
45.29517347189136
 20
-33.04799375425954
 40
0.5029012869943
100
AcDbArc
 50
97.43140797117523
 51
168.829754268356
  0
ARC
  5
283
100
AcDbEntity
  8
1
  6
CONTINUOUS
 62
             3
100
AcDbCircle
 10
45.29517347189136
 20
-33.04799375425954
 40
0.5029012869943
100
AcDbArc
 50
-0.16314551997566
 51
97.43140797117523
  0
ARC
  5
282
100
AcDbEntity
  8
1
  6
CONTINUOUS
 62
             3
100
AcDbCircle
 10
32.75825016568128
 20
-40.94448844905048
 40
0.50290128699431
100
AcDbArc
 50
-168.82975426835694
 51
-97.43140797117593
  0
ARC
  5
281
100
AcDbEntity
  8
1
  6
CONTINUOUS
 62
             3
100
AcDbCircle
 10
32.75825016568128
 20
-40.94448844905048
 40
0.50290128699431
100
AcDbArc
 50
-97.43140797117593
 51
0.16314551997566
  0
ARC
  5
280
100
AcDbEntity
  8
1
  6
CONTINUOUS
 62
             3
100
AcDbCircle
 10
35.26563482692329
 20
-40.94448844905048
 40
0.50290128699431
100
AcDbArc
 50
-168.82975426835679
 51
-97.43140797117513
  0
ARC
  5
27F
100
AcDbEntity
  8
1
  6
CONTINUOUS
 62
             3
100
AcDbCircle
 10
35.26563482692329
 20
-40.94448844905048
 40
0.50290128699431
100
AcDbArc
 50
-97.43140797117513
 51
0.16314551997566
  0
ARC
  5
27E
100
AcDbEntity
  8
1
  6
CONTINUOUS
 62
             3
100
AcDbCircle
 10
37.7730194881653
 20
-40.94448844905048
 40
0.50290128699431
100
AcDbArc
 50
-168.82975426835679
 51
-97.43140797117513
  0
ARC
  5
27D
100
AcDbEntity
  8
1
  6
CONTINUOUS
 62
             3
100
AcDbCircle
 10
37.7730194881653
 20
-40.94448844905048
 40
0.50290128699431
100
AcDbArc
 50
-97.43140797117513
 51
0.16314551997565
  0
ARC
  5
27C
100
AcDbEntity
  8
1
  6
CONTINUOUS
 62
             3
100
AcDbCircle
 10
42.78778881064933
 20
-40.94448844905048
 40
0.50290128699431
100
AcDbArc
 50
-168.82975426835679
 51
-97.43140797117434
  0
ARC
  5
27B
100
AcDbEntity
  8
1
  6
CONTINUOUS
 62
             3
100
AcDbCircle
 10
42.78778881064933
 20
-40.94448844905048
 40
0.50290128699431
100
AcDbArc
 50
-97.43140797117434
 51
0.16314551997566
  0
ARC
  5
27A
100
AcDbEntity
  8
1
  6
CONTINUOUS
 62
             3
100
AcDbCircle
 10
40.28040414940732
 20
-40.94448844905048
 40
0.5029012869943
100
AcDbArc
 50
-168.82975426835662
 51
-97.43140797117513
  0
ARC
  5
279
100
AcDbEntity
  8
1
  6
CONTINUOUS
 62
             3
100
AcDbCircle
 10
40.28040414940732
 20
-40.94448844905048
 40
0.50290128699431
100
AcDbArc
 50
-97.43140797117513
 51
0.16314551997566
  0
ARC
  5
278
100
AcDbEntity
  8
1
  6
CONTINUOUS
 62
             3
100
AcDbCircle
 10
42.78778881064933
 20
-8.09065629334305
 40
0.50290128699431
100
AcDbArc
 50
-168.829754268356
 51
-97.43140797117434
  0
ARC
  5
277
100
AcDbEntity
  8
1
  6
CONTINUOUS
 62
             3
100
AcDbCircle
 10
42.78778881064933
 20
-8.09065629334305
 40
0.50290128699431
100
AcDbArc
 50
-97.43140797117434
 51
0.16314551997444
  0
ARC
  5
276
100
AcDbEntity
  8
1
  6
CONTINUOUS
 62
             3
100
AcDbCircle
 10
40.28040414940732
 20
-8.09065629334305
 40
0.5029012869943
100
AcDbArc
 50
-168.82975426835586
 51
-97.43140797117513
  0
ARC
  5
275
100
AcDbEntity
  8
1
  6
CONTINUOUS
 62
             3
100
AcDbCircle
 10
40.28040414940732
 20
-8.09065629334305
 40
0.50290128699431
100
AcDbArc
 50
-97.43140797117513
 51
0.16314551997444
  0
ARC
  5
274
100
AcDbEntity
  8
1
  6
CONTINUOUS
 62
             3
100
AcDbCircle
 10
45.29517347189136
 20
-8.09065629334305
 40
0.50290128699431
100
AcDbArc
 50
-168.829754268356
 51
-97.43140797117513
  0
ARC
  5
273
100
AcDbEntity
  8
1
  6
CONTINUOUS
 62
             3
100
AcDbCircle
 10
45.29517347189136
 20
-8.09065629334305
 40
0.50290128699431
100
AcDbArc
 50
-97.43140797117513
 51
0.16314551997444
  0
ARC
  5
272
100
AcDbEntity
  8
1
  6
CONTINUOUS
 62
             3
100
AcDbCircle
 10
42.78778881064933
 20
9.29741606384867
 40
0.50290128699431
100
AcDbArc
 50
97.43140797117434
 51
168.829754268356
  0
ARC
  5
271
100
AcDbEntity
  8
1
  6
CONTINUOUS
 62
             3
100
AcDbCircle
 10
42.78778881064933
 20
9.29741606384867
 40
0.5029012869943
100
AcDbArc
 50
-0.16314551997485
 51
97.43140797117434
  0
ARC
  5
270
100
AcDbEntity
  8
1
  6
CONTINUOUS
 62
             3
100
AcDbCircle
 10
40.28040414940732
 20
9.29741606384867
 40
0.50290128699431
100
AcDbArc
 50
97.43140797117513
 51
168.82975426835586
  0
ARC
  5
26F
100
AcDbEntity
  8
1
  6
CONTINUOUS
 62
             3
100
AcDbCircle
 10
40.28040414940732
 20
9.29741606384867
 40
0.5029012869943
100
AcDbArc
 50
-0.16314551997485
 51
97.43140797117513
  0
ARC
  5
26E
100
AcDbEntity
  8
1
  6
CONTINUOUS
 62
             3
100
AcDbCircle
 10
45.29517347189136
 20
9.29741606384867
 40
0.50290128699431
100
AcDbArc
 50
97.43140797117513
 51
168.829754268356
  0
ARC
  5
26D
100
AcDbEntity
  8
1
  6
CONTINUOUS
 62
             3
100
AcDbCircle
 10
45.29517347189136
 20
9.29741606384867
 40
0.5029012869943
100
AcDbArc
 50
-0.16314551997485
 51
97.43140797117513
  0
ARC
  5
26C
100
AcDbEntity
  8
1
  6
CONTINUOUS
 62
             3
100
AcDbCircle
 10
45.29517347189136
 20
6.6022162379348
 40
0.50290128699431
100
AcDbArc
 50
97.43140797117513
 51
168.829754268356
  0
ARC
  5
26B
100
AcDbEntity
  8
1
  6
CONTINUOUS
 62
             3
100
AcDbCircle
 10
45.29517347189136
 20
6.6022162379348
 40
0.5029012869943
100
AcDbArc
 50
-0.16314551997485
 51
97.43140797117513
  0
ARC
  5
26A
100
AcDbEntity
  8
1
  6
CONTINUOUS
 62
             3
100
AcDbCircle
 10
45.29517347189136
 20
-5.39545646742919
 40
0.50290128699431
100
AcDbArc
 50
-168.829754268356
 51
-97.43140797117513
  0
ARC
  5
269
100
AcDbEntity
  8
1
  6
CONTINUOUS
 62
             3
100
AcDbCircle
 10
45.29517347189136
 20
-5.39545646742919
 40
0.50290128699431
100
AcDbArc
 50
-97.43140797117513
 51
0.16314551997444
  0
ARC
  5
268
100
AcDbEntity
  8
1
  6
CONTINUOUS
 62
             3
100
AcDbCircle
 10
42.78778881064933
 20
6.6022162379348
 40
0.50290128699431
100
AcDbArc
 50
97.43140797117434
 51
168.829754268356
  0
ARC
  5
267
100
AcDbEntity
  8
1
  6
CONTINUOUS
 62
             3
100
AcDbCircle
 10
42.78778881064933
 20
6.6022162379348
 40
0.5029012869943
100
AcDbArc
 50
-0.16314551997485
 51
97.43140797117434
  0
ARC
  5
266
100
AcDbEntity
  8
1
  6
CONTINUOUS
 62
             3
100
AcDbCircle
 10
42.78778881064933
 20
-5.39545646742919
 40
0.50290128699431
100
AcDbArc
 50
-168.829754268356
 51
-97.43140797117434
  0
ARC
  5
265
100
AcDbEntity
  8
1
  6
CONTINUOUS
 62
             3
100
AcDbCircle
 10
42.78778881064933
 20
-5.39545646742919
 40
0.50290128699431
100
AcDbArc
 50
-97.43140797117434
 51
0.16314551997444
  0
ARC
  5
264
100
AcDbEntity
  8
1
  6
CONTINUOUS
 62
             3
100
AcDbCircle
 10
40.28040414940732
 20
6.6022162379348
 40
0.50290128699431
100
AcDbArc
 50
97.43140797117513
 51
168.82975426835586
  0
ARC
  5
263
100
AcDbEntity
  8
1
  6
CONTINUOUS
 62
             3
100
AcDbCircle
 10
40.28040414940732
 20
6.6022162379348
 40
0.5029012869943
100
AcDbArc
 50
-0.16314551997485
 51
97.43140797117513
  0
ARC
  5
262
100
AcDbEntity
  8
1
  6
CONTINUOUS
 62
             3
100
AcDbCircle
 10
40.28040414940732
 20
-5.39545646742919
 40
0.5029012869943
100
AcDbArc
 50
-168.82975426835586
 51
-97.43140797117513
  0
ARC
  5
261
100
AcDbEntity
  8
1
  6
CONTINUOUS
 62
             3
100
AcDbCircle
 10
40.28040414940732
 20
-5.39545646742919
 40
0.50290128699431
100
AcDbArc
 50
-97.43140797117513
 51
0.16314551997444
  0
ARC
  5
260
100
AcDbEntity
  8
1
  6
CONTINUOUS
 62
             3
100
AcDbCircle
 10
32.76570312883554
 20
6.6022162379348
 40
0.50290128699431
100
AcDbArc
 50
97.43140797117513
 51
168.829754268356
  0
ARC
  5
25F
100
AcDbEntity
  8
1
  6
CONTINUOUS
 62
             3
100
AcDbCircle
 10
32.76570312883554
 20
6.6022162379348
 40
0.5029012869943
100
AcDbArc
 50
-0.16314551997485
 51
97.43140797117513
  0
ARC
  5
25E
100
AcDbEntity
  8
1
  6
CONTINUOUS
 62
             3
100
AcDbCircle
 10
32.76570312883554
 20
-5.39545646742919
 40
0.50290128699431
100
AcDbArc
 50
-168.829754268356
 51
-97.43140797117513
  0
ARC
  5
25D
100
AcDbEntity
  8
1
  6
CONTINUOUS
 62
             3
100
AcDbCircle
 10
32.76570312883554
 20
-5.39545646742919
 40
0.50290128699431
100
AcDbArc
 50
-97.43140797117513
 51
0.16314551997444
  0
ARC
  5
25C
100
AcDbEntity
  8
1
  6
CONTINUOUS
 62
             3
100
AcDbCircle
 10
35.26936130850042
 20
6.6022162379348
 40
0.50290128699431
100
AcDbArc
 50
97.43140797117674
 51
168.829754268356
  0
ARC
  5
25B
100
AcDbEntity
  8
1
  6
CONTINUOUS
 62
             3
100
AcDbCircle
 10
35.26936130850042
 20
6.6022162379348
 40
0.5029012869943
100
AcDbArc
 50
-0.16314551997485
 51
97.43140797117674
  0
ARC
  5
25A
100
AcDbEntity
  8
1
  6
CONTINUOUS
 62
             3
100
AcDbCircle
 10
35.26936130850042
 20
-5.39545646742919
 40
0.50290128699431
100
AcDbArc
 50
-168.829754268356
 51
-97.43140797117674
  0
ARC
  5
259
100
AcDbEntity
  8
1
  6
CONTINUOUS
 62
             3
100
AcDbCircle
 10
35.26936130850042
 20
-5.39545646742919
 40
0.50290128699431
100
AcDbArc
 50
-97.43140797117674
 51
0.16314551997444
  0
ARC
  5
258
100
AcDbEntity
  8
1
  6
CONTINUOUS
 62
             3
100
AcDbCircle
 10
37.77301948816529
 20
6.6022162379348
 40
0.50290128699431
100
AcDbArc
 50
97.43140797117513
 51
168.829754268356
  0
ARC
  5
257
100
AcDbEntity
  8
1
  6
CONTINUOUS
 62
             3
100
AcDbCircle
 10
37.77301948816529
 20
6.6022162379348
 40
0.5029012869943
100
AcDbArc
 50
-0.16314551997485
 51
97.43140797117513
  0
ARC
  5
256
100
AcDbEntity
  8
1
  6
CONTINUOUS
 62
             3
100
AcDbCircle
 10
37.77301948816529
 20
-5.39545646742919
 40
0.50290128699431
100
AcDbArc
 50
-168.829754268356
 51
-97.43140797117513
  0
ARC
  5
255
100
AcDbEntity
  8
1
  6
CONTINUOUS
 62
             3
100
AcDbCircle
 10
37.77301948816529
 20
-5.39545646742919
 40
0.50290128699431
100
AcDbArc
 50
-97.43140797117513
 51
0.16314551997444
  0
ARC
  5
254
100
AcDbEntity
  8
1
  6
CONTINUOUS
 62
             3
100
AcDbCircle
 10
-55.34017161994875
 20
-8.09065629334305
 40
0.50290128699431
100
AcDbArc
 50
-82.56859202882328
 51
-11.17024573164417
  0
ARC
  5
253
100
AcDbEntity
  8
1
  6
CONTINUOUS
 62
             3
100
AcDbCircle
 10
-55.34017161994875
 20
-8.09065629334305
 40
0.5029012869943
100
AcDbArc
 50
179.83685448002555
 51
-82.56859202882328
  0
ARC
  5
252
100
AcDbEntity
  8
1
  6
CONTINUOUS
 62
             3
100
AcDbCircle
 10
-52.83278695870673
 20
-8.09065629334305
 40
0.50290128699431
100
AcDbArc
 50
-82.56859202882488
 51
-11.17024573164433
  0
ARC
  5
251
100
AcDbEntity
  8
1
  6
CONTINUOUS
 62
             3
100
AcDbCircle
 10
-52.83278695870673
 20
-8.09065629334305
 40
0.5029012869943
100
AcDbArc
 50
179.83685448002555
 51
-82.56859202882488
  0
ARC
  5
250
100
AcDbEntity
  8
1
  6
CONTINUOUS
 62
             3
100
AcDbCircle
 10
-57.84755628119077
 20
-8.09065629334305
 40
0.50290128699431
100
AcDbArc
 50
-82.56859202882568
 51
-11.17024573164402
  0
ARC
  5
24F
100
AcDbEntity
  8
1
  6
CONTINUOUS
 62
             3
100
AcDbCircle
 10
-57.84755628119077
 20
-8.09065629334305
 40
0.50290128699429
100
AcDbArc
 50
179.83685448002555
 51
-82.56859202882568
  0
ARC
  5
24E
100
AcDbEntity
  8
1
  6
CONTINUOUS
 62
             3
100
AcDbCircle
 10
-55.34017161994875
 20
9.29741606384867
 40
0.5029012869943
100
AcDbArc
 50
11.17024573164417
 51
82.56859202882328
  0
ARC
  5
24D
100
AcDbEntity
  8
1
  6
CONTINUOUS
 62
             3
100
AcDbCircle
 10
-55.34017161994875
 20
9.29741606384867
 40
0.50290128699431
100
AcDbArc
 50
82.56859202882328
 51
-179.83685448002515
  0
ARC
  5
24C
100
AcDbEntity
  8
1
  6
CONTINUOUS
 62
             3
100
AcDbCircle
 10
-52.83278695870673
 20
9.29741606384867
 40
0.50290128699429
100
AcDbArc
 50
11.17024573164433
 51
82.56859202882488
  0
ARC
  5
24B
100
AcDbEntity
  8
1
  6
CONTINUOUS
 62
             3
100
AcDbCircle
 10
-52.83278695870673
 20
9.29741606384867
 40
0.50290128699431
100
AcDbArc
 50
82.56859202882488
 51
-179.83685448002515
  0
ARC
  5
24A
100
AcDbEntity
  8
1
  6
CONTINUOUS
 62
             3
100
AcDbCircle
 10
-57.84755628119077
 20
9.29741606384867
 40
0.50290128699431
100
AcDbArc
 50
11.17024573164402
 51
82.56859202882568
  0
ARC
  5
249
100
AcDbEntity
  8
1
  6
CONTINUOUS
 62
             3
100
AcDbCircle
 10
-57.84755628119077
 20
9.29741606384867
 40
0.50290128699431
100
AcDbArc
 50
82.56859202882568
 51
-179.83685448002515
  0
ARC
  5
248
100
AcDbEntity
  8
1
  6
CONTINUOUS
 62
             3
100
AcDbCircle
 10
-57.84755628119077
 20
6.6022162379348
 40
0.50290128699431
100
AcDbArc
 50
11.17024573164402
 51
82.56859202882568
  0
ARC
  5
247
100
AcDbEntity
  8
1
  6
CONTINUOUS
 62
             3
100
AcDbCircle
 10
-57.84755628119077
 20
6.6022162379348
 40
0.50290128699431
100
AcDbArc
 50
82.56859202882568
 51
-179.83685448002515
  0
ARC
  5
246
100
AcDbEntity
  8
1
  6
CONTINUOUS
 62
             3
100
AcDbCircle
 10
-57.84755628119077
 20
-5.39545646742919
 40
0.50290128699431
100
AcDbArc
 50
-82.56859202882568
 51
-11.17024573164402
  0
ARC
  5
245
100
AcDbEntity
  8
1
  6
CONTINUOUS
 62
             3
100
AcDbCircle
 10
-57.84755628119077
 20
-5.39545646742919
 40
0.50290128699429
100
AcDbArc
 50
179.83685448002555
 51
-82.56859202882568
  0
ARC
  5
244
100
AcDbEntity
  8
1
  6
CONTINUOUS
 62
             3
100
AcDbCircle
 10
-55.34017161994875
 20
6.6022162379348
 40
0.5029012869943
100
AcDbArc
 50
11.17024573164417
 51
82.56859202882328
  0
ARC
  5
243
100
AcDbEntity
  8
1
  6
CONTINUOUS
 62
             3
100
AcDbCircle
 10
-55.34017161994875
 20
6.6022162379348
 40
0.50290128699431
100
AcDbArc
 50
82.56859202882328
 51
-179.83685448002515
  0
ARC
  5
242
100
AcDbEntity
  8
1
  6
CONTINUOUS
 62
             3
100
AcDbCircle
 10
-55.34017161994875
 20
-5.39545646742919
 40
0.50290128699431
100
AcDbArc
 50
-82.56859202882328
 51
-11.17024573164417
  0
ARC
  5
241
100
AcDbEntity
  8
1
  6
CONTINUOUS
 62
             3
100
AcDbCircle
 10
-55.34017161994875
 20
-5.39545646742919
 40
0.5029012869943
100
AcDbArc
 50
179.83685448002555
 51
-82.56859202882328
  0
ARC
  5
240
100
AcDbEntity
  8
1
  6
CONTINUOUS
 62
             3
100
AcDbCircle
 10
-52.83278695870673
 20
6.6022162379348
 40
0.50290128699429
100
AcDbArc
 50
11.17024573164433
 51
82.56859202882488
  0
ARC
  5
23F
100
AcDbEntity
  8
1
  6
CONTINUOUS
 62
             3
100
AcDbCircle
 10
-52.83278695870673
 20
6.6022162379348
 40
0.50290128699431
100
AcDbArc
 50
82.56859202882488
 51
-179.83685448002515
  0
ARC
  5
23E
100
AcDbEntity
  8
1
  6
CONTINUOUS
 62
             3
100
AcDbCircle
 10
-52.83278695870673
 20
-5.39545646742919
 40
0.50290128699431
100
AcDbArc
 50
-82.56859202882488
 51
-11.17024573164433
  0
ARC
  5
23D
100
AcDbEntity
  8
1
  6
CONTINUOUS
 62
             3
100
AcDbCircle
 10
-52.83278695870673
 20
-5.39545646742919
 40
0.5029012869943
100
AcDbArc
 50
179.83685448002555
 51
-82.56859202882488
  0
ARC
  5
23C
100
AcDbEntity
  8
1
  6
CONTINUOUS
 62
             3
100
AcDbCircle
 10
-45.31808593813496
 20
6.6022162379348
 40
0.50290128699432
100
AcDbArc
 50
11.1702457316437
 51
82.56859202882409
  0
ARC
  5
23B
100
AcDbEntity
  8
1
  6
CONTINUOUS
 62
             3
100
AcDbCircle
 10
-45.31808593813496
 20
6.6022162379348
 40
0.50290128699431
100
AcDbArc
 50
82.56859202882409
 51
-179.83685448002515
  0
ARC
  5
23A
100
AcDbEntity
  8
1
  6
CONTINUOUS
 62
             3
100
AcDbCircle
 10
-45.31808593813496
 20
-5.39545646742919
 40
0.50290128699431
100
AcDbArc
 50
-82.56859202882409
 51
-11.1702457316437
  0
ARC
  5
239
100
AcDbEntity
  8
1
  6
CONTINUOUS
 62
             3
100
AcDbCircle
 10
-45.31808593813496
 20
-5.39545646742919
 40
0.50290128699429
100
AcDbArc
 50
179.83685448002555
 51
-82.56859202882409
  0
ARC
  5
238
100
AcDbEntity
  8
1
  6
CONTINUOUS
 62
             3
100
AcDbCircle
 10
-47.82174411779982
 20
6.6022162379348
 40
0.50290128699428
100
AcDbArc
 50
11.17024573164464
 51
82.56859202882568
  0
ARC
  5
237
100
AcDbEntity
  8
1
  6
CONTINUOUS
 62
             3
100
AcDbCircle
 10
-47.82174411779982
 20
6.6022162379348
 40
0.50290128699431
100
AcDbArc
 50
82.56859202882568
 51
-179.83685448002518
  0
ARC
  5
236
100
AcDbEntity
  8
1
  6
CONTINUOUS
 62
             3
100
AcDbCircle
 10
-47.82174411779982
 20
-5.39545646742919
 40
0.50290128699431
100
AcDbArc
 50
-82.56859202882568
 51
-11.17024573164464
  0
ARC
  5
235
100
AcDbEntity
  8
1
  6
CONTINUOUS
 62
             3
100
AcDbCircle
 10
-47.82174411779982
 20
-5.39545646742919
 40
0.50290128699432
100
AcDbArc
 50
179.83685448002558
 51
-82.56859202882568
  0
ARC
  5
234
100
AcDbEntity
  8
1
  6
CONTINUOUS
 62
             3
100
AcDbCircle
 10
-50.32540229746471
 20
6.6022162379348
 40
0.50290128699432
100
AcDbArc
 50
11.1702457316437
 51
82.56859202882409
  0
ARC
  5
233
100
AcDbEntity
  8
1
  6
CONTINUOUS
 62
             3
100
AcDbCircle
 10
-50.32540229746471
 20
6.6022162379348
 40
0.50290128699431
100
AcDbArc
 50
82.56859202882409
 51
-179.83685448002515
  0
ARC
  5
232
100
AcDbEntity
  8
1
  6
CONTINUOUS
 62
             3
100
AcDbCircle
 10
-50.32540229746471
 20
-5.39545646742919
 40
0.50290128699431
100
AcDbArc
 50
-82.56859202882409
 51
-11.1702457316437
  0
ARC
  5
231
100
AcDbEntity
  8
1
  6
CONTINUOUS
 62
             3
100
AcDbCircle
 10
-50.32540229746471
 20
-5.39545646742919
 40
0.50290128699429
100
AcDbArc
 50
179.83685448002555
 51
-82.56859202882409
  0
ARC
  5
230
100
AcDbEntity
  8
1
  6
CONTINUOUS
 62
             3
100
AcDbCircle
 10
-23.37106160307819
 20
-3.89662011474719
 40
1.75
100
AcDbArc
 50
-170.1291103938606
 51
-9.87088960613944
  0
ARC
  5
22F
100
AcDbEntity
  8
1
  6
CONTINUOUS
 62
             3
100
AcDbCircle
 10
-23.37106160307819
 20
-3.89662011474719
 40
1.75
100
AcDbArc
 50
170.12911039386049
 51
-170.1291103938606
  0
ARC
  5
22E
100
AcDbEntity
  8
1
  6
CONTINUOUS
 62
             3
100
AcDbCircle
 10
-23.37106160307819
 20
-3.89662011474719
 40
1.75
100
AcDbArc
 50
9.8708896061395
 51
170.12911039386049
  0
ARC
  5
22D
100
AcDbEntity
  8
1
  6
CONTINUOUS
 62
             3
100
AcDbCircle
 10
-23.37106160307819
 20
-3.89662011474719
 40
1.75
100
AcDbArc
 50
-9.87088960613944
 51
9.8708896061395
  0
ARC
  5
22C
100
AcDbEntity
  8
1
  6
CONTINUOUS
 62
             3
100
AcDbCircle
 10
-23.37106160307819
 20
4.10337988525281
 40
1.75
100
AcDbArc
 50
-170.12911039386051
 51
-9.87088960613947
  0
ARC
  5
22B
100
AcDbEntity
  8
1
  6
CONTINUOUS
 62
             3
100
AcDbCircle
 10
-23.37106160307819
 20
4.10337988525281
 40
1.75
100
AcDbArc
 50
170.1291103938606
 51
-170.12911039386051
  0
ARC
  5
22A
100
AcDbEntity
  8
1
  6
CONTINUOUS
 62
             3
100
AcDbCircle
 10
-23.37106160307819
 20
4.10337988525281
 40
1.75
100
AcDbArc
 50
9.87088960613941
 51
170.1291103938606
  0
ARC
  5
229
100
AcDbEntity
  8
1
  6
CONTINUOUS
 62
             3
100
AcDbCircle
 10
-23.37106160307819
 20
4.10337988525281
 40
1.75
100
AcDbArc
 50
-9.87088960613947
 51
9.87088960613941
  0
LINE
  5
228
100
AcDbEntity
  8
1
  6
CONTINUOUS
 62
             3
100
AcDbLine
 10
44.80179920174321
 20
-41.04191295323864
 11
44.80179920174321
 21
-40.75045227045462
  0
LINE
  5
227
100
AcDbEntity
  8
1
  6
CONTINUOUS
 62
             3
100
AcDbLine
 10
45.79807272016606
 20
-40.94305647654237
 11
45.79807272016606
 21
-40.75045227045462
  0
LINE
  5
226
100
AcDbEntity
  8
1
  6
CONTINUOUS
 62
             3
100
AcDbLine
 10
45.7156863582809
 20
-33.24202993285542
 11
23.7156863582809
 21
-33.24202993285542
  0
LINE
  5
225
100
AcDbEntity
  8
1
  6
CONTINUOUS
 62
             3
100
AcDbLine
 10
40.78702987925915
 20
-34.40068852769423
 11
40.78702987925915
 21
-39.59179367561575
  0
LINE
  5
224
100
AcDbEntity
  8
1
  6
CONTINUOUS
 62
             3
100
AcDbLine
 10
39.78702987925915
 20
-34.30183205099795
 11
39.78702987925915
 21
-39.69065015231202
  0
LINE
  5
223
100
AcDbEntity
  8
1
  6
CONTINUOUS
 62
             3
100
AcDbLine
 10
43.29441454050118
 20
-34.40068852769423
 11
43.29441454050118
 21
-39.59179367561575
  0
LINE
  5
222
100
AcDbEntity
  8
1
  6
CONTINUOUS
 62
             3
100
AcDbLine
 10
42.29441454050118
 20
-34.30183205099795
 11
42.29441454050118
 21
-39.69065015231202
  0
LINE
  5
221
100
AcDbEntity
  8
1
  6
CONTINUOUS
 62
             3
100
AcDbLine
 10
45.80179920174321
 20
-34.40068852769423
 11
45.80179920174321
 21
-39.59179367561575
  0
LINE
  5
220
100
AcDbEntity
  8
1
  6
CONTINUOUS
 62
             3
100
AcDbLine
 10
44.80179920174321
 20
-34.30183205099795
 11
44.80179920174321
 21
-39.69065015231202
  0
LINE
  5
21F
100
AcDbEntity
  8
1
  6
CONTINUOUS
 62
             3
100
AcDbLine
 10
32.26487589553312
 20
-33.2420299328554
 11
32.26487589553312
 21
-32.95056925007137
  0
LINE
  5
21E
100
AcDbEntity
  8
1
  6
CONTINUOUS
 62
             3
100
AcDbLine
 10
33.26114941395598
 20
-33.2420299328554
 11
33.26114941395598
 21
-33.04942572676765
  0
LINE
  5
21D
100
AcDbEntity
  8
1
  6
CONTINUOUS
 62
             3
100
AcDbLine
 10
34.77226055677514
 20
-33.2420299328554
 11
34.77226055677514
 21
-32.95056925007137
  0
LINE
  5
21C
100
AcDbEntity
  8
1
  6
CONTINUOUS
 62
             3
100
AcDbLine
 10
35.76853407519799
 20
-33.2420299328554
 11
35.76853407519799
 21
-33.04942572676765
  0
LINE
  5
21B
100
AcDbEntity
  8
1
  6
CONTINUOUS
 62
             3
100
AcDbLine
 10
37.27964521801715
 20
-33.2420299328554
 11
37.27964521801715
 21
-32.95056925007137
  0
LINE
  5
21A
100
AcDbEntity
  8
1
  6
CONTINUOUS
 62
             3
100
AcDbLine
 10
38.27591873644001
 20
-33.2420299328554
 11
38.27591873644001
 21
-33.04942572676765
  0
LINE
  5
219
100
AcDbEntity
  8
1
  6
CONTINUOUS
 62
             3
100
AcDbLine
 10
39.78702987925917
 20
-33.2420299328554
 11
39.78702987925917
 21
-32.95056925007137
  0
LINE
  5
218
100
AcDbEntity
  8
1
  6
CONTINUOUS
 62
             3
100
AcDbLine
 10
40.78330339768202
 20
-33.2420299328554
 11
40.78330339768202
 21
-33.04942572676765
  0
LINE
  5
217
100
AcDbEntity
  8
1
  6
CONTINUOUS
 62
             3
100
AcDbLine
 10
42.29441454050118
 20
-33.2420299328554
 11
42.29441454050118
 21
-32.95056925007137
  0
LINE
  5
216
100
AcDbEntity
  8
1
  6
CONTINUOUS
 62
             3
100
AcDbLine
 10
43.29068805892403
 20
-33.2420299328554
 11
43.29068805892403
 21
-33.04942572676765
  0
LINE
  5
215
100
AcDbEntity
  8
1
  6
CONTINUOUS
 62
             3
100
AcDbLine
 10
44.80179920174321
 20
-33.2420299328554
 11
44.80179920174321
 21
-32.95056925007137
  0
LINE
  5
214
100
AcDbEntity
  8
1
  6
CONTINUOUS
 62
             3
100
AcDbLine
 10
45.79807272016606
 20
-33.2420299328554
 11
45.79807272016606
 21
-33.04942572676765
  0
LINE
  5
213
100
AcDbEntity
  8
1
  6
CONTINUOUS
 62
             3
100
AcDbLine
 10
32.26487589553312
 20
-41.04191295323864
 11
32.26487589553312
 21
-40.75045227045462
  0
LINE
  5
212
100
AcDbEntity
  8
1
  6
CONTINUOUS
 62
             3
100
AcDbLine
 10
33.26114941395598
 20
-40.94305647654237
 11
33.26114941395598
 21
-40.75045227045462
  0
LINE
  5
211
100
AcDbEntity
  8
1
  6
CONTINUOUS
 62
             3
100
AcDbLine
 10
34.77226055677514
 20
-41.04191295323864
 11
34.77226055677514
 21
-40.75045227045462
  0
LINE
  5
210
100
AcDbEntity
  8
1
  6
CONTINUOUS
 62
             3
100
AcDbLine
 10
35.76853407519799
 20
-40.94305647654237
 11
35.76853407519799
 21
-40.75045227045462
  0
LINE
  5
20F
100
AcDbEntity
  8
1
  6
CONTINUOUS
 62
             3
100
AcDbLine
 10
37.27964521801715
 20
-41.04191295323864
 11
37.27964521801715
 21
-40.75045227045462
  0
LINE
  5
20E
100
AcDbEntity
  8
1
  6
CONTINUOUS
 62
             3
100
AcDbLine
 10
38.27591873644001
 20
-40.94305647654237
 11
38.27591873644001
 21
-40.75045227045462
  0
LINE
  5
20D
100
AcDbEntity
  8
1
  6
CONTINUOUS
 62
             3
100
AcDbLine
 10
39.78702987925917
 20
-41.04191295323864
 11
39.78702987925917
 21
-40.75045227045462
  0
LINE
  5
20C
100
AcDbEntity
  8
1
  6
CONTINUOUS
 62
             3
100
AcDbLine
 10
40.78330339768202
 20
-40.94305647654237
 11
40.78330339768202
 21
-40.75045227045462
  0
LINE
  5
20B
100
AcDbEntity
  8
1
  6
CONTINUOUS
 62
             3
100
AcDbLine
 10
42.29441454050118
 20
-41.04191295323864
 11
42.29441454050118
 21
-40.75045227045462
  0
LINE
  5
20A
100
AcDbEntity
  8
1
  6
CONTINUOUS
 62
             3
100
AcDbLine
 10
43.29068805892403
 20
-40.94305647654237
 11
43.29068805892403
 21
-40.75045227045462
  0
LINE
  5
209
100
AcDbEntity
  8
1
  6
CONTINUOUS
 62
             3
100
AcDbLine
 10
45.7156863582809
 20
-33.24202993285542
 11
23.7156863582809
 21
-33.24202993285542
  0
LINE
  5
208
100
AcDbEntity
  8
1
  6
CONTINUOUS
 62
             3
100
AcDbLine
 10
23.7156863582809
 20
-40.7504522704546
 11
45.71568635828091
 21
-40.75045227045459
  0
LINE
  5
207
100
AcDbEntity
  8
1
  6
CONTINUOUS
 62
             3
100
AcDbLine
 10
63.21568635828091
 20
-35.15868890330958
 11
63.21568635828091
 21
-35.50032968980946
  0
LINE
  5
206
100
AcDbEntity
  8
1
  6
CONTINUOUS
 62
             3
100
AcDbLine
 10
63.21568635828091
 20
-34.00032968980946
 11
63.21568635828091
 21
-35.15868890330958
  0
LINE
  5
205
100
AcDbEntity
  8
1
  6
CONTINUOUS
 62
             3
100
AcDbLine
 10
63.21568635828091
 20
-34.00032968980946
 11
63.21568635828091
 21
-35.15868890330958
  0
LINE
  5
204
100
AcDbEntity
  8
1
  6
CONTINUOUS
 62
             3
100
AcDbLine
 10
51.20762289092178
 20
-32.7583867306585
 11
53.21568635828091
 21
-33.33077485109976
  0
LINE
  5
203
100
AcDbEntity
  8
1
  6
CONTINUOUS
 62
             3
100
AcDbLine
 10
-27.59537902641078
 20
-6.88592682469186
 11
-27.37106160307819
 21
-6.88592682469186
  0
LINE
  5
202
100
AcDbEntity
  8
1
  6
CONTINUOUS
 62
             3
100
AcDbLine
 10
-27.59537902641078
 20
7.04168047721969
 11
-27.37106160307819
 21
7.04168047721969
  0
LINE
  5
201
100
AcDbEntity
  8
1
  6
CONTINUOUS
 62
             3
100
AcDbLine
 10
-28.09537902641078
 20
6.54168047721969
 11
-28.09537902641078
 21
-6.38592682469186
  0
LINE
  5
200
100
AcDbEntity
  8
1
  6
CONTINUOUS
 62
             3
100
AcDbLine
 10
-19.37106160307819
 20
-6.88592682469186
 11
-19.1467441797456
 21
-6.88592682469186
  0
LINE
  5
1FF
100
AcDbEntity
  8
1
  6
CONTINUOUS
 62
             3
100
AcDbLine
 10
-19.37106160307819
 20
7.04168047721969
 11
-19.1467441797456
 21
7.04168047721969
  0
LINE
  5
1FE
100
AcDbEntity
  8
1
  6
CONTINUOUS
 62
             3
100
AcDbLine
 10
-18.6467441797456
 20
-6.38592682469186
 11
-18.6467441797456
 21
6.54168047721969
  0
LINE
  5
1FD
100
AcDbEntity
  8
1
  6
CONTINUOUS
 62
             3
100
AcDbLine
 10
-26.31686407722681
 20
-8.39662011474719
 11
-26.31686407722681
 21
-8.62093753807978
  0
LINE
  5
1FC
100
AcDbEntity
  8
1
  6
CONTINUOUS
 62
             3
100
AcDbLine
 10
-20.42525912892957
 20
-8.39662011474719
 11
-20.42525912892957
 21
-8.62093753807978
  0
LINE
  5
1FB
100
AcDbEntity
  8
1
  6
CONTINUOUS
 62
             3
100
AcDbLine
 10
-25.81686407722681
 20
-9.12093753807978
 11
-20.92525912892957
 21
-9.12093753807978
  0
LINE
  5
1FA
100
AcDbEntity
  8
1
  6
CONTINUOUS
 62
             3
100
AcDbLine
 10
-26.31686407722681
 20
8.8276973085854
 11
-26.31686407722681
 21
8.60337988525281
  0
LINE
  5
1F9
100
AcDbEntity
  8
1
  6
CONTINUOUS
 62
             3
100
AcDbLine
 10
-20.42525912892957
 20
8.8276973085854
 11
-20.42525912892957
 21
8.60337988525281
  0
LINE
  5
1F8
100
AcDbEntity
  8
1
  6
CONTINUOUS
 62
             2
100
AcDbLine
 10
-27.37106160307819
 20
8.60337988525281
 11
-27.37106160307819
 21
9.10337988525281
  0
LINE
  5
1F7
100
AcDbEntity
  8
1
  6
CONTINUOUS
 62
             2
100
AcDbLine
 10
-19.37106160307819
 20
8.60337988525281
 11
-19.37106160307819
 21
9.1033798852528
  0
LINE
  5
1F6
100
AcDbEntity
  8
1
  6
CONTINUOUS
 62
             3
100
AcDbLine
 10
-20.92525912892957
 20
9.3276973085854
 11
-25.81686407722681
 21
9.3276973085854
  0
LINE
  5
1F5
100
AcDbEntity
  8
1
  6
CONTINUOUS
 62
             3
100
AcDbLine
 10
-18.37106160307819
 20
10.10337988525281
 11
-28.37106160307819
 21
10.10337988525281
  0
LINE
  5
1F4
100
AcDbEntity
  8
1
  6
CONTINUOUS
 62
             2
100
AcDbLine
 10
-27.37106160307819
 20
8.60337988525281
 11
-27.37106160307819
 21
8.10337988525281
  0
LINE
  5
1F3
100
AcDbEntity
  8
1
  6
CONTINUOUS
 62
             3
100
AcDbLine
 10
-28.87106160307819
 20
-9.3667029398064
 11
-28.87106160307819
 21
9.7844638563959
  0
LINE
  5
1F2
100
AcDbEntity
  8
1
  6
CONTINUOUS
 62
             3
100
AcDbLine
 10
-17.87106160307819
 20
9.7844638563959
 11
-17.87106160307819
 21
-9.3667029398064
  0
LINE
  5
1F1
100
AcDbEntity
  8
1
  6
CONTINUOUS
 62
             3
100
AcDbLine
 10
39.78702987925917
 20
-8.18808079753122
 11
39.78702987925917
 21
-7.89662011474719
  0
LINE
  5
1F0
100
AcDbEntity
  8
1
  6
CONTINUOUS
 62
             3
100
AcDbLine
 10
40.78330339768202
 20
-8.08922432083495
 11
40.78330339768202
 21
-7.89662011474719
  0
LINE
  5
1EF
100
AcDbEntity
  8
1
  6
CONTINUOUS
 62
             3
100
AcDbLine
 10
42.29441454050118
 20
-8.18808079753122
 11
42.29441454050118
 21
-7.89662011474719
  0
LINE
  5
1EE
100
AcDbEntity
  8
1
  6
CONTINUOUS
 62
             3
100
AcDbLine
 10
43.29068805892403
 20
-8.08922432083495
 11
43.29068805892403
 21
-7.89662011474719
  0
LINE
  5
1ED
100
AcDbEntity
  8
1
  6
CONTINUOUS
 62
             3
100
AcDbLine
 10
44.80179920174321
 20
-8.18808079753122
 11
44.80179920174321
 21
-7.89662011474719
  0
LINE
  5
1EC
100
AcDbEntity
  8
1
  6
CONTINUOUS
 62
             3
100
AcDbLine
 10
45.79807272016606
 20
-8.08922432083495
 11
45.79807272016606
 21
-7.89662011474719
  0
LINE
  5
1EB
100
AcDbEntity
  8
1
  6
CONTINUOUS
 62
             3
100
AcDbLine
 10
39.78702987925917
 20
9.10337988525281
 11
39.78702987925917
 21
9.39484056803683
  0
LINE
  5
1EA
100
AcDbEntity
  8
1
  6
CONTINUOUS
 62
             3
100
AcDbLine
 10
40.78330339768202
 20
9.10337988525281
 11
40.78330339768202
 21
9.29598409134056
  0
LINE
  5
1E9
100
AcDbEntity
  8
1
  6
CONTINUOUS
 62
             3
100
AcDbLine
 10
42.29441454050118
 20
9.10337988525281
 11
42.29441454050118
 21
9.39484056803683
  0
LINE
  5
1E8
100
AcDbEntity
  8
1
  6
CONTINUOUS
 62
             3
100
AcDbLine
 10
43.29068805892403
 20
9.10337988525281
 11
43.29068805892403
 21
9.29598409134056
  0
LINE
  5
1E7
100
AcDbEntity
  8
1
  6
CONTINUOUS
 62
             3
100
AcDbLine
 10
44.80179920174321
 20
9.10337988525281
 11
44.80179920174321
 21
9.39484056803683
  0
LINE
  5
1E6
100
AcDbEntity
  8
1
  6
CONTINUOUS
 62
             3
100
AcDbLine
 10
45.79807272016606
 20
9.10337988525281
 11
45.79807272016606
 21
9.29598409134056
  0
LINE
  5
1E5
100
AcDbEntity
  8
1
  6
CONTINUOUS
 62
             3
100
AcDbLine
 10
45.80179920174321
 20
0.60337988525281
 11
45.80179920174321
 21
6.6007842654267
  0
LINE
  5
1E4
100
AcDbEntity
  8
1
  6
CONTINUOUS
 62
             3
100
AcDbLine
 10
44.80179920174321
 20
6.69964074212297
 11
44.80179920174321
 21
0.60337988525281
  0
LINE
  5
1E3
100
AcDbEntity
  8
1
  6
CONTINUOUS
 62
             3
100
AcDbLine
 10
45.80179920174321
 20
-5.39402449492109
 11
45.80179920174321
 21
0.60337988525281
  0
LINE
  5
1E2
100
AcDbEntity
  8
1
  6
CONTINUOUS
 62
             3
100
AcDbLine
 10
44.80179920174321
 20
0.60337988525281
 11
44.80179920174321
 21
-5.49288097161736
  0
LINE
  5
1E1
100
AcDbEntity
  8
1
  6
CONTINUOUS
 62
             3
100
AcDbLine
 10
43.29441454050118
 20
0.60337988525281
 11
43.29441454050118
 21
6.6007842654267
  0
LINE
  5
1E0
100
AcDbEntity
  8
1
  6
CONTINUOUS
 62
             3
100
AcDbLine
 10
42.29441454050118
 20
6.69964074212297
 11
42.29441454050118
 21
0.60337988525281
  0
LINE
  5
1DF
100
AcDbEntity
  8
1
  6
CONTINUOUS
 62
             3
100
AcDbLine
 10
43.29441454050118
 20
-5.39402449492109
 11
43.29441454050118
 21
0.60337988525281
  0
LINE
  5
1DE
100
AcDbEntity
  8
1
  6
CONTINUOUS
 62
             3
100
AcDbLine
 10
42.29441454050118
 20
0.60337988525281
 11
42.29441454050118
 21
-5.49288097161736
  0
LINE
  5
1DD
100
AcDbEntity
  8
1
  6
CONTINUOUS
 62
             3
100
AcDbLine
 10
40.78702987925917
 20
0.60337988525281
 11
40.78702987925917
 21
6.6007842654267
  0
LINE
  5
1DC
100
AcDbEntity
  8
1
  6
CONTINUOUS
 62
             3
100
AcDbLine
 10
39.78702987925917
 20
6.69964074212297
 11
39.78702987925917
 21
0.60337988525281
  0
LINE
  5
1DB
100
AcDbEntity
  8
1
  6
CONTINUOUS
 62
             3
100
AcDbLine
 10
40.78702987925917
 20
-5.39402449492109
 11
40.78702987925917
 21
0.60337988525281
  0
LINE
  5
1DA
100
AcDbEntity
  8
1
  6
CONTINUOUS
 62
             3
100
AcDbLine
 10
39.78702987925917
 20
0.60337988525281
 11
39.78702987925917
 21
-5.49288097161736
  0
LINE
  5
1D9
100
AcDbEntity
  8
1
  6
CONTINUOUS
 62
             3
100
AcDbLine
 10
33.27232885868739
 20
0.60337988525281
 11
33.27232885868739
 21
6.6007842654267
  0
LINE
  5
1D8
100
AcDbEntity
  8
1
  6
CONTINUOUS
 62
             3
100
AcDbLine
 10
32.27232885868739
 20
6.69964074212297
 11
32.27232885868739
 21
0.60337988525281
  0
LINE
  5
1D7
100
AcDbEntity
  8
1
  6
CONTINUOUS
 62
             3
100
AcDbLine
 10
33.27232885868739
 20
-5.39402449492109
 11
33.27232885868739
 21
0.60337988525281
  0
LINE
  5
1D6
100
AcDbEntity
  8
1
  6
CONTINUOUS
 62
             3
100
AcDbLine
 10
32.27232885868739
 20
0.60337988525281
 11
32.27232885868739
 21
-5.49288097161736
  0
LINE
  5
1D5
100
AcDbEntity
  8
1
  6
CONTINUOUS
 62
             3
100
AcDbLine
 10
35.77598703835227
 20
0.60337988525281
 11
35.77598703835227
 21
6.6007842654267
  0
LINE
  5
1D4
100
AcDbEntity
  8
1
  6
CONTINUOUS
 62
             3
100
AcDbLine
 10
34.77598703835227
 20
6.69964074212297
 11
34.77598703835227
 21
0.60337988525281
  0
LINE
  5
1D3
100
AcDbEntity
  8
1
  6
CONTINUOUS
 62
             3
100
AcDbLine
 10
35.77598703835227
 20
-5.39402449492109
 11
35.77598703835227
 21
0.60337988525281
  0
LINE
  5
1D2
100
AcDbEntity
  8
1
  6
CONTINUOUS
 62
             3
100
AcDbLine
 10
34.77598703835227
 20
0.60337988525281
 11
34.77598703835227
 21
-5.49288097161736
  0
LINE
  5
1D1
100
AcDbEntity
  8
1
  6
CONTINUOUS
 62
             3
100
AcDbLine
 10
38.27964521801714
 20
0.60337988525281
 11
38.27964521801714
 21
6.6007842654267
  0
LINE
  5
1D0
100
AcDbEntity
  8
1
  6
CONTINUOUS
 62
             3
100
AcDbLine
 10
37.27964521801714
 20
6.69964074212297
 11
37.27964521801714
 21
0.60337988525281
  0
LINE
  5
1CF
100
AcDbEntity
  8
1
  6
CONTINUOUS
 62
             3
100
AcDbLine
 10
38.27964521801714
 20
-5.39402449492109
 11
38.27964521801714
 21
0.60337988525281
  0
LINE
  5
1CE
100
AcDbEntity
  8
1
  6
CONTINUOUS
 62
             3
100
AcDbLine
 10
37.27964521801714
 20
0.60337988525281
 11
37.27964521801714
 21
-5.49288097161736
  0
LINE
  5
1CD
100
AcDbEntity
  8
1
  6
CONTINUOUS
 62
             3
100
AcDbLine
 10
-52.33941268855858
 20
-7.89662011474719
 11
-52.33941268855859
 21
-8.18808079753122
  0
LINE
  5
1CC
100
AcDbEntity
  8
1
  6
CONTINUOUS
 62
             3
100
AcDbLine
 10
-53.33568620698143
 20
-7.89662011474719
 11
-53.33568620698143
 21
-8.08922432083495
  0
LINE
  5
1CB
100
AcDbEntity
  8
1
  6
CONTINUOUS
 62
             3
100
AcDbLine
 10
-54.8467973498006
 20
-7.89662011474719
 11
-54.8467973498006
 21
-8.18808079753122
  0
LINE
  5
1CA
100
AcDbEntity
  8
1
  6
CONTINUOUS
 62
             3
100
AcDbLine
 10
-55.84307086822345
 20
-7.89662011474719
 11
-55.84307086822345
 21
-8.08922432083495
  0
LINE
  5
1C9
100
AcDbEntity
  8
1
  6
CONTINUOUS
 62
             3
100
AcDbLine
 10
-57.35418201104262
 20
-7.89662011474719
 11
-57.35418201104262
 21
-8.18808079753122
  0
LINE
  5
1C8
100
AcDbEntity
  8
1
  6
CONTINUOUS
 62
             3
100
AcDbLine
 10
-58.35045552946546
 20
-7.89662011474719
 11
-58.35045552946546
 21
-8.08922432083495
  0
LINE
  5
1C7
100
AcDbEntity
  8
1
  6
CONTINUOUS
 62
             3
100
AcDbLine
 10
-52.33941268855859
 20
9.39484056803683
 11
-52.33941268855858
 21
9.10337988525281
  0
LINE
  5
1C6
100
AcDbEntity
  8
1
  6
CONTINUOUS
 62
             3
100
AcDbLine
 10
-53.33568620698143
 20
9.29598409134056
 11
-53.33568620698143
 21
9.10337988525281
  0
LINE
  5
1C5
100
AcDbEntity
  8
1
  6
CONTINUOUS
 62
             3
100
AcDbLine
 10
-54.8467973498006
 20
9.39484056803683
 11
-54.8467973498006
 21
9.10337988525281
  0
LINE
  5
1C4
100
AcDbEntity
  8
1
  6
CONTINUOUS
 62
             3
100
AcDbLine
 10
-55.84307086822345
 20
9.29598409134056
 11
-55.84307086822345
 21
9.10337988525281
  0
LINE
  5
1C3
100
AcDbEntity
  8
1
  6
CONTINUOUS
 62
             3
100
AcDbLine
 10
-57.35418201104262
 20
9.39484056803683
 11
-57.35418201104262
 21
9.10337988525281
  0
LINE
  5
1C2
100
AcDbEntity
  8
1
  6
CONTINUOUS
 62
             3
100
AcDbLine
 10
-58.35045552946546
 20
9.29598409134056
 11
-58.35045552946546
 21
9.10337988525281
  0
LINE
  5
1C1
100
AcDbEntity
  8
1
  6
CONTINUOUS
 62
             3
100
AcDbLine
 10
-58.35418201104262
 20
6.6007842654267
 11
-58.35418201104262
 21
0.60337988525281
  0
LINE
  5
1C0
100
AcDbEntity
  8
1
  6
CONTINUOUS
 62
             3
100
AcDbLine
 10
-57.35418201104262
 20
0.60337988525281
 11
-57.35418201104262
 21
6.69964074212297
  0
LINE
  5
1BF
100
AcDbEntity
  8
1
  6
CONTINUOUS
 62
             3
100
AcDbLine
 10
-58.35418201104262
 20
0.60337988525281
 11
-58.35418201104262
 21
-5.39402449492109
  0
LINE
  5
1BE
100
AcDbEntity
  8
1
  6
CONTINUOUS
 62
             3
100
AcDbLine
 10
-57.35418201104262
 20
-5.49288097161736
 11
-57.35418201104262
 21
0.60337988525281
  0
LINE
  5
1BD
100
AcDbEntity
  8
1
  6
CONTINUOUS
 62
             3
100
AcDbLine
 10
-55.8467973498006
 20
6.6007842654267
 11
-55.8467973498006
 21
0.60337988525281
  0
LINE
  5
1BC
100
AcDbEntity
  8
1
  6
CONTINUOUS
 62
             3
100
AcDbLine
 10
-54.8467973498006
 20
0.60337988525281
 11
-54.8467973498006
 21
6.69964074212297
  0
LINE
  5
1BB
100
AcDbEntity
  8
1
  6
CONTINUOUS
 62
             3
100
AcDbLine
 10
-55.8467973498006
 20
0.60337988525281
 11
-55.8467973498006
 21
-5.39402449492109
  0
LINE
  5
1BA
100
AcDbEntity
  8
1
  6
CONTINUOUS
 62
             3
100
AcDbLine
 10
-54.8467973498006
 20
-5.49288097161736
 11
-54.8467973498006
 21
0.60337988525281
  0
LINE
  5
1B9
100
AcDbEntity
  8
1
  6
CONTINUOUS
 62
             3
100
AcDbLine
 10
-53.33941268855858
 20
6.6007842654267
 11
-53.33941268855858
 21
0.60337988525281
  0
LINE
  5
1B8
100
AcDbEntity
  8
1
  6
CONTINUOUS
 62
             3
100
AcDbLine
 10
-52.33941268855859
 20
0.60337988525281
 11
-52.33941268855859
 21
6.69964074212297
  0
LINE
  5
1B7
100
AcDbEntity
  8
1
  6
CONTINUOUS
 62
             3
100
AcDbLine
 10
-53.33941268855858
 20
0.60337988525281
 11
-53.33941268855858
 21
-5.39402449492109
  0
LINE
  5
1B6
100
AcDbEntity
  8
1
  6
CONTINUOUS
 62
             3
100
AcDbLine
 10
-52.33941268855859
 20
-5.49288097161736
 11
-52.33941268855859
 21
0.60337988525281
  0
LINE
  5
1B5
100
AcDbEntity
  8
1
  6
CONTINUOUS
 62
             3
100
AcDbLine
 10
-45.8247116679868
 20
6.6007842654267
 11
-45.8247116679868
 21
0.60337988525281
  0
LINE
  5
1B4
100
AcDbEntity
  8
1
  6
CONTINUOUS
 62
             3
100
AcDbLine
 10
-44.8247116679868
 20
0.60337988525281
 11
-44.8247116679868
 21
6.69964074212297
  0
LINE
  5
1B3
100
AcDbEntity
  8
1
  6
CONTINUOUS
 62
             3
100
AcDbLine
 10
-45.8247116679868
 20
0.60337988525281
 11
-45.8247116679868
 21
-5.39402449492109
  0
LINE
  5
1B2
100
AcDbEntity
  8
1
  6
CONTINUOUS
 62
             3
100
AcDbLine
 10
-44.8247116679868
 20
-5.49288097161736
 11
-44.8247116679868
 21
0.60337988525281
  0
LINE
  5
1B1
100
AcDbEntity
  8
1
  6
CONTINUOUS
 62
             3
100
AcDbLine
 10
-48.32836984765169
 20
6.6007842654267
 11
-48.32836984765169
 21
0.60337988525281
  0
LINE
  5
1B0
100
AcDbEntity
  8
1
  6
CONTINUOUS
 62
             3
100
AcDbLine
 10
-47.32836984765169
 20
0.60337988525281
 11
-47.32836984765169
 21
6.69964074212297
  0
LINE
  5
1AF
100
AcDbEntity
  8
1
  6
CONTINUOUS
 62
             3
100
AcDbLine
 10
-48.32836984765169
 20
0.60337988525281
 11
-48.32836984765169
 21
-5.39402449492109
  0
LINE
  5
1AE
100
AcDbEntity
  8
1
  6
CONTINUOUS
 62
             3
100
AcDbLine
 10
-47.32836984765169
 20
-5.49288097161736
 11
-47.32836984765169
 21
0.60337988525281
  0
LINE
  5
1AD
100
AcDbEntity
  8
1
  6
CONTINUOUS
 62
             3
100
AcDbLine
 10
-50.83202802731655
 20
6.6007842654267
 11
-50.83202802731655
 21
0.60337988525281
  0
LINE
  5
1AC
100
AcDbEntity
  8
1
  6
CONTINUOUS
 62
             3
100
AcDbLine
 10
-49.83202802731655
 20
0.60337988525281
 11
-49.83202802731655
 21
6.69964074212297
  0
LINE
  5
1AB
100
AcDbEntity
  8
1
  6
CONTINUOUS
 62
             3
100
AcDbLine
 10
-50.83202802731655
 20
0.60337988525281
 11
-50.83202802731655
 21
-5.39402449492109
  0
LINE
  5
1AA
100
AcDbEntity
  8
1
  6
CONTINUOUS
 62
             3
100
AcDbLine
 10
-49.83202802731655
 20
-5.49288097161736
 11
-49.83202802731655
 21
0.60337988525281
  0
LINE
  5
1A9
100
AcDbEntity
  8
1
  6
CONTINUOUS
 62
             3
100
AcDbLine
 10
-59.26806916758033
 20
-8.89662011474719
 11
-59.26806916758033
 21
10.10337988525281
  0
LINE
  5
1A8
100
AcDbEntity
  8
1
  6
CONTINUOUS
 62
             3
100
AcDbLine
 10
-63.26806916758033
 20
-5.11540155239264
 11
-63.26806916758033
 21
-4.64662011474719
  0
LINE
  5
1A7
100
AcDbEntity
  8
1
  6
CONTINUOUS
 62
             2
100
AcDbLine
 10
-63.26806916758033
 20
-5.64662011474721
 11
-63.73587802858134
 21
-5.61643889790843
  0
LINE
  5
1A6
100
AcDbEntity
  8
1
  6
CONTINUOUS
 62
             3
100
AcDbLine
 10
-63.26806916758033
 20
-4.64662011474719
 11
-63.26806916758033
 21
5.85337988525281
  0
LINE
  5
1A5
100
AcDbEntity
  8
1
  6
CONTINUOUS
 62
             2
100
AcDbLine
 10
-63.73587802858134
 20
5.82319866841404
 11
-63.26806916758033
 21
5.85337988525281
  0
LINE
  5
1A4
100
AcDbEntity
  8
1
  6
CONTINUOUS
 62
             3
100
AcDbLine
 10
-78.26806916758031
 20
3.30337988525281
 11
-78.26806916758034
 21
0.60337988525281
  0
LINE
  5
1A3
100
AcDbEntity
  8
1
  6
CONTINUOUS
 62
             3
100
AcDbLine
 10
-75.26806916758034
 20
-4.84016850184396
 11
-75.26806916758034
 21
-1.65353797210804
  0
LINE
  5
1A2
100
AcDbEntity
  8
1
  6
CONTINUOUS
 62
             3
100
AcDbLine
 10
-76.26806916758034
 20
-0.89662011474719
 11
-76.26806916758034
 21
-1.65353797210804
  0
LINE
  5
1A1
100
AcDbEntity
  8
1
  6
CONTINUOUS
 62
             3
100
AcDbLine
 10
-76.26806916758034
 20
-1.65353797210804
 11
-75.26806916758034
 21
-1.65353797210804
  0
LINE
  5
1A0
100
AcDbEntity
  8
1
  6
CONTINUOUS
 62
             3
100
AcDbLine
 10
-72.76806916758034
 20
-5.00145882442462
 11
-72.76806916758034
 21
-1.65353797210804
  0
LINE
  5
19F
100
AcDbEntity
  8
1
  6
CONTINUOUS
 62
             3
100
AcDbLine
 10
-73.76806916758034
 20
-0.89662011474719
 11
-73.76806916758034
 21
-1.65353797210804
  0
LINE
  5
19E
100
AcDbEntity
  8
1
  6
CONTINUOUS
 62
             3
100
AcDbLine
 10
-73.76806916758034
 20
-1.65353797210804
 11
-72.76806916758034
 21
-1.65353797210804
  0
LINE
  5
19D
100
AcDbEntity
  8
1
  6
CONTINUOUS
 62
             3
100
AcDbLine
 10
-70.26806916758034
 20
-5.16274914700526
 11
-70.26806916758034
 21
-1.65353797210804
  0
LINE
  5
19C
100
AcDbEntity
  8
1
  6
CONTINUOUS
 62
             3
100
AcDbLine
 10
-71.26806916758034
 20
-0.89662011474719
 11
-71.26806916758034
 21
-1.65353797210804
  0
LINE
  5
19B
100
AcDbEntity
  8
1
  6
CONTINUOUS
 62
             3
100
AcDbLine
 10
-71.26806916758034
 20
-1.65353797210804
 11
-70.26806916758034
 21
-1.65353797210804
  0
LINE
  5
19A
100
AcDbEntity
  8
1
  6
CONTINUOUS
 62
             3
100
AcDbLine
 10
-67.76806916758034
 20
-5.3240394695859
 11
-67.76806916758034
 21
-1.65353797210804
  0
LINE
  5
199
100
AcDbEntity
  8
1
  6
CONTINUOUS
 62
             3
100
AcDbLine
 10
-68.76806916758034
 20
-0.89662011474719
 11
-68.76806916758034
 21
-1.65353797210804
  0
LINE
  5
198
100
AcDbEntity
  8
1
  6
CONTINUOUS
 62
             3
100
AcDbLine
 10
-68.76806916758034
 20
-1.65353797210804
 11
-67.76806916758034
 21
-1.65353797210804
  0
LINE
  5
197
100
AcDbEntity
  8
1
  6
CONTINUOUS
 62
             3
100
AcDbLine
 10
-65.26806916758034
 20
-5.48532979216655
 11
-65.26806916758034
 21
-1.65353797210804
  0
LINE
  5
196
100
AcDbEntity
  8
1
  6
CONTINUOUS
 62
             3
100
AcDbLine
 10
-66.26806916758034
 20
-0.89662011474719
 11
-66.26806916758034
 21
-1.65353797210804
  0
LINE
  5
195
100
AcDbEntity
  8
1
  6
CONTINUOUS
 62
             3
100
AcDbLine
 10
-66.26806916758034
 20
-1.65353797210804
 11
-65.26806916758034
 21
-1.65353797210804
  0
LINE
  5
194
100
AcDbEntity
  8
1
  6
CONTINUOUS
 62
             3
100
AcDbLine
 10
-66.26806916758034
 20
5.62757343363991
 11
-66.26806916758034
 21
2.36029774261366
  0
LINE
  5
193
100
AcDbEntity
  8
1
  6
CONTINUOUS
 62
             3
100
AcDbLine
 10
-65.26806916758034
 20
1.60337988525281
 11
-65.26806916758034
 21
2.36029774261366
  0
LINE
  5
192
100
AcDbEntity
  8
1
  6
CONTINUOUS
 62
             3
100
AcDbLine
 10
-65.26806916758034
 20
2.36029774261366
 11
-66.26806916758034
 21
2.36029774261366
  0
LINE
  5
191
100
AcDbEntity
  8
1
  6
CONTINUOUS
 62
             3
100
AcDbLine
 10
-68.76806916758034
 20
5.46628311105925
 11
-68.76806916758034
 21
2.36029774261366
  0
LINE
  5
190
100
AcDbEntity
  8
1
  6
CONTINUOUS
 62
             3
100
AcDbLine
 10
-67.76806916758034
 20
1.60337988525281
 11
-67.76806916758034
 21
2.36029774261366
  0
LINE
  5
18F
100
AcDbEntity
  8
1
  6
CONTINUOUS
 62
             3
100
AcDbLine
 10
-67.76806916758034
 20
2.36029774261366
 11
-68.76806916758034
 21
2.36029774261366
  0
LINE
  5
18E
100
AcDbEntity
  8
1
  6
CONTINUOUS
 62
             3
100
AcDbLine
 10
-71.26806916758034
 20
5.30499278847861
 11
-71.26806916758034
 21
2.36029774261366
  0
LINE
  5
18D
100
AcDbEntity
  8
1
  6
CONTINUOUS
 62
             3
100
AcDbLine
 10
-70.26806916758034
 20
1.60337988525281
 11
-70.26806916758034
 21
2.36029774261366
  0
LINE
  5
18C
100
AcDbEntity
  8
1
  6
CONTINUOUS
 62
             3
100
AcDbLine
 10
-70.26806916758034
 20
2.36029774261366
 11
-71.26806916758034
 21
2.36029774261366
  0
LINE
  5
18B
100
AcDbEntity
  8
1
  6
CONTINUOUS
 62
             3
100
AcDbLine
 10
-73.76806916758034
 20
5.14370246589797
 11
-73.76806916758034
 21
2.36029774261366
  0
LINE
  5
18A
100
AcDbEntity
  8
1
  6
CONTINUOUS
 62
             3
100
AcDbLine
 10
-72.76806916758034
 20
1.60337988525281
 11
-72.76806916758034
 21
2.36029774261366
  0
LINE
  5
189
100
AcDbEntity
  8
1
  6
CONTINUOUS
 62
             3
100
AcDbLine
 10
-72.76806916758034
 20
2.36029774261366
 11
-73.76806916758034
 21
2.36029774261366
  0
LINE
  5
188
100
AcDbEntity
  8
1
  6
CONTINUOUS
 62
             3
100
AcDbLine
 10
-76.26806916758034
 20
4.98241214331732
 11
-76.26806916758034
 21
2.36029774261366
  0
LINE
  5
187
100
AcDbEntity
  8
1
  6
CONTINUOUS
 62
             3
100
AcDbLine
 10
-75.26806916758034
 20
1.60337988525281
 11
-75.26806916758034
 21
2.36029774261366
  0
LINE
  5
186
100
AcDbEntity
  8
1
  6
CONTINUOUS
 62
             3
100
AcDbLine
 10
-75.26806916758034
 20
2.36029774261366
 11
-76.26806916758034
 21
2.36029774261366
  0
LINE
  5
185
100
AcDbEntity
  8
1
  6
CONTINUOUS
 62
             3
100
AcDbLine
 10
-78.26806916758034
 20
0.60337988525281
 11
-78.26806916758031
 21
-2.0966201147472
  0
LINE
  5
184
100
AcDbEntity
  8
1
  6
CONTINUOUS
 62
             3
100
AcDbLine
 10
-78.26806916758034
 20
4.38459844760736
 11
-78.26806916758031
 21
3.30337988525281
  0
LINE
  5
183
100
AcDbEntity
  8
1
  6
CONTINUOUS
 62
             3
100
AcDbLine
 10
-75.26806916758034
 20
-1.65353797210804
 11
-75.26806916758034
 21
-0.89662011474719
  0
LINE
  5
182
100
AcDbEntity
  8
1
  6
CONTINUOUS
 62
             3
100
AcDbLine
 10
-76.26806916758034
 20
2.10337988525281
 11
-76.26806916758034
 21
-0.89662011474719
  0
LINE
  5
181
100
AcDbEntity
  8
1
  6
CONTINUOUS
 62
             3
100
AcDbLine
 10
-76.26806916758034
 20
-0.89662011474719
 11
-75.26806916758034
 21
-0.89662011474719
  0
LINE
  5
180
100
AcDbEntity
  8
1
  6
CONTINUOUS
 62
             3
100
AcDbLine
 10
-72.76806916758034
 20
-1.65353797210804
 11
-72.76806916758034
 21
-0.89662011474719
  0
LINE
  5
17F
100
AcDbEntity
  8
1
  6
CONTINUOUS
 62
             3
100
AcDbLine
 10
-73.76806916758034
 20
2.10337988525281
 11
-73.76806916758034
 21
-0.89662011474719
  0
LINE
  5
17E
100
AcDbEntity
  8
1
  6
CONTINUOUS
 62
             3
100
AcDbLine
 10
-73.76806916758034
 20
-0.89662011474719
 11
-72.76806916758034
 21
-0.89662011474719
  0
LINE
  5
17D
100
AcDbEntity
  8
1
  6
CONTINUOUS
 62
             3
100
AcDbLine
 10
-70.26806916758034
 20
-1.65353797210804
 11
-70.26806916758034
 21
-0.89662011474719
  0
LINE
  5
17C
100
AcDbEntity
  8
1
  6
CONTINUOUS
 62
             3
100
AcDbLine
 10
-71.26806916758034
 20
2.10337988525281
 11
-71.26806916758034
 21
-0.89662011474719
  0
LINE
  5
17B
100
AcDbEntity
  8
1
  6
CONTINUOUS
 62
             3
100
AcDbLine
 10
-71.26806916758034
 20
-0.89662011474719
 11
-70.26806916758034
 21
-0.89662011474719
  0
LINE
  5
17A
100
AcDbEntity
  8
1
  6
CONTINUOUS
 62
             3
100
AcDbLine
 10
-67.76806916758034
 20
-1.65353797210804
 11
-67.76806916758034
 21
-0.89662011474719
  0
LINE
  5
179
100
AcDbEntity
  8
1
  6
CONTINUOUS
 62
             3
100
AcDbLine
 10
-68.76806916758034
 20
2.10337988525281
 11
-68.76806916758034
 21
-0.89662011474719
  0
LINE
  5
178
100
AcDbEntity
  8
1
  6
CONTINUOUS
 62
             3
100
AcDbLine
 10
-68.76806916758034
 20
-0.89662011474719
 11
-67.76806916758034
 21
-0.89662011474719
  0
LINE
  5
177
100
AcDbEntity
  8
1
  6
CONTINUOUS
 62
             3
100
AcDbLine
 10
-65.26806916758034
 20
-1.65353797210804
 11
-65.26806916758034
 21
-0.89662011474719
  0
LINE
  5
176
100
AcDbEntity
  8
1
  6
CONTINUOUS
 62
             3
100
AcDbLine
 10
-66.26806916758034
 20
2.10337988525281
 11
-66.26806916758034
 21
-0.89662011474719
  0
LINE
  5
175
100
AcDbEntity
  8
1
  6
CONTINUOUS
 62
             3
100
AcDbLine
 10
-66.26806916758034
 20
-0.89662011474719
 11
-65.26806916758034
 21
-0.89662011474719
  0
LINE
  5
174
100
AcDbEntity
  8
1
  6
CONTINUOUS
 62
             3
100
AcDbLine
 10
-66.26806916758034
 20
2.36029774261366
 11
-66.26806916758034
 21
1.60337988525281
  0
LINE
  5
173
100
AcDbEntity
  8
1
  6
CONTINUOUS
 62
             3
100
AcDbLine
 10
-65.26806916758034
 20
-0.89662011474719
 11
-65.26806916758034
 21
2.10337988525281
  0
LINE
  5
172
100
AcDbEntity
  8
1
  6
CONTINUOUS
 62
             3
100
AcDbLine
 10
-65.26806916758034
 20
1.60337988525281
 11
-66.26806916758034
 21
1.60337988525281
  0
LINE
  5
171
100
AcDbEntity
  8
1
  6
CONTINUOUS
 62
             3
100
AcDbLine
 10
-68.76806916758034
 20
2.36029774261366
 11
-68.76806916758034
 21
1.60337988525281
  0
LINE
  5
170
100
AcDbEntity
  8
1
  6
CONTINUOUS
 62
             3
100
AcDbLine
 10
-67.76806916758034
 20
-0.89662011474719
 11
-67.76806916758034
 21
2.10337988525281
  0
LINE
  5
16F
100
AcDbEntity
  8
1
  6
CONTINUOUS
 62
             3
100
AcDbLine
 10
-67.76806916758034
 20
1.60337988525281
 11
-68.76806916758034
 21
1.60337988525281
  0
LINE
  5
16E
100
AcDbEntity
  8
1
  6
CONTINUOUS
 62
             3
100
AcDbLine
 10
-71.26806916758034
 20
2.36029774261366
 11
-71.26806916758034
 21
1.60337988525281
  0
LINE
  5
16D
100
AcDbEntity
  8
1
  6
CONTINUOUS
 62
             3
100
AcDbLine
 10
-70.26806916758034
 20
-0.89662011474719
 11
-70.26806916758034
 21
2.10337988525281
  0
LINE
  5
16C
100
AcDbEntity
  8
1
  6
CONTINUOUS
 62
             3
100
AcDbLine
 10
-70.26806916758034
 20
1.60337988525281
 11
-71.26806916758034
 21
1.60337988525281
  0
LINE
  5
16B
100
AcDbEntity
  8
1
  6
CONTINUOUS
 62
             3
100
AcDbLine
 10
-73.76806916758034
 20
2.36029774261366
 11
-73.76806916758034
 21
1.60337988525281
  0
LINE
  5
16A
100
AcDbEntity
  8
1
  6
CONTINUOUS
 62
             3
100
AcDbLine
 10
-72.76806916758034
 20
-0.89662011474719
 11
-72.76806916758034
 21
2.10337988525281
  0
LINE
  5
169
100
AcDbEntity
  8
1
  6
CONTINUOUS
 62
             3
100
AcDbLine
 10
-72.76806916758034
 20
1.60337988525281
 11
-73.76806916758034
 21
1.60337988525281
  0
LINE
  5
168
100
AcDbEntity
  8
1
  6
CONTINUOUS
 62
             3
100
AcDbLine
 10
-76.26806916758034
 20
2.36029774261366
 11
-76.26806916758034
 21
1.60337988525281
  0
LINE
  5
167
100
AcDbEntity
  8
1
  6
CONTINUOUS
 62
             3
100
AcDbLine
 10
-75.26806916758034
 20
-0.89662011474719
 11
-75.26806916758034
 21
2.10337988525281
  0
LINE
  5
166
100
AcDbEntity
  8
1
  6
CONTINUOUS
 62
             3
100
AcDbLine
 10
-75.26806916758034
 20
1.60337988525281
 11
-76.26806916758034
 21
1.60337988525281
  0
LINE
  5
165
100
AcDbEntity
  8
1
  6
CONTINUOUS
 62
             3
100
AcDbLine
 10
-77.8002603065793
 20
-4.67680133158596
 11
-76.26806916758034
 21
-4.77565237281171
  0
LINE
  5
164
100
AcDbEntity
  8
1
  6
CONTINUOUS
 62
             3
100
AcDbLine
 10
-75.26806916758034
 20
5.04692827234958
 11
-76.26806916758034
 21
4.98241214331732
  0
LINE
  5
163
100
AcDbEntity
  8
1
  6
CONTINUOUS
 62
             3
100
AcDbLine
 10
-76.26806916758034
 20
-1.65353797210804
 11
-76.26806916758034
 21
-4.77565237281171
  0
LINE
  5
162
100
AcDbEntity
  8
1
  6
CONTINUOUS
 62
             3
100
AcDbLine
 10
-76.26806916758034
 20
-4.77565237281171
 11
-75.26806916758034
 21
-4.84016850184396
  0
LINE
  5
161
100
AcDbEntity
  8
1
  6
CONTINUOUS
 62
             3
100
AcDbLine
 10
-73.76806916758034
 20
5.14370246589797
 11
-75.26806916758034
 21
5.04692827234958
  0
LINE
  5
160
100
AcDbEntity
  8
1
  6
CONTINUOUS
 62
             3
100
AcDbLine
 10
-75.26806916758034
 20
2.36029774261366
 11
-75.26806916758034
 21
5.04692827234958
  0
LINE
  5
15F
100
AcDbEntity
  8
1
  6
CONTINUOUS
 62
             3
100
AcDbLine
 10
-75.26806916758034
 20
-4.84016850184396
 11
-73.76806916758034
 21
-4.93694269539236
  0
LINE
  5
15E
100
AcDbEntity
  8
1
  6
CONTINUOUS
 62
             3
100
AcDbLine
 10
-72.76806916758034
 20
5.20821859493023
 11
-73.76806916758034
 21
5.14370246589797
  0
LINE
  5
15D
100
AcDbEntity
  8
1
  6
CONTINUOUS
 62
             3
100
AcDbLine
 10
-73.76806916758034
 20
-1.65353797210804
 11
-73.76806916758034
 21
-4.93694269539236
  0
LINE
  5
15C
100
AcDbEntity
  8
1
  6
CONTINUOUS
 62
             3
100
AcDbLine
 10
-73.76806916758034
 20
-4.93694269539236
 11
-72.76806916758034
 21
-5.00145882442462
  0
LINE
  5
15B
100
AcDbEntity
  8
1
  6
CONTINUOUS
 62
             3
100
AcDbLine
 10
-71.26806916758034
 20
5.30499278847861
 11
-72.76806916758034
 21
5.20821859493023
  0
LINE
  5
15A
100
AcDbEntity
  8
1
  6
CONTINUOUS
 62
             3
100
AcDbLine
 10
-72.76806916758034
 20
2.36029774261366
 11
-72.76806916758034
 21
5.20821859493023
  0
LINE
  5
159
100
AcDbEntity
  8
1
  6
CONTINUOUS
 62
             3
100
AcDbLine
 10
-72.76806916758034
 20
-5.00145882442462
 11
-71.26806916758034
 21
-5.098233017973
  0
LINE
  5
158
100
AcDbEntity
  8
1
  6
CONTINUOUS
 62
             3
100
AcDbLine
 10
-70.26806916758034
 20
5.36950891751087
 11
-71.26806916758034
 21
5.30499278847861
  0
LINE
  5
157
100
AcDbEntity
  8
1
  6
CONTINUOUS
 62
             3
100
AcDbLine
 10
-71.26806916758034
 20
-1.65353797210804
 11
-71.26806916758034
 21
-5.098233017973
  0
LINE
  5
156
100
AcDbEntity
  8
1
  6
CONTINUOUS
 62
             3
100
AcDbLine
 10
-71.26806916758034
 20
-5.098233017973
 11
-70.26806916758034
 21
-5.16274914700526
  0
LINE
  5
155
100
AcDbEntity
  8
1
  6
CONTINUOUS
 62
             3
100
AcDbLine
 10
-68.76806916758034
 20
5.46628311105925
 11
-70.26806916758034
 21
5.36950891751087
  0
LINE
  5
154
100
AcDbEntity
  8
1
  6
CONTINUOUS
 62
             3
100
AcDbLine
 10
-70.26806916758034
 20
2.36029774261366
 11
-70.26806916758034
 21
5.36950891751087
  0
LINE
  5
153
100
AcDbEntity
  8
1
  6
CONTINUOUS
 62
             3
100
AcDbLine
 10
-70.26806916758034
 20
-5.16274914700526
 11
-68.76806916758034
 21
-5.25952334055364
  0
LINE
  5
152
100
AcDbEntity
  8
1
  6
CONTINUOUS
 62
             3
100
AcDbLine
 10
-67.76806916758034
 20
5.53079924009151
 11
-68.76806916758034
 21
5.46628311105925
  0
LINE
  5
151
100
AcDbEntity
  8
1
  6
CONTINUOUS
 62
             3
100
AcDbLine
 10
-68.76806916758034
 20
-1.65353797210804
 11
-68.76806916758034
 21
-5.25952334055364
  0
LINE
  5
150
100
AcDbEntity
  8
1
  6
CONTINUOUS
 62
             3
100
AcDbLine
 10
-68.76806916758034
 20
-5.25952334055364
 11
-67.76806916758034
 21
-5.3240394695859
  0
LINE
  5
14F
100
AcDbEntity
  8
1
  6
CONTINUOUS
 62
             3
100
AcDbLine
 10
-66.26806916758034
 20
5.62757343363991
 11
-67.76806916758034
 21
5.53079924009151
  0
LINE
  5
14E
100
AcDbEntity
  8
1
  6
CONTINUOUS
 62
             3
100
AcDbLine
 10
-67.76806916758034
 20
2.36029774261366
 11
-67.76806916758034
 21
5.53079924009151
  0
LINE
  5
14D
100
AcDbEntity
  8
1
  6
CONTINUOUS
 62
             3
100
AcDbLine
 10
-67.76806916758034
 20
-5.3240394695859
 11
-66.26806916758034
 21
-5.4208136631343
  0
LINE
  5
14C
100
AcDbEntity
  8
1
  6
CONTINUOUS
 62
             3
100
AcDbLine
 10
-65.26806916758034
 20
5.69208956267217
 11
-66.26806916758034
 21
5.62757343363991
  0
LINE
  5
14B
100
AcDbEntity
  8
1
  6
CONTINUOUS
 62
             3
100
AcDbLine
 10
-66.26806916758034
 20
-1.65353797210804
 11
-66.26806916758034
 21
-5.4208136631343
  0
LINE
  5
14A
100
AcDbEntity
  8
1
  6
CONTINUOUS
 62
             3
100
AcDbLine
 10
-66.26806916758034
 20
-5.4208136631343
 11
-65.26806916758034
 21
-5.48532979216655
  0
LINE
  5
149
100
AcDbEntity
  8
1
  6
CONTINUOUS
 62
             3
100
AcDbLine
 10
-63.73587802858134
 20
5.82319866841404
 11
-65.26806916758034
 21
5.69208956267217
  0
LINE
  5
148
100
AcDbEntity
  8
1
  6
CONTINUOUS
 62
             3
100
AcDbLine
 10
-65.26806916758034
 20
2.36029774261366
 11
-65.26806916758034
 21
5.69208956267217
  0
LINE
  5
147
100
AcDbEntity
  8
1
  6
CONTINUOUS
 62
             3
100
AcDbLine
 10
-63.26806916758033
 20
5.85337988525281
 11
-63.26806916758033
 21
6.32216132289825
  0
LINE
  5
146
100
AcDbEntity
  8
1
  6
CONTINUOUS
 62
             3
100
AcDbLine
 10
-78.26806916758031
 20
-2.0966201147472
 11
-78.26806916758034
 21
-3.17783867710175
  0
LINE
  5
145
100
AcDbEntity
  8
1
  6
CONTINUOUS
 62
             3
100
AcDbLine
 10
-63.26806916758033
 20
-8.39662011474719
 11
-63.26806916758033
 21
-5.11540155239264
  0
LINE
  5
144
100
AcDbEntity
  8
1
  6
CONTINUOUS
 62
             3
100
AcDbLine
 10
-65.26806916758034
 20
-5.48532979216655
 11
-63.73587802858134
 21
-5.61643889790843
  0
LINE
  5
143
100
AcDbEntity
  8
1
  6
CONTINUOUS
 62
             3
100
AcDbLine
 10
-76.26806916758034
 20
4.98241214331732
 11
-77.8002603065793
 21
4.88356110209158
  0
LINE
  5
142
100
AcDbEntity
  8
1
  6
CONTINUOUS
 62
             3
100
AcDbLine
 10
-36.26806916758032
 20
-7.8966201147472
 11
-58.26806916758033
 21
-7.89662011474718
  0
LINE
  5
141
100
AcDbEntity
  8
1
  6
CONTINUOUS
 62
             3
100
AcDbLine
 10
-62.76806916758033
 20
10.10337988525281
 11
-59.26806916758033
 21
10.10337988525281
  0
LINE
  5
140
100
AcDbEntity
  8
1
  6
CONTINUOUS
 62
             3
100
AcDbLine
 10
-58.26806916758033
 20
9.10337988525281
 11
-36.26806916758032
 21
9.10337988525281
  0
LINE
  5
13F
100
AcDbEntity
  8
1
  6
CONTINUOUS
 62
             3
100
AcDbLine
 10
-36.26806916758032
 20
9.10337988525281
 11
-36.26806916758032
 21
-7.8966201147472
  0
LINE
  5
13E
100
AcDbEntity
  8
1
  6
CONTINUOUS
 62
             3
100
AcDbLine
 10
-59.26806916758033
 20
-8.89662011474719
 11
-62.76806916758033
 21
-8.89662011474719
  0
LINE
  5
13D
100
AcDbEntity
  8
1
  6
CONTINUOUS
 62
             3
100
AcDbLine
 10
-63.26806916758033
 20
6.32216132289825
 11
-63.26806916758033
 21
9.60337988525281
  0
LINE
  5
13C
100
AcDbEntity
  8
1
  6
CONTINUOUS
 62
             3
100
AcDbLine
 10
46.71568635828091
 20
10.10337988525281
 11
46.71568635828091
 21
-8.89662011474719
  0
LINE
  5
13B
100
AcDbEntity
  8
1
  6
CONTINUOUS
 62
             2
100
AcDbLine
 10
65.71568635828092
 20
-4.64662011474719
 11
65.71568635828091
 21
-3.17783867710175
  0
LINE
  5
13A
100
AcDbEntity
  8
1
  6
CONTINUOUS
 62
             2
100
AcDbLine
 10
65.24787749727989
 20
-4.67680133158596
 11
65.71568635828092
 21
-4.64662011474719
  0
LINE
  5
139
100
AcDbEntity
  8
1
  6
CONTINUOUS
 62
             2
100
AcDbLine
 10
65.71568635828091
 20
4.85337988525281
 11
65.71568635828091
 21
4.38459844760736
  0
LINE
  5
138
100
AcDbEntity
  8
1
  6
CONTINUOUS
 62
             2
100
AcDbLine
 10
65.24787749727989
 20
4.88356110209158
 11
65.71568635828091
 21
4.85337988525281
  0
LINE
  5
137
100
AcDbEntity
  8
1
  6
CONTINUOUS
 62
             3
100
AcDbLine
 10
50.71568635828091
 20
-4.64662011474719
 11
50.71568635828091
 21
-5.11540155239264
  0
LINE
  5
136
100
AcDbEntity
  8
1
  6
CONTINUOUS
 62
             2
100
AcDbLine
 10
51.18349521928192
 20
-5.61643889790843
 11
50.71568635828091
 21
-5.64662011474721
  0
LINE
  5
135
100
AcDbEntity
  8
1
  6
CONTINUOUS
 62
             3
100
AcDbLine
 10
50.71568635828091
 20
5.85337988525281
 11
50.71568635828091
 21
-4.64662011474719
  0
LINE
  5
134
100
AcDbEntity
  8
1
  6
CONTINUOUS
 62
             2
100
AcDbLine
 10
50.71568635828091
 20
5.85337988525281
 11
51.18349521928192
 21
5.82319866841404
  0
LINE
  5
133
100
AcDbEntity
  8
1
  6
DASH_CENTER
 62
             2
100
AcDbLine
 10
20.62828024159071
 20
0.10337988525281
 11
115.3190189361753
 21
0.10337988525281
  0
LINE
  5
132
100
AcDbEntity
  8
1
  6
CONTINUOUS
 62
             3
100
AcDbLine
 10
65.71568635828091
 20
0.60337988525281
 11
65.71568635828091
 21
3.30337988525281
  0
LINE
  5
131
100
AcDbEntity
  8
1
  6
CONTINUOUS
 62
             3
100
AcDbLine
 10
65.71568635828091
 20
0.10337988525281
 11
70.95108019359456
 21
0.10337988525281
  0
LINE
  5
130
100
AcDbEntity
  8
1
  6
CONTINUOUS
 62
             3
100
AcDbLine
 10
101.8071268855951
 20
-5.00798175596132
 11
101.65778945280159
 21
-5.85491642355182
  0
LINE
  5
12F
100
AcDbEntity
  8
1
  6
CONTINUOUS
 62
             3
100
AcDbLine
 10
111.65520441571719
 20
-6.74446353263063
 11
101.8071268855951
 21
-5.00798175596132
  0
LINE
  5
12E
100
AcDbEntity
  8
1
  6
CONTINUOUS
 62
             3
100
AcDbLine
 10
111.82537962983081
 20
-5.77935193467867
 11
111.65520441571719
 21
-6.74446353263063
  0
LINE
  5
12D
100
AcDbEntity
  8
1
  6
CONTINUOUS
 62
             3
100
AcDbLine
 10
101.97730209970869
 20
-4.04287015800936
 11
101.8071268855951
 21
-5.00798175596132
  0
LINE
  5
12C
100
AcDbEntity
  8
1
  6
CONTINUOUS
 62
             3
100
AcDbLine
 10
101.97730209970869
 20
-4.04287015800936
 11
111.82537962983081
 21
-5.77935193467867
  0
LINE
  5
12B
100
AcDbEntity
  8
1
  6
CONTINUOUS
 62
             3
100
AcDbLine
 10
102.41529222527031
 20
0.96337988525281
 11
102.41529222527031
 21
0.10337988525281
  0
LINE
  5
12A
100
AcDbEntity
  8
1
  6
CONTINUOUS
 62
             3
100
AcDbLine
 10
112.41529222527031
 20
0.96337988525281
 11
102.41529222527031
 21
0.96337988525281
  0
LINE
  5
129
100
AcDbEntity
  8
1
  6
CONTINUOUS
 62
             3
100
AcDbLine
 10
112.41529222527031
 20
1.94337988525281
 11
112.41529222527031
 21
0.96337988525281
  0
LINE
  5
128
100
AcDbEntity
  8
1
  6
CONTINUOUS
 62
             3
100
AcDbLine
 10
102.41529222527031
 20
1.94337988525281
 11
102.41529222527031
 21
0.96337988525281
  0
LINE
  5
127
100
AcDbEntity
  8
1
  6
CONTINUOUS
 62
             3
100
AcDbLine
 10
102.41529222527031
 20
1.94337988525281
 11
112.41529222527031
 21
1.94337988525281
  0
LINE
  5
126
100
AcDbEntity
  8
1
  6
CONTINUOUS
 62
             3
100
AcDbLine
 10
102.41529222527031
 20
2.80337988525281
 11
102.41529222527031
 21
1.94337988525281
  0
LINE
  5
125
100
AcDbEntity
  8
1
  6
CONTINUOUS
 62
             3
100
AcDbLine
 10
94.06289635322031
 20
2.80337988525281
 11
102.41529222527031
 21
2.80337988525281
  0
LINE
  5
124
100
AcDbEntity
  8
1
  6
CONTINUOUS
 62
             3
100
AcDbLine
 10
93.49883319001731
 20
0.10337988525281
 11
83.41529222527031
 21
0.10337988525281
  0
LINE
  5
123
100
AcDbEntity
  8
1
  6
CONTINUOUS
 62
             3
100
AcDbLine
 10
94.05719391001526
 20
-1.7730745078146
 11
102.1266395325023
 21
-3.19593549041887
  0
LINE
  5
122
100
AcDbEntity
  8
1
  6
CONTINUOUS
 62
             3
100
AcDbLine
 10
92.7689085395441
 20
-4.28756689024004
 11
83.17907283375031
 21
-2.59662011474719
  0
LINE
  5
121
100
AcDbEntity
  8
1
  6
CONTINUOUS
 62
             3
100
AcDbLine
 10
101.65778945280159
 20
-5.85491642355182
 11
93.26335180585201
 21
-4.37475057851975
  0
LINE
  5
120
100
AcDbEntity
  8
1
  6
CONTINUOUS
 62
             3
100
AcDbLine
 10
102.1266395325023
 20
-3.19593549041887
 11
101.97730209970869
 21
-4.04287015800936
  0
LINE
  5
11F
100
AcDbEntity
  8
1
  6
CONTINUOUS
 62
             3
100
AcDbLine
 10
83.41529222527031
 20
0.10337988525281
 11
72.63193132285717
 21
0.10337988525281
  0
LINE
  5
11E
100
AcDbEntity
  8
1
  6
CONTINUOUS
 62
             3
100
AcDbLine
 10
83.41529222527031
 20
0.10337988525281
 11
93.56275064370735
 21
-1.68589081953489
  0
LINE
  5
11D
100
AcDbEntity
  8
1
  6
CONTINUOUS
 62
             3
100
AcDbLine
 10
72.62153727615402
 20
-2.59662011474719
 11
83.17907283375031
 21
-2.59662011474719
  0
LINE
  5
11C
100
AcDbEntity
  8
1
  6
CONTINUOUS
 62
             3
100
AcDbLine
 10
102.41529222527031
 20
0.10337988525281
 11
94.01001543166932
 21
0.10337988525281
  0
LINE
  5
11B
100
AcDbEntity
  8
1
  6
CONTINUOUS
 62
             3
100
AcDbLine
 10
72.53833692170721
 20
2.80337988525281
 11
93.5517141115683
 21
2.80337988525281
  0
LINE
  5
11A
100
AcDbEntity
  8
1
  6
CONTINUOUS
 62
             3
100
AcDbLine
 10
62.71568635828091
 20
-1.65353797210804
 11
62.71568635828091
 21
-4.84016850184396
  0
LINE
  5
119
100
AcDbEntity
  8
1
  6
CONTINUOUS
 62
             3
100
AcDbLine
 10
63.71568635828091
 20
-1.65353797210804
 11
63.71568635828091
 21
-0.89662011474719
  0
LINE
  5
118
100
AcDbEntity
  8
1
  6
CONTINUOUS
 62
             3
100
AcDbLine
 10
62.71568635828091
 20
-1.65353797210804
 11
63.71568635828091
 21
-1.65353797210804
  0
LINE
  5
117
100
AcDbEntity
  8
1
  6
CONTINUOUS
 62
             3
100
AcDbLine
 10
60.21568635828091
 20
-1.65353797210804
 11
60.21568635828091
 21
-5.00145882442462
  0
LINE
  5
116
100
AcDbEntity
  8
1
  6
CONTINUOUS
 62
             3
100
AcDbLine
 10
61.21568635828091
 20
-1.65353797210804
 11
61.21568635828091
 21
-0.89662011474719
  0
LINE
  5
115
100
AcDbEntity
  8
1
  6
CONTINUOUS
 62
             3
100
AcDbLine
 10
60.21568635828091
 20
-1.65353797210804
 11
61.21568635828091
 21
-1.65353797210804
  0
LINE
  5
114
100
AcDbEntity
  8
1
  6
CONTINUOUS
 62
             3
100
AcDbLine
 10
57.71568635828091
 20
-1.65353797210804
 11
57.71568635828091
 21
-5.16274914700526
  0
LINE
  5
113
100
AcDbEntity
  8
1
  6
CONTINUOUS
 62
             3
100
AcDbLine
 10
58.71568635828091
 20
-1.65353797210804
 11
58.71568635828091
 21
-0.89662011474719
  0
LINE
  5
112
100
AcDbEntity
  8
1
  6
CONTINUOUS
 62
             3
100
AcDbLine
 10
57.71568635828091
 20
-1.65353797210804
 11
58.71568635828091
 21
-1.65353797210804
  0
LINE
  5
111
100
AcDbEntity
  8
1
  6
CONTINUOUS
 62
             3
100
AcDbLine
 10
55.21568635828091
 20
-1.65353797210804
 11
55.21568635828091
 21
-5.3240394695859
  0
LINE
  5
110
100
AcDbEntity
  8
1
  6
CONTINUOUS
 62
             3
100
AcDbLine
 10
56.21568635828091
 20
-1.65353797210804
 11
56.21568635828091
 21
-0.89662011474719
  0
LINE
  5
10F
100
AcDbEntity
  8
1
  6
CONTINUOUS
 62
             3
100
AcDbLine
 10
55.21568635828091
 20
-1.65353797210804
 11
56.21568635828091
 21
-1.65353797210804
  0
LINE
  5
10E
100
AcDbEntity
  8
1
  6
CONTINUOUS
 62
             3
100
AcDbLine
 10
52.71568635828091
 20
-1.65353797210804
 11
52.71568635828091
 21
-5.48532979216655
  0
LINE
  5
10D
100
AcDbEntity
  8
1
  6
CONTINUOUS
 62
             3
100
AcDbLine
 10
53.71568635828091
 20
-1.65353797210804
 11
53.71568635828091
 21
-0.89662011474719
  0
LINE
  5
10C
100
AcDbEntity
  8
1
  6
CONTINUOUS
 62
             3
100
AcDbLine
 10
52.71568635828091
 20
-1.65353797210804
 11
53.71568635828091
 21
-1.65353797210804
  0
LINE
  5
10B
100
AcDbEntity
  8
1
  6
CONTINUOUS
 62
             3
100
AcDbLine
 10
53.71568635828091
 20
2.36029774261366
 11
53.71568635828091
 21
5.62757343363991
  0
LINE
  5
10A
100
AcDbEntity
  8
1
  6
CONTINUOUS
 62
             3
100
AcDbLine
 10
52.71568635828091
 20
2.36029774261366
 11
52.71568635828091
 21
1.60337988525281
  0
LINE
  5
109
100
AcDbEntity
  8
1
  6
CONTINUOUS
 62
             3
100
AcDbLine
 10
53.71568635828091
 20
2.36029774261366
 11
52.71568635828091
 21
2.36029774261366
  0
LINE
  5
108
100
AcDbEntity
  8
1
  6
CONTINUOUS
 62
             3
100
AcDbLine
 10
56.21568635828091
 20
2.36029774261366
 11
56.21568635828091
 21
5.46628311105925
  0
LINE
  5
107
100
AcDbEntity
  8
1
  6
CONTINUOUS
 62
             3
100
AcDbLine
 10
55.21568635828091
 20
2.36029774261366
 11
55.21568635828091
 21
1.60337988525281
  0
LINE
  5
106
100
AcDbEntity
  8
1
  6
CONTINUOUS
 62
             3
100
AcDbLine
 10
56.21568635828091
 20
2.36029774261366
 11
55.21568635828091
 21
2.36029774261366
  0
LINE
  5
105
100
AcDbEntity
  8
1
  6
CONTINUOUS
 62
             3
100
AcDbLine
 10
58.71568635828091
 20
2.36029774261366
 11
58.71568635828091
 21
5.30499278847861
  0
LINE
  5
104
100
AcDbEntity
  8
1
  6
CONTINUOUS
 62
             3
100
AcDbLine
 10
57.71568635828091
 20
2.36029774261366
 11
57.71568635828091
 21
1.60337988525281
  0
LINE
  5
103
100
AcDbEntity
  8
1
  6
CONTINUOUS
 62
             3
100
AcDbLine
 10
58.71568635828091
 20
2.36029774261366
 11
57.71568635828091
 21
2.36029774261366
  0
LINE
  5
102
100
AcDbEntity
  8
1
  6
CONTINUOUS
 62
             3
100
AcDbLine
 10
61.21568635828091
 20
2.36029774261366
 11
61.21568635828091
 21
5.14370246589797
  0
LINE
  5
101
100
AcDbEntity
  8
1
  6
CONTINUOUS
 62
             3
100
AcDbLine
 10
60.21568635828091
 20
2.36029774261366
 11
60.21568635828091
 21
1.60337988525281
  0
LINE
  5
100
100
AcDbEntity
  8
1
  6
CONTINUOUS
 62
             3
100
AcDbLine
 10
61.21568635828091
 20
2.36029774261366
 11
60.21568635828091
 21
2.36029774261366
  0
LINE
  5
FF
100
AcDbEntity
  8
1
  6
CONTINUOUS
 62
             3
100
AcDbLine
 10
63.71568635828091
 20
2.36029774261366
 11
63.71568635828091
 21
4.98241214331732
  0
LINE
  5
FE
100
AcDbEntity
  8
1
  6
CONTINUOUS
 62
             3
100
AcDbLine
 10
62.71568635828091
 20
2.36029774261366
 11
62.71568635828091
 21
1.60337988525281
  0
LINE
  5
FD
100
AcDbEntity
  8
1
  6
CONTINUOUS
 62
             3
100
AcDbLine
 10
63.71568635828091
 20
2.36029774261366
 11
62.71568635828091
 21
2.36029774261366
  0
LINE
  5
FC
100
AcDbEntity
  8
1
  6
CONTINUOUS
 62
             3
100
AcDbLine
 10
65.71568635828091
 20
-2.0966201147472
 11
65.71568635828091
 21
0.60337988525281
  0
LINE
  5
FB
100
AcDbEntity
  8
1
  6
CONTINUOUS
 62
             3
100
AcDbLine
 10
65.71568635828091
 20
-2.59662011474719
 11
70.94068614689141
 21
-2.59662011474719
  0
LINE
  5
FA
100
AcDbEntity
  8
1
  6
CONTINUOUS
 62
             3
100
AcDbLine
 10
65.71568635828091
 20
3.30337988525281
 11
65.71568635828091
 21
4.38459844760736
  0
LINE
  5
F9
100
AcDbEntity
  8
1
  6
CONTINUOUS
 62
             3
100
AcDbLine
 10
65.71568635828091
 20
2.80337988525281
 11
70.85748579244461
 21
2.80337988525281
  0
LINE
  5
F8
100
AcDbEntity
  8
1
  6
CONTINUOUS
 62
             3
100
AcDbLine
 10
62.71568635828091
 20
-0.89662011474719
 11
62.71568635828091
 21
-1.65353797210804
  0
LINE
  5
F7
100
AcDbEntity
  8
1
  6
CONTINUOUS
 62
             3
100
AcDbLine
 10
63.71568635828091
 20
-0.89662011474719
 11
63.71568635828091
 21
2.10337988525281
  0
LINE
  5
F6
100
AcDbEntity
  8
1
  6
CONTINUOUS
 62
             3
100
AcDbLine
 10
62.71568635828091
 20
-0.89662011474719
 11
63.71568635828091
 21
-0.89662011474719
  0
LINE
  5
F5
100
AcDbEntity
  8
1
  6
CONTINUOUS
 62
             3
100
AcDbLine
 10
60.21568635828091
 20
-0.89662011474719
 11
60.21568635828091
 21
-1.65353797210804
  0
LINE
  5
F4
100
AcDbEntity
  8
1
  6
CONTINUOUS
 62
             3
100
AcDbLine
 10
61.21568635828091
 20
-0.89662011474719
 11
61.21568635828091
 21
2.10337988525281
  0
LINE
  5
F3
100
AcDbEntity
  8
1
  6
CONTINUOUS
 62
             3
100
AcDbLine
 10
60.21568635828091
 20
-0.89662011474719
 11
61.21568635828091
 21
-0.89662011474719
  0
LINE
  5
F2
100
AcDbEntity
  8
1
  6
CONTINUOUS
 62
             3
100
AcDbLine
 10
57.71568635828091
 20
-0.89662011474719
 11
57.71568635828091
 21
-1.65353797210804
  0
LINE
  5
F1
100
AcDbEntity
  8
1
  6
CONTINUOUS
 62
             3
100
AcDbLine
 10
58.71568635828091
 20
-0.89662011474719
 11
58.71568635828091
 21
2.10337988525281
  0
LINE
  5
F0
100
AcDbEntity
  8
1
  6
CONTINUOUS
 62
             3
100
AcDbLine
 10
57.71568635828091
 20
-0.89662011474719
 11
58.71568635828091
 21
-0.89662011474719
  0
LINE
  5
EF
100
AcDbEntity
  8
1
  6
CONTINUOUS
 62
             3
100
AcDbLine
 10
55.21568635828091
 20
-0.89662011474719
 11
55.21568635828091
 21
-1.65353797210804
  0
LINE
  5
EE
100
AcDbEntity
  8
1
  6
CONTINUOUS
 62
             3
100
AcDbLine
 10
56.21568635828091
 20
-0.89662011474719
 11
56.21568635828091
 21
2.10337988525281
  0
LINE
  5
ED
100
AcDbEntity
  8
1
  6
CONTINUOUS
 62
             3
100
AcDbLine
 10
55.21568635828091
 20
-0.89662011474719
 11
56.21568635828091
 21
-0.89662011474719
  0
LINE
  5
EC
100
AcDbEntity
  8
1
  6
CONTINUOUS
 62
             3
100
AcDbLine
 10
52.71568635828091
 20
-0.89662011474719
 11
52.71568635828091
 21
-1.65353797210804
  0
LINE
  5
EB
100
AcDbEntity
  8
1
  6
CONTINUOUS
 62
             3
100
AcDbLine
 10
53.71568635828091
 20
-0.89662011474719
 11
53.71568635828091
 21
2.10337988525281
  0
LINE
  5
EA
100
AcDbEntity
  8
1
  6
CONTINUOUS
 62
             3
100
AcDbLine
 10
52.71568635828091
 20
-0.89662011474719
 11
53.71568635828091
 21
-0.89662011474719
  0
LINE
  5
E9
100
AcDbEntity
  8
1
  6
CONTINUOUS
 62
             3
100
AcDbLine
 10
53.71568635828091
 20
1.60337988525281
 11
53.71568635828091
 21
2.36029774261366
  0
LINE
  5
E8
100
AcDbEntity
  8
1
  6
CONTINUOUS
 62
             3
100
AcDbLine
 10
52.71568635828091
 20
2.10337988525281
 11
52.71568635828091
 21
-0.89662011474719
  0
LINE
  5
E7
100
AcDbEntity
  8
1
  6
CONTINUOUS
 62
             3
100
AcDbLine
 10
53.71568635828091
 20
1.60337988525281
 11
52.71568635828091
 21
1.60337988525281
  0
LINE
  5
E6
100
AcDbEntity
  8
1
  6
CONTINUOUS
 62
             3
100
AcDbLine
 10
56.21568635828091
 20
1.60337988525281
 11
56.21568635828091
 21
2.36029774261366
  0
LINE
  5
E5
100
AcDbEntity
  8
1
  6
CONTINUOUS
 62
             3
100
AcDbLine
 10
55.21568635828091
 20
2.10337988525281
 11
55.21568635828091
 21
-0.89662011474719
  0
LINE
  5
E4
100
AcDbEntity
  8
1
  6
CONTINUOUS
 62
             3
100
AcDbLine
 10
56.21568635828091
 20
1.60337988525281
 11
55.21568635828091
 21
1.60337988525281
  0
LINE
  5
E3
100
AcDbEntity
  8
1
  6
CONTINUOUS
 62
             3
100
AcDbLine
 10
58.71568635828091
 20
1.60337988525281
 11
58.71568635828091
 21
2.36029774261366
  0
LINE
  5
E2
100
AcDbEntity
  8
1
  6
CONTINUOUS
 62
             3
100
AcDbLine
 10
57.71568635828091
 20
2.10337988525281
 11
57.71568635828091
 21
-0.89662011474719
  0
LINE
  5
E1
100
AcDbEntity
  8
1
  6
CONTINUOUS
 62
             3
100
AcDbLine
 10
58.71568635828091
 20
1.60337988525281
 11
57.71568635828091
 21
1.60337988525281
  0
LINE
  5
E0
100
AcDbEntity
  8
1
  6
CONTINUOUS
 62
             3
100
AcDbLine
 10
61.21568635828091
 20
1.60337988525281
 11
61.21568635828091
 21
2.36029774261366
  0
LINE
  5
DF
100
AcDbEntity
  8
1
  6
CONTINUOUS
 62
             3
100
AcDbLine
 10
60.21568635828091
 20
2.10337988525281
 11
60.21568635828091
 21
-0.89662011474719
  0
LINE
  5
DE
100
AcDbEntity
  8
1
  6
CONTINUOUS
 62
             3
100
AcDbLine
 10
61.21568635828091
 20
1.60337988525281
 11
60.21568635828091
 21
1.60337988525281
  0
LINE
  5
DD
100
AcDbEntity
  8
1
  6
CONTINUOUS
 62
             3
100
AcDbLine
 10
63.71568635828091
 20
1.60337988525281
 11
63.71568635828091
 21
2.36029774261366
  0
LINE
  5
DC
100
AcDbEntity
  8
1
  6
CONTINUOUS
 62
             3
100
AcDbLine
 10
62.71568635828091
 20
2.10337988525281
 11
62.71568635828091
 21
-0.89662011474719
  0
LINE
  5
DB
100
AcDbEntity
  8
1
  6
CONTINUOUS
 62
             3
100
AcDbLine
 10
63.71568635828091
 20
1.60337988525281
 11
62.71568635828091
 21
1.60337988525281
  0
LINE
  5
DA
100
AcDbEntity
  8
1
  6
CONTINUOUS
 62
             3
100
AcDbLine
 10
63.71568635828091
 20
-4.77565237281171
 11
65.24787749727989
 21
-4.67680133158596
  0
LINE
  5
D9
100
AcDbEntity
  8
1
  6
CONTINUOUS
 62
             3
100
AcDbLine
 10
63.71568635828091
 20
4.98241214331732
 11
62.71568635828091
 21
5.04692827234958
  0
LINE
  5
D8
100
AcDbEntity
  8
1
  6
CONTINUOUS
 62
             3
100
AcDbLine
 10
63.71568635828091
 20
-4.77565237281171
 11
63.71568635828091
 21
-1.65353797210804
  0
LINE
  5
D7
100
AcDbEntity
  8
1
  6
CONTINUOUS
 62
             3
100
AcDbLine
 10
62.71568635828091
 20
-4.84016850184396
 11
63.71568635828091
 21
-4.77565237281171
  0
LINE
  5
D6
100
AcDbEntity
  8
1
  6
CONTINUOUS
 62
             3
100
AcDbLine
 10
62.71568635828091
 20
5.04692827234958
 11
61.21568635828091
 21
5.14370246589797
  0
LINE
  5
D5
100
AcDbEntity
  8
1
  6
CONTINUOUS
 62
             3
100
AcDbLine
 10
62.71568635828091
 20
5.04692827234958
 11
62.71568635828091
 21
2.36029774261366
  0
LINE
  5
D4
100
AcDbEntity
  8
1
  6
CONTINUOUS
 62
             3
100
AcDbLine
 10
61.21568635828091
 20
-4.93694269539236
 11
62.71568635828091
 21
-4.84016850184396
  0
LINE
  5
D3
100
AcDbEntity
  8
1
  6
CONTINUOUS
 62
             3
100
AcDbLine
 10
61.21568635828091
 20
5.14370246589797
 11
60.21568635828091
 21
5.20821859493023
  0
LINE
  5
D2
100
AcDbEntity
  8
1
  6
CONTINUOUS
 62
             3
100
AcDbLine
 10
61.21568635828091
 20
-4.93694269539236
 11
61.21568635828091
 21
-1.65353797210804
  0
LINE
  5
D1
100
AcDbEntity
  8
1
  6
CONTINUOUS
 62
             3
100
AcDbLine
 10
60.21568635828091
 20
-5.00145882442462
 11
61.21568635828091
 21
-4.93694269539236
  0
LINE
  5
D0
100
AcDbEntity
  8
1
  6
CONTINUOUS
 62
             3
100
AcDbLine
 10
60.21568635828091
 20
5.20821859493023
 11
58.71568635828091
 21
5.30499278847861
  0
LINE
  5
CF
100
AcDbEntity
  8
1
  6
CONTINUOUS
 62
             3
100
AcDbLine
 10
60.21568635828091
 20
5.20821859493023
 11
60.21568635828091
 21
2.36029774261366
  0
LINE
  5
CE
100
AcDbEntity
  8
1
  6
CONTINUOUS
 62
             3
100
AcDbLine
 10
58.71568635828091
 20
-5.098233017973
 11
60.21568635828091
 21
-5.00145882442462
  0
LINE
  5
CD
100
AcDbEntity
  8
1
  6
CONTINUOUS
 62
             3
100
AcDbLine
 10
58.71568635828091
 20
5.30499278847861
 11
57.71568635828091
 21
5.36950891751087
  0
LINE
  5
CC
100
AcDbEntity
  8
1
  6
CONTINUOUS
 62
             3
100
AcDbLine
 10
58.71568635828091
 20
-5.098233017973
 11
58.71568635828091
 21
-1.65353797210804
  0
LINE
  5
CB
100
AcDbEntity
  8
1
  6
CONTINUOUS
 62
             3
100
AcDbLine
 10
57.71568635828091
 20
-5.16274914700526
 11
58.71568635828091
 21
-5.098233017973
  0
LINE
  5
CA
100
AcDbEntity
  8
1
  6
CONTINUOUS
 62
             3
100
AcDbLine
 10
57.71568635828091
 20
5.36950891751087
 11
56.21568635828091
 21
5.46628311105925
  0
LINE
  5
C9
100
AcDbEntity
  8
1
  6
CONTINUOUS
 62
             3
100
AcDbLine
 10
57.71568635828091
 20
5.36950891751087
 11
57.71568635828091
 21
2.36029774261366
  0
LINE
  5
C8
100
AcDbEntity
  8
1
  6
CONTINUOUS
 62
             3
100
AcDbLine
 10
56.21568635828091
 20
-5.25952334055364
 11
57.71568635828091
 21
-5.16274914700526
  0
LINE
  5
C7
100
AcDbEntity
  8
1
  6
CONTINUOUS
 62
             3
100
AcDbLine
 10
56.21568635828091
 20
5.46628311105925
 11
55.21568635828091
 21
5.53079924009151
  0
LINE
  5
C6
100
AcDbEntity
  8
1
  6
CONTINUOUS
 62
             3
100
AcDbLine
 10
56.21568635828091
 20
-5.25952334055364
 11
56.21568635828091
 21
-1.65353797210804
  0
LINE
  5
C5
100
AcDbEntity
  8
1
  6
CONTINUOUS
 62
             3
100
AcDbLine
 10
55.21568635828091
 20
-5.3240394695859
 11
56.21568635828091
 21
-5.25952334055364
  0
LINE
  5
C4
100
AcDbEntity
  8
1
  6
CONTINUOUS
 62
             3
100
AcDbLine
 10
55.21568635828091
 20
5.53079924009151
 11
53.71568635828091
 21
5.62757343363991
  0
LINE
  5
C3
100
AcDbEntity
  8
1
  6
CONTINUOUS
 62
             3
100
AcDbLine
 10
55.21568635828091
 20
5.53079924009151
 11
55.21568635828091
 21
2.36029774261366
  0
LINE
  5
C2
100
AcDbEntity
  8
1
  6
CONTINUOUS
 62
             3
100
AcDbLine
 10
53.71568635828091
 20
-5.4208136631343
 11
55.21568635828091
 21
-5.3240394695859
  0
LINE
  5
C1
100
AcDbEntity
  8
1
  6
CONTINUOUS
 62
             3
100
AcDbLine
 10
53.71568635828091
 20
5.62757343363991
 11
52.71568635828091
 21
5.69208956267217
  0
LINE
  5
C0
100
AcDbEntity
  8
1
  6
CONTINUOUS
 62
             3
100
AcDbLine
 10
53.71568635828091
 20
-5.4208136631343
 11
53.71568635828091
 21
-1.65353797210804
  0
LINE
  5
BF
100
AcDbEntity
  8
1
  6
CONTINUOUS
 62
             3
100
AcDbLine
 10
52.71568635828091
 20
-5.48532979216655
 11
53.71568635828091
 21
-5.4208136631343
  0
LINE
  5
BE
100
AcDbEntity
  8
1
  6
CONTINUOUS
 62
             3
100
AcDbLine
 10
52.71568635828091
 20
5.69208956267217
 11
51.18349521928192
 21
5.82319866841404
  0
LINE
  5
BD
100
AcDbEntity
  8
1
  6
CONTINUOUS
 62
             3
100
AcDbLine
 10
52.71568635828091
 20
5.69208956267217
 11
52.71568635828091
 21
2.36029774261366
  0
LINE
  5
BC
100
AcDbEntity
  8
1
  6
CONTINUOUS
 62
             3
100
AcDbLine
 10
50.71568635828091
 20
6.32216132289825
 11
50.71568635828091
 21
5.85337988525281
  0
LINE
  5
BB
100
AcDbEntity
  8
1
  6
CONTINUOUS
 62
             3
100
AcDbLine
 10
65.71568635828091
 20
-3.17783867710175
 11
65.71568635828091
 21
-2.0966201147472
  0
LINE
  5
BA
100
AcDbEntity
  8
1
  6
CONTINUOUS
 62
             3
100
AcDbLine
 10
50.71568635828091
 20
-5.11540155239264
 11
50.71568635828091
 21
-8.39662011474719
  0
LINE
  5
B9
100
AcDbEntity
  8
1
  6
CONTINUOUS
 62
             3
100
AcDbLine
 10
51.18349521928192
 20
-5.61643889790843
 11
52.71568635828091
 21
-5.48532979216655
  0
LINE
  5
B8
100
AcDbEntity
  8
1
  6
CONTINUOUS
 62
             3
100
AcDbLine
 10
65.24787749727989
 20
4.88356110209158
 11
63.71568635828091
 21
4.98241214331732
  0
LINE
  5
B7
100
AcDbEntity
  8
1
  6
CONTINUOUS
 62
             3
100
AcDbLine
 10
45.71568635828091
 20
-7.89662011474718
 11
23.7156863582809
 21
-7.8966201147472
  0
LINE
  5
B6
100
AcDbEntity
  8
1
  6
CONTINUOUS
 62
             3
100
AcDbLine
 10
46.71568635828091
 20
10.10337988525281
 11
50.21568635828091
 21
10.10337988525281
  0
LINE
  5
B5
100
AcDbEntity
  8
1
  6
CONTINUOUS
 62
             3
100
AcDbLine
 10
23.71568635828091
 20
9.10337988525281
 11
45.71568635828091
 21
9.10337988525281
  0
LINE
  5
B4
100
AcDbEntity
  8
1
  6
CONTINUOUS
 62
             3
100
AcDbLine
 10
23.7156863582809
 20
-7.8966201147472
 11
23.71568635828091
 21
9.10337988525281
  0
LINE
  5
B3
100
AcDbEntity
  8
1
  6
CONTINUOUS
 62
             3
100
AcDbLine
 10
50.21568635828091
 20
-8.89662011474719
 11
46.71568635828091
 21
-8.89662011474719
  0
LINE
  5
B2
100
AcDbEntity
  8
1
  6
CONTINUOUS
 62
             3
100
AcDbLine
 10
50.71568635828091
 20
9.60337988525281
 11
50.71568635828091
 21
6.32216132289825
  0
LINE
  5
B1
100
AcDbEntity
  8
1
  6
CONTINUOUS
 62
             3
100
AcDbLine
 10
-19.37106160307819
 20
-8.39662011474719
 11
-19.37106160307819
 21
-9.89662011474719
  0
LINE
  5
B0
100
AcDbEntity
  8
1
  6
CONTINUOUS
 62
             2
100
AcDbLine
 10
-19.37106160307819
 20
8.60337988525281
 11
-19.37106160307819
 21
8.10337988525281
  0
LINE
  5
AF
100
AcDbEntity
  8
1
  6
DASH_CENTER
 62
             2
100
AcDbLine
 10
-25.79759912806881
 20
-3.89662011474719
 11
-21.04626113782418
 21
-3.89662011474719
  0
LINE
  5
AE
100
AcDbEntity
  8
1
  6
DASH_CENTER
 62
             2
100
AcDbLine
 10
-25.79759912806881
 20
4.10337988525281
 11
-21.04626113782418
 21
4.10337988525281
  0
LINE
  5
AD
100
AcDbEntity
  8
1
  6
DASH_CENTER
 62
             2
100
AcDbLine
 10
-29.43237977831955
 20
0.10337988525281
 11
-17.40036914280202
 21
0.10337988525281
  0
LINE
  5
AC
100
AcDbEntity
  8
1
  6
DASH_CENTER
 62
             2
100
AcDbLine
 10
-23.37106160307819
 20
-12.01435815161072
 11
-23.37106160307819
 21
11.66110951682661
  0
LINE
  5
AB
100
AcDbEntity
  8
1
  6
CONTINUOUS
 62
             3
100
AcDbLine
 10
-25.09515556803486
 20
-4.19662011474719
 11
-21.64696763812152
 21
-4.19662011474719
  0
LINE
  5
AA
100
AcDbEntity
  8
1
  6
CONTINUOUS
 62
             3
100
AcDbLine
 10
-25.09515556803486
 20
-3.59662011474719
 11
-21.64696763812152
 21
-3.59662011474719
  0
LINE
  5
A9
100
AcDbEntity
  8
1
  6
CONTINUOUS
 62
             3
100
AcDbLine
 10
-25.09515556803486
 20
3.80337988525281
 11
-21.64696763812152
 21
3.80337988525281
  0
LINE
  5
A8
100
AcDbEntity
  8
1
  6
CONTINUOUS
 62
             3
100
AcDbLine
 10
-25.09515556803486
 20
4.40337988525281
 11
-21.64696763812152
 21
4.40337988525281
  0
LINE
  5
A7
100
AcDbEntity
  8
1
  6
CONTINUOUS
 62
             3
100
AcDbLine
 10
-28.37106160307819
 20
-9.89662011474719
 11
-19.37106160307819
 21
-9.89662011474719
  0
LINE
  5
A6
100
AcDbEntity
  8
1
  6
CONTINUOUS
 62
             3
100
AcDbLine
 10
-27.37106160307819
 20
10.10337988525281
 11
-19.37106160307819
 21
10.10337988525281
  0
LINE
  5
A5
100
AcDbEntity
  8
1
  6
CONTINUOUS
 62
             3
100
AcDbLine
 10
-27.37106160307819
 20
-7.89662011474719
 11
-27.37106160307819
 21
8.10337988525281
  0
LINE
  5
A4
100
AcDbEntity
  8
1
  6
CONTINUOUS
 62
             3
100
AcDbLine
 10
-19.87106160307819
 20
-8.39662011474719
 11
-26.87106160307819
 21
-8.39662011474719
  0
LINE
  5
A3
100
AcDbEntity
  8
1
  6
CONTINUOUS
 62
             3
100
AcDbLine
 10
-19.37106160307819
 20
8.10337988525281
 11
-19.37106160307819
 21
-7.89662011474719
  0
LINE
  5
A2
100
AcDbEntity
  8
1
  6
CONTINUOUS
 62
             3
100
AcDbLine
 10
-26.87106160307819
 20
8.60337988525281
 11
-19.87106160307819
 21
8.60337988525281
  0
LINE
  5
A1
100
AcDbEntity
  8
1
  6
CONTINUOUS
 62
             3
100
AcDbLine
 10
-92.00082299656468
 20
-2.59662011474719
 11
-78.26806916758031
 21
-2.59662011474719
  0
LINE
  5
A0
100
AcDbEntity
  8
1
  6
CONTINUOUS
 62
             3
100
AcDbLine
 10
-92.00082299656468
 20
2.80337988525281
 11
-78.26806916758031
 21
2.80337988525281
  0
LINE
  5
9F
100
AcDbEntity
  8
1
  6
DASH_CENTER
 62
             2
100
AcDbLine
 10
-32.82974157428058
 20
0.10337988525281
 11
-94.92750912819187
 21
0.10337988525281
  0
LINE
  5
9E
100
AcDbEntity
  8
1
  6
CONTINUOUS
 62
             2
100
AcDbLine
 10
66.21568635828091
 20
-39.50045227045464
 11
66.21568635828091
 21
-39.00845175439245
  0
LINE
  5
9D
100
AcDbEntity
  8
1
  6
CONTINUOUS
 62
             2
100
AcDbLine
 10
65.72374982564006
 20
-39.50838673065851
 11
66.21568635828091
 21
-39.50045227045464
  0
LINE
  5
9C
100
AcDbEntity
  8
1
  6
CONTINUOUS
 62
             2
100
AcDbLine
 10
65.72374982564006
 20
-33.49219522960557
 11
66.21568635828091
 21
-33.50012968980946
  0
LINE
  5
9B
100
AcDbEntity
  8
1
  6
CONTINUOUS
 62
             3
100
AcDbLine
 10
50.71568635828091
 20
-40.7504522704546
 11
50.71568635828091
 21
-41.24245278651679
  0
LINE
  5
9A
100
AcDbEntity
  8
1
  6
CONTINUOUS
 62
             2
100
AcDbLine
 10
51.20762289092178
 20
-40.74251781025073
 11
50.71568635828091
 21
-40.7504522704546
  0
LINE
  5
99
100
AcDbEntity
  8
1
  6
CONTINUOUS
 62
             3
100
AcDbLine
 10
50.71568635828091
 20
-32.75045227045462
 11
50.71568635828091
 21
-40.7504522704546
  0
LINE
  5
98
100
AcDbEntity
  8
1
  6
CONTINUOUS
 62
             2
100
AcDbLine
 10
51.20762289092178
 20
-32.7583867306585
 11
50.71568635828091
 21
-32.75045227045462
  0
LINE
  5
97
100
AcDbEntity
  8
1
  6
DASH_CENTER
 62
             2
100
AcDbLine
 10
20.62828024159071
 20
-36.7504522704546
 11
84.26453515012561
 21
-36.7504522704546
  0
LINE
  5
96
100
AcDbEntity
  8
1
  6
CONTINUOUS
 62
             3
100
AcDbLine
 10
66.21568635828091
 20
-38.10045227045462
 11
66.21568635828091
 21
-39.00845175439245
  0
LINE
  5
95
100
AcDbEntity
  8
1
  6
CONTINUOUS
 62
             3
100
AcDbLine
 10
66.21568635828091
 20
-37.85029098013204
 11
81.67974447404181
 21
-37.85029098013204
  0
LINE
  5
94
100
AcDbEntity
  8
1
  6
CONTINUOUS
 62
             3
100
AcDbLine
 10
66.21568635828091
 20
-35.40045227045462
 11
66.21568635828091
 21
-38.10045227045462
  0
LINE
  5
93
100
AcDbEntity
  8
1
  6
CONTINUOUS
 62
             3
100
AcDbLine
 10
66.21568635828091
 20
-35.15029098013206
 11
81.6558110943389
 21
-35.15029098013206
  0
LINE
  5
92
100
AcDbEntity
  8
1
  6
CONTINUOUS
 62
             3
100
AcDbLine
 10
46.71568635828091
 20
-31.7504522704546
 11
50.21568635828091
 21
-31.7504522704546
  0
LINE
  5
91
100
AcDbEntity
  8
1
  6
CONTINUOUS
 62
             3
100
AcDbLine
 10
46.71568635828091
 20
-31.7504522704546
 11
46.71568635828091
 21
-41.7504522704546
  0
LINE
  5
90
100
AcDbEntity
  8
1
  6
CONTINUOUS
 62
             3
100
AcDbLine
 10
54.21568635828091
 20
-35.1586889033096
 11
54.21568635828091
 21
-35.50032968980945
  0
LINE
  5
8F
100
AcDbEntity
  8
1
  6
CONTINUOUS
 62
             3
100
AcDbLine
 10
53.21568635828091
 20
-35.1586889033096
 11
53.21568635828091
 21
-34.00032968980945
  0
LINE
  5
8E
100
AcDbEntity
  8
1
  6
CONTINUOUS
 62
             3
100
AcDbLine
 10
54.21568635828091
 20
-35.1586889033096
 11
53.21568635828091
 21
-35.1586889033096
  0
LINE
  5
8D
100
AcDbEntity
  8
1
  6
CONTINUOUS
 62
             3
100
AcDbLine
 10
56.71568635828091
 20
-35.1586889033096
 11
56.71568635828091
 21
-35.50032968980945
  0
LINE
  5
8C
100
AcDbEntity
  8
1
  6
CONTINUOUS
 62
             3
100
AcDbLine
 10
55.71568635828091
 20
-35.1586889033096
 11
55.71568635828091
 21
-34.00032968980945
  0
LINE
  5
8B
100
AcDbEntity
  8
1
  6
CONTINUOUS
 62
             3
100
AcDbLine
 10
56.71568635828091
 20
-35.1586889033096
 11
55.71568635828091
 21
-35.1586889033096
  0
LINE
  5
8A
100
AcDbEntity
  8
1
  6
CONTINUOUS
 62
             3
100
AcDbLine
 10
59.21568635828091
 20
-35.1586889033096
 11
59.21568635828091
 21
-35.50032968980945
  0
LINE
  5
89
100
AcDbEntity
  8
1
  6
CONTINUOUS
 62
             3
100
AcDbLine
 10
58.21568635828091
 20
-35.1586889033096
 11
58.21568635828091
 21
-34.00032968980945
  0
LINE
  5
88
100
AcDbEntity
  8
1
  6
CONTINUOUS
 62
             3
100
AcDbLine
 10
59.21568635828091
 20
-35.1586889033096
 11
58.21568635828091
 21
-35.1586889033096
  0
LINE
  5
87
100
AcDbEntity
  8
1
  6
CONTINUOUS
 62
             3
100
AcDbLine
 10
61.71568635828091
 20
-35.1586889033096
 11
61.71568635828091
 21
-35.50032968980945
  0
LINE
  5
86
100
AcDbEntity
  8
1
  6
CONTINUOUS
 62
             3
100
AcDbLine
 10
60.71568635828091
 20
-35.1586889033096
 11
60.71568635828091
 21
-34.00032968980945
  0
LINE
  5
85
100
AcDbEntity
  8
1
  6
CONTINUOUS
 62
             3
100
AcDbLine
 10
61.71568635828091
 20
-35.1586889033096
 11
60.71568635828091
 21
-35.1586889033096
  0
LINE
  5
84
100
AcDbEntity
  8
1
  6
CONTINUOUS
 62
             3
100
AcDbLine
 10
64.21568635828091
 20
-35.1586889033096
 11
64.21568635828091
 21
-35.50032968980945
  0
LINE
  5
83
100
AcDbEntity
  8
1
  6
CONTINUOUS
 62
             3
100
AcDbLine
 10
63.21568635828091
 20
-35.15868890330958
 11
64.21568635828091
 21
-35.1586889033096
  0
LINE
  5
82
100
AcDbEntity
  8
1
  6
CONTINUOUS
 62
             3
100
AcDbLine
 10
63.21568635828091
 20
-37.84194305695448
 11
63.21568635828091
 21
-37.50030227045461
  0
LINE
  5
81
100
AcDbEntity
  8
1
  6
CONTINUOUS
 62
             3
100
AcDbLine
 10
64.21568635828091
 20
-37.84194305695448
 11
64.21568635828091
 21
-39.00030227045461
  0
LINE
  5
80
100
AcDbEntity
  8
1
  6
CONTINUOUS
 62
             3
100
AcDbLine
 10
63.21568635828091
 20
-37.84194305695448
 11
64.21568635828091
 21
-37.84194305695448
  0
LINE
  5
7F
100
AcDbEntity
  8
1
  6
CONTINUOUS
 62
             3
100
AcDbLine
 10
60.71568635828091
 20
-37.84194305695448
 11
60.71568635828091
 21
-37.50030227045461
  0
LINE
  5
7E
100
AcDbEntity
  8
1
  6
CONTINUOUS
 62
             3
100
AcDbLine
 10
61.71568635828091
 20
-37.84194305695448
 11
61.71568635828091
 21
-39.00030227045461
  0
LINE
  5
7D
100
AcDbEntity
  8
1
  6
CONTINUOUS
 62
             3
100
AcDbLine
 10
60.71568635828091
 20
-37.84194305695448
 11
61.71568635828091
 21
-37.84194305695448
  0
LINE
  5
7C
100
AcDbEntity
  8
1
  6
CONTINUOUS
 62
             3
100
AcDbLine
 10
58.21568635828091
 20
-37.84194305695448
 11
58.21568635828091
 21
-37.50030227045461
  0
LINE
  5
7B
100
AcDbEntity
  8
1
  6
CONTINUOUS
 62
             3
100
AcDbLine
 10
59.21568635828091
 20
-37.84194305695448
 11
59.21568635828091
 21
-39.00030227045461
  0
LINE
  5
7A
100
AcDbEntity
  8
1
  6
CONTINUOUS
 62
             3
100
AcDbLine
 10
58.21568635828091
 20
-37.84194305695448
 11
59.21568635828091
 21
-37.84194305695448
  0
LINE
  5
79
100
AcDbEntity
  8
1
  6
CONTINUOUS
 62
             3
100
AcDbLine
 10
55.71568635828091
 20
-37.84194305695448
 11
55.71568635828091
 21
-37.50030227045461
  0
LINE
  5
78
100
AcDbEntity
  8
1
  6
CONTINUOUS
 62
             3
100
AcDbLine
 10
56.71568635828091
 20
-37.84194305695448
 11
56.71568635828091
 21
-39.00030227045461
  0
LINE
  5
77
100
AcDbEntity
  8
1
  6
CONTINUOUS
 62
             3
100
AcDbLine
 10
55.71568635828091
 20
-37.84194305695448
 11
56.71568635828091
 21
-37.84194305695448
  0
LINE
  5
76
100
AcDbEntity
  8
1
  6
CONTINUOUS
 62
             3
100
AcDbLine
 10
53.21568635828091
 20
-37.84194305695448
 11
53.21568635828091
 21
-37.50030227045461
  0
LINE
  5
75
100
AcDbEntity
  8
1
  6
CONTINUOUS
 62
             3
100
AcDbLine
 10
54.21568635828091
 20
-37.84194305695448
 11
54.21568635828091
 21
-39.00030227045461
  0
LINE
  5
74
100
AcDbEntity
  8
1
  6
CONTINUOUS
 62
             3
100
AcDbLine
 10
53.21568635828091
 20
-37.84194305695448
 11
54.21568635828091
 21
-37.84194305695448
  0
LINE
  5
73
100
AcDbEntity
  8
1
  6
CONTINUOUS
 62
             3
100
AcDbLine
 10
64.21568635828091
 20
-39.00030227045461
 11
64.21568635828091
 21
-39.53271033497074
  0
LINE
  5
72
100
AcDbEntity
  8
1
  6
CONTINUOUS
 62
             3
100
AcDbLine
 10
63.21568635828091
 20
-39.00030227045461
 11
63.21568635828091
 21
-37.84194305695448
  0
LINE
  5
71
100
AcDbEntity
  8
1
  6
CONTINUOUS
 62
             3
100
AcDbLine
 10
63.21568635828091
 20
-39.00030227045461
 11
64.21568635828091
 21
-39.00030227045461
  0
LINE
  5
70
100
AcDbEntity
  8
1
  6
CONTINUOUS
 62
             3
100
AcDbLine
 10
61.71568635828091
 20
-39.00030227045461
 11
61.71568635828091
 21
-39.57303291561591
  0
LINE
  5
6F
100
AcDbEntity
  8
1
  6
CONTINUOUS
 62
             3
100
AcDbLine
 10
60.71568635828091
 20
-39.00030227045462
 11
60.71568635828091
 21
-37.84194305695448
  0
LINE
  5
6E
100
AcDbEntity
  8
1
  6
CONTINUOUS
 62
             3
100
AcDbLine
 10
60.71568635828091
 20
-39.00030227045462
 11
61.71568635828091
 21
-39.00030227045461
  0
LINE
  5
6D
100
AcDbEntity
  8
1
  6
CONTINUOUS
 62
             3
100
AcDbLine
 10
59.21568635828091
 20
-39.00030227045461
 11
59.21568635828091
 21
-39.61335549626109
  0
LINE
  5
6C
100
AcDbEntity
  8
1
  6
CONTINUOUS
 62
             3
100
AcDbLine
 10
58.21568635828091
 20
-39.00030227045462
 11
58.21568635828091
 21
-37.84194305695448
  0
LINE
  5
6B
100
AcDbEntity
  8
1
  6
CONTINUOUS
 62
             3
100
AcDbLine
 10
58.21568635828091
 20
-39.00030227045462
 11
59.21568635828091
 21
-39.00030227045461
  0
LINE
  5
6A
100
AcDbEntity
  8
1
  6
CONTINUOUS
 62
             3
100
AcDbLine
 10
56.71568635828091
 20
-39.00030227045461
 11
56.71568635828091
 21
-39.65367807690623
  0
LINE
  5
69
100
AcDbEntity
  8
1
  6
CONTINUOUS
 62
             3
100
AcDbLine
 10
55.71568635828091
 20
-39.0003022704546
 11
55.71568635828091
 21
-37.84194305695448
  0
LINE
  5
68
100
AcDbEntity
  8
1
  6
CONTINUOUS
 62
             3
100
AcDbLine
 10
55.71568635828091
 20
-39.0003022704546
 11
56.71568635828091
 21
-39.00030227045461
  0
LINE
  5
67
100
AcDbEntity
  8
1
  6
CONTINUOUS
 62
             3
100
AcDbLine
 10
54.21568635828091
 20
-39.00030227045461
 11
54.21568635828091
 21
-39.69400065755141
  0
LINE
  5
66
100
AcDbEntity
  8
1
  6
CONTINUOUS
 62
             3
100
AcDbLine
 10
53.21568635828091
 20
-39.00030227045461
 11
53.21568635828091
 21
-37.84194305695448
  0
LINE
  5
65
100
AcDbEntity
  8
1
  6
CONTINUOUS
 62
             3
100
AcDbLine
 10
53.21568635828091
 20
-39.00030227045461
 11
54.21568635828091
 21
-39.00030227045461
  0
LINE
  5
64
100
AcDbEntity
  8
1
  6
CONTINUOUS
 62
             3
100
AcDbLine
 10
53.21568635828091
 20
-34.00032968980945
 11
53.21568635828091
 21
-33.29045227045461
  0
LINE
  5
63
100
AcDbEntity
  8
1
  6
CONTINUOUS
 62
             3
100
AcDbLine
 10
54.21568635828091
 20
-34.00032968980945
 11
54.21568635828091
 21
-35.1586889033096
  0
LINE
  5
62
100
AcDbEntity
  8
1
  6
CONTINUOUS
 62
             3
100
AcDbLine
 10
54.21568635828091
 20
-34.00032968980945
 11
53.21568635828091
 21
-34.00032968980945
  0
LINE
  5
61
100
AcDbEntity
  8
1
  6
CONTINUOUS
 62
             3
100
AcDbLine
 10
55.71568635828091
 20
-34.00032968980945
 11
55.71568635828091
 21
-33.33077485109979
  0
LINE
  5
60
100
AcDbEntity
  8
1
  6
CONTINUOUS
 62
             3
100
AcDbLine
 10
56.71568635828091
 20
-34.00032968980945
 11
56.71568635828091
 21
-35.1586889033096
  0
LINE
  5
5F
100
AcDbEntity
  8
1
  6
CONTINUOUS
 62
             3
100
AcDbLine
 10
56.71568635828091
 20
-34.00032968980945
 11
55.71568635828091
 21
-34.00032968980945
  0
LINE
  5
5E
100
AcDbEntity
  8
1
  6
CONTINUOUS
 62
             3
100
AcDbLine
 10
58.21568635828091
 20
-34.00032968980945
 11
58.21568635828091
 21
-33.37109743174494
  0
LINE
  5
5D
100
AcDbEntity
  8
1
  6
CONTINUOUS
 62
             3
100
AcDbLine
 10
59.21568635828091
 20
-34.00032968980945
 11
59.21568635828091
 21
-35.1586889033096
  0
LINE
  5
5C
100
AcDbEntity
  8
1
  6
CONTINUOUS
 62
             3
100
AcDbLine
 10
59.21568635828091
 20
-34.00032968980945
 11
58.21568635828091
 21
-34.00032968980945
  0
LINE
  5
5B
100
AcDbEntity
  8
1
  6
CONTINUOUS
 62
             3
100
AcDbLine
 10
60.71568635828091
 20
-34.00032968980945
 11
60.71568635828091
 21
-33.41142001239011
  0
LINE
  5
5A
100
AcDbEntity
  8
1
  6
CONTINUOUS
 62
             3
100
AcDbLine
 10
61.71568635828091
 20
-34.00032968980945
 11
61.71568635828091
 21
-35.1586889033096
  0
LINE
  5
59
100
AcDbEntity
  8
1
  6
CONTINUOUS
 62
             3
100
AcDbLine
 10
61.71568635828091
 20
-34.00032968980945
 11
60.71568635828091
 21
-34.00032968980945
  0
LINE
  5
58
100
AcDbEntity
  8
1
  6
CONTINUOUS
 62
             3
100
AcDbLine
 10
64.21568635828089
 20
-34.00032968980946
 11
64.21568635828091
 21
-35.1586889033096
  0
LINE
  5
57
100
AcDbEntity
  8
1
  6
CONTINUOUS
 62
             3
100
AcDbLine
 10
63.21568635828091
 20
-34.4600071091643
 11
63.21568635828091
 21
-33.45174259303526
  0
LINE
  5
56
100
AcDbEntity
  8
1
  6
CONTINUOUS
 62
             3
100
AcDbLine
 10
64.21568635828089
 20
-34.00032968980946
 11
63.21568635828091
 21
-34.00032968980946
  0
LINE
  5
55
100
AcDbEntity
  8
1
  6
CONTINUOUS
 62
             3
100
AcDbLine
 10
64.21568635828091
 20
-33.46787162529333
 11
64.21568635828089
 21
-34.00032968980946
  0
LINE
  5
54
100
AcDbEntity
  8
1
  6
CONTINUOUS
 62
             3
100
AcDbLine
 10
64.21568635828091
 20
-37.50030227045461
 11
64.21568635828091
 21
-37.84194305695448
  0
LINE
  5
53
100
AcDbEntity
  8
1
  6
CONTINUOUS
 62
             3
100
AcDbLine
 10
63.21568635828091
 20
-37.50030227045461
 11
64.21568635828091
 21
-37.50030227045461
  0
LINE
  5
52
100
AcDbEntity
  8
1
  6
CONTINUOUS
 62
             3
100
AcDbLine
 10
63.21568635828091
 20
-39.54883936722882
 11
61.71568635828091
 21
-39.57303291561591
  0
LINE
  5
51
100
AcDbEntity
  8
1
  6
CONTINUOUS
 62
             3
100
AcDbLine
 10
63.21568635828091
 20
-39.54883936722882
 11
63.21568635828091
 21
-39.00030227045461
  0
LINE
  5
50
100
AcDbEntity
  8
1
  6
CONTINUOUS
 62
             3
100
AcDbLine
 10
61.71568635828091
 20
-37.50030227045461
 11
61.71568635828091
 21
-37.84194305695448
  0
LINE
  5
4F
100
AcDbEntity
  8
1
  6
CONTINUOUS
 62
             3
100
AcDbLine
 10
60.71568635828091
 20
-37.50030227045461
 11
61.71568635828091
 21
-37.50030227045461
  0
LINE
  5
4E
100
AcDbEntity
  8
1
  6
CONTINUOUS
 62
             3
100
AcDbLine
 10
60.71568635828091
 20
-39.58916194787397
 11
59.21568635828091
 21
-39.61335549626109
  0
LINE
  5
4D
100
AcDbEntity
  8
1
  6
CONTINUOUS
 62
             3
100
AcDbLine
 10
60.71568635828091
 20
-39.58916194787397
 11
60.71568635828091
 21
-39.00030227045462
  0
LINE
  5
4C
100
AcDbEntity
  8
1
  6
CONTINUOUS
 62
             3
100
AcDbLine
 10
59.21568635828091
 20
-37.50030227045461
 11
59.21568635828091
 21
-37.84194305695448
  0
LINE
  5
4B
100
AcDbEntity
  8
1
  6
CONTINUOUS
 62
             3
100
AcDbLine
 10
58.21568635828091
 20
-37.50030227045461
 11
59.21568635828091
 21
-37.50030227045461
  0
LINE
  5
4A
100
AcDbEntity
  8
1
  6
CONTINUOUS
 62
             3
100
AcDbLine
 10
58.21568635828091
 20
-39.62948452851914
 11
56.71568635828091
 21
-39.65367807690623
  0
LINE
  5
49
100
AcDbEntity
  8
1
  6
CONTINUOUS
 62
             3
100
AcDbLine
 10
58.21568635828091
 20
-39.62948452851914
 11
58.21568635828091
 21
-39.00030227045462
  0
LINE
  5
48
100
AcDbEntity
  8
1
  6
CONTINUOUS
 62
             3
100
AcDbLine
 10
56.71568635828091
 20
-37.50030227045461
 11
56.71568635828091
 21
-37.84194305695448
  0
LINE
  5
47
100
AcDbEntity
  8
1
  6
CONTINUOUS
 62
             3
100
AcDbLine
 10
55.71568635828091
 20
-37.50030227045461
 11
56.71568635828091
 21
-37.50030227045461
  0
LINE
  5
46
100
AcDbEntity
  8
1
  6
CONTINUOUS
 62
             3
100
AcDbLine
 10
55.71568635828091
 20
-39.66980710916429
 11
54.21568635828091
 21
-39.69400065755141
  0
LINE
  5
45
100
AcDbEntity
  8
1
  6
CONTINUOUS
 62
             3
100
AcDbLine
 10
55.71568635828091
 20
-39.66980710916429
 11
55.71568635828091
 21
-39.0003022704546
  0
LINE
  5
44
100
AcDbEntity
  8
1
  6
CONTINUOUS
 62
             3
100
AcDbLine
 10
54.21568635828091
 20
-37.50030227045461
 11
54.21568635828091
 21
-37.84194305695448
  0
LINE
  5
43
100
AcDbEntity
  8
1
  6
CONTINUOUS
 62
             3
100
AcDbLine
 10
53.21568635828091
 20
-37.50030227045461
 11
54.21568635828091
 21
-37.50030227045461
  0
LINE
  5
42
100
AcDbEntity
  8
1
  6
CONTINUOUS
 62
             3
100
AcDbLine
 10
53.21568635828091
 20
-39.71012968980946
 11
51.20762289092178
 21
-40.74251781025073
  0
LINE
  5
41
100
AcDbEntity
  8
1
  6
CONTINUOUS
 62
             3
100
AcDbLine
 10
53.21568635828091
 20
-39.71012968980946
 11
53.21568635828091
 21
-39.00030227045461
  0
LINE
  5
40
100
AcDbEntity
  8
1
  6
CONTINUOUS
 62
             3
100
AcDbLine
 10
53.21568635828091
 20
-35.50032968980944
 11
53.21568635828091
 21
-35.1586889033096
  0
LINE
  5
3F
100
AcDbEntity
  8
1
  6
CONTINUOUS
 62
             3
100
AcDbLine
 10
54.21568635828091
 20
-35.50032968980945
 11
53.21568635828091
 21
-35.50032968980944
  0
LINE
  5
3E
100
AcDbEntity
  8
1
  6
CONTINUOUS
 62
             3
100
AcDbLine
 10
54.21568635828091
 20
-33.30658130271269
 11
55.71568635828091
 21
-33.33077485109979
  0
LINE
  5
3D
100
AcDbEntity
  8
1
  6
CONTINUOUS
 62
             3
100
AcDbLine
 10
54.21568635828091
 20
-33.30658130271269
 11
54.21568635828091
 21
-34.00032968980945
  0
LINE
  5
3C
100
AcDbEntity
  8
1
  6
CONTINUOUS
 62
             3
100
AcDbLine
 10
55.71568635828091
 20
-35.50032968980945
 11
55.71568635828091
 21
-35.1586889033096
  0
LINE
  5
3B
100
AcDbEntity
  8
1
  6
CONTINUOUS
 62
             3
100
AcDbLine
 10
56.71568635828091
 20
-35.50032968980945
 11
55.71568635828091
 21
-35.50032968980945
  0
LINE
  5
3A
100
AcDbEntity
  8
1
  6
CONTINUOUS
 62
             3
100
AcDbLine
 10
56.71568635828091
 20
-33.34690388335784
 11
58.21568635828091
 21
-33.37109743174494
  0
LINE
  5
39
100
AcDbEntity
  8
1
  6
CONTINUOUS
 62
             3
100
AcDbLine
 10
56.71568635828091
 20
-33.34690388335784
 11
56.71568635828091
 21
-34.00032968980945
  0
LINE
  5
38
100
AcDbEntity
  8
1
  6
CONTINUOUS
 62
             3
100
AcDbLine
 10
58.21568635828091
 20
-35.50032968980945
 11
58.21568635828091
 21
-35.1586889033096
  0
LINE
  5
37
100
AcDbEntity
  8
1
  6
CONTINUOUS
 62
             3
100
AcDbLine
 10
59.21568635828091
 20
-35.50032968980945
 11
58.21568635828091
 21
-35.50032968980945
  0
LINE
  5
36
100
AcDbEntity
  8
1
  6
CONTINUOUS
 62
             3
100
AcDbLine
 10
59.21568635828091
 20
-33.38722646400301
 11
60.71568635828091
 21
-33.41142001239011
  0
LINE
  5
35
100
AcDbEntity
  8
1
  6
CONTINUOUS
 62
             3
100
AcDbLine
 10
59.21568635828091
 20
-33.38722646400301
 11
59.21568635828091
 21
-34.00032968980945
  0
LINE
  5
34
100
AcDbEntity
  8
1
  6
CONTINUOUS
 62
             3
100
AcDbLine
 10
60.71568635828091
 20
-35.50032968980945
 11
60.71568635828091
 21
-35.1586889033096
  0
LINE
  5
33
100
AcDbEntity
  8
1
  6
CONTINUOUS
 62
             3
100
AcDbLine
 10
61.71568635828091
 20
-35.50032968980945
 11
60.71568635828091
 21
-35.50032968980945
  0
LINE
  5
32
100
AcDbEntity
  8
1
  6
CONTINUOUS
 62
             3
100
AcDbLine
 10
61.71568635828091
 20
-33.42754904464817
 11
63.21568635828091
 21
-33.45174259303526
  0
LINE
  5
31
100
AcDbEntity
  8
1
  6
CONTINUOUS
 62
             3
100
AcDbLine
 10
61.71568635828091
 20
-33.42754904464817
 11
61.71568635828091
 21
-34.00032968980945
  0
LINE
  5
30
100
AcDbEntity
  8
1
  6
CONTINUOUS
 62
             3
100
AcDbLine
 10
64.21568635828091
 20
-35.50032968980945
 11
63.21568635828091
 21
-35.50032968980946
  0
LINE
  5
2F
100
AcDbEntity
  8
1
  6
CONTINUOUS
 62
             3
100
AcDbLine
 10
64.21568635828091
 20
-33.46787162529333
 11
65.72374982564006
 21
-33.49219522960557
  0
LINE
  5
2E
100
AcDbEntity
  8
1
  6
CONTINUOUS
 62
             3
100
AcDbLine
 10
50.71568635828091
 20
-32.25845175439243
 11
50.71568635828091
 21
-32.75045227045462
  0
LINE
  5
2D
100
AcDbEntity
  8
1
  6
CONTINUOUS
 62
             3
100
AcDbLine
 10
50.71568635828091
 20
-41.24245278651679
 11
50.71568635828091
 21
-41.2504522704546
  0
LINE
  5
2C
100
AcDbEntity
  8
1
  6
CONTINUOUS
 62
             3
100
AcDbLine
 10
65.72374982564006
 20
-39.50838673065851
 11
64.21568635828091
 21
-39.53271033497074
  0
LINE
  5
2B
100
AcDbEntity
  8
1
  6
CONTINUOUS
 62
             3
100
AcDbLine
 10
66.21568635828091
 20
-33.53245278651679
 11
66.21568635828091
 21
-35.40045227045462
  0
LINE
  5
2A
100
AcDbEntity
  8
1
  6
CONTINUOUS
 62
             3
100
AcDbLine
 10
23.7156863582809
 20
-40.7504522704546
 11
23.7156863582809
 21
-33.24202993285542
  0
LINE
  5
29
100
AcDbEntity
  8
1
  6
CONTINUOUS
 62
             3
100
AcDbLine
 10
50.21568635828091
 20
-41.7504522704546
 11
46.71568635828091
 21
-41.7504522704546
  0
LINE
  5
28
100
AcDbEntity
  8
1
  6
CONTINUOUS
 62
             3
100
AcDbLine
 10
50.71568635828091
 20
-32.2504522704546
 11
50.71568635828091
 21
-32.25845175439243
  0
ENDSEC
  0
SECTION
  2
OBJECTS
  0
DICTIONARY
  5
19
100
AcDbDictionary
  3
ACAD_GROUP
350
1A
  3
ACAD_MLINESTYLE
350
1B
  0
DICTIONARY
  5
1A
102
{ACAD_REACTORS
330
19
102
}
100
AcDbDictionary
  0
DICTIONARY
  5
1B
102
{ACAD_REACTORS
330
19
102
}
100
AcDbDictionary
  3
STANDARD
350
1C
  0
MLINESTYLE
  5
1C
102
{ACAD_REACTORS
330
1B
102
}
100
AcDbMlineStyle
  2
STANDARD
 70
             0
  3

 62
             0
 51
90.0
 52
90.0
 71
             2
 49
0.5
 62
           256
  6
BYLAYER
 49
-0.5
 62
           256
  6
BYLAYER
  0
ENDSEC
  0
EOF
