  0
SECTION
  2
HEADER
  9
$ACADVER
  1
AC1009
  9
$INSBASE
 10
0
 20
0
  9
$EXTMIN
 10
30.58085241273946
 20
34.75940077534118
  9
$EXTMAX
 10
287.2000000000001
 20
222.1999999999997
  9
$LIMMIN
 10
30.58085241273946
 20
34.75940077534118
  9
$LIMMAX
 10
287.2000000000001
 20
222.1999999999997
  9
$VIEWCTR
 10
10
 20
10
  9
$VIEWSIZE
 40
10
  9
$SNAPMODE
 70
0
  9
$SNAPUNIT
 10
1
 20
1
  9
$SNAPBASE
 10
0
 20
0
  9
$SNAPANG
 50
0
  9
$SNAPSTYLE
 70
0
  9
$SNAPISOPAIR
 70
0
  9
$GRIDMODE
 70
0
  9
$GRIDUNIT
 10
0
 20
0
  9
$ORTHOMODE
 70
0
  9
$REGENMODE
 70
1
  9
$FILLMODE
 70
1
  9
$QTEXTMODE
 70
0
  9
$DRAGMODE
 70
2
  9
$LTSCALE
 40
1
  9
$OSMODE
 70
0
  9
$ATTMODE
 70
1
  9
$TEXTSIZE
 40
3.5
  9
$TRACEWID
 40
0.5
  9
$TEXTSTYLE
  7
STANDARD
  9
$CLAYER
  8
0
  9
$CELTYPE
  6
BYLAYER
  9
$CECOLOR
 62
256
  9
$DIMSCALE
 40
1
  9
$DIMASZ
 40
0.18
  9
$DIMEXO
 40
0.0625
  9
$DIMDLI
 40
0.38
  9
$DIMRND
 40
0
  9
$DIMDLE
 40
0
  9
$DIMEXE
 40
0.18
  9
$DIMTP
 40
0
  9
$DIMTM
 40
0
  9
$DIMTXT
 40
0.18
  9
$DIMCEN
 40
0.09
  9
$DIMTSZ
 40
0
  9
$DIMTOL
 70
0
  9
$DIMLIM
 70
0
  9
$DIMTIH
 70
1
  9
$DIMTOH
 70
1
  9
$DIMSE1
 70
0
  9
$DIMSE2
 70
0
  9
$DIMTAD
 70
0
  9
$DIMZIN
 70
0
  9
$DIMBLK
  1

  9
$DIMASO
 70
1
  9
$DIMSHO
 70
1
  9
$DIMPOST
  1

  9
$DIMAPOST
  1

  9
$DIMALT
 70
0
  9
$DIMALTD
 70
2
  9
$DIMALTF
 40
25.4
  9
$DIMLFAC
 40
1
  9
$DIMTOFL
 70
0
  9
$DIMTVP
 40
0
  9
$DIMTIX
 70
0
  9
$DIMSOXD
 70
0
  9
$DIMSAH
 70
0
  9
$DIMBLK1
  1

  9
$DIMBLK2
  1

  9
$DIMSTYLE
  2
*UNNAMED
  9
$DIMCLRD
 70
0
  9
$DIMCLRE
 70
0
  9
$DIMCLRT
 70
0
  9
$DIMTFAC
 40
1
  9
$DIMGAP
 40
0.09
  9
$LUNITS
 70
2
  9
$LUPREC
 70
4
  9
$AXISMODE
 70
0
  9
$AXISUNIT
 10
0
 20
0
  9
$SKETCHINC
 40
0.1
  9
$FILLETRAD
 40
2
  9
$AUNITS
 70
0
  9
$AUPREC
 70
0
  9
$MENU
  1
ACAD
  9
$ELEVATION
 40
0
  9
$THICKNESS
 40
0
  9
$VIEWDIR
 10
0
 20
0
 30
1
  9
$LIMCHECK
 70
0
  9
$BLIPMODE
 70
1
  9
$CHAMFERA
 40
0
  9
$CHAMFERB
 40
0
  9
$FASTZOOM
 70
1
  9
$SKPOLY
 70
0
  9
$ANGBASE
 50
0
  9
$ANGDIR
 70
0
  9
$PDMODE
 70
0
  9
$PDSIZE
 40
0
  9
$PLINEWID
 40
0
  9
$COORDS
 70
2
  0
ENDSEC
  0
SECTION
  2
TABLES
  0
TABLE
  2
DIMSTYLE
 70
11
  0
DIMSTYLE
  2
DMST_1
 70
0
  3

  4

  5

  6

  7

 40
1
 41
3.2
 42
1
 43
7
 44
1
 45
0
 46
0
 47
0
 48
0
140
3.2
141
0
142
0
143
25.4
144
1
145
0
146
1
147
0.09
 71
0
 72
0
 73
0
 74
0
 75
0
 76
0
 77
1
 78
9
170
0
171
2
172
0
173
0
174
0
175
0
176
2
177
2
178
2
  0
DIMSTYLE
  2
DMST_2
 70
0
  3

  4

  5

  6

  7

 40
1
 41
3.2
 42
1
 43
7
 44
1
 45
0
 46
0
 47
40
 48
0
140
3.2
141
0
142
0
143
25.4
144
1
145
0
146
0.6
147
0.09
 71
1
 72
0
 73
0
 74
0
 75
0
 76
0
 77
1
 78
9
170
0
171
2
172
0
173
0
174
0
175
0
176
2
177
2
178
2
  0
DIMSTYLE
  2
DMST_3
 70
0
  3
ü}1
  4

  5

  6

  7

 40
1
 41
3.2
 42
1
 43
7
 44
1
 45
0
 46
0
 47
0
 48
0
140
3.2
141
0
142
0
143
25.4
144
1
145
0
146
1
147
0.09
 71
0
 72
0
 73
0
 74
0
 75
0
 76
0
 77
1
 78
9
170
0
171
2
172
0
173
0
174
0
175
0
176
2
177
2
178
2
  0
DIMSTYLE
  2
DMST_4
 70
0
  3
ü}0.2
  4

  5

  6

  7

 40
1
 41
3.200000000000001
 42
1
 43
7
 44
1
 45
0
 46
0
 47
0
 48
0
140
3.200000000000001
141
0
142
0
143
25.4
144
1
145
0
146
1
147
0.09
 71
0
 72
0
 73
0
 74
0
 75
0
 76
0
 77
1
 78
9
170
0
171
2
172
0
173
0
174
0
175
0
176
2
177
2
178
2
  0
DIMSTYLE
  2
DMST_5
 70
0
  3

  4

  5

  6
DOT
  7

 40
1
 41
1
 42
1
 43
7
 44
1
 45
0
 46
0
 47
0
 48
0
140
3.200000000000001
141
0
142
0
143
25.4
144
1
145
0
146
1
147
0.09
 71
0
 72
0
 73
0
 74
0
 75
0
 76
0
 77
1
 78
9
170
0
171
2
172
0
173
1
174
0
175
0
176
2
177
2
178
2
  0
DIMSTYLE
  2
DMST_6
 70
0
  3

  4

  5

  6

  7
DOT
 40
1
 41
3.200000000000001
 42
1
 43
7
 44
1
 45
0
 46
0
 47
0
 48
0
140
3.200000000000001
141
0
142
0
143
25.4
144
1
145
0
146
1
147
0.09
 71
0
 72
0
 73
0
 74
0
 75
0
 76
0
 77
1
 78
9
170
0
171
2
172
0
173
1
174
0
175
0
176
2
177
2
178
2
  0
DIMSTYLE
  2
DMST_7
 70
0
  3

  4

  5

  6

  7

 40
1
 41
3.200000000000001
 42
1
 43
7
 44
1
 45
0
 46
0
 47
0
 48
0
140
3.200000000000001
141
0
142
0
143
25.4
144
1
145
0
146
0.6
147
0.09
 71
1
 72
0
 73
0
 74
0
 75
0
 76
0
 77
1
 78
9
170
0
171
2
172
0
173
0
174
0
175
0
176
2
177
2
178
2
  0
DIMSTYLE
  2
DMST_8
 70
0
  3

  4

  5

  6

  7

 40
1
 41
3.5
 42
0.7
 43
7
 44
2
 45
0
 46
0
 47
0
 48
0.2
140
3.5
141
0
142
0
143
25.4
144
1
145
0
146
0.6
147
0.09
 71
1
 72
0
 73
0
 74
0
 75
0
 76
0
 77
1
 78
9
170
0
171
2
172
0
173
0
174
0
175
0
176
2
177
2
178
2
  0
DIMSTYLE
  2
DMST_9
 70
0
  3

  4

  5

  6

  7

 40
1
 41
3.5
 42
0.7
 43
7
 44
2
 45
0
 46
0
 47
0
 48
0
140
3.5
141
0
142
0
143
25.4
144
1
145
0
146
1
147
0.09
 71
0
 72
0
 73
0
 74
0
 75
0
 76
0
 77
1
 78
9
170
0
171
2
172
0
173
0
174
0
175
0
176
2
177
2
178
2
  0
DIMSTYLE
  2
DMST_10
 70
0
  3
ü}0.2
  4

  5

  6

  7

 40
1
 41
3.5
 42
0.7
 43
7
 44
2
 45
0
 46
0
 47
0
 48
0
140
3.5
141
0
142
0
143
25.4
144
1
145
0
146
1
147
0.09
 71
0
 72
0
 73
0
 74
0
 75
0
 76
0
 77
1
 78
9
170
0
171
2
172
0
173
0
174
0
175
0
176
2
177
2
178
2
  0
DIMSTYLE
  2
DMST_11
 70
0
  3

  4

  5

  6

  7

 40
1
 41
3.200000000000001
 42
1
 43
7
 44
1
 45
0
 46
0
 47
0
 48
0
140
3.200000000000001
141
0
142
0
143
25.4
144
1
145
0
146
1
147
0.09
 71
0
 72
0
 73
1
 74
1
 75
0
 76
0
 77
1
 78
9
170
0
171
2
172
0
173
0
174
0
175
0
176
2
177
2
178
2
  0
ENDTAB
  0
TABLE
  2
LTYPE
 70
9
  0
LTYPE
  2
CONTINUOUS
 70
64
  3
Solid line
 72
65
 73
0
 40
0
  0
LTYPE
  2
BORDER
 70
64
  3
__ __ . __ __ .
 72
65
 73
6
 40
11.81798705993963
 49
3.376567731411324
 49
-1.688283865705662
 49
3.376567731411324
 49
-1.688283865705662
 49
0
 49
-1.688283865705662
  0
LTYPE
  2
CENTER
 70
64
  3
____ _ ____ _
 72
65
 73
4
 40
13.5062709256453
 49
8.44141932852831
 49
-1.688283865705662
 49
1.688283865705662
 49
-1.688283865705662
  0
LTYPE
  2
DASHDOT
 70
64
  3
__ . __ . __ .
 72
65
 73
4
 40
6.753135462822648
 49
3.376567731411324
 49
-1.688283865705662
 49
0
 49
-1.688283865705662
  0
LTYPE
  2
DASHED
 70
64
  3
__ __ __ __ __
 72
65
 73
2
 40
5.064851597116986
 49
3.376567731411324
 49
-1.688283865705662
  0
LTYPE
  2
DIVIDE
 70
64
  3
__ . . __ . . 
 72
65
 73
6
 40
8.44141932852831
 49
3.376567731411324
 49
-1.688283865705662
 49
0
 49
-1.688283865705662
 49
0
 49
-1.688283865705662
  0
LTYPE
  2
DOT
 70
64
  3
..............
 72
65
 73
4
 40
3.376567731411324
 49
0
 49
-1.688283865705662
 49
0
 49
-1.688283865705662
  0
LTYPE
  2
HIDDEN
 70
64
  3
_ _ _ _ _ _ _
 72
65
 73
2
 40
2.532425798558493
 49
1.688283865705662
 49
-0.844141932852831
  0
LTYPE
  2
PHANTOM
 70
64
  3
_____ _ _ _____ _ _ 
 72
65
 73
6
 40
16.88283865705662
 49
8.44141932852831
 49
-1.688283865705662
 49
1.688283865705662
 49
-1.688283865705662
 49
1.688283865705662
 49
-1.688283865705662
  0
ENDTAB
  0
TABLE
  2
LAYER
 70
3
  0
LAYER
  2
1
 70
0
 62
7
  6
CONTINUOUS
  0
LAYER
  2
0
 70
0
 62
7
  6
CONTINUOUS
  0
ENDTAB
  0
TABLE
  2
STYLE
 70
4
  0
STYLE
  2
STANDARD
 70
0
 40
0
 41
1
 50
0
 71
0
 42
3.5
  3
txt
  4

  0
STYLE
  2
SIMPLEX
 70
0
 40
0
 41
1
 50
0
 71
0
 42
3.5
  3
simplex
  4

  0
STYLE
  2
COMPLEX
 70
0
 40
0
 41
1
 50
0
 71
0
 42
3.5
  3
complex
  4

  0
STYLE
  2
ITALIC
 70
0
 40
0
 41
1
 50
0
 71
0
 42
3.5
  3
italic
  4

  0
ENDTAB
  0
TABLE
  2
VIEW
 70
0
  0
ENDTAB
  0
ENDSEC
  0
SECTION
  2
BLOCKS
  0
BLOCK
  8
1
  2
*D0
 70
1
 10
0
 20
0
 30
0
  0
LINE
  8
1
 62
2
 10
37.7247676438097
 20
120.9999999999997
 30
0
 11
37.7247676438097
 21
114.5999999999997
 31
0
  0
LINE
  8
1
 62
2
 10
37.7247676438097
 20
120.9999999999997
 30
0
 11
37.7247676438097
 21
122.9999999999997
 31
0
  0
LINE
  8
1
 62
2
 10
37.7247676438097
 20
129.3999999999997
 30
0
 11
37.7247676438097
 21
122.9999999999997
 31
0
  0
LINE
  8
1
 62
2
 10
76.76921987360194
 20
122.9999999999997
 30
0
 11
36.7247676438097
 21
122.9999999999997
 31
0
  0
LINE
  8
1
 62
2
 10
97.26921987360193
 20
120.9999999999997
 30
0
 11
36.7247676438097
 21
120.9999999999997
 31
0
  0
SOLID
  8
1
 62
2
 10
37.7247676438097
 20
122.9999999999997
 30
0
 11
37.3087676438097
 21
126.1999999999997
 31
0
 12
38.1407676438097
 22
126.1999999999997
 32
0
 13
38.1407676438097
 23
126.1999999999997
 33
0
  0
SOLID
  8
1
 62
2
 10
37.7247676438097
 20
120.9999999999997
 30
0
 11
38.1407676438097
 21
117.7999999999997
 31
0
 12
37.3087676438097
 22
117.7999999999997
 32
0
 13
37.3087676438097
 23
117.7999999999997
 33
0
  0
TEXT
  8
1
 62
2
 10
36.7247676438097
 20
115.138659695636
 30
0
 40
3.2
  1
2
 50
90
 41
0.9
  0
ENDBLK
  8
0
  0
BLOCK
  8
1
  2
*D1
 70
1
 10
0
 20
0
 30
0
  0
LINE
  8
1
 62
2
 10
107.7692198736019
 20
102.034426691878
 30
0
 11
113.7637594185295
 21
102.034426691878
 31
0
  0
LINE
  8
1
 62
2
 10
97.76921987360194
 20
102.034426691878
 30
0
 11
107.7692198736019
 21
102.034426691878
 31
0
  0
LINE
  8
1
 62
2
 10
107.7692198736019
 20
120.4999999999997
 30
0
 11
107.7692198736019
 21
101.034426691878
 31
0
  0
LINE
  8
1
 62
2
 10
97.76921987360194
 20
120.4999999999997
 30
0
 11
97.76921987360194
 21
101.034426691878
 31
0
  0
SOLID
  8
1
 62
2
 10
97.76921987360194
 20
102.034426691878
 30
0
 11
100.9692198736019
 21
102.450426691878
 31
0
 12
100.9692198736019
 22
101.618426691878
 32
0
 13
100.9692198736019
 23
101.618426691878
 33
0
  0
SOLID
  8
1
 62
2
 10
107.7692198736019
 20
102.034426691878
 30
0
 11
104.5692198736019
 21
101.618426691878
 31
0
 12
104.5692198736019
 22
102.450426691878
 32
0
 13
104.5692198736019
 23
102.450426691878
 33
0
  0
TEXT
  8
1
 62
2
 10
109.9237594185295
 20
103.034426691878
 30
0
 40
3.2
  1
10
 41
0.9
  0
ENDBLK
  8
0
  0
BLOCK
  8
1
  2
*D2
 70
1
 10
0
 20
0
 30
0
  0
LINE
  8
1
 62
2
 10
78.7889963060137
 20
34.75940077534118
 30
0
 11
78.7889963060137
 21
120.9999999999997
 31
0
  0
LINE
  8
1
 62
2
 10
100.2692198736019
 20
34.75940077534118
 30
0
 11
77.7889963060137
 21
34.75940077534118
 31
0
  0
LINE
  8
1
 62
2
 10
97.26921987360194
 20
120.9999999999997
 30
0
 11
77.7889963060137
 21
120.9999999999997
 31
0
  0
SOLID
  8
1
 62
2
 10
78.7889963060137
 20
120.9999999999997
 30
0
 11
79.2049963060137
 21
117.7999999999997
 31
0
 12
78.3729963060137
 22
117.7999999999997
 32
0
 13
78.3729963060137
 23
117.7999999999997
 33
0
  0
SOLID
  8
1
 62
2
 10
78.7889963060137
 20
34.75940077534118
 30
0
 11
78.3729963060137
 21
37.95940077534119
 31
0
 12
79.2049963060137
 22
37.95940077534119
 32
0
 13
79.2049963060137
 23
37.95940077534119
 33
0
  0
TEXT
  8
1
 62
2
 10
76.98899630601369
 20
74.22615415175132
 30
0
 40
3.2
  1
200
 50
90
 41
0.9
  0
TEXT
  8
1
 62
2
 10
74.90899630601369
 20
83.50615415175132
 30
0
 40
1.92
  1
+40
 50
90
 41
0.9
  0
TEXT
  8
1
 62
2
 10
77.7889963060137
 20
83.50615415175132
 30
0
 40
1.92
  1
 0
 50
90
 41
0.9
  0
ENDBLK
  8
0
  0
BLOCK
  8
1
  2
*D3
 70
1
 10
0
 20
0
 30
0
  0
LINE
  8
1
 62
2
 10
87.87308825051314
 20
34.75940077534119
 30
0
 11
87.87308825051314
 21
44.75940077534118
 31
0
  0
LINE
  8
1
 62
2
 10
99.7692198736019
 20
44.75940077534118
 30
0
 11
86.87308825051314
 21
44.75940077534118
 31
0
  0
LINE
  8
1
 62
2
 10
100.2692198736019
 20
34.75940077534119
 30
0
 11
86.87308825051314
 21
34.75940077534119
 31
0
  0
SOLID
  8
1
 62
2
 10
87.87308825051314
 20
44.75940077534118
 30
0
 11
88.28908825051313
 21
41.55940077534117
 31
0
 12
87.45708825051314
 22
41.55940077534117
 32
0
 13
87.45708825051314
 23
41.55940077534117
 33
0
  0
SOLID
  8
1
 62
2
 10
87.87308825051314
 20
34.75940077534119
 30
0
 11
87.45708825051314
 21
37.95940077534119
 31
0
 12
88.28908825051313
 22
37.95940077534119
 32
0
 13
88.28908825051313
 23
37.95940077534119
 33
0
  0
TEXT
  8
1
 62
2
 10
86.13752773011279
 20
35.19701314913223
 30
0
 40
3.2
  1
10
 50
90
 41
0.9
  0
TEXT
  8
1
 62
2
 10
86.13752773011279
 20
40.63701314913223
 30
0
 40
3.2
  1
ü}1
 50
90
 41
0.9
  0
ENDBLK
  8
0
  0
BLOCK
  8
1
  2
*D4
 70
1
 10
0
 20
0
 30
0
  0
LINE
  8
1
 62
2
 10
171.3999999999999
 20
165.9999999999997
 30
0
 11
171.3999999999999
 21
175.2325379924313
 31
0
  0
LINE
  8
1
 62
2
 10
171.3999999999999
 20
158.9999999999997
 30
0
 11
171.3999999999999
 21
165.9999999999997
 31
0
  0
LINE
  8
1
 62
2
 10
171.3999999999999
 20
152.5999999999997
 30
0
 11
171.3999999999999
 21
158.9999999999997
 31
0
  0
LINE
  8
1
 62
2
 10
185.3999999999999
 20
165.9999999999997
 30
0
 11
170.3999999999999
 21
165.9999999999997
 31
0
  0
LINE
  8
1
 62
2
 10
185.8999999999999
 20
158.9999999999997
 30
0
 11
170.3999999999999
 21
158.9999999999997
 31
0
  0
SOLID
  8
1
 62
2
 10
171.3999999999999
 20
165.9999999999997
 30
0
 11
170.9839999999999
 21
169.1999999999997
 31
0
 12
171.8159999999999
 22
169.1999999999997
 32
0
 13
171.8159999999999
 23
169.1999999999997
 33
0
  0
SOLID
  8
1
 62
2
 10
171.3999999999999
 20
158.9999999999997
 30
0
 11
171.8159999999999
 21
155.7999999999997
 31
0
 12
170.9839999999999
 22
155.7999999999997
 32
0
 13
170.9839999999999
 23
155.7999999999997
 33
0
  0
TEXT
  8
1
 62
2
 10
170.482043982274
 20
173.3125379924313
 30
0
 40
3.2
  1
7
 50
90
 41
0.9
  0
ENDBLK
  8
0
  0
BLOCK
  8
1
  2
*D5
 70
1
 10
0
 20
0
 30
0
  0
LINE
  8
1
 62
2
 10
57.76921987360193
 20
152.9999999999997
 30
0
 11
57.76921987360193
 21
162.9999999999997
 31
0
  0
LINE
  8
1
 62
2
 10
101.7692198736019
 20
162.9999999999997
 30
0
 11
56.76921987360193
 21
162.9999999999997
 31
0
  0
LINE
  8
1
 62
2
 10
101.7692198736019
 20
152.9999999999997
 30
0
 11
56.76921987360193
 21
152.9999999999997
 31
0
  0
SOLID
  8
1
 62
2
 10
57.76921987360193
 20
162.9999999999997
 30
0
 11
58.18521987360193
 21
159.7999999999997
 31
0
 12
57.35321987360193
 22
159.7999999999997
 32
0
 13
57.35321987360193
 23
159.7999999999997
 33
0
  0
SOLID
  8
1
 62
2
 10
57.76921987360193
 20
152.9999999999997
 30
0
 11
57.35321987360193
 21
156.1999999999997
 31
0
 12
58.18521987360193
 22
156.1999999999997
 32
0
 13
58.18521987360193
 23
156.1999999999997
 33
0
  0
TEXT
  8
1
 62
2
 10
56.76921987360193
 20
150.7816470588232
 30
0
 40
3.200000000000001
  1
10
 50
90
 41
0.7200000000000001
  0
TEXT
  8
1
 62
2
 10
56.76921987360193
 20
155.4536470588232
 30
0
 40
3.200000000000001
  1
ü}0.2
 50
90
 41
0.9
  0
ENDBLK
  8
0
  0
BLOCK
  8
1
  2
*D6
 70
1
 10
0
 20
0
 30
0
  0
LINE
  8
1
 62
2
 10
212.9999999999999
 20
207.9999999999997
 30
0
 11
221.0300590413186
 21
207.9999999999997
 31
0
  0
LINE
  8
1
 62
2
 10
211.3999999999999
 20
207.9999999999997
 30
0
 11
212.9999999999999
 21
207.9999999999997
 31
0
  0
LINE
  8
1
 62
2
 10
212.9999999999999
 20
183.9999999999997
 30
0
 11
212.9999999999999
 21
208.9999999999997
 31
0
  0
LINE
  8
1
 62
2
 10
211.3999999999999
 20
183.9999999999997
 30
0
 11
211.3999999999999
 21
208.9999999999997
 31
0
  0
CIRCLE
  8
1
 62
2
 10
211.3999999999999
 20
207.9999999999997
 30
0
 40
0.5
  0
SOLID
  8
1
 62
2
 10
212.9999999999999
 20
207.9999999999997
 30
0
 11
216.4999999999999
 21
208.4549999999997
 31
0
 12
216.4999999999999
 22
207.5449999999997
 32
0
 13
216.4999999999999
 23
207.5449999999997
 33
0
  0
TEXT
  8
1
 62
2
 10
216.1500590413186
 20
208.9999999999997
 30
0
 40
3.200000000000001
  1
1.6
 41
0.9
  0
ENDBLK
  8
0
  0
BLOCK
  8
1
  2
*D7
 70
1
 10
0
 20
0
 30
0
  0
LINE
  8
1
 62
2
 10
186.3999999999999
 20
217.9999999999997
 30
0
 11
211.3999999999999
 21
217.9999999999997
 31
0
  0
LINE
  8
1
 62
2
 10
211.3999999999999
 20
183.9999999999997
 30
0
 11
211.3999999999999
 21
218.9999999999997
 31
0
  0
LINE
  8
1
 62
2
 10
186.3999999999999
 20
166.9999999999997
 30
0
 11
186.3999999999999
 21
218.9999999999997
 31
0
  0
SOLID
  8
1
 62
2
 10
186.3999999999999
 20
217.9999999999997
 30
0
 11
189.5999999999999
 21
218.4159999999997
 31
0
 12
189.5999999999999
 22
217.5839999999997
 32
0
 13
189.5999999999999
 23
217.5839999999997
 33
0
  0
SOLID
  8
1
 62
2
 10
211.3999999999999
 20
217.9999999999997
 30
0
 11
208.1999999999999
 21
217.5839999999997
 31
0
 12
208.1999999999999
 22
218.4159999999997
 32
0
 13
208.1999999999999
 23
218.4159999999997
 33
0
  0
TEXT
  8
1
 62
2
 10
196.4999999999999
 20
218.9999999999997
 30
0
 40
3.200000000000001
  1
25
 41
0.9
  0
ENDBLK
  8
0
  0
BLOCK
  8
1
  2
*D8
 70
1
 10
0
 20
0
 30
0
  0
LINE
  8
1
 62
2
 10
211.3999999999999
 20
197.9999999999997
 30
0
 11
217.7999999999999
 21
197.9999999999997
 31
0
  0
LINE
  8
1
 62
2
 10
208.3999999999999
 20
197.9999999999997
 30
0
 11
201.9999999999999
 21
197.9999999999997
 31
0
  0
LINE
  8
1
 62
2
 10
208.3999999999999
 20
197.9999999999997
 30
0
 11
211.3999999999999
 21
197.9999999999997
 31
0
  0
LINE
  8
1
 62
2
 10
211.3999999999999
 20
183.9999999999997
 30
0
 11
211.3999999999999
 21
198.9999999999997
 31
0
  0
LINE
  8
1
 62
2
 10
208.3999999999999
 20
170.9999999999997
 30
0
 11
208.3999999999999
 21
198.9999999999997
 31
0
  0
SOLID
  8
1
 62
2
 10
208.3999999999999
 20
197.9999999999997
 30
0
 11
205.1999999999999
 21
197.5839999999997
 31
0
 12
205.1999999999999
 22
198.4159999999997
 32
0
 13
205.1999999999999
 23
198.4159999999997
 33
0
  0
SOLID
  8
1
 62
2
 10
211.3999999999999
 20
197.9999999999997
 30
0
 11
214.5999999999999
 21
198.4159999999997
 31
0
 12
214.5999999999999
 22
197.5839999999997
 32
0
 13
214.5999999999999
 23
197.5839999999997
 33
0
  0
TEXT
  8
1
 62
2
 10
208.6916135174606
 20
199.3174942483826
 30
0
 40
3.200000000000001
  1
3
 41
0.9
  0
ENDBLK
  8
0
  0
BLOCK
  8
1
  2
*D9
 70
1
 10
0
 20
0
 30
0
  0
LINE
  8
1
 62
2
 10
204.3999999999999
 20
207.9999999999997
 30
0
 11
197.9999999999999
 21
207.9999999999997
 31
0
  0
LINE
  8
1
 62
2
 10
204.3999999999999
 20
207.9999999999997
 30
0
 11
211.3999999999999
 21
207.9999999999997
 31
0
  0
LINE
  8
1
 62
2
 10
211.3999999999999
 20
183.9999999999997
 30
0
 11
211.3999999999999
 21
208.9999999999997
 31
0
  0
LINE
  8
1
 62
2
 10
204.3999999999999
 20
169.6473460385828
 30
0
 11
204.3999999999999
 21
208.9999999999997
 31
0
  0
SOLID
  8
1
 62
2
 10
204.3999999999999
 20
207.9999999999997
 30
0
 11
201.1999999999999
 21
207.5839999999997
 31
0
 12
201.1999999999999
 22
208.4159999999997
 32
0
 13
201.1999999999999
 23
208.4159999999997
 33
0
  0
CIRCLE
  8
1
 62
2
 10
211.3999999999999
 20
207.9999999999997
 30
0
 40
0.5
  0
TEXT
  8
1
 62
2
 10
206.9399999999999
 20
208.9999999999997
 30
0
 40
3.200000000000001
  1
7
 41
0.9
  0
ENDBLK
  8
0
  0
BLOCK
  8
1
  2
*D10
 70
1
 10
0
 20
0
 30
0
  0
LINE
  8
1
 62
2
 10
211.3999999999999
 20
217.9999999999997
 30
0
 11
271.1999999999999
 21
217.9999999999997
 31
0
  0
LINE
  8
1
 62
2
 10
271.1999999999999
 20
182.0999999999997
 30
0
 11
271.1999999999999
 21
218.9999999999997
 31
0
  0
LINE
  8
1
 62
2
 10
211.3999999999999
 20
183.9999999999997
 30
0
 11
211.3999999999999
 21
218.9999999999997
 31
0
  0
SOLID
  8
1
 62
2
 10
211.3999999999999
 20
217.9999999999997
 30
0
 11
214.5999999999999
 21
218.4159999999997
 31
0
 12
214.5999999999999
 22
217.5839999999997
 32
0
 13
214.5999999999999
 23
217.5839999999997
 33
0
  0
SOLID
  8
1
 62
2
 10
271.1999999999999
 20
217.9999999999997
 30
0
 11
267.9999999999999
 21
217.5839999999997
 31
0
 12
267.9999999999999
 22
218.4159999999997
 32
0
 13
267.9999999999999
 23
218.4159999999997
 33
0
  0
TEXT
  8
1
 62
2
 10
238.8999999999999
 20
218.9999999999997
 30
0
 40
3.200000000000001
  1
60
 41
0.9
  0
ENDBLK
  8
0
  0
BLOCK
  8
1
  2
*D11
 70
1
 10
0
 20
0
 30
0
  0
LINE
  8
1
 62
2
 10
198.3999999999999
 20
181.9999999999997
 30
0
 11
204.7999999999999
 21
181.9999999999997
 31
0
  0
LINE
  8
1
 62
2
 10
186.3999999999999
 20
181.9999999999997
 30
0
 11
179.9999999999999
 21
181.9999999999997
 31
0
  0
LINE
  8
1
 62
2
 10
186.3999999999999
 20
181.9999999999997
 30
0
 11
198.3999999999999
 21
181.9999999999997
 31
0
  0
LINE
  8
1
 62
2
 10
198.3999999999999
 20
167.9999999999997
 30
0
 11
198.3999999999999
 21
182.9999999999997
 31
0
  0
LINE
  8
1
 62
2
 10
186.3999999999999
 20
166.9999999999997
 30
0
 11
186.3999999999999
 21
182.9999999999997
 31
0
  0
SOLID
  8
1
 62
2
 10
186.3999999999999
 20
181.9999999999997
 30
0
 11
183.1999999999999
 21
181.5839999999997
 31
0
 12
183.1999999999999
 22
182.4159999999997
 32
0
 13
183.1999999999999
 23
182.4159999999997
 33
0
  0
SOLID
  8
1
 62
2
 10
198.3999999999999
 20
181.9999999999997
 30
0
 11
201.5999999999999
 21
182.4159999999997
 31
0
 12
201.5999999999999
 22
181.5839999999997
 32
0
 13
201.5999999999999
 23
181.5839999999997
 33
0
  0
TEXT
  8
1
 62
2
 10
190.4799999999999
 20
182.9999999999997
 30
0
 40
3.200000000000001
  1
12
 41
0.9
  0
ENDBLK
  8
0
  0
BLOCK
  8
1
  2
*D12
 70
1
 10
0
 20
0
 30
0
  0
LINE
  8
1
 62
2
 10
161.3999999999999
 20
166.9999999999997
 30
0
 11
161.3999999999999
 21
188.3955873283093
 31
0
  0
LINE
  8
1
 62
2
 10
161.3999999999999
 20
158.9999999999997
 30
0
 11
161.3999999999999
 21
166.9999999999997
 31
0
  0
LINE
  8
1
 62
2
 10
161.3999999999999
 20
152.5999999999997
 30
0
 11
161.3999999999999
 21
158.9999999999997
 31
0
  0
LINE
  8
1
 62
2
 10
197.3999999999999
 20
166.9999999999997
 30
0
 11
160.3999999999999
 21
166.9999999999997
 31
0
  0
LINE
  8
1
 62
2
 10
185.8999999999999
 20
158.9999999999997
 30
0
 11
160.3999999999999
 21
158.9999999999997
 31
0
  0
SOLID
  8
1
 62
2
 10
161.3999999999999
 20
166.9999999999997
 30
0
 11
160.9839999999999
 21
170.1999999999997
 31
0
 12
161.8159999999999
 22
170.1999999999997
 32
0
 13
161.8159999999999
 23
170.1999999999997
 33
0
  0
SOLID
  8
1
 62
2
 10
161.3999999999999
 20
158.9999999999997
 30
0
 11
161.8159999999999
 21
155.7999999999997
 31
0
 12
160.9839999999999
 22
155.7999999999997
 32
0
 13
160.9839999999999
 23
155.7999999999997
 33
0
  0
TEXT
  8
1
 62
2
 10
159.5999999999999
 20
176.3795873283093
 30
0
 40
3.200000000000001
  1
8
 50
90
 41
0.9
  0
TEXT
  8
1
 62
2
 10
157.5199999999999
 20
179.8995873283093
 30
0
 40
1.920000000000001
  1
0
 50
90
 41
0.9
  0
TEXT
  8
1
 62
2
 10
160.3999999999999
 20
179.8995873283093
 30
0
 40
1.920000000000001
  1
-0.022
 50
90
 41
0.9
  0
TEXT
  8
1
 62
2
 10
159.5999999999999
 20
172.5395873283093
 30
0
 40
3.200000000000001
  1
%%c
 50
90
 41
0.9
  0
ENDBLK
  8
0
  0
BLOCK
  8
1
  2
*D13
 70
1
 10
0
 20
0
 30
0
  0
LINE
  8
1
 62
2
 10
151.3999999999999
 20
169.9999999999997
 30
0
 11
151.3999999999999
 21
187.8032333814393
 31
0
  0
LINE
  8
1
 62
2
 10
151.3999999999999
 20
155.9999999999997
 30
0
 11
151.3999999999999
 21
169.9999999999997
 31
0
  0
LINE
  8
1
 62
2
 10
207.6999999999999
 20
169.9999999999997
 30
0
 11
149.3999999999999
 21
169.9999999999997
 31
0
  0
LINE
  8
1
 62
2
 10
207.6999999999999
 20
155.9999999999997
 30
0
 11
149.3999999999999
 21
155.9999999999997
 31
0
  0
SOLID
  8
1
 62
2
 10
151.3999999999999
 20
155.9999999999997
 30
0
 11
150.9449999999999
 21
159.4999999999997
 31
0
 12
151.8549999999999
 22
159.4999999999997
 32
0
 13
151.8549999999999
 23
159.4999999999997
 33
0
  0
SOLID
  8
1
 62
2
 10
151.3999999999999
 20
169.9999999999997
 30
0
 11
151.8549999999999
 21
166.4999999999997
 31
0
 12
150.9449999999999
 22
166.4999999999997
 32
0
 13
150.9449999999999
 23
166.4999999999997
 33
0
  0
TEXT
  8
1
 62
2
 10
149.568876240291
 20
176.3407333814393
 30
0
 40
3.5
  1
14
 50
90
 41
0.9
  0
TEXT
  8
1
 62
2
 10
147.293876240291
 20
182.2907333814393
 30
0
 40
2.1
  1
 0
 50
90
 41
0.9
  0
TEXT
  8
1
 62
2
 10
150.443876240291
 20
182.2907333814393
 30
0
 40
2.1
  1
-0.2
 50
90
 41
0.9
  0
TEXT
  8
1
 62
2
 10
149.568876240291
 20
172.1407333814393
 30
0
 40
3.5
  1
%%c
 50
90
 41
0.9
  0
ENDBLK
  8
0
  0
BLOCK
  8
1
  2
*D14
 70
1
 10
0
 20
0
 30
0
  0
LINE
  8
1
 62
2
 10
37.74852660435299
 20
122.9999999999997
 30
0
 11
37.74852660435299
 21
182.9999999999997
 31
0
  0
LINE
  8
1
 62
2
 10
77.06921987360192
 20
182.9999999999997
 30
0
 11
35.74852660435299
 21
182.9999999999997
 31
0
  0
LINE
  8
1
 62
2
 10
77.06921987360192
 20
122.9999999999997
 30
0
 11
35.74852660435299
 21
122.9999999999997
 31
0
  0
SOLID
  8
1
 62
2
 10
37.74852660435299
 20
122.9999999999997
 30
0
 11
37.29352660435299
 21
126.4999999999997
 31
0
 12
38.20352660435299
 22
126.4999999999997
 32
0
 13
38.20352660435299
 23
126.4999999999997
 33
0
  0
SOLID
  8
1
 62
2
 10
37.74852660435299
 20
182.9999999999997
 30
0
 11
38.20352660435299
 21
179.4999999999997
 31
0
 12
37.29352660435299
 22
179.4999999999997
 32
0
 13
37.29352660435299
 23
179.4999999999997
 33
0
  0
TEXT
  8
1
 62
2
 10
35.74852660435299
 20
150.3749999999997
 30
0
 40
3.5
  1
60
 50
90
 41
0.9
  0
ENDBLK
  8
0
  0
BLOCK
  8
1
  2
*D15
 70
1
 10
0
 20
0
 30
0
  0
LINE
  8
1
 62
2
 10
47.76921987360194
 20
127.9999999999997
 30
0
 11
47.76921987360194
 21
177.9999999999997
 31
0
  0
LINE
  8
1
 62
2
 10
77.06921987360194
 20
177.9999999999997
 30
0
 11
45.76921987360194
 21
177.9999999999997
 31
0
  0
LINE
  8
1
 62
2
 10
77.06921987360194
 20
127.9999999999997
 30
0
 11
45.76921987360194
 21
127.9999999999997
 31
0
  0
SOLID
  8
1
 62
2
 10
47.76921987360194
 20
127.9999999999997
 30
0
 11
47.31421987360194
 21
131.4999999999997
 31
0
 12
48.22421987360194
 22
131.4999999999997
 32
0
 13
48.22421987360194
 23
131.4999999999997
 33
0
  0
SOLID
  8
1
 62
2
 10
47.76921987360194
 20
177.9999999999997
 30
0
 11
48.22421987360194
 21
174.4999999999997
 31
0
 12
47.31421987360194
 22
174.4999999999997
 32
0
 13
47.31421987360194
 23
174.4999999999997
 33
0
  0
TEXT
  8
1
 62
2
 10
45.76921987360194
 20
144.1599264705879
 30
0
 40
3.5
  1
50
 50
90
 41
0.9
  0
TEXT
  8
1
 62
2
 10
45.76921987360194
 20
151.1599264705879
 30
0
 40
3.5
  1
ü}0.2
 50
90
 41
0.9
  0
ENDBLK
  8
0
  0
BLOCK
  8
1
  2
*D16
 70
1
 10
0
 20
0
 30
0
  0
LINE
  8
1
 62
2
 10
77.76921987360194
 20
197.9999999999997
 30
0
 11
127.7692198736019
 21
197.9999999999997
 31
0
  0
LINE
  8
1
 62
2
 10
127.7692198736019
 20
178.6999999999997
 30
0
 11
127.7692198736019
 21
199.9999999999997
 31
0
  0
LINE
  8
1
 62
2
 10
77.76921987360194
 20
178.6999999999997
 30
0
 11
77.76921987360194
 21
199.9999999999997
 31
0
  0
SOLID
  8
1
 62
2
 10
77.76921987360194
 20
197.9999999999997
 30
0
 11
81.26921987360194
 21
198.4549999999997
 31
0
 12
81.26921987360194
 22
197.5449999999997
 32
0
 13
81.26921987360194
 23
197.5449999999997
 33
0
  0
SOLID
  8
1
 62
2
 10
127.7692198736019
 20
197.9999999999997
 30
0
 11
124.2692198736019
 21
197.5449999999997
 31
0
 12
124.2692198736019
 22
198.4549999999997
 32
0
 13
124.2692198736019
 23
198.4549999999997
 33
0
  0
TEXT
  8
1
 62
2
 10
93.92914634419013
 20
199.9999999999997
 30
0
 40
3.5
  1
50
 41
0.9
  0
TEXT
  8
1
 62
2
 10
100.9291463441901
 20
199.9999999999997
 30
0
 40
3.5
  1
ü}0.2
 41
0.9
  0
ENDBLK
  8
0
  0
BLOCK
  8
1
  2
*D17
 70
1
 10
0
 20
0
 30
0
  0
LINE
  8
1
 62
2
 10
286.2000000000001
 20
123.3999999999997
 30
0
 11
286.2000000000001
 21
182.5999999999997
 31
0
  0
LINE
  8
1
 62
2
 10
270.7000000000001
 20
123.3999999999997
 30
0
 11
287.2000000000001
 21
123.3999999999997
 31
0
  0
LINE
  8
1
 62
2
 10
270.7
 20
182.5999999999997
 30
0
 11
287.2000000000001
 21
182.5999999999997
 31
0
  0
SOLID
  8
1
 62
2
 10
286.2000000000001
 20
182.5999999999997
 30
0
 11
286.616
 21
179.3999999999997
 31
0
 12
285.7840000000001
 22
179.3999999999997
 32
0
 13
285.7840000000001
 23
179.3999999999997
 33
0
  0
SOLID
  8
1
 62
2
 10
286.2000000000001
 20
123.3999999999997
 30
0
 11
285.7840000000001
 21
126.5999999999997
 31
0
 12
286.616
 22
126.5999999999997
 32
0
 13
286.616
 23
126.5999999999997
 33
0
  0
TEXT
  8
1
 62
2
 10
285.2000000000001
 20
148.3788235294115
 30
0
 40
3.200000000000001
  1
60
 50
90
 41
0.9
  0
TEXT
  8
1
 62
2
 10
285.2000000000001
 20
144.5388235294115
 30
0
 40
3.200000000000001
  1
%%c
 50
90
 41
0.9
  0
TEXT
  8
1
 62
2
 10
285.2000000000001
 20
154.7788235294115
 30
0
 40
3.200000000000001
  1
ê╚ë║
 50
90
 41
0.9
  0
ENDBLK
  8
0
  0
BLOCK
  8
1
  2
*D18
 70
1
 10
0
 20
0
 30
0
  0
LINE
  8
1
 62
2
 10
72.7692198736019
 20
207.9999999999997
 30
0
 11
132.7692198736019
 21
207.9999999999997
 31
0
  0
LINE
  8
1
 62
2
 10
72.7692198736019
 20
178.9999999999997
 30
0
 11
72.7692198736019
 21
208.9999999999997
 31
0
  0
LINE
  8
1
 62
2
 10
132.7692198736019
 20
178.9999999999997
 30
0
 11
132.7692198736019
 21
208.9999999999997
 31
0
  0
SOLID
  8
1
 62
2
 10
72.7692198736019
 20
207.9999999999997
 30
0
 11
75.9692198736019
 21
208.4159999999997
 31
0
 12
75.9692198736019
 22
207.5839999999997
 32
0
 13
75.9692198736019
 23
207.5839999999997
 33
0
  0
SOLID
  8
1
 62
2
 10
132.7692198736019
 20
207.9999999999997
 30
0
 11
129.5692198736019
 21
207.5839999999997
 31
0
 12
129.5692198736019
 22
208.4159999999997
 32
0
 13
129.5692198736019
 23
208.4159999999997
 33
0
  0
TEXT
  8
1
 62
2
 10
100.3692198736019
 20
208.9999999999997
 30
0
 40
3.200000000000001
  1
60
 41
0.9
  0
ENDBLK
  8
0
  0
BLOCK
  8
1
  2
*D19
 70
1
 10
0
 20
0
 30
0
  0
LINE
  8
1
 62
2
 10
66.30320535391596
 20
202.9939582561329
 30
0
 11
30.58085241273947
 21
202.9939582561329
 31
0
  0
LINE
  8
1
 62
2
 10
76.81019176258269
 20
180.0905178980993
 30
0
 11
66.30320535391596
 21
202.9939582561329
 31
0
  0
SOLID
  8
1
 62
2
 10
76.81019176258269
 20
180.0905178980993
 30
0
 11
75.09778071872572
 21
182.8256055414623
 31
0
 12
75.85400284534262
 22
183.1725235364049
 32
0
 13
75.85400284534262
 23
183.1725235364049
 33
0
  0
TEXT
  8
1
 62
2
 10
39.86085241273947
 20
203.9939582561329
 30
0
 40
3.200000000000001
  1
4.6
 41
0.9
  0
TEXT
  8
1
 62
2
 10
30.58085241273947
 20
203.9939582561329
 30
0
 40
3.200000000000001
  1
4-%%c
 41
0.9
  0
TEXT
  8
1
 62
2
 10
47.46085241273947
 20
203.9939582561329
 30
0
 40
3.200000000000001
  1
ü}0.2îè
 41
0.9
  0
ENDBLK
  8
0
  0
ENDSEC
  0
SECTION
  2
ENTITIES
  0
LINE
  8
1
 62
2
 10
186.3999999999999
 20
162.9999999999997
 30
0
 11
216.9999999999999
 21
162.9999999999997
 31
0
  0
LINE
  8
1
 62
7
 10
186.3999999999999
 20
159.4999999999997
 30
0
 11
186.3999999999999
 21
165.9999999999997
 31
0
  0
LINE
  8
1
 62
7
 10
97.76921987360193
 20
123.825353472578
 30
0
 11
97.76921987360193
 21
121.4999999999997
 31
0
  0
LINE
  8
1
 62
7
 10
98.26921987360193
 20
120.9999999999997
 30
0
 11
100.7692198736019
 21
120.9999999999997
 31
0
  0
LINE
  8
1
 62
7
 10
100.7692198736019
 20
120.9999999999997
 30
0
 11
100.7692198736019
 21
105.8293473443665
 31
0
  0
LINE
  8
1
 62
7
 10
100.7692198736019
 20
120.9999999999997
 30
0
 11
102.7692198736019
 21
120.9999999999997
 31
0
  0
LINE
  8
1
 62
7
 10
102.7692198736019
 20
120.9999999999997
 30
0
 11
104.7692198736019
 21
120.9999999999997
 31
0
  0
LINE
  8
1
 62
7
 10
104.7692198736019
 20
120.9999999999997
 30
0
 11
104.7692198736019
 21
104.8334937748671
 31
0
  0
LINE
  8
1
 62
7
 10
104.7692198736019
 20
120.9999999999997
 30
0
 11
107.2692198736019
 21
120.9999999999997
 31
0
  0
LINE
  8
1
 62
7
 10
107.7692198736019
 20
121.4999999999997
 30
0
 11
107.7692198736019
 21
123.825353472578
 31
0
  0
LINE
  8
1
 62
7
 10
102.7692198736019
 20
120.9999999999997
 30
0
 11
102.7692198736019
 21
105.7113203563803
 31
0
  0
LINE
  8
1
 62
2
 10
102.7692198736019
 20
120.9999999999997
 30
0
 11
102.7692198736019
 21
105.7113203563803
 31
0
  0
LINE
  8
1
 62
7
 10
100.7692198736019
 20
99.32523590536461
 30
0
 11
100.7692198736019
 21
44.75940077534118
 31
0
  0
LINE
  8
1
 62
7
 10
102.7692198736019
 20
99.20720891791579
 30
0
 11
102.7692198736019
 21
44.75940077534119
 31
0
  0
LINE
  8
1
 62
7
 10
104.7692198736019
 20
44.75940077534119
 30
0
 11
104.7692198736019
 21
98.32938233640259
 31
0
  0
LINE
  8
1
 62
7
 10
100.7692198736019
 20
44.75940077534118
 30
0
 11
101.2692198736019
 21
44.75940077534119
 31
0
  0
LINE
  8
1
 62
7
 10
102.7692198736019
 20
44.75940077534119
 30
0
 11
103.2692198736019
 21
44.75940077534119
 31
0
  0
LINE
  8
1
 62
7
 10
104.2692198736019
 20
44.75940077534119
 30
0
 11
104.2692198736019
 21
34.75940077534119
 31
0
  0
LINE
  8
1
 62
7
 10
104.2692198736019
 20
44.75940077534119
 30
0
 11
104.7692198736019
 21
44.75940077534119
 31
0
  0
LINE
  8
1
 62
7
 10
104.2692198736019
 20
34.75940077534119
 30
0
 11
103.2692198736019
 21
34.75940077534119
 31
0
  0
LINE
  8
1
 62
7
 10
103.2692198736019
 20
34.75940077534119
 30
0
 11
103.2692198736019
 21
44.75940077534119
 31
0
  0
LINE
  8
1
 62
7
 10
103.2692198736019
 20
44.75940077534119
 30
0
 11
104.2692198736019
 21
44.75940077534119
 31
0
  0
LINE
  8
1
 62
7
 10
102.2692198736019
 20
44.75940077534119
 30
0
 11
102.2692198736019
 21
34.75940077534119
 31
0
  0
LINE
  8
1
 62
7
 10
102.2692198736019
 20
44.75940077534119
 30
0
 11
102.7692198736019
 21
44.75940077534119
 31
0
  0
LINE
  8
1
 62
7
 10
102.2692198736019
 20
34.75940077534119
 30
0
 11
101.2692198736019
 21
34.75940077534119
 31
0
  0
LINE
  8
1
 62
7
 10
101.2692198736019
 20
34.75940077534119
 30
0
 11
101.2692198736019
 21
44.75940077534119
 31
0
  0
LINE
  8
1
 62
7
 10
101.2692198736019
 20
44.75940077534119
 30
0
 11
102.2692198736019
 21
44.75940077534119
 31
0
  0
LINE
  8
1
 62
2
 10
182.3999999999999
 20
162.9999999999997
 30
0
 11
186.3999999999999
 21
162.9999999999997
 31
0
  0
LINE
  8
1
 62
2
 10
119.2575495750465
 20
134.2616702985551
 30
0
 11
123.7575495750465
 21
134.2616702985551
 31
0
  0
LINE
  8
1
 62
2
 10
121.5075495750465
 20
136.5116702985551
 30
0
 11
121.5075495750465
 21
132.0116702985551
 31
0
  0
LINE
  8
1
 62
2
 10
119.2575495750449
 20
171.7383297014427
 30
0
 11
123.7575495750449
 21
171.7383297014427
 31
0
  0
LINE
  8
1
 62
2
 10
121.5075495750449
 20
173.9883297014427
 30
0
 11
121.5075495750449
 21
169.4883297014427
 31
0
  0
LINE
  8
1
 62
2
 10
110.945154511325
 20
178.2066715154242
 30
0
 11
113.945154511325
 21
178.2066715154242
 31
0
  0
LINE
  8
1
 62
2
 10
112.445154511325
 20
179.7066715154242
 30
0
 11
112.445154511325
 21
176.7066715154242
 31
0
  0
LINE
  8
1
 62
2
 10
91.59328523587884
 20
178.2066715154242
 30
0
 11
94.59328523587884
 21
178.2066715154242
 31
0
  0
LINE
  8
1
 62
2
 10
93.09328523587884
 20
179.7066715154242
 30
0
 11
93.09328523587884
 21
176.7066715154242
 31
0
  0
LINE
  8
1
 62
2
 10
81.78089017215892
 20
171.7383297014427
 30
0
 11
86.28089017215892
 21
171.7383297014427
 31
0
  0
LINE
  8
1
 62
2
 10
84.03089017215892
 20
173.9883297014427
 30
0
 11
84.03089017215892
 21
169.4883297014427
 31
0
  0
LINE
  8
1
 62
2
 10
81.78089017215733
 20
134.2616702985551
 30
0
 11
86.28089017215733
 21
134.2616702985551
 31
0
  0
LINE
  8
1
 62
2
 10
84.03089017215733
 20
136.5116702985551
 30
0
 11
84.03089017215733
 21
132.0116702985551
 31
0
  0
LINE
  8
1
 62
2
 10
207.3999999999999
 20
152.9999999999997
 30
0
 11
275.1999999999999
 21
152.9999999999997
 31
0
  0
LINE
  8
1
 62
2
 10
68.76921987360194
 20
152.9999999999997
 30
0
 11
102.7692198736019
 21
152.9999999999997
 31
0
  0
LINE
  8
1
 62
7
 10
102.7692198736019
 20
165.9999999999997
 30
0
 11
105.4149711846665
 21
165.9999999999997
 31
0
  0
LINE
  8
1
 62
7
 10
100.1234685625373
 20
165.9999999999997
 30
0
 11
102.7692198736019
 21
165.9999999999997
 31
0
  0
LINE
  8
1
 62
7
 10
204.3999999999999
 20
158.9999999999997
 30
0
 11
186.8999999999999
 21
158.9999999999997
 31
0
  0
LINE
  8
1
 62
7
 10
186.3999999999999
 20
165.9999999999997
 30
0
 11
186.8999999999999
 21
165.9999999999997
 31
0
  0
LINE
  8
1
 62
7
 10
198.3999999999999
 20
165.9999999999997
 30
0
 11
198.3999999999999
 21
166.9999999999997
 31
0
  0
LINE
  8
1
 62
7
 10
198.3999999999999
 20
166.9999999999997
 30
0
 11
204.3999999999999
 21
166.9999999999997
 31
0
  0
LINE
  8
1
 62
7
 10
186.8999999999999
 20
158.9999999999997
 30
0
 11
186.3999999999999
 21
159.4999999999997
 31
0
  0
LINE
  8
1
 62
7
 10
186.8999999999999
 20
158.9999999999997
 30
0
 11
186.8999999999999
 21
165.9999999999997
 31
0
  0
LINE
  8
1
 62
7
 10
186.8999999999999
 20
165.9999999999997
 30
0
 11
198.3999999999999
 21
165.9999999999997
 31
0
  0
LINE
  8
1
 62
7
 10
259.1999999999999
 20
182.5999999999997
 30
0
 11
223.1999999999999
 21
182.5999999999997
 31
0
  0
LINE
  8
1
 62
7
 10
244.8999999999999
 20
104.7848228767862
 30
0
 11
244.8999999999999
 21
120.8999999999997
 31
0
  0
LINE
  8
1
 62
7
 10
255.6999999999999
 20
120.8999999999997
 30
0
 11
255.6999999999999
 21
104.5800060096763
 31
0
  0
LINE
  8
1
 62
2
 10
75.46921987360194
 20
127.9999999999997
 30
0
 11
75.12715649319993
 21
127.9999999999997
 31
0
  0
LINE
  8
1
 62
2
 10
75.46921987360194
 20
177.9999999999997
 30
0
 11
81.06921947080043
 21
177.9999999999997
 31
0
  0
LINE
  8
1
 62
2
 10
125.4692198736018
 20
177.9999999999997
 30
0
 11
131.0376007602814
 21
177.9999999999997
 31
0
  0
LINE
  8
1
 62
2
 10
125.4692198736018
 20
127.9999999999997
 30
0
 11
124.4692599712304
 21
127.9999999999997
 31
0
  0
LINE
  8
1
 62
7
 10
259.1999999999999
 20
182.5999999999997
 30
0
 11
269.6999999999999
 21
182.5999999999997
 31
0
  0
LINE
  8
1
 62
7
 10
259.1999999999999
 20
174.4823927072905
 30
0
 11
259.1999999999999
 21
182.5999999999997
 31
0
  0
LINE
  8
1
 62
7
 10
224.6999999999999
 20
172.9823927072905
 30
0
 11
257.6999999999999
 21
172.9823927072905
 31
0
  0
LINE
  8
1
 62
7
 10
223.1999999999999
 20
182.5999999999997
 30
0
 11
223.1999999999999
 21
174.4823927072905
 31
0
  0
LINE
  8
1
 62
2
 10
102.7692198736019
 20
152.9999999999997
 30
0
 11
136.7692198736019
 21
152.9999999999997
 31
0
  0
LINE
  8
1
 62
2
 10
102.7692198736019
 20
186.9999999999997
 30
0
 11
102.7692198736019
 21
166.9999999999997
 31
0
  0
LINE
  8
1
 62
7
 10
206.3999999999999
 20
168.9999999999997
 30
0
 11
208.3999999999999
 21
168.9999999999997
 31
0
  0
LINE
  8
1
 62
7
 10
208.3999999999999
 20
156.9999999999997
 30
0
 11
208.3999999999999
 21
155.9999999999997
 31
0
  0
LINE
  8
1
 62
7
 10
206.3999999999999
 20
156.9999999999997
 30
0
 11
208.3999999999999
 21
156.9999999999997
 31
0
  0
LINE
  8
1
 62
7
 10
208.3999999999999
 20
155.9999999999997
 30
0
 11
211.3999999999999
 21
155.9999999999997
 31
0
  0
LINE
  8
1
 62
7
 10
208.3999999999999
 20
169.9999999999997
 30
0
 11
211.3999999999999
 21
169.9999999999997
 31
0
  0
LINE
  8
1
 62
7
 10
258.6999999999999
 20
120.8999999999997
 30
0
 11
257.6999999999999
 21
120.8999999999997
 31
0
  0
LINE
  8
1
 62
7
 10
258.6999999999999
 20
120.8999999999997
 30
0
 11
258.6999999999999
 21
103.854263911574
 31
0
  0
LINE
  8
1
 62
7
 10
257.6999999999999
 20
120.8999999999997
 30
0
 11
255.6999999999999
 21
120.8999999999997
 31
0
  0
LINE
  8
1
 62
7
 10
257.6999999999999
 20
120.8999999999997
 30
0
 11
257.6999999999999
 21
104.1292924583008
 31
0
  0
LINE
  8
1
 62
7
 10
255.6999999999999
 20
120.8999999999997
 30
0
 11
253.4
 21
120.8999999999997
 31
0
  0
LINE
  8
1
 62
7
 10
247.8999999999999
 20
120.8999999999997
 30
0
 11
245.8999999999999
 21
120.8999999999997
 31
0
  0
LINE
  8
1
 62
7
 10
247.8999999999999
 20
120.8999999999997
 30
0
 11
247.8999999999999
 21
104.1834797209847
 31
0
  0
LINE
  8
1
 62
7
 10
245.8999999999999
 20
120.8999999999997
 30
0
 11
244.8999999999999
 21
120.8999999999997
 31
0
  0
LINE
  8
1
 62
7
 10
245.8999999999999
 20
120.8999999999997
 30
0
 11
245.8999999999999
 21
104.9477429350737
 31
0
  0
LINE
  8
1
 62
7
 10
244.8999999999999
 20
120.8999999999997
 30
0
 11
243.6999999999999
 21
120.8999999999997
 31
0
  0
LINE
  8
1
 62
7
 10
250.1999999999999
 20
120.8999999999997
 30
0
 11
247.8999999999999
 21
120.8999999999997
 31
0
  0
LINE
  8
1
 62
2
 10
102.7692198736019
 20
162.9999999999997
 30
0
 11
113.4692198736019
 21
162.9999999999997
 31
0
  0
LINE
  8
1
 62
2
 10
124.4713507801306
 20
177.9999999999997
 30
0
 11
125.4692198736018
 21
177.9999999999997
 31
0
  0
LINE
  8
1
 62
2
 10
127.7692198736018
 20
174.7006072660424
 30
0
 11
127.7692198736018
 21
180.7690133331411
 31
0
  0
LINE
  8
1
 62
2
 10
127.7692198736018
 20
174.7006072660424
 30
0
 11
127.7692198736018
 21
180.7690133331411
 31
0
  0
LINE
  8
1
 62
2
 10
127.7692198736018
 20
124.700495618301
 30
0
 11
127.7692198736018
 21
131.2994886735763
 31
0
  0
LINE
  8
1
 62
2
 10
131.0690418003259
 20
127.9999999999997
 30
0
 11
125.4692198736018
 21
127.9999999999997
 31
0
  0
LINE
  8
1
 62
2
 10
81.06831521147812
 20
127.9999999999997
 30
0
 11
75.46921987360194
 21
127.9999999999997
 31
0
  0
LINE
  8
1
 62
2
 10
77.76921987360194
 20
131.2994886735763
 30
0
 11
77.76921987360194
 21
124.700623795995
 31
0
  0
LINE
  8
1
 62
2
 10
75.12715649319993
 20
177.9999999999997
 30
0
 11
75.46921987360194
 21
177.9999999999997
 31
0
  0
LINE
  8
1
 62
2
 10
77.76921987360194
 20
180.7690133331411
 30
0
 11
77.76921987360194
 21
174.6852547296869
 31
0
  0
LINE
  8
1
 62
7
 10
204.3999999999999
 20
157.3526539614166
 30
0
 11
206.3999999999999
 21
156.9999999999997
 31
0
  0
LINE
  8
1
 62
7
 10
206.3999999999999
 20
168.9999999999997
 30
0
 11
206.3999999999999
 21
156.9999999999997
 31
0
  0
LINE
  8
1
 62
7
 10
204.3999999999999
 20
168.6473460385828
 30
0
 11
204.3999999999999
 21
157.3526539614166
 31
0
  0
LINE
  8
1
 62
7
 10
206.3999999999999
 20
168.9999999999997
 30
0
 11
204.3999999999999
 21
168.6473460385828
 31
0
  0
LINE
  8
1
 62
7
 10
208.3999999999999
 20
168.9999999999997
 30
0
 11
208.3999999999999
 21
156.9999999999997
 31
0
  0
LINE
  8
1
 62
7
 10
211.3999999999999
 20
182.9999999999997
 30
0
 11
211.3999999999999
 21
169.9999999999997
 31
0
  0
LINE
  8
1
 62
7
 10
211.3999999999999
 20
182.9999999999997
 30
0
 11
212.9999999999999
 21
182.9999999999997
 31
0
  0
LINE
  8
1
 62
7
 10
212.9999999999999
 20
182.9999999999997
 30
0
 11
212.9999999999999
 21
182.8499999999997
 31
0
  0
LINE
  8
1
 62
7
 10
213.2499999999999
 20
182.5999999999997
 30
0
 11
223.1999999999999
 21
182.5999999999997
 31
0
  0
LINE
  8
1
 62
7
 10
271.1999999999999
 20
181.0999999999997
 30
0
 11
271.1999999999999
 21
124.8999999999997
 31
0
  0
LINE
  8
1
 62
7
 10
269.6999999999999
 20
123.3999999999997
 30
0
 11
260.6999999999999
 21
123.3999999999997
 31
0
  0
LINE
  8
1
 62
7
 10
114.3692198736019
 20
127.5158873020853
 30
0
 11
114.3692198736019
 21
125.8763940450386
 31
0
  0
LINE
  8
1
 62
7
 10
91.16921987360193
 20
127.5158873020853
 30
0
 11
91.16921987360193
 21
125.8763940450386
 31
0
  0
LINE
  8
1
 62
7
 10
114.3692198736019
 20
125.7676662770152
 30
0
 11
117.6675961023369
 21
122.9999999999997
 31
0
  0
LINE
  8
1
 62
7
 10
91.16921987360193
 20
125.7676662770152
 30
0
 11
87.87084364486692
 21
122.9999999999997
 31
0
  0
LINE
  8
1
 62
7
 10
117.6675961023369
 20
122.9999999999997
 30
0
 11
127.7692198736019
 21
122.9999999999997
 31
0
  0
LINE
  8
1
 62
7
 10
132.7692198736019
 20
127.9999999999997
 30
0
 11
132.7692198736019
 21
177.9999999999997
 31
0
  0
LINE
  8
1
 62
7
 10
127.7692198736019
 20
182.9999999999997
 30
0
 11
77.76921987360194
 21
182.9999999999997
 31
0
  0
LINE
  8
1
 62
7
 10
72.76921987360194
 20
177.9999999999997
 30
0
 11
72.76921987360194
 21
127.9999999999997
 31
0
  0
LINE
  8
1
 62
7
 10
77.76921987360194
 20
122.9999999999997
 30
0
 11
87.87084364486692
 21
122.9999999999997
 31
0
  0
LINE
  8
1
 62
7
 10
260.4999999999999
 20
123.8500453720879
 30
0
 11
212.9999999999999
 21
123.8500453720879
 31
0
  0
LINE
  8
1
 62
7
 10
260.6999999999999
 20
123.6500453720879
 30
0
 11
260.6999999999999
 21
123.3999999999997
 31
0
  0
LINE
  8
1
 62
7
 10
211.3999999999999
 20
122.9999999999997
 30
0
 11
211.3999999999999
 21
155.9999999999997
 31
0
  0
LINE
  8
1
 62
7
 10
212.9999999999999
 20
122.9999999999997
 30
0
 11
212.9999999999999
 21
182.9999999999997
 31
0
  0
LINE
  8
1
 62
7
 10
211.3999999999999
 20
122.9999999999997
 30
0
 11
212.9999999999999
 21
122.9999999999997
 31
0
  0
LINE
  8
1
 62
7
 10
260.3999999999999
 20
123.8500453720879
 30
0
 11
260.3999999999999
 21
121.3999999999997
 31
0
  0
LINE
  8
1
 62
7
 10
259.8999999999999
 20
120.8999999999997
 30
0
 11
258.6999999999999
 21
120.8999999999997
 31
0
  0
LINE
  8
1
 62
7
 10
253.4
 20
120.8999999999997
 30
0
 11
253.3999999999999
 21
123.3999999999997
 31
0
  0
LINE
  8
1
 62
7
 10
253.3999999999999
 20
123.3999999999997
 30
0
 11
255.6999999999999
 21
123.3999999999997
 31
0
  0
LINE
  8
1
 62
7
 10
255.8999999999999
 20
123.3999999999997
 30
0
 11
255.8999999999999
 21
123.8500453720879
 31
0
  0
LINE
  8
1
 62
7
 10
253.4
 20
123.8500453720879
 30
0
 11
253.3999999999999
 21
123.3999999999997
 31
0
  0
LINE
  8
1
 62
7
 10
255.6999999999999
 20
123.8500453720879
 30
0
 11
255.6999999999999
 21
123.3999999999997
 31
0
  0
LINE
  8
1
 62
7
 10
255.6999999999999
 20
123.3999999999997
 30
0
 11
255.8999999999999
 21
123.3999999999997
 31
0
  0
LINE
  8
1
 62
7
 10
243.1999999999999
 20
121.3999999999997
 30
0
 11
243.1999999999999
 21
123.8500453720879
 31
0
  0
LINE
  8
1
 62
7
 10
250.1999999999999
 20
123.3999999999997
 30
0
 11
250.1999999999999
 21
120.8999999999997
 31
0
  0
LINE
  8
1
 62
7
 10
247.8999999999999
 20
123.3999999999997
 30
0
 11
250.1999999999999
 21
123.3999999999997
 31
0
  0
LINE
  8
1
 62
7
 10
247.6999999999999
 20
123.8500453720879
 30
0
 11
247.6999999999999
 21
123.3999999999997
 31
0
  0
LINE
  8
1
 62
7
 10
250.1999999999999
 20
123.3999999999997
 30
0
 11
250.1999999999999
 21
123.8500453720879
 31
0
  0
LINE
  8
1
 62
7
 10
247.8999999999999
 20
123.3999999999997
 30
0
 11
247.8999999999999
 21
123.8500453720879
 31
0
  0
LINE
  8
1
 62
7
 10
247.6999999999999
 20
123.3999999999997
 30
0
 11
247.8999999999999
 21
123.3999999999997
 31
0
  0
LINE
  8
1
 62
7
 10
211.3999999999999
 20
169.9999999999997
 30
0
 11
211.3999999999999
 21
155.9999999999997
 31
0
  0
LINE
  8
1
 62
7
 10
208.3999999999999
 20
169.9999999999997
 30
0
 11
208.3999999999999
 21
168.9999999999997
 31
0
  0
LINE
  8
1
 62
2
 10
90.50613102692692
 20
162.9999999999997
 30
0
 11
102.7692198736019
 21
162.9999999999997
 31
0
  0
LINE
  8
1
 62
7
 10
108.7692198736019
 20
152.2999999999997
 30
0
 11
96.76921987360193
 21
152.2999999999997
 31
0
  0
LINE
  8
1
 62
7
 10
113.4692198736019
 20
156.9999999999997
 30
0
 11
113.4692198736019
 21
162.9999999999997
 31
0
  0
LINE
  8
1
 62
2
 10
113.4692198736019
 20
162.9999999999997
 30
0
 11
114.8976618501629
 21
162.9999999999997
 31
0
  0
LINE
  8
1
 62
7
 10
92.06921987360194
 20
162.9999999999997
 30
0
 11
92.06921987360194
 21
156.9999999999997
 31
0
  0
LINE
  8
1
 62
7
 10
91.26921987360194
 20
123.7999999999997
 30
0
 11
94.26921987360193
 21
123.7999999999997
 31
0
  0
LINE
  8
1
 62
7
 10
94.26921987360193
 20
123.7999999999997
 30
0
 11
94.26921987360193
 21
124.7511062163486
 31
0
  0
LINE
  8
1
 62
7
 10
111.2692198736019
 20
123.7999999999997
 30
0
 11
114.2692198736019
 21
123.7999999999997
 31
0
  0
LINE
  8
1
 62
7
 10
114.2692198736019
 20
123.7999999999997
 30
0
 11
114.2692198736019
 21
125.8338445855875
 31
0
  0
LINE
  8
1
 62
7
 10
91.26921987360194
 20
125.8338445855875
 30
0
 11
91.26921987360194
 21
123.7999999999997
 31
0
  0
LINE
  8
1
 62
7
 10
94.26921987360193
 20
124.7511062163486
 30
0
 11
94.26921987360193
 21
124.6466933145353
 31
0
  0
LINE
  8
1
 62
7
 10
95.26921987360193
 20
124.4693147646255
 30
0
 11
95.26921987360193
 21
124.3659293847343
 31
0
  0
LINE
  8
1
 62
7
 10
97.76921987360193
 20
123.9268164797864
 30
0
 11
97.76921987360193
 21
123.825353472578
 31
0
  0
LINE
  8
1
 62
7
 10
111.2692198736019
 20
124.7511062163486
 30
0
 11
111.2692198736019
 21
123.7999999999997
 31
0
  0
LINE
  8
1
 62
7
 10
110.2692198736019
 20
124.4693147646255
 30
0
 11
110.2692198736019
 21
124.3659293847343
 31
0
  0
LINE
  8
1
 62
7
 10
107.7692198736019
 20
123.9268164797864
 30
0
 11
107.7692198736019
 21
123.825353472578
 31
0
  0
LINE
  8
1
 62
7
 10
95.52228661073134
 20
180.0459231360936
 30
0
 11
96.10395192868303
 21
177.8751186164971
 31
0
  0
LINE
  8
1
 62
7
 10
91.16921987360193
 20
125.8763940450386
 30
0
 11
91.16921987360193
 21
125.7676662770152
 31
0
  0
LINE
  8
1
 62
7
 10
114.3692198736019
 20
125.8763940450386
 30
0
 11
114.3692198736019
 21
125.7676662770152
 31
0
  0
LINE
  8
1
 62
7
 10
109.4344878185208
 20
177.8751186164971
 30
0
 11
110.0161531364725
 21
180.0459231360936
 31
0
  0
LINE
  8
1
 62
2
 10
102.7692198736019
 20
166.9999999999997
 30
0
 11
102.7692198736019
 21
107.6809998119031
 31
0
  0
ARC
  8
1
 62
7
 10
102.7692198736019
 20
162.9999999999997
 30
0
 40
4
 50
90
 51
131.409622109271
  0
ARC
  8
1
 62
7
 10
102.7692198736019
 20
162.9999999999997
 30
0
 40
4.000000000000006
 50
48.59037789072904
 51
90
  0
ARC
  8
1
 62
7
 10
102.7692198736019
 20
162.9999999999997
 30
0
 40
4.000000000000006
 50
131.409622109271
 51
48.59037789072904
  0
ARC
  8
1
 62
7
 10
102.7692198736019
 20
152.9999999999997
 30
0
 40
29.60000000000007
 50
255.3224823197741
 51
260.2750313250075
  0
ARC
  8
1
 62
7
 10
102.7692198736019
 20
152.9999999999997
 30
0
 40
29.60000000000002
 50
292.8620374455375
 51
293.0722697662447
  0
ARC
  8
1
 62
7
 10
102.7692198736019
 20
152.9999999999997
 30
0
 40
29.59999999999997
 50
279.7249686749926
 51
284.677517680226
  0
ARC
  8
1
 62
7
 10
102.7692198736019
 20
152.9999999999997
 30
0
 40
29.59999999999999
 50
253.3118651477028
 51
255.3224823197741
  0
ARC
  8
1
 62
7
 10
102.7692198736019
 20
162.9999999999997
 30
0
 40
10.7
 50
0
 51
180
  0
ARC
  8
1
 62
7
 10
102.7692198736019
 20
152.9999999999997
 30
0
 40
29.59999999999996
 50
246.9277302337554
 51
247.1379625544627
  0
ARC
  8
1
 62
7
 10
102.7692198736019
 20
152.9999999999997
 30
0
 40
29.60000000000008
 50
284.677517680226
 51
286.6881348522973
  0
ARC
  8
1
 62
7
 10
102.7692198736019
 20
152.9999999999997
 30
0
 40
27.99999999999998
 50
105
 51
245.5256574371528
  0
ARC
  8
1
 62
7
 10
102.7692198736019
 20
152.9999999999997
 30
0
 40
28.00000000000003
 50
294.4743425628472
 51
105
  0
ARC
  8
1
 62
7
 10
102.7692198736019
 20
153.9999999999997
 30
0
 40
22.00000000000004
 50
112.489977539959
 51
67.51002246004119
  0
ARC
  8
1
 62
7
 10
102.7692198736019
 20
152.9999999999997
 30
0
 40
29.5
 50
246.8449727040704
 51
293.1550272959297
  0
CIRCLE
  8
1
 62
7
 10
121.5075495750465
 20
134.2616702985551
 30
0
 40
1.5
  0
CIRCLE
  8
1
 62
7
 10
127.7692198736019
 20
127.9999999999997
 30
0
 40
2.300000000000097
  0
CIRCLE
  8
1
 62
7
 10
77.76921987360194
 20
127.9999999999997
 30
0
 40
2.299999999999997
  0
CIRCLE
  8
1
 62
7
 10
77.76921987360194
 20
177.9999999999997
 30
0
 40
2.299999999999997
  0
CIRCLE
  8
1
 62
7
 10
127.7692198736019
 20
177.9999999999997
 30
0
 40
2.300000000000097
  0
CIRCLE
  8
1
 62
7
 10
102.7692198736019
 20
162.9999999999997
 30
0
 40
6
  0
CIRCLE
  8
1
 62
7
 10
102.7692198736019
 20
162.9999999999997
 30
0
 40
7
  0
CIRCLE
  8
1
 62
7
 10
84.03089017215892
 20
171.7383297014427
 30
0
 40
1
  0
CIRCLE
  8
1
 62
7
 10
84.03089017215892
 20
171.7383297014427
 30
0
 40
1.5
  0
CIRCLE
  8
1
 62
7
 10
84.03089017215733
 20
134.2616702985551
 30
0
 40
1
  0
CIRCLE
  8
1
 62
7
 10
84.03089017215733
 20
134.2616702985551
 30
0
 40
1.5
  0
CIRCLE
  8
1
 62
7
 10
93.09328523587884
 20
178.2066715154242
 30
0
 40
1
  0
CIRCLE
  8
1
 62
7
 10
112.445154511325
 20
178.2066715154242
 30
0
 40
1
  0
CIRCLE
  8
1
 62
7
 10
121.5075495750449
 20
171.7383297014427
 30
0
 40
1.5
  0
CIRCLE
  8
1
 62
7
 10
121.5075495750449
 20
171.7383297014427
 30
0
 40
1
  0
CIRCLE
  8
1
 62
7
 10
121.5075495750465
 20
134.2616702985551
 30
0
 40
1
  0
POLYLINE
  8
1
 62
2
 66
1
  0
VERTEX
  8
1
 10
98.99188145284195
 20
105.3455592807498
 30
0
 42
-0.005911444640395298
  0
VERTEX
  8
1
 10
99.76712607549251
 20
105.5855343583126
 30
0
 42
-0.01846167761905072
  0
VERTEX
  8
1
 10
100.5374264635184
 20
105.7838037202662
 30
0
 42
-0.03291680501480981
  0
VERTEX
  8
1
 10
101.2978383822951
 20
105.8986616510014
 30
0
 42
-0.04901701735541211
  0
VERTEX
  8
1
 10
102.0434175971978
 20
105.8884024349092
 30
0
 42
-0.06278074988161655
  0
VERTEX
  8
1
 10
102.7692198736019
 20
105.7113203563803
 30
0
 42
-0.02725773808975731
  0
VERTEX
  8
1
 10
103.1765872103923
 20
105.5250606213575
 30
0
 42
-0.007631267683669443
  0
VERTEX
  8
1
 10
103.5780183588803
 20
105.3069377060807
 30
0
 42
0.01103734119131255
  0
VERTEX
  8
1
 10
103.9757658389732
 20
105.0941620001641
 30
0
 42
0.03174374364955714
  0
VERTEX
  8
1
 10
104.372082170578
 20
104.9239438932215
 30
0
 42
0.05920661517477101
  0
VERTEX
  8
1
 10
104.7692198736019
 20
104.8334937748671
 30
0
 42
0.07704721069575785
  0
VERTEX
  8
1
 10
105.189758917343
 20
104.853750197193
 30
0
 42
0.04133542277054436
  0
VERTEX
  8
1
 10
105.6130187069712
 20
104.97754588217
 30
0
 42
0.03761283971819066
  0
VERTEX
  8
1
 10
106.0383190560148
 20
105.1789960141355
 30
0
 42
0.009035894527414703
  0
VERTEX
  8
1
 10
106.464979778002
 20
105.4322157774265
 30
0
 42
0.01243717720520213
  0
VERTEX
  8
1
 10
106.892320686461
 20
105.7113203563803
 30
0
  0
SEQEND
  8
1
  0
POLYLINE
  8
1
 62
2
 66
1
  0
VERTEX
  8
1
 10
98.99188145284195
 20
98.84144784228529
 30
0
 42
-0.005911444640428827
  0
VERTEX
  8
1
 10
99.76712607549251
 20
99.08142291984805
 30
0
 42
-0.01846167761905027
  0
VERTEX
  8
1
 10
100.5374264635184
 20
99.27969228180164
 30
0
 42
-0.0329168050148287
  0
VERTEX
  8
1
 10
101.2978383822951
 20
99.3945502125369
 30
0
 42
-0.04901701735548845
  0
VERTEX
  8
1
 10
102.0434175971978
 20
99.38429099644468
 30
0
 42
-0.06278074988163528
  0
VERTEX
  8
1
 10
102.7692198736019
 20
99.20720891791579
 30
0
 42
-0.02725773808975731
  0
VERTEX
  8
1
 10
103.1765872103923
 20
99.02094918289295
 30
0
 42
-0.007631267683696978
  0
VERTEX
  8
1
 10
103.5780183588803
 20
98.80282626761618
 30
0
 42
0.01103734119131321
  0
VERTEX
  8
1
 10
103.9757658389732
 20
98.59005056169957
 30
0
 42
0.03174374364951374
  0
VERTEX
  8
1
 10
104.372082170578
 20
98.41983245475703
 30
0
 42
0.05920661517483195
  0
VERTEX
  8
1
 10
104.7692198736019
 20
98.32938233640259
 30
0
 42
0.0770472106957168
  0
VERTEX
  8
1
 10
105.189758917343
 20
98.34963875872847
 30
0
 42
0.04133542277055665
  0
VERTEX
  8
1
 10
105.6130187069712
 20
98.47343444370551
 30
0
 42
0.03761283971818093
  0
VERTEX
  8
1
 10
106.0383190560148
 20
98.67488457567094
 30
0
 42
0.009035894527462224
  0
VERTEX
  8
1
 10
106.464979778002
 20
98.92810433896199
 30
0
 42
0.01243717720511841
  0
VERTEX
  8
1
 10
106.892320686461
 20
99.20720891791579
 30
0
  0
SEQEND
  8
1
  0
POLYLINE
  8
1
 62
2
 66
1
  0
VERTEX
  8
1
 10
254.6956858222697
 20
103.8488929511859
 30
0
 42
-0.00656856498462974
  0
VERTEX
  8
1
 10
255.1217766721777
 20
104.1872417620478
 30
0
 42
-0.02167262407433145
  0
VERTEX
  8
1
 10
255.5452900783548
 20
104.4870362749247
 30
0
 42
-0.04331562149879921
  0
VERTEX
  8
1
 10
255.9636485970702
 20
104.7097221918315
 30
0
 42
-0.07563656324860554
  0
VERTEX
  8
1
 10
256.3742747845932
 20
104.8167452147831
 30
0
 42
-0.1077084075929138
  0
VERTEX
  8
1
 10
256.7745911971928
 20
104.7695510457946
 30
0
 42
-0.06218066823499358
  0
VERTEX
  8
1
 10
257.0812130760134
 20
104.6107072868504
 30
0
 42
-0.02336708118735249
  0
VERTEX
  8
1
 10
257.3829256970366
 20
104.384442515932
 30
0
 42
0.005068085834883008
  0
VERTEX
  8
1
 10
257.6827904845368
 20
104.1425639502036
 30
0
 42
0.03466207856172601
  0
VERTEX
  8
1
 10
257.9838688627882
 20
103.9368788068292
 30
0
 42
0.08126720618989775
  0
VERTEX
  8
1
 10
258.2892222560651
 20
103.8191943029727
 30
0
 42
0.1099576877024958
  0
VERTEX
  8
1
 10
258.5786193182317
 20
103.8230587267813
 30
0
 42
0.04796821188057177
  0
VERTEX
  8
1
 10
258.8730759937085
 20
103.9233423620948
 30
0
 42
0.05029058491808634
  0
VERTEX
  8
1
 10
259.1713273791679
 20
104.095940406037
 30
0
 42
0.004074686325212309
  0
VERTEX
  8
1
 10
259.4721085712823
 20
104.3167480557315
 30
0
 42
0.01995918353963183
  0
VERTEX
  8
1
 10
259.7741546667243
 20
104.5616605083023
 30
0
  0
SEQEND
  8
1
  0
POLYLINE
  8
1
 62
2
 66
1
  0
VERTEX
  8
1
 10
244.0338711137366
 20
104.2052767297441
 30
0
 42
-0.006453134031298509
  0
VERTEX
  8
1
 10
244.4198414496943
 20
104.4843529007984
 30
0
 42
-0.02119596401903795
  0
VERTEX
  8
1
 10
244.8026256459756
 20
104.7307833393556
 30
0
 42
-0.04197308376114697
  0
VERTEX
  8
1
 10
245.1790375629046
 20
104.9119223129186
 30
0
 42
-0.07245805574912885
  0
VERTEX
  8
1
 10
245.5458910608047
 20
104.9951240889903
 30
0
 42
-0.1032228870307164
  0
VERTEX
  8
1
 10
245.8999999999999
 20
104.9477429350737
 30
0
 42
-0.06109737242996458
  0
VERTEX
  8
1
 10
246.1666180053233
 20
104.808330487693
 30
0
 42
-0.02455527601378387
  0
VERTEX
  8
1
 10
246.4273008471731
 20
104.6108913738175
 30
0
 42
0.00239709893870567
  0
VERTEX
  8
1
 10
246.685837333616
 20
104.3970324038142
 30
0
 42
0.02945512863585001
  0
VERTEX
  8
1
 10
246.9460162727185
 20
104.2083603880498
 30
0
 42
0.06927196029756957
  0
VERTEX
  8
1
 10
247.2116264725473
 20
104.0864821368914
 30
0
 42
0.1136106601230797
  0
VERTEX
  8
1
 10
247.518531388792
 20
104.0663127330293
 30
0
 42
0.05594938034355829
  0
VERTEX
  8
1
 10
247.8346632946751
 20
104.1546252726907
 30
0
 42
0.04975574848745432
  0
VERTEX
  8
1
 10
248.1577154427871
 20
104.3242992699949
 30
0
 42
0.008211806230372341
  0
VERTEX
  8
1
 10
248.4853810857183
 20
104.5482142390609
 30
0
 42
0.01723476283458292
  0
VERTEX
  8
1
 10
248.8153534760592
 20
104.7992496940078
 30
0
  0
SEQEND
  8
1
  0
ARC
  8
1
 62
7
 10
98.26921987360193
 20
121.4999999999997
 30
0
 40
0.5
 50
180
 51
270
  0
ARC
  8
1
 62
7
 10
107.2692198736019
 20
121.4999999999997
 30
0
 40
0.5
 50
270
 51
0
  0
ARC
  8
1
 62
7
 10
224.6999999999999
 20
174.4823927072905
 30
0
 40
1.5
 50
180
 51
270
  0
ARC
  8
1
 62
7
 10
257.6999999999999
 20
174.4823927072905
 30
0
 40
1.5
 50
270
 51
0
  0
ARC
  8
1
 62
7
 10
213.2499999999999
 20
182.8499999999997
 30
0
 40
0.25
 50
180
 51
270
  0
ARC
  8
1
 62
7
 10
269.6999999999999
 20
124.8999999999997
 30
0
 40
1.5
 50
270
 51
0
  0
ARC
  8
1
 62
7
 10
269.6999999999999
 20
181.0999999999997
 30
0
 40
1.5
 50
0
 51
90
  0
ARC
  8
1
 62
7
 10
127.7692198736019
 20
177.9999999999997
 30
0
 40
5.000000000000014
 50
0
 51
90
  0
ARC
  8
1
 62
7
 10
77.76921987360194
 20
177.9999999999997
 30
0
 40
5
 50
90
 51
180
  0
ARC
  8
1
 62
7
 10
77.76921987360194
 20
127.9999999999997
 30
0
 40
5
 50
180
 51
270
  0
ARC
  8
1
 62
7
 10
127.7692198736019
 20
127.9999999999997
 30
0
 40
5
 50
270
 51
0
  0
ARC
  8
1
 62
7
 10
260.4999999999999
 20
123.6500453720879
 30
0
 40
0.1999999999999886
 50
0
 51
90
  0
ARC
  8
1
 62
7
 10
259.8999999999999
 20
121.3999999999997
 30
0
 40
0.5
 50
270
 51
0
  0
ARC
  8
1
 62
7
 10
243.6999999999999
 20
121.3999999999997
 30
0
 40
0.5
 50
180
 51
270
  0
ARC
  8
1
 62
7
 10
108.7692198736019
 20
156.9999999999997
 30
0
 40
4.699999999999989
 50
270
 51
0
  0
ARC
  8
1
 62
7
 10
96.76921987360193
 20
156.9999999999997
 30
0
 40
4.699999999999989
 50
180
 51
270
  0
ARC
  8
1
 62
7
 10
93.20617444981583
 20
177.0986614811895
 30
0
 40
2.99999999999992
 50
292.489977539959
 51
15.00000000000064
  0
ARC
  8
1
 62
7
 10
112.332265297388
 20
177.0986614811895
 30
0
 40
3.000000000000016
 50
164.9999999999994
 51
247.5100224600393
  0
ARC
  8
1
 62
7
 10
112.332265297388
 20
177.0986614811895
 30
0
 40
3.000000000000016
 50
164.9999999999994
 51
247.5100224600393
  0
TEXT
  8
1
 62
2
 10
205.5183712555093
 20
51.23247470326639
 30
0
 40
5
  1
SR6G
 41
0.9
  0
DIMENSION
  8
1
  6
CONTINUOUS
 62
2
  2
*D0
  3
DMST_1
 10
37.7247676438097
 20
120.9999999999997
 30
0
 11
35.1247676438097
 21
116.098659695636
 31
0
 12
0
 22
0
 32
0
 70
0
 13
77.76921987360194
 23
122.9999999999997
 33
0
 14
98.26921987360193
 24
120.9999999999997
 34
0
 50
90
 53
0
  0
DIMENSION
  8
1
  6
CONTINUOUS
 62
2
  2
*D1
  3
DMST_1
 10
107.7692198736019
 20
102.034426691878
 30
0
 11
111.8437594185295
 21
104.634426691878
 31
0
 12
0
 22
0
 32
0
 70
0
 13
97.76921987360193
 23
121.4999999999997
 33
0
 14
107.7692198736019
 24
121.4999999999997
 34
0
 53
0
  0
DIMENSION
  8
1
  6
CONTINUOUS
 62
2
  2
*D2
  3
DMST_2
 10
78.7889963060137
 20
120.9999999999997
 30
0
 11
75.3889963060137
 21
81.07415415175132
 31
0
 12
0
 22
0
 32
0
 70
0
  1
200
 13
101.2692198736019
 23
34.75940077534119
 33
0
 14
98.26921987360193
 24
120.9999999999997
 34
0
 50
90
 53
0
  0
DIMENSION
  8
1
  6
CONTINUOUS
 62
2
  2
*D3
  3
DMST_3
 10
87.87308825051314
 20
44.75940077534118
 30
0
 11
84.5375277301128
 21
40.2793660903087
 31
0
 12
0
 22
0
 32
0
 70
0
 13
101.2692198736019
 23
34.75940077534119
 33
0
 14
100.7692198736019
 24
44.75940077534118
 34
0
 50
90
 53
0
  0
DIMENSION
  8
1
  6
CONTINUOUS
 62
2
  2
*D4
  3
DMST_1
 10
171.3999999999999
 20
165.9999999999997
 30
0
 11
168.882043982274
 21
174.2725379924313
 31
0
 12
0
 22
0
 32
0
 70
0
 13
186.8999999999999
 23
158.9999999999997
 33
0
 14
186.3999999999999
 24
165.9999999999997
 34
0
 50
90
 53
0
  0
DIMENSION
  8
1
  6
CONTINUOUS
 62
2
  2
*D5
  3
DMST_4
 10
57.76921987360193
 20
162.9999999999997
 30
0
 11
55.16921987360193
 21
157.9999999999997
 31
0
 12
0
 22
0
 32
0
 70
0
 13
102.7692198736019
 23
152.9999999999997
 33
0
 14
102.7692198736019
 24
162.9999999999997
 34
0
 50
90
 53
0
  0
DIMENSION
  8
1
  6
CONTINUOUS
 62
2
  2
*D6
  3
DMST_5
 10
212.9999999999999
 20
207.9999999999997
 30
0
 11
218.5900590413186
 21
210.5999999999997
 31
0
 12
0
 22
0
 32
0
 70
0
 13
211.3999999999999
 23
182.9999999999997
 33
0
 14
212.9999999999999
 24
182.9999999999997
 34
0
 53
0
  0
DIMENSION
  8
1
  6
CONTINUOUS
 62
2
  2
*D7
  3
DMST_1
 10
186.3999999999999
 20
217.9999999999997
 30
0
 11
198.8999999999999
 21
220.5999999999997
 31
0
 12
0
 22
0
 32
0
 70
0
 13
211.3999999999999
 23
182.9999999999997
 33
0
 14
186.3999999999999
 24
165.9999999999997
 34
0
 53
0
  0
DIMENSION
  8
1
  6
CONTINUOUS
 62
2
  2
*D8
  3
DMST_1
 10
208.3999999999999
 20
197.9999999999997
 30
0
 11
209.6516135174606
 21
200.9174942483826
 31
0
 12
0
 22
0
 32
0
 70
0
 13
211.3999999999999
 23
182.9999999999997
 33
0
 14
208.3999999999999
 24
169.9999999999997
 34
0
 53
0
  0
DIMENSION
  8
1
  6
CONTINUOUS
 62
2
  2
*D9
  3
DMST_6
 10
204.3999999999999
 20
207.9999999999997
 30
0
 11
207.8999999999999
 21
210.5999999999997
 31
0
 12
0
 22
0
 32
0
 70
0
 13
211.3999999999999
 23
182.9999999999997
 33
0
 14
204.3999999999999
 24
168.6473460385828
 34
0
 53
0
  0
DIMENSION
  8
1
  6
CONTINUOUS
 62
2
  2
*D10
  3
DMST_1
 10
211.3999999999999
 20
217.9999999999997
 30
0
 11
241.2999999999999
 21
220.5999999999997
 31
0
 12
0
 22
0
 32
0
 70
0
  1
60
 13
271.1999999999999
 23
181.0999999999997
 33
0
 14
211.3999999999999
 24
182.9999999999997
 34
0
 53
0
  0
DIMENSION
  8
1
  6
CONTINUOUS
 62
2
  2
*D11
  3
DMST_1
 10
198.3999999999999
 20
181.9999999999997
 30
0
 11
192.3999999999999
 21
184.5999999999997
 31
0
 12
0
 22
0
 32
0
 70
0
 13
186.3999999999999
 23
165.9999999999997
 33
0
 14
198.3999999999999
 24
166.9999999999997
 34
0
 53
0
  0
DIMENSION
  8
1
  6
CONTINUOUS
 62
2
  2
*D12
  3
DMST_7
 10
161.3999999999999
 20
166.9999999999997
 30
0
 11
157.9999999999999
 21
180.4675873283093
 31
0
 12
0
 22
0
 32
0
 70
0
  1
%%c<>
 13
186.8999999999999
 23
158.9999999999997
 33
0
 14
198.3999999999999
 24
166.9999999999997
 34
0
 50
90
 53
0
  0
DIMENSION
  8
1
  6
CONTINUOUS
 62
2
  2
*D13
  3
DMST_8
 10
151.3999999999999
 20
169.9999999999997
 30
0
 11
147.818876240291
 21
179.9719833814393
 31
0
 12
0
 22
0
 32
0
 70
0
  1
%%c<>
 13
208.3999999999999
 23
155.9999999999997
 33
0
 14
208.3999999999999
 24
169.9999999999997
 34
0
 50
90
 53
0
  0
DIMENSION
  8
1
  6
CONTINUOUS
 62
2
  2
*D14
  3
DMST_9
 10
37.74852660435299
 20
182.9999999999997
 30
0
 11
33.99852660435299
 21
152.9999999999997
 31
0
 12
0
 22
0
 32
0
 70
1
 13
77.76921987360194
 23
122.9999999999997
 33
0
 14
77.76921987360194
 24
182.9999999999997
 34
0
 53
0
  0
DIMENSION
  8
1
  6
CONTINUOUS
 62
2
  2
*D15
  3
DMST_10
 10
47.76921987360194
 20
127.9999999999997
 30
0
 11
44.01921987360194
 21
152.9999999999997
 31
0
 12
0
 22
0
 32
0
 70
0
 13
77.76921987360194
 23
177.9999999999997
 33
0
 14
77.76921987360194
 24
127.9999999999997
 34
0
 50
90
 53
0
  0
DIMENSION
  8
1
  6
CONTINUOUS
 62
2
  2
*D16
  3
DMST_10
 10
77.76921987360194
 20
197.9999999999997
 30
0
 11
102.7692198736019
 21
201.7499999999997
 31
0
 12
0
 22
0
 32
0
 70
1
 13
127.7692198736019
 23
177.9999999999997
 33
0
 14
77.76921987360194
 24
177.9999999999997
 34
0
 53
0
  0
DIMENSION
  8
1
  6
CONTINUOUS
 62
2
  2
*D18
  3
DMST_11
 10
72.7692198736019
 20
207.9999999999997
 30
0
 11
102.7692198736019
 21
210.5999999999997
 31
0
 12
0
 22
0
 32
0
 70
0
 13
132.7692198736019
 23
177.9999999999997
 33
0
 14
72.76921987360194
 24
177.9999999999997
 34
0
 53
0
  0
INSERT
  8
1
  2
*D17
 10
0
 20
0
 30
0
  0
INSERT
  8
1
  2
*D19
 10
0
 20
0
 30
0
  0
ENDSEC
  0
EOF
