  0
SECTION
  2
HEADER
  9
$ACADVER
  1
AC1009
  9
$INSBASE
 10
0
 20
0
  9
$EXTMIN
 10
212.0078106705252
 20
88.60448680216888
  9
$EXTMAX
 10
477.2251030808872
 20
299.865722084779
  9
$LIMMIN
 10
212.0078106705252
 20
88.60448680216888
  9
$LIMMAX
 10
477.2251030808872
 20
299.865722084779
  9
$VIEWCTR
 10
10
 20
10
  9
$VIEWSIZE
 40
10
  9
$SNAPMODE
 70
0
  9
$SNAPUNIT
 10
1
 20
1
  9
$SNAPBASE
 10
0
 20
0
  9
$SNAPANG
 50
0
  9
$SNAPSTYLE
 70
0
  9
$SNAPISOPAIR
 70
0
  9
$GRIDMODE
 70
0
  9
$GRIDUNIT
 10
0
 20
0
  9
$ORTHOMODE
 70
0
  9
$REGENMODE
 70
1
  9
$FILLMODE
 70
1
  9
$QTEXTMODE
 70
0
  9
$DRAGMODE
 70
2
  9
$LTSCALE
 40
1
  9
$OSMODE
 70
0
  9
$ATTMODE
 70
1
  9
$TEXTSIZE
 40
3.5
  9
$TRACEWID
 40
0.5
  9
$TEXTSTYLE
  7
STANDARD
  9
$CLAYER
  8
0
  9
$CELTYPE
  6
BYLAYER
  9
$CECOLOR
 62
256
  9
$DIMSCALE
 40
1
  9
$DIMASZ
 40
0.18
  9
$DIMEXO
 40
0.0625
  9
$DIMDLI
 40
0.38
  9
$DIMRND
 40
0
  9
$DIMDLE
 40
0
  9
$DIMEXE
 40
0.18
  9
$DIMTP
 40
0
  9
$DIMTM
 40
0
  9
$DIMTXT
 40
0.18
  9
$DIMCEN
 40
0.09
  9
$DIMTSZ
 40
0
  9
$DIMTOL
 70
0
  9
$DIMLIM
 70
0
  9
$DIMTIH
 70
1
  9
$DIMTOH
 70
1
  9
$DIMSE1
 70
0
  9
$DIMSE2
 70
0
  9
$DIMTAD
 70
0
  9
$DIMZIN
 70
0
  9
$DIMBLK
  1

  9
$DIMASO
 70
1
  9
$DIMSHO
 70
1
  9
$DIMPOST
  1

  9
$DIMAPOST
  1

  9
$DIMALT
 70
0
  9
$DIMALTD
 70
2
  9
$DIMALTF
 40
25.4
  9
$DIMLFAC
 40
1
  9
$DIMTOFL
 70
0
  9
$DIMTVP
 40
0
  9
$DIMTIX
 70
0
  9
$DIMSOXD
 70
0
  9
$DIMSAH
 70
0
  9
$DIMBLK1
  1

  9
$DIMBLK2
  1

  9
$DIMSTYLE
  2
*UNNAMED
  9
$DIMCLRD
 70
0
  9
$DIMCLRE
 70
0
  9
$DIMCLRT
 70
0
  9
$DIMTFAC
 40
1
  9
$DIMGAP
 40
0.09
  9
$LUNITS
 70
2
  9
$LUPREC
 70
4
  9
$AXISMODE
 70
0
  9
$AXISUNIT
 10
0
 20
0
  9
$SKETCHINC
 40
0.1
  9
$FILLETRAD
 40
2
  9
$AUNITS
 70
0
  9
$AUPREC
 70
0
  9
$MENU
  1
ACAD
  9
$ELEVATION
 40
0
  9
$THICKNESS
 40
0
  9
$VIEWDIR
 10
0
 20
0
 30
1
  9
$LIMCHECK
 70
0
  9
$BLIPMODE
 70
1
  9
$CHAMFERA
 40
0
  9
$CHAMFERB
 40
0
  9
$FASTZOOM
 70
1
  9
$SKPOLY
 70
0
  9
$ANGBASE
 50
0
  9
$ANGDIR
 70
0
  9
$PDMODE
 70
0
  9
$PDSIZE
 40
0
  9
$PLINEWID
 40
0
  9
$COORDS
 70
2
  0
ENDSEC
  0
SECTION
  2
TABLES
  0
TABLE
  2
DIMSTYLE
 70
10
  0
DIMSTYLE
  2
DMST_1
 70
0
  3
h7
  4

  5

  6

  7

 40
1
 41
3.2
 42
1
 43
7
 44
1
 45
0
 46
0
 47
0
 48
0
140
3.2
141
0
142
0
143
25.4
144
1
145
0
146
1
147
0.09
 71
0
 72
0
 73
0
 74
0
 75
0
 76
0
 77
1
 78
9
170
0
171
2
172
0
173
0
174
0
175
0
176
2
177
2
178
2
  0
DIMSTYLE
  2
DMST_2
 70
0
  3
)
  4

  5

  6

  7

 40
1
 41
3.5
 42
1
 43
7
 44
1
 45
0
 46
0
 47
0
 48
0
140
3.5
141
0
142
0
143
25.4
144
1
145
0
146
1
147
0.09
 71
0
 72
0
 73
0
 74
0
 75
0
 76
0
 77
1
 78
9
170
0
171
2
172
0
173
0
174
0
175
0
176
2
177
2
178
2
  0
DIMSTYLE
  2
DMST_3
 70
0
  3

  4

  5

  6

  7

 40
1
 41
3.5
 42
1
 43
7
 44
1
 45
0
 46
0
 47
0
 48
0
140
3.5
141
0
142
0
143
25.4
144
1
145
0
146
1
147
0.09
 71
0
 72
0
 73
0
 74
0
 75
0
 76
0
 77
1
 78
9
170
0
171
2
172
0
173
0
174
0
175
0
176
2
177
2
178
2
  0
DIMSTYLE
  2
DMST_4
 70
0
  3
ü}1
  4

  5

  6

  7

 40
1
 41
3.2
 42
1
 43
7
 44
1
 45
0
 46
0
 47
0
 48
0
140
3.2
141
0
142
0
143
25.4
144
1
145
0
146
1
147
0.09
 71
0
 72
0
 73
0
 74
0
 75
0
 76
0
 77
1
 78
9
170
0
171
2
172
0
173
0
174
0
175
0
176
2
177
2
178
2
  0
DIMSTYLE
  2
DMST_5
 70
0
  3

  4

  5

  6

  7

 40
1
 41
3.2
 42
1
 43
7
 44
1
 45
0
 46
0
 47
40
 48
0
140
3.2
141
0
142
0
143
25.4
144
1
145
0
146
0.6
147
0.09
 71
1
 72
0
 73
0
 74
0
 75
0
 76
0
 77
1
 78
9
170
0
171
2
172
0
173
0
174
0
175
0
176
2
177
2
178
2
  0
DIMSTYLE
  2
DMST_6
 70
0
  3

  4

  5

  6

  7

 40
1
 41
3.2
 42
1
 43
7
 44
1
 45
0
 46
0
 47
0
 48
0
140
3.2
141
0
142
0
143
25.4
144
1
145
0
146
1
147
0.09
 71
0
 72
0
 73
0
 74
0
 75
0
 76
0
 77
1
 78
9
170
0
171
2
172
0
173
0
174
0
175
0
176
2
177
2
178
2
  0
DIMSTYLE
  2
DMST_7
 70
0
  3

  4

  5

  6

  7
DOT
 40
1
 41
3.2
 42
1
 43
7
 44
1
 45
0
 46
0
 47
0
 48
0
140
3.2
141
0
142
0
143
25.4
144
1
145
0
146
1
147
0.09
 71
0
 72
0
 73
0
 74
0
 75
0
 76
0
 77
1
 78
9
170
0
171
2
172
0
173
1
174
0
175
0
176
2
177
2
178
2
  0
DIMSTYLE
  2
DMST_8
 70
0
  3

  4

  5

  6
DOT
  7

 40
1
 41
1.6
 42
1
 43
7
 44
1
 45
0
 46
0
 47
0
 48
0
140
3.2
141
0
142
0
143
25.4
144
1
145
0
146
1
147
0.09
 71
0
 72
0
 73
0
 74
0
 75
0
 76
0
 77
1
 78
9
170
0
171
2
172
0
173
1
174
0
175
0
176
2
177
2
178
2
  0
DIMSTYLE
  2
DMST_9
 70
0
  3
îè
  4

  5

  6

  7

 40
1
 41
3.2
 42
1
 43
7
 44
1.5
 45
0
 46
0
 47
0
 48
0
140
3.2
141
0
142
0
143
25.4
144
1
145
0
146
1
147
0.09
 71
0
 72
0
 73
1
 74
1
 75
0
 76
0
 77
1
 78
9
170
0
171
2
172
0
173
0
174
0
175
0
176
2
177
2
178
2
  0
DIMSTYLE
  2
DMST_10
 70
0
  3

  4

  5

  6

  7

 40
1
 41
3.200000000000001
 42
1
 43
7
 44
1
 45
0
 46
0
 47
0
 48
0
140
3.200000000000001
141
0
142
0
143
25.4
144
1
145
0
146
1
147
0.09
 71
0
 72
0
 73
1
 74
1
 75
0
 76
0
 77
1
 78
9
170
0
171
2
172
1
173
0
174
0
175
0
176
2
177
2
178
2
  0
ENDTAB
  0
TABLE
  2
LTYPE
 70
9
  0
LTYPE
  2
CONTINUOUS
 70
64
  3
Solid line
 72
65
 73
0
 40
0
  0
LTYPE
  2
BORDER
 70
64
  3
__ __ . __ __ .
 72
65
 73
6
 40
12.21395425574036
 49
3.489701215925816
 49
-1.744850607962908
 49
3.489701215925816
 49
-1.744850607962908
 49
0
 49
-1.744850607962908
  0
LTYPE
  2
CENTER
 70
64
  3
____ _ ____ _
 72
65
 73
4
 40
13.95880486370326
 49
8.72425303981454
 49
-1.744850607962908
 49
1.744850607962908
 49
-1.744850607962908
  0
LTYPE
  2
DASHDOT
 70
64
  3
__ . __ . __ .
 72
65
 73
4
 40
6.979402431851632
 49
3.489701215925816
 49
-1.744850607962908
 49
0
 49
-1.744850607962908
  0
LTYPE
  2
DASHED
 70
64
  3
__ __ __ __ __
 72
65
 73
2
 40
5.234551823888724
 49
3.489701215925816
 49
-1.744850607962908
  0
LTYPE
  2
DIVIDE
 70
64
  3
__ . . __ . . 
 72
65
 73
6
 40
8.72425303981454
 49
3.489701215925816
 49
-1.744850607962908
 49
0
 49
-1.744850607962908
 49
0
 49
-1.744850607962908
  0
LTYPE
  2
DOT
 70
64
  3
..............
 72
65
 73
4
 40
3.489701215925816
 49
0
 49
-1.744850607962908
 49
0
 49
-1.744850607962908
  0
LTYPE
  2
HIDDEN
 70
64
  3
_ _ _ _ _ _ _
 72
65
 73
2
 40
2.617275911944362
 49
1.744850607962908
 49
-0.872425303981454
  0
LTYPE
  2
PHANTOM
 70
64
  3
_____ _ _ _____ _ _ 
 72
65
 73
6
 40
17.44850607962908
 49
8.72425303981454
 49
-1.744850607962908
 49
1.744850607962908
 49
-1.744850607962908
 49
1.744850607962908
 49
-1.744850607962908
  0
ENDTAB
  0
TABLE
  2
LAYER
 70
3
  0
LAYER
  2
1
 70
0
 62
7
  6
CONTINUOUS
  0
LAYER
  2
0
 70
0
 62
7
  6
CONTINUOUS
  0
ENDTAB
  0
TABLE
  2
STYLE
 70
4
  0
STYLE
  2
STANDARD
 70
0
 40
0
 41
1
 50
0
 71
0
 42
3.5
  3
txt
  4

  0
STYLE
  2
SIMPLEX
 70
0
 40
0
 41
1
 50
0
 71
0
 42
3.5
  3
simplex
  4

  0
STYLE
  2
COMPLEX
 70
0
 40
0
 41
1
 50
0
 71
0
 42
3.5
  3
complex
  4

  0
STYLE
  2
ITALIC
 70
0
 40
0
 41
1
 50
0
 71
0
 42
3.5
  3
italic
  4

  0
ENDTAB
  0
TABLE
  2
VIEW
 70
0
  0
ENDTAB
  0
ENDSEC
  0
SECTION
  2
BLOCKS
  0
BLOCK
  8
1
  2
*D0
 70
1
 10
0
 20
0
 30
0
  0
LINE
  8
1
 62
2
 10
388.1251030808872
 20
196.401485790499
 30
0
 11
388.1251030808872
 21
250.401485790499
 31
0
  0
LINE
  8
1
 62
2
 10
410.4251030808873
 20
250.401485790499
 30
0
 11
387.1251030808872
 21
250.401485790499
 31
0
  0
LINE
  8
1
 62
2
 10
410.4251030808873
 20
196.401485790499
 30
0
 11
387.1251030808872
 21
196.401485790499
 31
0
  0
SOLID
  8
1
 62
2
 10
388.1251030808872
 20
196.401485790499
 30
0
 11
387.7091030808872
 21
199.601485790499
 31
0
 12
388.5411030808872
 22
199.601485790499
 32
0
 13
388.5411030808872
 23
199.601485790499
 33
0
  0
SOLID
  8
1
 62
2
 10
388.1251030808872
 20
250.401485790499
 30
0
 11
388.5411030808872
 21
247.201485790499
 31
0
 12
387.7091030808872
 22
247.201485790499
 32
0
 13
387.7091030808872
 23
247.201485790499
 33
0
  0
TEXT
  8
1
 62
2
 10
386.1251030808872
 20
219.721485790499
 30
0
 40
3.2
  1
54
 50
90
 41
0.9
  0
TEXT
  8
1
 62
2
 10
386.1251030808872
 20
215.881485790499
 30
0
 40
3.2
  1
%%c
 50
90
 41
0.9
  0
TEXT
  8
1
 62
2
 10
386.1251030808872
 20
226.121485790499
 30
0
 40
3.2
  1
h7
 50
90
 41
0.9
  0
ENDBLK
  8
0
  0
BLOCK
  8
1
  2
*D1
 70
1
 10
0
 20
0
 30
0
  0
LINE
  8
1
 62
2
 10
468.225103080887
 20
277.901485790499
 30
0
 11
461.225103080887
 21
277.901485790499
 31
0
  0
LINE
  8
1
 62
2
 10
459.725103080887
 20
277.901485790499
 30
0
 11
461.225103080887
 21
277.901485790499
 31
0
  0
LINE
  8
1
 62
2
 10
459.725103080887
 20
277.901485790499
 30
0
 11
445.7550405612481
 21
277.901485790499
 31
0
  0
LINE
  8
1
 62
2
 10
459.725103080887
 20
251.601485790499
 30
0
 11
459.725103080887
 21
278.901485790499
 31
0
  0
LINE
  8
1
 62
2
 10
461.225103080887
 20
227.401485790499
 30
0
 11
461.225103080887
 21
278.901485790499
 31
0
  0
SOLID
  8
1
 62
2
 10
459.725103080887
 20
277.901485790499
 30
0
 11
456.225103080887
 21
277.446485790499
 31
0
 12
456.225103080887
 22
278.356485790499
 32
0
 13
456.225103080887
 23
278.356485790499
 33
0
  0
SOLID
  8
1
 62
2
 10
461.225103080887
 20
277.901485790499
 30
0
 11
464.725103080887
 21
278.356485790499
 31
0
 12
464.725103080887
 22
277.446485790499
 32
0
 13
464.725103080887
 23
277.446485790499
 33
0
  0
TEXT
  8
1
 62
2
 10
448.0300405612481
 20
279.901485790499
 30
0
 40
3.5
  1
1.5
 41
0.9
  0
TEXT
  8
1
 62
2
 10
445.7550405612481
 20
279.901485790499
 30
0
 40
3.5
  1
(
 41
0.9
  0
TEXT
  8
1
 62
2
 10
455.1175405612481
 20
279.901485790499
 30
0
 40
3.5
  1
)
 41
0.9
  0
ENDBLK
  8
0
  0
BLOCK
  8
1
  2
*D2
 70
1
 10
0
 20
0
 30
0
  0
LINE
  8
1
 62
2
 10
476.2251030808872
 20
193.801485790499
 30
0
 11
476.2251030808872
 21
253.001485790499
 31
0
  0
LINE
  8
1
 62
2
 10
458.3251030808872
 20
193.801485790499
 30
0
 11
477.2251030808872
 21
193.801485790499
 31
0
  0
LINE
  8
1
 62
2
 10
458.3251030808872
 20
253.001485790499
 30
0
 11
477.2251030808872
 21
253.001485790499
 31
0
  0
SOLID
  8
1
 62
2
 10
476.2251030808872
 20
253.001485790499
 30
0
 11
476.6801030808872
 21
249.501485790499
 31
0
 12
475.7701030808872
 22
249.501485790499
 32
0
 13
475.7701030808872
 23
249.501485790499
 33
0
  0
SOLID
  8
1
 62
2
 10
476.2251030808872
 20
193.801485790499
 30
0
 11
475.7701030808872
 21
197.301485790499
 31
0
 12
476.6801030808872
 22
197.301485790499
 32
0
 13
476.6801030808872
 23
197.301485790499
 33
0
  0
TEXT
  8
1
 62
2
 10
474.2251030808872
 20
219.9572645006552
 30
0
 40
3.5
  1
59.2
 50
90
 41
0.9
  0
TEXT
  8
1
 62
2
 10
474.2251030808872
 20
215.7572645006552
 30
0
 40
3.5
  1
%%c
 50
90
 41
0.9
  0
ENDBLK
  8
0
  0
BLOCK
  8
1
  2
*D3
 70
1
 10
0
 20
0
 30
0
  0
LINE
  8
1
 62
2
 10
304.8231757737586
 20
120.9819294974094
 30
0
 11
304.8231757737586
 21
130.9819294974094
 31
0
  0
LINE
  8
1
 62
2
 10
304.8231757737586
 20
120.9819294974094
 30
0
 11
304.8231757737586
 21
109.0347948132875
 31
0
  0
LINE
  8
1
 62
2
 10
287.7231757737586
 20
120.9819294974094
 30
0
 11
305.8231757737586
 21
120.9819294974094
 31
0
  0
LINE
  8
1
 62
2
 10
288.2231757737586
 20
130.9819294974094
 30
0
 11
305.8231757737586
 21
130.9819294974094
 31
0
  0
SOLID
  8
1
 62
2
 10
304.8231757737586
 20
120.9819294974094
 30
0
 11
304.4071757737586
 21
124.1819294974094
 31
0
 12
305.2391757737586
 22
124.1819294974094
 32
0
 13
305.2391757737586
 23
124.1819294974094
 33
0
  0
SOLID
  8
1
 62
2
 10
304.8231757737586
 20
130.9819294974094
 30
0
 11
305.2391757737586
 21
127.7819294974094
 31
0
 12
304.4071757737586
 22
127.7819294974094
 32
0
 13
304.4071757737586
 23
127.7819294974094
 33
0
  0
TEXT
  8
1
 62
2
 10
303.88941668144
 20
109.0347948132875
 30
0
 40
3.2
  1
10
 50
90
 41
0.9
  0
TEXT
  8
1
 62
2
 10
303.88941668144
 20
114.4747948132875
 30
0
 40
3.2
  1
ü}1
 50
90
 41
0.9
  0
ENDBLK
  8
0
  0
BLOCK
  8
1
  2
*D4
 70
1
 10
0
 20
0
 30
0
  0
LINE
  8
1
 62
2
 10
315.6231757737586
 20
120.9819294974094
 30
0
 11
315.6231757737586
 21
191.301485790499
 31
0
  0
LINE
  8
1
 62
2
 10
287.7231757737586
 20
120.9819294974094
 30
0
 11
316.6231757737586
 21
120.9819294974094
 31
0
  0
LINE
  8
1
 62
2
 10
290.5731757737586
 20
191.301485790499
 30
0
 11
316.6231757737586
 21
191.301485790499
 31
0
  0
SOLID
  8
1
 62
2
 10
315.6231757737586
 20
120.9819294974094
 30
0
 11
315.2071757737586
 21
124.1819294974094
 31
0
 12
316.0391757737586
 22
124.1819294974094
 32
0
 13
316.0391757737586
 23
124.1819294974094
 33
0
  0
SOLID
  8
1
 62
2
 10
315.6231757737586
 20
191.301485790499
 30
0
 11
316.0391757737586
 21
188.101485790499
 31
0
 12
315.2071757737586
 22
188.101485790499
 32
0
 13
315.2071757737586
 23
188.101485790499
 33
0
  0
TEXT
  8
1
 62
2
 10
313.8231757737586
 20
149.2937076439542
 30
0
 40
3.2
  1
200
 50
90
 41
0.9
  0
TEXT
  8
1
 62
2
 10
311.7431757737586
 20
158.5737076439542
 30
0
 40
1.92
  1
+40
 50
90
 41
0.9
  0
TEXT
  8
1
 62
2
 10
314.6231757737586
 20
160.3017076439542
 30
0
 40
1.92
  1
 0
 50
90
 41
0.9
  0
ENDBLK
  8
0
  0
BLOCK
  8
1
  2
*D5
 70
1
 10
0
 20
0
 30
0
  0
LINE
  8
1
 62
2
 10
255.2231757737586
 20
265.801485790499
 30
0
 11
315.2231757737586
 21
265.801485790499
 31
0
  0
LINE
  8
1
 62
2
 10
315.2231757737586
 20
249.401485790499
 30
0
 11
315.2231757737586
 21
266.801485790499
 31
0
  0
LINE
  8
1
 62
2
 10
255.2231757737586
 20
249.401485790499
 30
0
 11
255.2231757737586
 21
266.801485790499
 31
0
  0
SOLID
  8
1
 62
2
 10
255.2231757737586
 20
265.801485790499
 30
0
 11
258.4231757737586
 21
266.217485790499
 31
0
 12
258.4231757737586
 22
265.385485790499
 32
0
 13
258.4231757737586
 23
265.385485790499
 33
0
  0
SOLID
  8
1
 62
2
 10
315.2231757737586
 20
265.801485790499
 30
0
 11
312.0231757737586
 21
265.385485790499
 31
0
 12
312.0231757737586
 22
266.217485790499
 32
0
 13
312.0231757737586
 23
266.217485790499
 33
0
  0
TEXT
  8
1
 62
2
 10
284.8937640090528
 20
266.801485790499
 30
0
 40
3.2
  1
60
 41
0.9
  0
TEXT
  8
1
 62
2
 10
280.7525875384645
 20
266.801485790499
 30
0
 40
3.2
  1
üá
 41
0.9
  0
ENDBLK
  8
0
  0
BLOCK
  8
1
  2
*D6
 70
1
 10
0
 20
0
 30
0
  0
LINE
  8
1
 62
2
 10
411.1251030808872
 20
277.901485790499
 30
0
 11
413.1251030808872
 21
277.901485790499
 31
0
  0
LINE
  8
1
 62
2
 10
411.1251030808872
 20
277.901485790499
 30
0
 11
404.7251030808872
 21
277.901485790499
 31
0
  0
LINE
  8
1
 62
2
 10
411.1251030808872
 20
251.1014857904989
 30
0
 11
411.1251030808872
 21
278.901485790499
 31
0
  0
LINE
  8
1
 62
2
 10
413.1251030808872
 20
254.401485790499
 30
0
 11
413.1251030808872
 21
278.901485790499
 31
0
  0
SOLID
  8
1
 62
2
 10
411.1251030808872
 20
277.901485790499
 30
0
 11
407.9251030808872
 21
277.485485790499
 31
0
 12
407.9251030808872
 22
278.317485790499
 32
0
 13
407.9251030808872
 23
278.317485790499
 33
0
  0
CIRCLE
  8
1
 62
2
 10
413.1251030808872
 20
277.901485790499
 30
0
 40
0.8
  0
TEXT
  8
1
 62
2
 10
406.623560385265
 20
278.901485790499
 30
0
 40
3.2
  1
2
 41
0.9
  0
ENDBLK
  8
0
  0
BLOCK
  8
1
  2
*D7
 70
1
 10
0
 20
0
 30
0
  0
LINE
  8
1
 62
2
 10
413.1251030808872
 20
277.901485790499
 30
0
 11
418.1251030808872
 21
277.901485790499
 31
0
  0
LINE
  8
1
 62
2
 10
418.1251030808872
 20
277.901485790499
 30
0
 11
424.5251030808872
 21
277.901485790499
 31
0
  0
LINE
  8
1
 62
2
 10
413.1251030808872
 20
254.401485790499
 30
0
 11
413.1251030808872
 21
278.901485790499
 31
0
  0
LINE
  8
1
 62
2
 10
418.1251030808872
 20
254.401485790499
 30
0
 11
418.1251030808872
 21
278.901485790499
 31
0
  0
CIRCLE
  8
1
 62
2
 10
413.1251030808872
 20
277.901485790499
 30
0
 40
0.8
  0
SOLID
  8
1
 62
2
 10
418.1251030808872
 20
277.901485790499
 30
0
 11
421.3251030808872
 21
278.317485790499
 31
0
 12
421.3251030808872
 22
277.485485790499
 32
0
 13
421.3251030808872
 23
277.485485790499
 33
0
  0
TEXT
  8
1
 62
2
 10
414.6651030808872
 20
278.901485790499
 30
0
 40
3.2
  1
5
 41
0.9
  0
ENDBLK
  8
0
  0
BLOCK
  8
1
  2
*D8
 70
1
 10
0
 20
0
 30
0
  0
LINE
  8
1
 62
2
 10
403.1251030808871
 20
287.9034438254274
 30
0
 11
413.1251030808871
 21
287.9034438254274
 31
0
  0
LINE
  8
1
 62
2
 10
413.1251030808871
 20
254.401485790499
 30
0
 11
413.1251030808871
 21
288.9034438254274
 31
0
  0
LINE
  8
1
 62
2
 10
403.1251030808871
 20
226.601485790499
 30
0
 11
403.1251030808871
 21
288.9034438254274
 31
0
  0
SOLID
  8
1
 62
2
 10
403.1251030808871
 20
287.9034438254274
 30
0
 11
406.3251030808871
 21
288.3194438254274
 31
0
 12
406.3251030808871
 22
287.4874438254274
 32
0
 13
406.3251030808871
 23
287.4874438254274
 33
0
  0
SOLID
  8
1
 62
2
 10
413.1251030808871
 20
287.9034438254274
 30
0
 11
409.9251030808871
 21
287.4874438254274
 31
0
 12
409.9251030808871
 22
288.3194438254274
 32
0
 13
409.9251030808871
 23
288.3194438254274
 33
0
  0
TEXT
  8
1
 62
2
 10
406.1207329877769
 20
289.9034438254274
 30
0
 40
3.2
  1
10
 41
0.9
  0
ENDBLK
  8
0
  0
BLOCK
  8
1
  2
*D9
 70
1
 10
0
 20
0
 30
0
  0
LINE
  8
1
 62
2
 10
413.1251030808871
 20
287.9034438254274
 30
0
 11
461.225103080887
 21
287.9034438254274
 31
0
  0
LINE
  8
1
 62
2
 10
461.225103080887
 20
227.401485790499
 30
0
 11
461.225103080887
 21
288.9034438254274
 31
0
  0
LINE
  8
1
 62
2
 10
413.1251030808871
 20
254.401485790499
 30
0
 11
413.1251030808871
 21
288.9034438254274
 31
0
  0
SOLID
  8
1
 62
2
 10
413.1251030808871
 20
287.9034438254274
 30
0
 11
416.3251030808871
 21
288.3194438254274
 31
0
 12
416.3251030808871
 22
287.4874438254274
 32
0
 13
416.3251030808871
 23
287.4874438254274
 33
0
  0
SOLID
  8
1
 62
2
 10
461.225103080887
 20
287.9034438254274
 30
0
 11
458.0251030808871
 21
287.4874438254274
 31
0
 12
458.0251030808871
 22
288.3194438254274
 32
0
 13
458.0251030808871
 23
288.3194438254274
 33
0
  0
TEXT
  8
1
 62
2
 10
427.3351030808871
 20
289.9034438254274
 30
0
 40
3.2
  1
48.5MAX.
 41
0.9
  0
ENDBLK
  8
0
  0
BLOCK
  8
1
  2
*D10
 70
1
 10
0
 20
0
 30
0
  0
LINE
  8
1
 62
2
 10
237.0054577293488
 20
259.887825909686
 30
0
 11
212.0078106705252
 21
259.887825909686
 31
0
  0
LINE
  8
1
 62
2
 10
258.4620840141529
 20
249.1566672169367
 30
0
 11
237.0054577293488
 21
259.887825909686
 31
0
  0
SOLID
  8
1
 62
2
 10
258.4620840141529
 20
249.1566672169367
 30
0
 11
255.4139885131897
 21
250.215992387509
 31
0
 12
255.7861491703648
 22
250.9601163323266
 32
0
 13
255.7861491703648
 23
250.9601163323266
 33
0
  0
TEXT
  8
1
 62
2
 10
221.2878106705252
 20
261.887825909686
 30
0
 40
3.2
  1
4.5
 41
0.9
  0
TEXT
  8
1
 62
2
 10
212.0078106705252
 20
261.887825909686
 30
0
 40
3.2
  1
4-%%c
 41
0.9
  0
TEXT
  8
1
 62
2
 10
228.8878106705253
 20
261.887825909686
 30
0
 40
3.2
  1
îè
 41
0.9
  0
ENDBLK
  8
0
  0
BLOCK
  8
1
  2
*D11
 70
1
 10
0
 20
0
 30
0
  0
LINE
  8
1
 62
2
 10
322.025518512375
 20
240.6674774741457
 30
0
 11
335.865518512375
 21
240.6674774741457
 31
0
  0
LINE
  8
1
 62
2
 10
253.5370427518462
 20
208.5357878883596
 30
0
 11
322.025518512375
 21
240.6674774741457
 31
0
  0
SOLID
  8
1
 62
2
 10
316.909308795671
 20
238.2671836926383
 30
0
 11
314.1889803573044
 21
236.5314218462394
 31
0
 12
313.8356014814593
 22
237.2846464940746
 32
0
 13
313.8356014814593
 23
237.2846464940746
 33
0
  0
SOLID
  8
1
 62
2
 10
253.5370427518462
 20
208.5357878883596
 30
0
 11
256.2573711902128
 21
210.2715497347585
 31
0
 12
256.6107500660579
 22
209.5183250869233
 32
0
 13
256.6107500660579
 23
209.5183250869233
 33
0
  0
TEXT
  8
1
 62
2
 10
331.065518512375
 20
241.6674774741457
 30
0
 40
3.200000000000001
  1
70
 41
0.9
  0
TEXT
  8
1
 62
2
 10
327.225518512375
 20
241.6674774741457
 30
0
 40
3.200000000000001
  1
%%c
 41
0.9
  0
ENDBLK
  8
0
  0
ENDSEC
  0
SECTION
  2
ENTITIES
  0
LINE
  8
1
 62
2
 10
249.7356633277142
 20
88.60448680216888
 30
0
 11
340.1855015971099
 21
88.60448680216888
 31
0
  0
LINE
  8
1
 62
2
 10
249.7356633277142
 20
95.60448680216888
 30
0
 11
340.1855015971099
 21
95.60448680216888
 31
0
  0
LINE
  8
1
 62
7
 10
419.6251030808872
 20
193.801485790499
 30
0
 11
419.6251030808872
 21
193.401485790499
 31
0
  0
LINE
  8
1
 62
7
 10
419.6251030808872
 20
193.801485790499
 30
0
 11
430.6251030808872
 21
193.801485790499
 31
0
  0
LINE
  8
1
 62
7
 10
419.6251030808872
 20
253.001485790499
 30
0
 11
419.6251030808872
 21
193.801485790499
 31
0
  0
LINE
  8
1
 62
7
 10
418.1251030808872
 20
193.401485790499
 30
0
 11
413.1251030808872
 21
193.401485790499
 31
0
  0
LINE
  8
1
 62
7
 10
418.1251030808872
 20
253.401485790499
 30
0
 11
413.1251030808872
 21
253.401485790499
 31
0
  0
LINE
  8
1
 62
7
 10
418.1251030808872
 20
253.401485790499
 30
0
 11
418.1251030808872
 21
193.401485790499
 31
0
  0
LINE
  8
1
 62
7
 10
411.4251030808871
 20
196.401485790499
 30
0
 11
411.4251030808871
 21
250.401485790499
 31
0
  0
LINE
  8
1
 62
7
 10
411.1251030808872
 20
220.901485790499
 30
0
 11
403.4251030808871
 21
220.901485790499
 31
0
  0
LINE
  8
1
 62
7
 10
411.1251030808872
 20
225.901485790499
 30
0
 11
403.4251030808871
 21
225.901485790499
 31
0
  0
LINE
  8
1
 62
7
 10
411.1251030808872
 20
225.901485790499
 30
0
 11
411.1251030808872
 21
220.901485790499
 31
0
  0
LINE
  8
1
 62
7
 10
413.1251030808872
 20
250.401485790499
 30
0
 11
413.1251030808872
 21
196.401485790499
 31
0
  0
LINE
  8
1
 62
7
 10
419.6251030808872
 20
253.401485790499
 30
0
 11
419.6251030808872
 21
253.001485790499
 31
0
  0
LINE
  8
1
 62
7
 10
419.6251030808872
 20
193.401485790499
 30
0
 11
418.1251030808872
 21
193.401485790499
 31
0
  0
LINE
  8
1
 62
7
 10
419.6251030808872
 20
253.401485790499
 30
0
 11
418.1251030808872
 21
253.401485790499
 31
0
  0
LINE
  8
1
 62
2
 10
403.4251030808871
 20
225.901485790499
 30
0
 11
403.4251030808871
 21
220.901485790499
 31
0
  0
LINE
  8
1
 62
7
 10
403.4251030808871
 20
220.901485790499
 30
0
 11
403.1251030808872
 21
221.201485790499
 31
0
  0
LINE
  8
1
 62
7
 10
403.4251030808871
 20
225.901485790499
 30
0
 11
403.1251030808872
 21
225.601485790499
 31
0
  0
LINE
  8
1
 62
7
 10
403.1251030808872
 20
225.601485790499
 30
0
 11
403.1251030808872
 21
221.201485790499
 31
0
  0
LINE
  8
1
 62
3
  6
CENTER
 10
402.4307116185802
 20
221.3014857904991
 30
0
 11
408.9448896385621
 21
221.3014857904991
 31
0
  0
LINE
  8
1
 62
3
  6
CENTER
 10
402.6036543978719
 20
225.501485790499
 30
0
 11
409.0025372316592
 21
225.501485790499
 31
0
  0
LINE
  8
1
 62
7
 10
411.4251030808871
 20
196.401485790499
 30
0
 11
411.1251030808872
 21
196.701485790499
 31
0
  0
LINE
  8
1
 62
7
 10
411.1251030808872
 20
196.701485790499
 30
0
 11
411.1251030808872
 21
220.901485790499
 31
0
  0
LINE
  8
1
 62
7
 10
413.1251030808872
 20
193.401485790499
 30
0
 11
413.1251030808872
 21
196.401485790499
 31
0
  0
LINE
  8
1
 62
7
 10
413.1251030808872
 20
196.401485790499
 30
0
 11
411.4251030808871
 21
196.401485790499
 31
0
  0
LINE
  8
1
 62
7
 10
411.1251030808872
 20
250.101485790499
 30
0
 11
411.4251030808871
 21
250.401485790499
 31
0
  0
LINE
  8
1
 62
7
 10
411.1251030808872
 20
225.901485790499
 30
0
 11
411.1251030808872
 21
250.101485790499
 31
0
  0
LINE
  8
1
 62
7
 10
413.1251030808872
 20
250.401485790499
 30
0
 11
413.1251030808872
 21
253.401485790499
 31
0
  0
LINE
  8
1
 62
7
 10
411.4251030808871
 20
250.401485790499
 30
0
 11
413.1251030808872
 21
250.401485790499
 31
0
  0
LINE
  8
1
 62
7
 10
460.4251030808871
 20
226.401485790499
 30
0
 11
460.4251030808871
 21
220.401485790499
 31
0
  0
LINE
  8
1
 62
7
 10
461.2251030808872
 20
226.401485790499
 30
0
 11
460.4251030808871
 21
226.401485790499
 31
0
  0
LINE
  8
1
 62
7
 10
461.2251030808872
 20
220.401485790499
 30
0
 11
461.2251030808872
 21
226.401485790499
 31
0
  0
LINE
  8
1
 62
7
 10
460.4251030808871
 20
220.401485790499
 30
0
 11
460.4251030808871
 21
217.051485790499
 31
0
  0
LINE
  8
1
 62
7
 10
460.4251030808871
 20
220.401485790499
 30
0
 11
461.2251030808872
 21
220.401485790499
 31
0
  0
LINE
  8
1
 62
7
 10
459.7251030808872
 20
217.051485790499
 30
0
 11
459.7251030808872
 21
196.201485790499
 31
0
  0
LINE
  8
1
 62
7
 10
460.4251030808871
 20
217.051485790499
 30
0
 11
459.7251030808872
 21
217.051485790499
 31
0
  0
LINE
  8
1
 62
7
 10
460.4251030808871
 20
229.751485790499
 30
0
 11
460.4251030808871
 21
226.401485790499
 31
0
  0
LINE
  8
1
 62
7
 10
459.7251030808872
 20
229.751485790499
 30
0
 11
459.7251030808872
 21
217.051485790499
 31
0
  0
LINE
  8
1
 62
7
 10
459.7251030808872
 20
229.751485790499
 30
0
 11
460.4251030808871
 21
229.751485790499
 31
0
  0
LINE
  8
1
 62
7
 10
457.3251030808872
 20
193.801485790499
 30
0
 11
447.6251030808872
 21
193.801485790499
 31
0
  0
LINE
  8
1
 62
7
 10
459.7251030808872
 20
250.601485790499
 30
0
 11
459.7251030808872
 21
229.751485790499
 31
0
  0
LINE
  8
1
 62
7
 10
428.9123466520737
 20
253.001485790499
 30
0
 11
419.6251030808872
 21
253.001485790499
 31
0
  0
LINE
  8
1
 62
7
 10
430.6251030808872
 20
193.801485790499
 30
0
 11
430.6251030808872
 21
190.801485790499
 31
0
  0
LINE
  8
1
 62
7
 10
437.6251030808872
 20
190.801485790499
 30
0
 11
437.6251030808872
 21
193.801485790499
 31
0
  0
LINE
  8
1
 62
7
 10
437.6251030808872
 20
193.801485790499
 30
0
 11
430.6251030808872
 21
193.801485790499
 31
0
  0
LINE
  8
1
 62
7
 10
440.6251030808872
 20
193.801485790499
 30
0
 11
440.6251030808872
 21
190.801485790499
 31
0
  0
LINE
  8
1
 62
7
 10
440.6251030808872
 20
193.801485790499
 30
0
 11
437.6251030808872
 21
193.801485790499
 31
0
  0
LINE
  8
1
 62
7
 10
440.6251030808872
 20
190.801485790499
 30
0
 11
441.8751030808872
 21
190.801485790499
 31
0
  0
LINE
  8
1
 62
7
 10
447.6251030808872
 20
190.801485790499
 30
0
 11
447.6251030808872
 21
193.801485790499
 31
0
  0
LINE
  8
1
 62
7
 10
447.6251030808872
 20
193.801485790499
 30
0
 11
440.6251030808872
 21
193.801485790499
 31
0
  0
LINE
  8
1
 62
7
 10
435.3751030808872
 20
190.801485790499
 30
0
 11
432.8751030808872
 21
190.801485790499
 31
0
  0
LINE
  8
1
 62
7
 10
435.3751030808872
 20
190.801485790499
 30
0
 11
435.3751030808872
 21
180.8993849455165
 31
0
  0
LINE
  8
1
 62
7
 10
435.3751030808872
 20
190.801485790499
 30
0
 11
436.3751030808872
 21
190.801485790499
 31
0
  0
LINE
  8
1
 62
7
 10
442.8751030808872
 20
190.801485790499
 30
0
 11
442.8751030808872
 21
180.8993849455165
 31
0
  0
LINE
  8
1
 62
7
 10
447.6251030808872
 20
190.801485790499
 30
0
 11
445.3751030808872
 21
190.801485790499
 31
0
  0
LINE
  8
1
 62
7
 10
432.8751030808872
 20
190.801485790499
 30
0
 11
432.8751030808872
 21
181.2230528470801
 31
0
  0
LINE
  8
1
 62
7
 10
432.8751030808872
 20
190.801485790499
 30
0
 11
430.6251030808872
 21
190.801485790499
 31
0
  0
LINE
  8
1
 62
7
 10
445.3751030808872
 20
190.801485790499
 30
0
 11
445.3751030808872
 21
180.4406753982201
 31
0
  0
LINE
  8
1
 62
7
 10
445.3751030808872
 20
190.801485790499
 30
0
 11
442.8751030808872
 21
190.801485790499
 31
0
  0
LINE
  8
1
 62
7
 10
441.8751030808872
 20
190.801485790499
 30
0
 11
441.8751030808872
 21
180.7494530883627
 31
0
  0
LINE
  8
1
 62
7
 10
441.8751030808872
 20
190.801485790499
 30
0
 11
442.8751030808872
 21
190.801485790499
 31
0
  0
LINE
  8
1
 62
7
 10
436.3751030808872
 20
190.801485790499
 30
0
 11
436.3751030808872
 21
180.6851887334967
 31
0
  0
LINE
  8
1
 62
7
 10
436.3751030808872
 20
190.801485790499
 30
0
 11
437.6251030808872
 21
190.801485790499
 31
0
  0
LINE
  8
1
 62
7
 10
428.9123466520737
 20
253.001485790499
 30
0
 11
428.9123466520737
 21
249.001485790499
 31
0
  0
LINE
  8
1
 62
7
 10
428.9123466520737
 20
253.001485790499
 30
0
 11
448.9123466520737
 21
253.001485790499
 31
0
  0
LINE
  8
1
 62
7
 10
429.9123466520737
 20
248.001485790499
 30
0
 11
447.9123466520737
 21
248.001485790499
 31
0
  0
LINE
  8
1
 62
7
 10
448.9123466520737
 20
249.001485790499
 30
0
 11
448.9123466520737
 21
253.001485790499
 31
0
  0
LINE
  8
1
 62
7
 10
448.9123466520737
 20
253.001485790499
 30
0
 11
457.3251030808872
 21
253.001485790499
 31
0
  0
LINE
  8
1
 62
3
 10
394.6548992986824
 20
223.401485790499
 30
0
 11
466.0895670850281
 21
223.401485790499
 31
0
  0
LINE
  8
1
 62
7
 10
283.2231757737586
 20
168.4032349539984
 30
0
 11
283.2231757737586
 21
130.9819294974094
 31
0
  0
LINE
  8
1
 62
7
 10
285.2231757737586
 20
167.8501751477835
 30
0
 11
285.2231757737586
 21
130.9819294974094
 31
0
  0
LINE
  8
1
 62
7
 10
287.2231757737586
 20
167.1669975308147
 30
0
 11
287.2231757737586
 21
130.9819294974094
 31
0
  0
LINE
  8
1
 62
7
 10
283.7231757737586
 20
130.9819294974094
 30
0
 11
283.2231757737586
 21
130.9819294974094
 31
0
  0
LINE
  8
1
 62
7
 10
283.7231757737586
 20
120.9819294974094
 30
0
 11
283.7231757737586
 21
130.9819294974094
 31
0
  0
LINE
  8
1
 62
7
 10
284.7231757737586
 20
120.9819294974094
 30
0
 11
283.7231757737586
 21
120.9819294974094
 31
0
  0
LINE
  8
1
 62
7
 10
284.7231757737586
 20
130.9819294974094
 30
0
 11
283.7231757737586
 21
130.9819294974094
 31
0
  0
LINE
  8
1
 62
7
 10
284.7231757737586
 20
130.9819294974094
 30
0
 11
284.7231757737586
 21
120.9819294974094
 31
0
  0
LINE
  8
1
 62
7
 10
286.7231757737586
 20
130.9819294974094
 30
0
 11
287.2231757737586
 21
130.9819294974094
 31
0
  0
LINE
  8
1
 62
7
 10
286.7231757737586
 20
120.9819294974094
 30
0
 11
286.7231757737586
 21
130.9819294974094
 31
0
  0
LINE
  8
1
 62
7
 10
285.7231757737586
 20
120.9819294974094
 30
0
 11
286.7231757737586
 21
120.9819294974094
 31
0
  0
LINE
  8
1
 62
7
 10
285.7231757737586
 20
130.9819294974094
 30
0
 11
286.7231757737586
 21
130.9819294974094
 31
0
  0
LINE
  8
1
 62
7
 10
285.7231757737586
 20
130.9819294974094
 30
0
 11
285.7231757737586
 21
120.9819294974094
 31
0
  0
LINE
  8
1
 62
7
 10
285.2231757737586
 20
130.9819294974094
 30
0
 11
285.7231757737586
 21
130.9819294974094
 31
0
  0
LINE
  8
1
 62
7
 10
285.2231757737586
 20
130.9819294974094
 30
0
 11
284.7231757737586
 21
130.9819294974094
 31
0
  0
LINE
  8
1
 62
7
 10
282.3231757737586
 20
191.301485790499
 30
0
 11
280.8731757737586
 21
191.301485790499
 31
0
  0
LINE
  8
1
 62
7
 10
289.5731757737586
 20
191.301485790499
 30
0
 11
288.1231757737586
 21
191.301485790499
 31
0
  0
LINE
  8
1
 62
7
 10
280.3731757737586
 20
191.801485790499
 30
0
 11
280.3731757737586
 21
193.401485790499
 31
0
  0
LINE
  8
1
 62
7
 10
283.2231757737586
 20
191.301485790499
 30
0
 11
283.2231757737586
 21
170.3578994436068
 31
0
  0
LINE
  8
1
 62
7
 10
287.2231757737586
 20
191.301485790499
 30
0
 11
287.2231757737586
 21
169.121662020423
 31
0
  0
LINE
  8
1
 62
7
 10
285.2231757737586
 20
188.401485790499
 30
0
 11
285.2231757737587
 21
169.8048396373918
 31
0
  0
LINE
  8
1
 62
7
 10
290.0731757737586
 20
193.401485790499
 30
0
 11
290.0731757737586
 21
191.801485790499
 31
0
  0
LINE
  8
1
 62
7
 10
282.3231757737586
 20
191.301485790499
 30
0
 11
288.1231757737586
 21
191.301485790499
 31
0
  0
LINE
  8
1
 62
3
 10
313.7587096796914
 20
251.9370196964317
 30
0
 11
309.9719131152879
 21
248.1502231320281
 31
0
  0
LINE
  8
1
 62
3
 10
313.7587096796914
 20
194.8659518845663
 30
0
 11
306.9687067937376
 21
201.65595477052
 31
0
  0
LINE
  8
1
 62
2
 10
256.687641867826
 20
194.8659518845663
 30
0
 11
260.4744384322295
 21
198.6527484489698
 31
0
  0
LINE
  8
1
 62
3
 10
257.3472556896367
 20
251.277405874621
 30
0
 11
263.5354786128753
 21
245.0891829513823
 31
0
  0
LINE
  8
1
 62
7
 10
255.2231757737586
 20
248.401485790499
 30
0
 11
255.2231757737586
 21
198.401485790499
 31
0
  0
LINE
  8
1
 62
7
 10
310.2231757737586
 20
253.401485790499
 30
0
 11
260.2231757737586
 21
253.401485790499
 31
0
  0
LINE
  8
1
 62
7
 10
315.2231757737586
 20
198.401485790499
 30
0
 11
315.2231757737586
 21
248.401485790499
 31
0
  0
LINE
  8
1
 62
7
 10
260.2231757737586
 20
193.401485790499
 30
0
 11
310.2231757737586
 21
193.401485790499
 31
0
  0
LINE
  8
1
 62
3
 10
320.2231757737586
 20
223.401485790499
 30
0
 11
250.2231757737586
 21
223.401485790499
 31
0
  0
LINE
  8
1
 62
3
 10
285.2231757737586
 20
188.401485790499
 30
0
 11
285.2231757737586
 21
258.401485790499
 31
0
  0
LINE
  8
1
 62
3
 10
309.9719131152879
 20
248.1502231320281
 30
0
 11
307.0265406528333
 21
245.2048506695737
 31
0
  0
LINE
  8
1
 62
3
 10
260.4744384322295
 20
198.6527484489698
 30
0
 11
263.4776447537797
 21
201.65595477052
 31
0
  0
LINE
  8
1
 62
7
 10
358.8754018836369
 20
269.865722084779
 30
0
 11
358.8754018836369
 21
293.865722084779
 31
0
  0
LINE
  8
1
 62
7
 10
384.8754018836369
 20
269.865722084779
 30
0
 11
384.8754018836369
 21
299.865722084779
 31
0
  0
LINE
  8
1
 62
7
 10
332.8754018836369
 20
269.865722084779
 30
0
 11
332.8754018836369
 21
299.865722084779
 31
0
  0
LINE
  8
1
 62
7
 10
332.8754018836369
 20
269.865722084779
 30
0
 11
384.8754018836369
 21
269.865722084779
 31
0
  0
LINE
  8
1
 62
7
 10
332.8754018836369
 20
275.865722084779
 30
0
 11
384.8754018836369
 21
275.865722084779
 31
0
  0
LINE
  8
1
 62
7
 10
332.8754018836369
 20
281.865722084779
 30
0
 11
384.8754018836369
 21
281.865722084779
 31
0
  0
LINE
  8
1
 62
7
 10
332.8754018836369
 20
287.865722084779
 30
0
 11
384.8754018836369
 21
287.865722084779
 31
0
  0
LINE
  8
1
 62
7
 10
332.8754018836369
 20
293.865722084779
 30
0
 11
384.8754018836369
 21
293.865722084779
 31
0
  0
LINE
  8
1
 62
7
 10
332.8754018836369
 20
299.865722084779
 30
0
 11
384.8754018836369
 21
299.865722084779
 31
0
  0
ARC
  8
1
 62
2
 10
285.2231757737586
 20
223.401485790499
 30
0
 40
35.00000000000002
 50
225.0000000000001
 51
233.8506940473837
  0
ARC
  8
1
 62
2
 10
285.2231757737586
 20
223.401485790499
 30
0
 40
35.00000000000007
 50
305.1548315069494
 51
324.5018547083162
  0
ARC
  8
1
 62
2
 10
285.2231757737586
 20
223.401485790499
 30
0
 40
35.00000000000004
 50
44.99999999999974
 51
53.59407146583932
  0
ARC
  8
1
 62
2
 10
285.2231757737586
 20
223.401485790499
 30
0
 40
35
 50
126.1741240545372
 51
144.0017551225615
  0
ARC
  8
1
 62
2
 10
285.2231757737586
 20
223.401485790499
 30
0
 40
35.0000000000001
 50
25.86138969426713
 51
44.99999999999974
  0
ARC
  8
1
 62
2
 10
285.2231757737586
 20
223.401485790499
 30
0
 40
34.99999999999989
 50
202.3842166638501
 51
225.0000000000001
  0
ARC
  8
1
 62
2
 10
285.2231757737586
 20
223.401485790499
 30
0
 40
35.00000000000004
 50
22.0587351240289
 51
25.86138969426713
  0
ARC
  8
1
 62
7
 10
260.4744384322295
 20
198.6527484489698
 30
0
 40
2.249999999999928
 50
316.841967324168
 51
133.1580326758306
  0
ARC
  8
1
 62
7
 10
260.4744384322295
 20
198.6527484489698
 30
0
 40
2.250000000000151
 50
133.1580326758306
 51
316.841967324168
  0
CIRCLE
  8
1
 62
7
 10
285.2231757737586
 20
223.401485790499
 30
0
 40
3.175000000000011
  0
CIRCLE
  8
1
 62
2
  6
CENTER
 10
285.2231757737586
 20
223.401485790499
 30
0
 40
2.099999999999966
  0
CIRCLE
  8
1
 62
7
 10
309.9719131152879
 20
198.6527484489698
 30
0
 40
2.25
  0
CIRCLE
  8
1
 62
7
 10
309.9719131152879
 20
248.1502231320281
 30
0
 40
2.25
  0
CIRCLE
  8
1
 62
7
 10
260.4744384322295
 20
248.1502231320281
 30
0
 40
2.25
  0
CIRCLE
  8
1
 62
7
 10
285.2231757737586
 20
223.401485790499
 30
0
 40
27
  0
CIRCLE
  8
1
 62
7
 10
285.2231757737586
 20
223.401485790499
 30
0
 40
25
  0
CIRCLE
  8
1
 62
7
 10
285.2231757737586
 20
223.401485790499
 30
0
 40
12.5
  0
CIRCLE
  8
1
 62
7
 10
285.2231757737586
 20
223.401485790499
 30
0
 40
9.5
  0
CIRCLE
  8
1
 62
4
 10
285.2231757737586
 20
223.401485790499
 30
0
 40
35.0000000000001
  0
POLYLINE
  8
1
 62
7
 66
1
  0
VERTEX
  8
1
 10
432.0146346410868
 20
180.7187642158233
 30
0
 42
-0.00556772465947078
  0
VERTEX
  8
1
 10
432.4136569468386
 20
180.9731759507147
 30
0
 42
-0.01774432780336473
  0
VERTEX
  8
1
 10
432.8117404673116
 20
181.2019912100213
 30
0
 42
-0.03307642648691062
  0
VERTEX
  8
1
 10
433.207946417227
 20
181.3796135181585
 30
0
 42
-0.05293402217877264
  0
VERTEX
  8
1
 10
433.6013360113061
 20
181.4804463995417
 30
0
 42
-0.1276081827436811
  0
VERTEX
  8
1
 10
434.2646807290883
 20
181.4068610813267
 30
0
 42
-0.02507569936033613
  0
VERTEX
  8
1
 10
434.5379914454562
 20
181.2917259297932
 30
0
 42
-0.007346452424690178
  0
VERTEX
  8
1
 10
434.8128602910767
 20
181.1546560835826
 30
0
 42
0.008685720267688539
  0
VERTEX
  8
1
 10
435.0912449436528
 20
181.0168197022914
 30
0
 42
0.02505714381854523
  0
VERTEX
  8
1
 10
435.3751030808872
 20
180.8993849455165
 30
0
 42
0.02457342553762952
  0
VERTEX
  8
1
 10
435.5724230663111
 20
180.8398508914535
 30
0
 42
0.009455600697862046
  0
VERTEX
  8
1
 10
435.772138921618
 20
180.7941450039645
 30
0
 42
0.01117714172449862
  0
VERTEX
  8
1
 10
435.9731947842129
 20
180.756786522305
 30
0
 42
0.0001019321684151218
  0
VERTEX
  8
1
 10
436.174534791501
 20
180.7222946857306
 30
0
 42
-0.006743064123671472
  0
VERTEX
  8
1
 10
436.3751030808872
 20
180.6851887334967
 30
0
 42
-0.01474486082129351
  0
VERTEX
  8
1
 10
436.6944910124317
 20
180.6106446470028
 30
0
 42
-0.01142813704108409
  0
VERTEX
  8
1
 10
437.0100921935798
 20
180.5193279606238
 30
0
 42
-0.008112520889502097
  0
VERTEX
  8
1
 10
437.3228533119307
 20
180.4154318243311
 30
0
 42
-0.004839344331004805
  0
VERTEX
  8
1
 10
437.6337210550834
 20
180.3031493880958
 30
0
 42
-0.001607646986014633
  0
VERTEX
  8
1
 10
437.9436421106371
 20
180.1866738018893
 30
0
  0
SEQEND
  8
1
  0
POLYLINE
  8
1
 62
7
 66
1
  0
VERTEX
  8
1
 10
440.9081458454122
 20
180.110660885613
 30
0
 42
-0.006491010646754131
  0
VERTEX
  8
1
 10
441.310158171761
 20
180.4020112924405
 30
0
 42
-0.02120419608474943
  0
VERTEX
  8
1
 10
441.7100152782963
 20
180.6599603005564
 30
0
 42
-0.04147431299198992
  0
VERTEX
  8
1
 10
442.1055619452047
 20
180.8511065112488
 30
0
 42
-0.07018218618647415
  0
VERTEX
  8
1
 10
442.4946429526729
 20
180.9420485258061
 30
0
 42
-0.0982474571484102
  0
VERTEX
  8
1
 10
442.8751030808872
 20
180.8993849455165
 30
0
 42
-0.05826805973970872
  0
VERTEX
  8
1
 10
443.1602091610922
 20
180.7642542138706
 30
0
 42
-0.02559747494407261
  0
VERTEX
  8
1
 10
443.4397452587391
 20
180.5704786995124
 30
0
 42
-0.001393129880161028
  0
VERTEX
  8
1
 10
443.7144894243519
 20
180.3577948533591
 30
0
 42
0.02344701412205317
  0
VERTEX
  8
1
 10
443.9852197084539
 20
180.1659391263281
 30
0
 42
0.05673763687436428
  0
VERTEX
  8
1
 10
444.2527141615688
 20
180.0346479693367
 30
0
 42
0.1573413301618184
  0
VERTEX
  8
1
 10
444.7021238832876
 20
180.0208027861047
 30
0
 42
0.08822009048130548
  0
VERTEX
  8
1
 10
445.1458437334621
 20
180.2391589461045
 30
0
 42
0.04790429787082275
  0
VERTEX
  8
1
 10
445.5852961799785
 20
180.6316661135281
 30
0
 42
0.0183314609473043
  0
VERTEX
  8
1
 10
446.0219036907228
 20
181.1402739525676
 30
0
 42
0.008900301401071523
  0
VERTEX
  8
1
 10
446.457088733581
 20
181.706932127415
 30
0
  0
SEQEND
  8
1
  0
POLYLINE
  8
1
 62
2
 66
1
  0
VERTEX
  8
1
 10
281.930444231566
 20
169.4639837381234
 30
0
 42
-0.04968995304409629
  0
VERTEX
  8
1
 10
282.4538715626817
 20
169.9801533477367
 30
0
 42
-0.06690563426950036
  0
VERTEX
  8
1
 10
282.9589147686893
 20
170.2766361444734
 30
0
 42
-0.07591340722436553
  0
VERTEX
  8
1
 10
283.4488399561059
 20
170.3901713949078
 30
0
 42
-0.0666045650874089
  0
VERTEX
  8
1
 10
283.9269132314487
 20
170.3574983656141
 30
0
 42
-0.04584518519231332
  0
VERTEX
  8
1
 10
284.3964007012348
 20
170.2153563231667
 30
0
 42
-0.025094334180159
  0
VERTEX
  8
1
 10
284.8605684719813
 20
170.0004845341395
 30
0
 42
-0.007486574405808712
  0
VERTEX
  8
1
 10
285.3226826502055
 20
169.749622265107
 30
0
 42
0.008602479203850147
  0
VERTEX
  8
1
 10
285.7860093424246
 20
169.4995087826434
 30
0
 42
0.02573627284097021
  0
VERTEX
  8
1
 10
286.2538146551555
 20
169.2868833533228
 30
0
 42
0.04573057022489072
  0
VERTEX
  8
1
 10
286.7293646949156
 20
169.1484852437196
 30
0
 42
0.06654503851419648
  0
VERTEX
  8
1
 10
287.215925568222
 20
169.1210537204079
 30
0
 42
0.0782442112382606
  0
VERTEX
  8
1
 10
287.7167633815917
 20
169.241328049962
 30
0
 42
0.07192403927666174
  0
VERTEX
  8
1
 10
288.2351442415422
 20
169.5460474989562
 30
0
  0
VERTEX
  8
1
 10
288.5019339722717
 20
169.7790551640477
 30
0
  0
SEQEND
  8
1
  0
POLYLINE
  8
1
 62
2
 66
1
  0
VERTEX
  8
1
 10
281.930444231566
 20
167.5093192485151
 30
0
 42
-0.04968995304424926
  0
VERTEX
  8
1
 10
282.4538715626817
 20
168.0254888581283
 30
0
 42
-0.06690563426952711
  0
VERTEX
  8
1
 10
282.9589147686893
 20
168.3219716548651
 30
0
 42
-0.07591340722437069
  0
VERTEX
  8
1
 10
283.4488399561059
 20
168.4355069052995
 30
0
 42
-0.0666045650874089
  0
VERTEX
  8
1
 10
283.9269132314487
 20
168.4028338760058
 30
0
 42
-0.04584518519242632
  0
VERTEX
  8
1
 10
284.3964007012348
 20
168.2606918335583
 30
0
 42
-0.025094334180159
  0
VERTEX
  8
1
 10
284.8605684719813
 20
168.0458200445312
 30
0
 42
-0.007486574405904468
  0
VERTEX
  8
1
 10
285.3226826502055
 20
167.7949577754987
 30
0
 42
0.008602479203755885
  0
VERTEX
  8
1
 10
285.7860093424246
 20
167.5448442930351
 30
0
 42
0.02573627284087164
  0
VERTEX
  8
1
 10
286.2538146551555
 20
167.3322188637145
 30
0
 42
0.04573057022489337
  0
VERTEX
  8
1
 10
286.7293646949156
 20
167.1938207541113
 30
0
 42
0.0665450385142537
  0
VERTEX
  8
1
 10
287.215925568222
 20
167.1663892307996
 30
0
 42
0.07824421123837119
  0
VERTEX
  8
1
 10
287.7167633815917
 20
167.2866635603537
 30
0
 42
0.07192403927666174
  0
VERTEX
  8
1
 10
288.2351442415422
 20
167.5913830093479
 30
0
  0
VERTEX
  8
1
 10
288.5019339722717
 20
167.8243906744394
 30
0
  0
SEQEND
  8
1
  0
ARC
  8
1
 62
7
 10
457.3251030808872
 20
250.601485790499
 30
0
 40
2.400000000000034
 50
0
 51
90
  0
ARC
  8
1
 62
7
 10
457.3251030808872
 20
196.201485790499
 30
0
 40
2.400000000000006
 50
270
 51
0
  0
ARC
  8
1
 62
7
 10
280.8731757737586
 20
191.801485790499
 30
0
 40
0.5
 50
180
 51
270
  0
ARC
  8
1
 62
7
 10
289.5731757737586
 20
191.801485790499
 30
0
 40
0.5
 50
270
 51
0
  0
ARC
  8
1
 62
7
 10
310.2231757737586
 20
248.401485790499
 30
0
 40
5
 50
0
 51
44.99999999999931
  0
ARC
  8
1
 62
7
 10
310.2231757737586
 20
198.401485790499
 30
0
 40
5
 50
270
 51
315.0000000000005
  0
ARC
  8
1
 62
7
 10
260.2231757737586
 20
198.401485790499
 30
0
 40
5
 50
180
 51
225.0000000000009
  0
ARC
  8
1
 62
7
 10
310.2231757737586
 20
198.401485790499
 30
0
 40
5
 50
315.0000000000005
 51
0
  0
ARC
  8
1
 62
7
 10
310.2231757737586
 20
248.401485790499
 30
0
 40
4.999999999999981
 50
44.99999999999931
 51
90
  0
ARC
  8
1
 62
7
 10
260.2231757737586
 20
248.401485790499
 30
0
 40
5
 50
90
 51
180
  0
ARC
  8
1
 62
7
 10
260.2231757737586
 20
198.401485790499
 30
0
 40
4.999999999999879
 50
225.0000000000009
 51
270
  0
ARC
  8
1
 62
7
 10
429.9123466520737
 20
249.001485790499
 30
0
 40
1
 50
180
 51
270
  0
ARC
  8
1
 62
7
 10
447.9123466520737
 20
249.001485790499
 30
0
 40
1
 50
270
 51
0
  0
LINE
  8
1
 62
2
 10
384.8754018836369
 20
269.865722084779
 30
0
 11
405.899884236282
 21
225.901485790499
 31
0
  0
SOLID
  8
1
 62
2
 10
403.9742048144537
 20
228.860215318663
 30
0
 11
404.8055963007807
 21
229.2578015638878
 31
0
 12
405.899884236282
 22
225.901485790499
 32
0
 13
405.899884236282
 23
225.901485790499
 33
0
  0
LINE
  8
1
 62
2
 10
366.60905072223
 20
171.4635039640267
 30
0
 11
390.816888321516
 21
171.4635039640267
 31
0
  0
LINE
  8
1
 62
2
 10
366.5143580103779
 20
164.4635039640267
 30
0
 11
384.4498320777969
 21
164.4635039640267
 31
0
  0
LINE
  8
1
 62
2
 10
384.4498320777969
 20
164.4635039640267
 30
0
 11
413.1251030808872
 21
193.401485790499
 31
0
  0
SOLID
  8
1
 62
2
 10
410.9888457700485
 20
190.5910185057987
 30
0
 11
410.3342345138313
 21
191.239686933551
 31
0
 12
413.1251030808872
 22
193.401485790499
 32
0
 13
413.1251030808872
 23
193.401485790499
 33
0
  0
TEXT
  8
1
 62
2
 10
254.3865598601373
 20
90.06874706098768
 30
0
 40
3.5
  1
üiâMâäâwâbâhéãïñÆ¸é╔é─Ägùp)
 41
0.8100000000000001
 72
1
 73
2
 11
292.6590598601373
 21
91.81874706098768
 31
0
  0
TEXT
  8
1
 62
2
 10
265.1192783243195
 20
96.2828580871294
 30
0
 40
3.5
  1
:
 41
0.8100000000000001
 72
1
 73
2
 11
266.5367783243195
 21
98.0328580871294
 31
0
  0
TEXT
  8
1
 62
2
 10
244.8199218788949
 20
96.51301034735678
 30
0
 40
3.5
  1
âtâëâôâWéãâéü[â^é═ò╩æ╠éãé╚é┴é─é¿éÞé▄éÀüD
 41
0.8100000000000001
 72
1
 73
2
 11
301.5199218788949
 21
98.26301034735678
 31
0
  0
TEXT
  8
1
 62
2
 10
250.8185685657893
 20
96.51301034735678
 30
0
 40
3.5
  1
Æì ïL
 41
0.8100000000000001
 72
1
 73
2
 11
257.9060685657893
 21
98.26301034735678
 31
0
  0
TEXT
  8
1
 62
2
 10
363.773519535571
 20
165.5453476929132
 30
0
 40
3.5
  1
âtâëâôâW
 41
0.8100000000000001
 72
1
 73
2
 11
375.113519535571
 21
167.2953476929132
 31
0
  0
TEXT
  8
1
 62
2
 10
366.8158241966789
 20
172.7238390487197
 30
0
 40
3.5
  1
Æì ïL
 41
0.8100000000000001
 72
1
 73
2
 11
373.9033241966789
 21
174.4738390487197
 31
0
  0
TEXT
  8
1
 62
2
 10
326.0754018836369
 20
270.7739759096331
 30
0
 40
4
  1
èOü@ü@ü@îa
 41
0.9900000000000001
 72
1
 73
2
 11
345.8754018836369
 21
272.7739759096331
 31
0
  0
TEXT
  8
1
 62
2
 10
325.7154018836369
 20
276.8591229294991
 30
0
 40
4
  1
Äòü@ü@Éö
 41
1.26
 72
1
 73
2
 11
345.8754018836369
 21
278.8591229294991
 31
0
  0
TEXT
  8
1
 62
2
 10
328.5954018836369
 20
282.967426017115
 30
0
 40
4
  1
ê%%d ù═ èp
 41
1.08
 72
1
 73
2
 11
345.8754018836369
 21
284.967426017115
 31
0
  0
TEXT
  8
1
 62
2
 10
326.0754018836369
 20
288.907610671127
 30
0
 40
4
  1
âéâWâàü[âï
 41
0.9900000000000001
 72
1
 73
2
 11
345.8754018836369
 21
290.907610671127
 31
0
  0
TEXT
  8
1
 62
2
 10
326.571031036372
 20
294.404310176477
 30
0
 40
5
  1
âsâjâIâôÄdùl
 41
1.08
 72
1
 73
2
 11
358.9710310363719
 21
296.904310176477
 31
0
  0
TEXT
  8
1
 62
2
 10
367.1504018836369
 20
289.115722084779
 30
0
 40
3.5
  1
0.4
 41
0.9
 72
1
 73
2
 11
371.8754018836369
 21
290.865722084779
 31
0
  0
TEXT
  8
1
 62
2
 10
365.885884011312
 20
271.115722084779
 30
0
 40
3.5
  1
â%%déT
 41
0.72
 72
1
 73
2
 11
370.925884011312
 21
272.865722084779
 31
0
  0
TEXT
  8
1
 62
2
 10
368.725401883637
 20
277.115722084779
 30
0
 40
3.5
  1
10
 41
0.9
 72
1
 73
2
 11
371.8754018836369
 21
278.865722084779
 31
0
  0
TEXT
  8
1
 62
2
 10
364.0004018836369
 20
283.115722084779
 30
0
 40
3.5
  1
20%%d
 41
0.9
 72
1
 73
2
 11
371.8754018836369
 21
284.865722084779
 31
0
  0
TEXT
  8
1
 62
2
 10
359.171498914224
 20
117.2080029199514
 30
0
 40
5
  1
SR60-6HP
 41
0.9
  0
DIMENSION
  8
1
  6
CONTINUOUS
 62
2
  2
*D0
  3
DMST_1
 10
388.1251030808872
 20
250.401485790499
 30
0
 11
384.5251030808872
 21
223.401485790499
 31
0
 12
0
 22
0
 32
0
 70
0
  1
%%c<>
 13
411.4251030808871
 23
196.401485790499
 33
0
 14
411.4251030808871
 24
250.401485790499
 34
0
 50
90
 53
0
  0
DIMENSION
  8
1
  6
CONTINUOUS
 62
2
  2
*D1
  3
DMST_2
 10
459.725103080887
 20
277.901485790499
 30
0
 11
450.6987905612481
 21
281.651485790499
 31
0
 12
0
 22
0
 32
0
 70
0
  1
(<>
 13
461.2251030808872
 23
226.401485790499
 33
0
 14
459.7251030808872
 24
250.601485790499
 34
0
 53
0
  0
DIMENSION
  8
1
  6
CONTINUOUS
 62
2
  2
*D2
  3
DMST_3
 10
476.2251030808872
 20
193.801485790499
 30
0
 11
472.4751030808872
 21
222.6260145006552
 31
0
 12
0
 22
0
 32
0
 70
0
  1
%%c<>
 13
457.3251030808872
 23
253.001485790499
 33
0
 14
457.3251030808872
 24
193.801485790499
 34
0
 50
90
 53
0
  0
DIMENSION
  8
1
  6
CONTINUOUS
 62
2
  2
*D3
  3
DMST_4
 10
304.8231757737586
 20
120.9819294974094
 30
0
 11
302.28941668144
 21
114.117147754464
 31
0
 12
0
 22
0
 32
0
 70
0
 13
287.2231757737586
 23
130.9819294974094
 33
0
 14
286.7231757737586
 24
120.9819294974094
 34
0
 50
90
 53
0
  0
DIMENSION
  8
1
  6
CONTINUOUS
 62
2
  2
*D4
  3
DMST_5
 10
315.6231757737586
 20
120.9819294974094
 30
0
 11
312.2231757737586
 21
156.1417076439542
 31
0
 12
0
 22
0
 32
0
 70
0
  1
200
 13
289.5731757737586
 23
191.301485790499
 33
0
 14
286.7231757737586
 24
120.9819294974094
 34
0
 50
90
 53
0
  0
DIMENSION
  8
1
  6
CONTINUOUS
 62
2
  2
*D5
  3
DMST_6
 10
315.2231757737586
 20
265.801485790499
 30
0
 11
285.2231757737586
 21
268.401485790499
 31
0
 12
0
 22
0
 32
0
 70
0
  1
üá<>
 13
255.2231757737586
 23
248.401485790499
 33
0
 14
315.2231757737586
 24
248.401485790499
 34
0
 53
0
  0
DIMENSION
  8
1
  6
CONTINUOUS
 62
2
  2
*D6
  3
DMST_7
 10
411.1251030808872
 20
277.901485790499
 30
0
 11
407.583560385265
 21
280.501485790499
 31
0
 12
0
 22
0
 32
0
 70
0
 13
413.1251030808872
 23
253.401485790499
 33
0
 14
411.1251030808872
 24
250.101485790499
 34
0
 53
0
  0
DIMENSION
  8
1
  6
CONTINUOUS
 62
2
  2
*D7
  3
DMST_8
 10
413.1251030808872
 20
277.901485790499
 30
0
 11
415.6251030808872
 21
280.501485790499
 31
0
 12
0
 22
0
 32
0
 70
0
 13
418.1251030808872
 23
253.401485790499
 33
0
 14
413.1251030808872
 24
253.401485790499
 34
0
 53
0
  0
DIMENSION
  8
1
  6
CONTINUOUS
 62
2
  2
*D8
  3
DMST_6
 10
403.1251030808871
 20
287.9034438254274
 30
0
 11
408.0407329877769
 21
291.5034438254274
 31
0
 12
0
 22
0
 32
0
 70
0
 13
413.1251030808872
 23
253.401485790499
 33
0
 14
403.1251030808872
 24
225.601485790499
 34
0
 53
0
  0
DIMENSION
  8
1
  6
CONTINUOUS
 62
2
  2
*D9
  3
DMST_6
 10
461.225103080887
 20
287.9034438254274
 30
0
 11
437.1751030808871
 21
291.5034438254274
 31
0
 12
0
 22
0
 32
0
 70
0
  1
48.5MAX.
 13
413.1251030808872
 23
253.401485790499
 33
0
 14
461.2251030808872
 24
226.401485790499
 34
0
 53
0
  0
DIMENSION
  8
1
  6
CONTINUOUS
 62
2
  2
*D10
  3
DMST_9
 10
262.4867928503061
 20
247.1437790471195
 30
0
 11
221.906634199937
 21
263.487825909686
 31
0
 12
0
 22
0
 32
0
 70
3
  1
4-%%c<>
 15
258.4620840141529
 25
249.1566672169367
 35
0
 40
0
 53
0
  0
DIMENSION
  8
1
  6
CONTINUOUS
 62
2
  2
*D11
  3
DMST_10
 10
253.5370427518461
 20
208.5357878883595
 30
0
 11
331.545518512375
 21
243.2674774741457
 31
0
 12
0
 22
0
 32
0
 70
3
 15
316.9093087956712
 25
238.2671836926384
 35
0
 40
0
 53
0
  0
ENDSEC
  0
EOF
