  0
SECTION
  2
HEADER
  9
$ACADVER
  1
AC1009
  9
$INSBASE
 10
0
 20
0
  9
$EXTMIN
 10
61.98353017844403
 20
48.83247470326639
  9
$EXTMAX
 10
360.7248438533878
 20
218.2689811079118
  9
$LIMMIN
 10
61.98353017844403
 20
48.83247470326639
  9
$LIMMAX
 10
360.7248438533878
 20
218.2689811079118
  9
$VIEWCTR
 10
10
 20
10
  9
$VIEWSIZE
 40
10
  9
$SNAPMODE
 70
0
  9
$SNAPUNIT
 10
1
 20
1
  9
$SNAPBASE
 10
0
 20
0
  9
$SNAPANG
 50
0
  9
$SNAPSTYLE
 70
0
  9
$SNAPISOPAIR
 70
0
  9
$GRIDMODE
 70
0
  9
$GRIDUNIT
 10
0
 20
0
  9
$ORTHOMODE
 70
0
  9
$REGENMODE
 70
1
  9
$FILLMODE
 70
1
  9
$QTEXTMODE
 70
0
  9
$DRAGMODE
 70
2
  9
$LTSCALE
 40
1
  9
$OSMODE
 70
0
  9
$ATTMODE
 70
1
  9
$TEXTSIZE
 40
3.5
  9
$TRACEWID
 40
0.5
  9
$TEXTSTYLE
  7
STANDARD
  9
$CLAYER
  8
0
  9
$CELTYPE
  6
BYLAYER
  9
$CECOLOR
 62
256
  9
$DIMSCALE
 40
1
  9
$DIMASZ
 40
0.18
  9
$DIMEXO
 40
0.0625
  9
$DIMDLI
 40
0.38
  9
$DIMRND
 40
0
  9
$DIMDLE
 40
0
  9
$DIMEXE
 40
0.18
  9
$DIMTP
 40
0
  9
$DIMTM
 40
0
  9
$DIMTXT
 40
0.18
  9
$DIMCEN
 40
0.09
  9
$DIMTSZ
 40
0
  9
$DIMTOL
 70
0
  9
$DIMLIM
 70
0
  9
$DIMTIH
 70
1
  9
$DIMTOH
 70
1
  9
$DIMSE1
 70
0
  9
$DIMSE2
 70
0
  9
$DIMTAD
 70
0
  9
$DIMZIN
 70
0
  9
$DIMBLK
  1

  9
$DIMASO
 70
1
  9
$DIMSHO
 70
1
  9
$DIMPOST
  1

  9
$DIMAPOST
  1

  9
$DIMALT
 70
0
  9
$DIMALTD
 70
2
  9
$DIMALTF
 40
25.4
  9
$DIMLFAC
 40
1
  9
$DIMTOFL
 70
0
  9
$DIMTVP
 40
0
  9
$DIMTIX
 70
0
  9
$DIMSOXD
 70
0
  9
$DIMSAH
 70
0
  9
$DIMBLK1
  1

  9
$DIMBLK2
  1

  9
$DIMSTYLE
  2
*UNNAMED
  9
$DIMCLRD
 70
0
  9
$DIMCLRE
 70
0
  9
$DIMCLRT
 70
0
  9
$DIMTFAC
 40
1
  9
$DIMGAP
 40
0.09
  9
$LUNITS
 70
2
  9
$LUPREC
 70
4
  9
$AXISMODE
 70
0
  9
$AXISUNIT
 10
0
 20
0
  9
$SKETCHINC
 40
0.1
  9
$FILLETRAD
 40
2
  9
$AUNITS
 70
0
  9
$AUPREC
 70
0
  9
$MENU
  1
ACAD
  9
$ELEVATION
 40
0
  9
$THICKNESS
 40
0
  9
$VIEWDIR
 10
0
 20
0
 30
1
  9
$LIMCHECK
 70
0
  9
$BLIPMODE
 70
1
  9
$CHAMFERA
 40
0
  9
$CHAMFERB
 40
0
  9
$FASTZOOM
 70
1
  9
$SKPOLY
 70
0
  9
$ANGBASE
 50
0
  9
$ANGDIR
 70
0
  9
$PDMODE
 70
0
  9
$PDSIZE
 40
0
  9
$PLINEWID
 40
0
  9
$COORDS
 70
2
  0
ENDSEC
  0
SECTION
  2
TABLES
  0
TABLE
  2
DIMSTYLE
 70
15
  0
DIMSTYLE
  2
DMST_1
 70
0
  3

  4

  5

  6

  7

 40
1
 41
3.2
 42
1
 43
7
 44
1
 45
0
 46
0
 47
0
 48
0
140
3.2
141
0
142
0
143
25.4
144
1
145
0
146
1
147
0.09
 71
0
 72
0
 73
0
 74
0
 75
0
 76
0
 77
1
 78
9
170
0
171
2
172
0
173
0
174
0
175
0
176
2
177
2
178
2
  0
DIMSTYLE
  2
DMST_2
 70
0
  3
ü}1
  4

  5

  6

  7

 40
1
 41
3.2
 42
1
 43
7
 44
1
 45
0
 46
0
 47
0
 48
0
140
3.2
141
0
142
0
143
25.4
144
1
145
0
146
1
147
0.09
 71
0
 72
0
 73
0
 74
0
 75
0
 76
0
 77
1
 78
9
170
0
171
2
172
0
173
0
174
0
175
0
176
2
177
2
178
2
  0
DIMSTYLE
  2
DMST_3
 70
0
  3
ü}20
  4

  5

  6

  7

 40
1
 41
3.2
 42
1
 43
7
 44
1
 45
0
 46
0
 47
0
 48
0
140
3.2
141
0
142
0
143
25.4
144
1
145
0
146
1
147
0.09
 71
0
 72
0
 73
0
 74
0
 75
0
 76
0
 77
1
 78
9
170
0
171
2
172
0
173
0
174
0
175
0
176
2
177
2
178
2
  0
DIMSTYLE
  2
DMST_4
 70
0
  3
ü}0.2
  4

  5

  6
DOT
  7

 40
1
 41
1
 42
1
 43
7
 44
1
 45
0
 46
0
 47
0
 48
0
140
3.200000000000001
141
0
142
0
143
25.4
144
1
145
0
146
1
147
0.09
 71
0
 72
0
 73
1
 74
1
 75
0
 76
0
 77
1
 78
9
170
0
171
2
172
0
173
1
174
0
175
0
176
2
177
2
178
2
  0
DIMSTYLE
  2
DMST_5
 70
0
  3

  4

  5

  6

  7

 40
1
 41
3.5
 42
1
 43
7
 44
2
 45
0
 46
0
 47
0
 48
0
140
3.5
141
0
142
0
143
25.4
144
1
145
0
146
1
147
0.09
 71
0
 72
0
 73
0
 74
0
 75
0
 76
0
 77
1
 78
9
170
0
171
2
172
0
173
0
174
0
175
0
176
2
177
2
178
2
  0
DIMSTYLE
  2
DMST_6
 70
0
  3

  4

  5

  6

  7

 40
1
 41
3.5
 42
0.7
 43
7
 44
2
 45
0
 46
0
 47
0
 48
0.07000000000000001
140
3.5
141
0
142
0
143
25.4
144
1
145
0
146
0.6
147
0.09
 71
1
 72
0
 73
0
 74
0
 75
0
 76
0
 77
1
 78
9
170
0
171
2
172
0
173
0
174
0
175
0
176
2
177
2
178
2
  0
DIMSTYLE
  2
DMST_7
 70
0
  3

  4

  5

  6

  7

 40
1
 41
3.5
 42
0.7
 43
7
 44
2
 45
0
 46
0
 47
0
 48
0.04
140
3.5
141
0
142
0
143
25.4
144
1
145
0
146
0.6
147
0.09
 71
1
 72
0
 73
0
 74
0
 75
0
 76
0
 77
1
 78
9
170
0
171
2
172
0
173
0
174
0
175
0
176
2
177
2
178
2
  0
DIMSTYLE
  2
DMST_8
 70
0
  3
ü}0.1
  4

  5

  6

  7

 40
1
 41
3.5
 42
0.7
 43
7
 44
2
 45
0
 46
0
 47
0
 48
0
140
3.5
141
0
142
0
143
25.4
144
1
145
0
146
1
147
0.09
 71
0
 72
0
 73
0
 74
0
 75
0
 76
0
 77
1
 78
9
170
0
171
2
172
0
173
0
174
0
175
0
176
2
177
2
178
2
  0
DIMSTYLE
  2
DMST_9
 70
0
  3
ü}0.8
  4

  5

  6

  7

 40
1
 41
3.5
 42
0.7
 43
7
 44
2
 45
0
 46
0
 47
0
 48
0
140
3.5
141
0
142
0
143
25.4
144
1
145
0
146
1
147
0.09
 71
0
 72
0
 73
0
 74
0
 75
0
 76
0
 77
1
 78
9
170
0
171
2
172
0
173
0
174
0
175
0
176
2
177
2
178
2
  0
DIMSTYLE
  2
DMST_10
 70
0
  3

  4

  5

  6

  7

 40
1
 41
3.5
 42
0
 43
7
 44
1
 45
0
 46
0
 47
0
 48
0
140
3.5
141
0
142
0
143
25.4
144
1
145
0
146
1
147
0.09
 71
0
 72
0
 73
0
 74
0
 75
0
 76
0
 77
1
 78
9
170
0
171
2
172
0
173
0
174
0
175
0
176
2
177
2
178
2
  0
DIMSTYLE
  2
DMST_11
 70
0
  3
ü}0.2
  4

  5

  6

  7

 40
1
 41
3.5
 42
0
 43
7
 44
1
 45
0
 46
0
 47
0
 48
0
140
3.5
141
0
142
0
143
25.4
144
1
145
0
146
1
147
0.09
 71
0
 72
0
 73
0
 74
0
 75
0
 76
0
 77
1
 78
9
170
0
171
2
172
0
173
0
174
0
175
0
176
2
177
2
178
2
  0
DIMSTYLE
  2
DMST_12
 70
0
  3
ü}0.2
  4

  5

  6

  7

 40
1
 41
3.5
 42
1
 43
7
 44
1
 45
0
 46
0
 47
0
 48
0
140
3.5
141
0
142
0
143
25.4
144
1
145
0
146
1
147
0.09
 71
0
 72
0
 73
0
 74
0
 75
0
 76
0
 77
1
 78
9
170
0
171
2
172
0
173
0
174
0
175
0
176
2
177
2
178
2
  0
DIMSTYLE
  2
DMST_13
 70
0
  3

  4

  5

  6

  7

 40
1
 41
3.5
 42
1
 43
7
 44
1
 45
0
 46
0
 47
0
 48
0
140
3.5
141
0
142
0
143
25.4
144
1
145
0
146
1
147
0.09
 71
0
 72
0
 73
0
 74
0
 75
0
 76
0
 77
1
 78
9
170
0
171
2
172
0
173
0
174
0
175
0
176
2
177
2
178
2
  0
DIMSTYLE
  2
DMST_14
 70
0
  3

  4

  5

  6

  7

 40
1
 41
3.2
 42
1
 43
7
 44
1
 45
0
 46
0
 47
0
 48
0
140
3.2
141
0
142
0
143
25.4
144
1
145
0
146
1
147
0.09
 71
0
 72
0
 73
1
 74
1
 75
0
 76
0
 77
1
 78
9
170
0
171
2
172
0
173
0
174
0
175
0
176
2
177
2
178
2
  0
DIMSTYLE
  2
DMST_15
 70
0
  3
ü}0.2
  4

  5

  6

  7

 40
1
 41
3.2
 42
1
 43
7
 44
1
 45
0
 46
0
 47
0
 48
0
140
3.2
141
0
142
0
143
25.4
144
1
145
0
146
1
147
0.09
 71
0
 72
0
 73
1
 74
1
 75
0
 76
0
 77
1
 78
9
170
0
171
2
172
1
173
0
174
0
175
0
176
2
177
2
178
2
  0
ENDTAB
  0
TABLE
  2
LTYPE
 70
9
  0
LTYPE
  2
CONTINUOUS
 70
64
  3
Solid line
 72
65
 73
0
 40
0
  0
LTYPE
  2
BORDER
 70
64
  3
__ __ . __ __ .
 72
65
 73
6
 40
13.75782365608294
 49
3.93080675888084
 49
-1.96540337944042
 49
3.93080675888084
 49
-1.96540337944042
 49
0
 49
-1.96540337944042
  0
LTYPE
  2
CENTER
 70
64
  3
____ _ ____ _
 72
65
 73
4
 40
15.72322703552336
 49
9.8270168972021
 49
-1.96540337944042
 49
1.96540337944042
 49
-1.96540337944042
  0
LTYPE
  2
DASHDOT
 70
64
  3
__ . __ . __ .
 72
65
 73
4
 40
7.861613517761679
 49
3.93080675888084
 49
-1.96540337944042
 49
0
 49
-1.96540337944042
  0
LTYPE
  2
DASHED
 70
64
  3
__ __ __ __ __
 72
65
 73
2
 40
5.896210138321259
 49
3.93080675888084
 49
-1.96540337944042
  0
LTYPE
  2
DIVIDE
 70
64
  3
__ . . __ . . 
 72
65
 73
6
 40
9.8270168972021
 49
3.93080675888084
 49
-1.96540337944042
 49
0
 49
-1.96540337944042
 49
0
 49
-1.96540337944042
  0
LTYPE
  2
DOT
 70
64
  3
..............
 72
65
 73
4
 40
3.93080675888084
 49
0
 49
-1.96540337944042
 49
0
 49
-1.96540337944042
  0
LTYPE
  2
HIDDEN
 70
64
  3
_ _ _ _ _ _ _
 72
65
 73
2
 40
2.94810506916063
 49
1.96540337944042
 49
-0.9827016897202099
  0
LTYPE
  2
PHANTOM
 70
64
  3
_____ _ _ _____ _ _ 
 72
65
 73
6
 40
19.6540337944042
 49
9.8270168972021
 49
-1.96540337944042
 49
1.96540337944042
 49
-1.96540337944042
 49
1.96540337944042
 49
-1.96540337944042
  0
ENDTAB
  0
TABLE
  2
LAYER
 70
3
  0
LAYER
  2
1
 70
0
 62
7
  6
CONTINUOUS
  0
LAYER
  2
0
 70
0
 62
7
  6
CONTINUOUS
  0
ENDTAB
  0
TABLE
  2
STYLE
 70
4
  0
STYLE
  2
STANDARD
 70
0
 40
0
 41
1
 50
0
 71
0
 42
3.5
  3
txt
  4

  0
STYLE
  2
SIMPLEX
 70
0
 40
0
 41
1
 50
0
 71
0
 42
3.5
  3
simplex
  4

  0
STYLE
  2
COMPLEX
 70
0
 40
0
 41
1
 50
0
 71
0
 42
3.5
  3
complex
  4

  0
STYLE
  2
ITALIC
 70
0
 40
0
 41
1
 50
0
 71
0
 42
3.5
  3
italic
  4

  0
ENDTAB
  0
TABLE
  2
VIEW
 70
0
  0
ENDTAB
  0
ENDSEC
  0
SECTION
  2
BLOCKS
  0
BLOCK
  8
1
  2
*D0
 70
1
 10
0
 20
0
 30
0
  0
LINE
  8
1
 62
2
 10
197.243754722158
 20
128.7999999999997
 30
0
 11
197.243754722158
 21
153.7999999999997
 31
0
  0
LINE
  8
1
 62
2
 10
169.0919913369011
 20
153.7999999999997
 30
0
 11
198.243754722158
 21
153.7999999999997
 31
0
  0
LINE
  8
1
 62
2
 10
145.4919913369007
 20
128.7999999999997
 30
0
 11
198.243754722158
 21
128.7999999999997
 31
0
  0
SOLID
  8
1
 62
2
 10
197.243754722158
 20
153.7999999999997
 30
0
 11
197.659754722158
 21
150.5999999999997
 31
0
 12
196.827754722158
 22
150.5999999999997
 32
0
 13
196.827754722158
 23
150.5999999999997
 33
0
  0
SOLID
  8
1
 62
2
 10
197.243754722158
 20
128.7999999999997
 30
0
 11
196.827754722158
 21
131.9999999999997
 31
0
 12
197.659754722158
 22
131.9999999999997
 32
0
 13
197.659754722158
 23
131.9999999999997
 33
0
  0
TEXT
  8
1
 62
2
 10
196.243754722158
 20
138.8999999999997
 30
0
 40
3.2
  1
25
 50
90
 41
0.9
  0
ENDBLK
  8
0
  0
BLOCK
  8
1
  2
*D1
 70
1
 10
0
 20
0
 30
0
  0
LINE
  8
1
 62
2
 10
186.60133531142
 20
60.2983749005634
 30
0
 11
186.60133531142
 21
49.77418592026693
 31
0
  0
LINE
  8
1
 62
2
 10
186.60133531142
 20
60.2983749005634
 30
0
 11
186.60133531142
 21
67.2983749005634
 31
0
  0
LINE
  8
1
 62
2
 10
186.60133531142
 20
73.69837490056341
 30
0
 11
186.60133531142
 21
67.2983749005634
 31
0
  0
LINE
  8
1
 62
2
 10
142.191991336901
 20
67.2983749005634
 30
0
 11
187.60133531142
 21
67.2983749005634
 31
0
  0
LINE
  8
1
 62
2
 10
141.691991336901
 20
60.2983749005634
 30
0
 11
187.60133531142
 21
60.2983749005634
 31
0
  0
SOLID
  8
1
 62
2
 10
186.60133531142
 20
60.2983749005634
 30
0
 11
187.01733531142
 21
57.0983749005634
 31
0
 12
186.18533531142
 22
57.0983749005634
 32
0
 13
186.18533531142
 23
57.0983749005634
 33
0
  0
SOLID
  8
1
 62
2
 10
186.60133531142
 20
67.2983749005634
 30
0
 11
186.18533531142
 21
70.49837490056341
 31
0
 12
187.01733531142
 22
70.49837490056341
 32
0
 13
187.01733531142
 23
70.49837490056341
 33
0
  0
TEXT
  8
1
 62
2
 10
185.60133531142
 20
49.77418592026693
 30
0
 40
3.2
  1
7
 50
90
 41
0.9
  0
TEXT
  8
1
 62
2
 10
185.60133531142
 20
53.29418592026693
 30
0
 40
3.2
  1
ü}1
 50
90
 41
0.9
  0
ENDBLK
  8
0
  0
BLOCK
  8
1
  2
*D2
 70
1
 10
0
 20
0
 30
0
  0
LINE
  8
1
 62
2
 10
197.243754722158
 20
60.2983749005634
 30
0
 11
197.243754722158
 21
128.7999999999997
 31
0
  0
LINE
  8
1
 62
2
 10
145.4919913369007
 20
128.7999999999997
 30
0
 11
198.243754722158
 21
128.7999999999997
 31
0
  0
LINE
  8
1
 62
2
 10
141.691991336901
 20
60.2983749005634
 30
0
 11
198.243754722158
 21
60.2983749005634
 31
0
  0
SOLID
  8
1
 62
2
 10
197.243754722158
 20
60.2983749005634
 30
0
 11
196.827754722158
 21
63.49837490056341
 31
0
 12
197.659754722158
 22
63.49837490056341
 32
0
 13
197.659754722158
 23
63.49837490056341
 33
0
  0
SOLID
  8
1
 62
2
 10
197.243754722158
 20
128.7999999999997
 30
0
 11
197.659754722158
 21
125.5999999999997
 31
0
 12
196.827754722158
 22
125.5999999999997
 32
0
 13
196.827754722158
 23
125.5999999999997
 33
0
  0
TEXT
  8
1
 62
2
 10
196.243754722158
 20
85.62683450910508
 30
0
 40
3.2
  1
200
 50
90
 41
0.9
  0
TEXT
  8
1
 62
2
 10
196.243754722158
 20
94.90683450910508
 30
0
 40
3.2
  1
ü}20
 50
90
 41
0.9
  0
ENDBLK
  8
0
  0
BLOCK
  8
1
  2
*D3
 70
1
 10
0
 20
0
 30
0
  0
LINE
  8
1
 62
2
 10
295.4999999999999
 20
202.6682583972583
 30
0
 11
308.9328413357244
 21
202.6682583972583
 31
0
  0
LINE
  8
1
 62
2
 10
294.4999999999999
 20
202.6682583972583
 30
0
 11
295.4999999999999
 21
202.6682583972583
 31
0
  0
LINE
  8
1
 62
2
 10
295.4999999999999
 20
178.8999999999997
 30
0
 11
295.4999999999999
 21
203.6682583972583
 31
0
  0
LINE
  8
1
 62
2
 10
294.4999999999999
 20
178.8999999999997
 30
0
 11
294.4999999999999
 21
203.6682583972583
 31
0
  0
CIRCLE
  8
1
 62
2
 10
294.4999999999999
 20
202.6682583972583
 30
0
 40
0.5
  0
SOLID
  8
1
 62
2
 10
295.4999999999999
 20
202.6682583972583
 30
0
 11
298.6999999999999
 21
203.0842583972583
 31
0
 12
298.6999999999999
 22
202.2522583972583
 32
0
 13
298.6999999999999
 23
202.2522583972583
 33
0
  0
TEXT
  8
1
 62
2
 10
296.6081354533714
 20
203.6682583972583
 30
0
 40
3.200000000000001
  1
1
 41
0.9
  0
TEXT
  8
1
 62
2
 10
299.1681354533714
 20
203.6682583972583
 30
0
 40
3.200000000000001
  1
ü}0.2
 41
0.9
  0
ENDBLK
  8
0
  0
BLOCK
  8
1
  2
*D4
 70
1
 10
0
 20
0
 30
0
  0
LINE
  8
1
 62
2
 10
294.4999999999999
 20
212.7662893861809
 30
0
 11
321.4
 21
212.7662893861809
 31
0
  0
LINE
  8
1
 62
2
 10
294.4999999999999
 20
178.8999999999997
 30
0
 11
294.4999999999999
 21
214.7662893861809
 31
0
  0
LINE
  8
1
 62
2
 10
321.4
 20
177.4780850896479
 30
0
 11
321.4
 21
214.7662893861809
 31
0
  0
SOLID
  8
1
 62
2
 10
294.4999999999999
 20
212.7662893861809
 30
0
 11
297.9999999999999
 21
213.2212893861809
 31
0
 12
297.9999999999999
 22
212.3112893861809
 32
0
 13
297.9999999999999
 23
212.3112893861809
 33
0
  0
SOLID
  8
1
 62
2
 10
321.4
 20
212.7662893861809
 30
0
 11
317.9
 21
212.3112893861809
 31
0
 12
317.9
 22
213.2212893861809
 32
0
 13
317.9
 23
213.2212893861809
 33
0
  0
TEXT
  8
1
 62
2
 10
303.8538271118838
 20
214.7662893861809
 30
0
 40
3.5
  1
27.5
 41
0.9
  0
ENDBLK
  8
0
  0
BLOCK
  8
1
  2
*D5
 70
1
 10
0
 20
0
 30
0
  0
LINE
  8
1
 62
2
 10
244.4902516587508
 20
171.2999999999912
 30
0
 11
244.4902516587508
 21
190.71028433094
 31
0
  0
LINE
  8
1
 62
2
 10
244.4902516587508
 20
161.2999999999912
 30
0
 11
244.4902516587508
 21
171.2999999999912
 31
0
  0
LINE
  8
1
 62
2
 10
291.3000000000001
 20
171.2999999999912
 30
0
 11
242.4902516587508
 21
171.2999999999912
 31
0
  0
LINE
  8
1
 62
2
 10
291.3000000000001
 20
161.2999999999912
 30
0
 11
242.4902516587508
 21
161.2999999999912
 31
0
  0
SOLID
  8
1
 62
2
 10
244.4902516587508
 20
171.2999999999912
 30
0
 11
244.9452516587508
 21
167.7999999999912
 31
0
 12
244.0352516587508
 22
167.7999999999912
 32
0
 13
244.0352516587508
 23
167.7999999999912
 33
0
  0
SOLID
  8
1
 62
2
 10
244.4902516587508
 20
161.2999999999912
 30
0
 11
244.0352516587508
 21
164.7999999999912
 31
0
 12
244.9452516587508
 22
164.7999999999912
 32
0
 13
244.9452516587508
 23
164.7999999999912
 33
0
  0
TEXT
  8
1
 62
2
 10
241.903006587398
 20
177.35778433094
 30
0
 40
3.5
  1
10
 50
90
 41
0.9
  0
TEXT
  8
1
 62
2
 10
239.628006587398
 20
183.30778433094
 30
0
 40
2.1
  1
 0
 50
90
 41
0.9
  0
TEXT
  8
1
 62
2
 10
242.778006587398
 20
183.30778433094
 30
0
 40
2.1
  1
-0.07
 50
90
 41
0.9
  0
TEXT
  8
1
 62
2
 10
241.903006587398
 20
173.15778433094
 30
0
 40
3.5
  1
%%c
 50
90
 41
0.9
  0
ENDBLK
  8
0
  0
BLOCK
  8
1
  2
*D6
 70
1
 10
0
 20
0
 30
0
  0
LINE
  8
1
 62
2
 10
254.578294209094
 20
168.7999999999912
 30
0
 11
254.578294209094
 21
189.0630180359939
 31
0
  0
LINE
  8
1
 62
2
 10
254.578294209094
 20
163.7999999999912
 30
0
 11
254.578294209094
 21
168.7999999999912
 31
0
  0
LINE
  8
1
 62
2
 10
254.578294209094
 20
156.7999999999912
 30
0
 11
254.578294209094
 21
163.7999999999912
 31
0
  0
LINE
  8
1
 62
2
 10
288.8000000000001
 20
168.7999999999912
 30
0
 11
252.578294209094
 21
168.7999999999912
 31
0
  0
LINE
  8
1
 62
2
 10
279.1000000000003
 20
163.7999999999912
 30
0
 11
252.578294209094
 21
163.7999999999912
 31
0
  0
SOLID
  8
1
 62
2
 10
254.578294209094
 20
163.7999999999912
 30
0
 11
255.033294209094
 21
160.2999999999912
 31
0
 12
254.123294209094
 22
160.2999999999912
 32
0
 13
254.123294209094
 23
160.2999999999912
 33
0
  0
SOLID
  8
1
 62
2
 10
254.578294209094
 20
168.7999999999912
 30
0
 11
254.123294209094
 21
172.2999999999912
 31
0
 12
255.033294209094
 22
172.2999999999912
 32
0
 13
255.033294209094
 23
172.2999999999912
 33
0
  0
TEXT
  8
1
 62
2
 10
253.1515218088879
 20
177.8105180359939
 30
0
 40
3.5
  1
5
 50
90
 41
0.9
  0
TEXT
  8
1
 62
2
 10
250.8765218088879
 20
181.6605180359939
 30
0
 40
2.1
  1
 0
 50
90
 41
0.9
  0
TEXT
  8
1
 62
2
 10
254.0265218088879
 20
181.6605180359939
 30
0
 40
2.1
  1
-0.04
 50
90
 41
0.9
  0
TEXT
  8
1
 62
2
 10
253.1515218088879
 20
173.6105180359939
 30
0
 40
3.5
  1
%%c
 50
90
 41
0.9
  0
ENDBLK
  8
0
  0
BLOCK
  8
1
  2
*D7
 70
1
 10
0
 20
0
 30
0
  0
LINE
  8
1
 62
2
 10
264.4829178039757
 20
168.2999999999912
 30
0
 11
264.4829178039757
 21
190.0094584179327
 31
0
  0
LINE
  8
1
 62
2
 10
264.4829178039757
 20
163.7999999999912
 30
0
 11
264.4829178039757
 21
168.2999999999912
 31
0
  0
LINE
  8
1
 62
2
 10
264.4829178039757
 20
156.7999999999912
 30
0
 11
264.4829178039757
 21
163.7999999999912
 31
0
  0
LINE
  8
1
 62
2
 10
278.7999999999999
 20
168.2999999999912
 30
0
 11
262.4829178039757
 21
168.2999999999912
 31
0
  0
LINE
  8
1
 62
2
 10
279.1000000000001
 20
163.7999999999912
 30
0
 11
262.4829178039757
 21
163.7999999999912
 31
0
  0
SOLID
  8
1
 62
2
 10
264.4829178039757
 20
163.7999999999912
 30
0
 11
264.9379178039757
 21
160.2999999999912
 31
0
 12
264.0279178039757
 22
160.2999999999912
 32
0
 13
264.0279178039757
 23
160.2999999999912
 33
0
  0
SOLID
  8
1
 62
2
 10
264.4829178039757
 20
168.2999999999912
 30
0
 11
264.0279178039757
 21
171.7999999999912
 31
0
 12
264.9379178039757
 22
171.7999999999912
 32
0
 13
264.9379178039757
 23
171.7999999999912
 33
0
  0
TEXT
  8
1
 62
2
 10
262.9068712930078
 20
172.0668113591091
 30
0
 40
3.5
  1
4.5
 50
90
 41
0.9
  0
TEXT
  8
1
 62
2
 10
262.9068712930078
 20
180.3793113591091
 30
0
 40
3.5
  1
ü}0.1
 50
90
 41
0.9
  0
ENDBLK
  8
0
  0
BLOCK
  8
1
  2
*D8
 70
1
 10
0
 20
0
 30
0
  0
LINE
  8
1
 62
2
 10
279.4999999999999
 20
212.7689811079118
 30
0
 11
294.4999999999999
 21
212.7689811079118
 31
0
  0
LINE
  8
1
 62
2
 10
294.4999999999999
 20
178.5999999999997
 30
0
 11
294.4999999999999
 21
214.7689811079118
 31
0
  0
LINE
  8
1
 62
2
 10
279.4999999999999
 20
168.9999999999912
 30
0
 11
279.4999999999999
 21
214.7689811079118
 31
0
  0
SOLID
  8
1
 62
2
 10
279.4999999999999
 20
212.7689811079118
 30
0
 11
282.9999999999999
 21
213.2239811079118
 31
0
 12
282.9999999999999
 22
212.3139811079118
 32
0
 13
282.9999999999999
 23
212.3139811079118
 33
0
  0
SOLID
  8
1
 62
2
 10
294.4999999999999
 20
212.7689811079118
 30
0
 11
290.9999999999999
 21
212.3139811079118
 31
0
 12
290.9999999999999
 22
213.2239811079118
 32
0
 13
290.9999999999999
 23
213.2239811079118
 33
0
  0
TEXT
  8
1
 62
2
 10
278.4109812626281
 20
214.7689811079118
 30
0
 40
3.5
  1
15
 41
0.9
  0
TEXT
  8
1
 62
2
 10
284.3609812626282
 20
214.7689811079118
 30
0
 40
3.5
  1
ü}0.8
 41
0.9
  0
ENDBLK
  8
0
  0
BLOCK
  8
1
  2
*D9
 70
1
 10
0
 20
0
 30
0
  0
LINE
  8
1
 62
2
 10
92.2792424781959
 20
153.7999999999997
 30
0
 11
92.2792424781959
 21
166.1999999999997
 31
0
  0
LINE
  8
1
 62
2
 10
110.0919913369011
 20
153.7999999999997
 30
0
 11
91.2792424781959
 21
153.7999999999997
 31
0
  0
LINE
  8
1
 62
2
 10
139.4919913369007
 20
166.1999999999997
 30
0
 11
91.2792424781959
 21
166.1999999999997
 31
0
  0
SOLID
  8
1
 62
2
 10
92.2792424781959
 20
153.7999999999997
 30
0
 11
91.8242424781959
 21
157.2999999999997
 31
0
 12
92.7342424781959
 22
157.2999999999997
 32
0
 13
92.7342424781959
 23
157.2999999999997
 33
0
  0
SOLID
  8
1
 62
2
 10
92.2792424781959
 20
166.1999999999997
 30
0
 11
92.7342424781959
 21
162.6999999999997
 31
0
 12
91.8242424781959
 22
162.6999999999997
 32
0
 13
91.8242424781959
 23
162.6999999999997
 33
0
  0
TEXT
  8
1
 62
2
 10
89.62651687521782
 20
155.4802773830126
 30
0
 40
3.5
  1
(12.4)
 50
90
 41
0.7200000000000001
  0
ENDBLK
  8
0
  0
BLOCK
  8
1
  2
*D10
 70
1
 10
0
 20
0
 30
0
  0
LINE
  8
1
 62
2
 10
187.0886700145979
 20
153.7999999999997
 30
0
 11
187.0886700145979
 21
158.8103789215479
 31
0
  0
LINE
  8
1
 62
2
 10
187.0886700145979
 20
153.7999999999997
 30
0
 11
187.0886700145979
 21
146.7999999999997
 31
0
  0
LINE
  8
1
 62
2
 10
187.0886700145979
 20
158.8103789215479
 30
0
 11
187.0886700145979
 21
165.8103789215479
 31
0
  0
LINE
  8
1
 62
2
 10
168.0919913369011
 20
153.7999999999997
 30
0
 11
188.0886700145979
 21
153.7999999999997
 31
0
  0
LINE
  8
1
 62
2
 10
164.564037356888
 20
158.8103789215479
 30
0
 11
188.0886700145979
 21
158.8103789215479
 31
0
  0
SOLID
  8
1
 62
2
 10
187.0886700145979
 20
153.7999999999997
 30
0
 11
187.5436700145979
 21
150.2999999999997
 31
0
 12
186.6336700145979
 22
150.2999999999997
 32
0
 13
186.6336700145979
 23
150.2999999999997
 33
0
  0
SOLID
  8
1
 62
2
 10
187.0886700145979
 20
158.8103789215479
 30
0
 11
186.6336700145979
 21
162.3103789215479
 31
0
 12
187.5436700145979
 22
162.3103789215479
 32
0
 13
187.5436700145979
 23
162.3103789215479
 33
0
  0
TEXT
  8
1
 62
2
 10
186.0864104840279
 20
155.383752073036
 30
0
 40
3.5
  1
5
 50
90
 41
0.9
  0
ENDBLK
  8
0
  0
BLOCK
  8
1
  2
*D11
 70
1
 10
0
 20
0
 30
0
  0
LINE
  8
1
 62
2
 10
80.7023497868021
 20
166.1999999999997
 30
0
 11
80.7023497868021
 21
188.5676448237728
 31
0
  0
LINE
  8
1
 62
2
 10
80.7023497868021
 20
153.4999999999997
 30
0
 11
80.7023497868021
 21
166.1999999999997
 31
0
  0
LINE
  8
1
 62
2
 10
139.4919913369007
 20
166.1999999999997
 30
0
 11
79.7023497868021
 21
166.1999999999997
 31
0
  0
LINE
  8
1
 62
2
 10
110.8919913369008
 20
153.4999999999997
 30
0
 11
79.7023497868021
 21
153.4999999999997
 31
0
  0
SOLID
  8
1
 62
2
 10
80.7023497868021
 20
153.4999999999997
 30
0
 11
80.2473497868021
 21
156.9999999999997
 31
0
 12
81.1573497868021
 22
156.9999999999997
 32
0
 13
81.1573497868021
 23
156.9999999999997
 33
0
  0
SOLID
  8
1
 62
2
 10
80.7023497868021
 20
166.1999999999997
 30
0
 11
81.1573497868021
 21
162.6999999999997
 31
0
 12
80.2473497868021
 22
162.6999999999997
 32
0
 13
80.2473497868021
 23
162.6999999999997
 33
0
  0
TEXT
  8
1
 62
2
 10
78.7023497868021
 20
169.2074977649492
 30
0
 40
3.5
  1
12.7
 50
90
 41
0.7200000000000001
  0
TEXT
  8
1
 62
2
 10
78.7023497868021
 20
177.8874977649493
 30
0
 40
3.5
  1
ü}0.2
 50
90
 41
0.9
  0
ENDBLK
  8
0
  0
BLOCK
  8
1
  2
*D12
 70
1
 10
0
 20
0
 30
0
  0
LINE
  8
1
 62
2
 10
72.2697428402488
 20
146.6999999999997
 30
0
 11
72.2697428402488
 21
166.1999999999997
 31
0
  0
LINE
  8
1
 62
2
 10
139.4919913369007
 20
166.1999999999997
 30
0
 11
71.2697428402488
 21
166.1999999999997
 31
0
  0
LINE
  8
1
 62
2
 10
111.9919913369007
 20
146.6999999999997
 30
0
 11
71.2697428402488
 21
146.6999999999997
 31
0
  0
SOLID
  8
1
 62
2
 10
72.2697428402488
 20
166.1999999999997
 30
0
 11
72.72474284024879
 21
162.6999999999997
 31
0
 12
71.8147428402488
 22
162.6999999999997
 32
0
 13
71.8147428402488
 23
162.6999999999997
 33
0
  0
SOLID
  8
1
 62
2
 10
72.2697428402488
 20
146.6999999999997
 30
0
 11
71.8147428402488
 21
150.1999999999997
 31
0
 12
72.72474284024879
 22
150.1999999999997
 32
0
 13
72.72474284024879
 23
150.1999999999997
 33
0
  0
TEXT
  8
1
 62
2
 10
70.2697428402488
 20
145.1470349717754
 30
0
 40
3.5
  1
19.5
 50
90
 41
0.9
  0
TEXT
  8
1
 62
2
 10
70.2697428402488
 20
155.5595349717754
 30
0
 40
3.5
  1
ü}0.2
 50
90
 41
0.9
  0
ENDBLK
  8
0
  0
BLOCK
  8
1
  2
*D13
 70
1
 10
0
 20
0
 30
0
  0
LINE
  8
1
 62
2
 10
111.9919913369007
 20
192.1223372704273
 30
0
 11
166.9919913369007
 21
192.1223372704273
 31
0
  0
LINE
  8
1
 62
2
 10
166.9919913369007
 20
147.6999999999997
 30
0
 11
166.9919913369007
 21
193.1223372704273
 31
0
  0
LINE
  8
1
 62
2
 10
111.9919913369007
 20
147.6999999999997
 30
0
 11
111.9919913369007
 21
193.1223372704273
 31
0
  0
SOLID
  8
1
 62
2
 10
166.9919913369007
 20
192.1223372704273
 30
0
 11
163.4919913369007
 21
191.6673372704273
 31
0
 12
163.4919913369007
 22
192.5773372704273
 32
0
 13
163.4919913369007
 23
192.5773372704273
 33
0
  0
SOLID
  8
1
 62
2
 10
111.9919913369007
 20
192.1223372704273
 30
0
 11
115.4919913369007
 21
192.5773372704273
 31
0
 12
115.4919913369007
 22
191.6673372704273
 32
0
 13
115.4919913369007
 23
191.6673372704273
 33
0
  0
TEXT
  8
1
 62
2
 10
130.6519178074889
 20
194.1223372704273
 30
0
 40
3.5
  1
55
 41
0.9
  0
TEXT
  8
1
 62
2
 10
137.6519178074889
 20
194.1223372704273
 30
0
 40
3.5
  1
ü}0.2
 41
0.9
  0
ENDBLK
  8
0
  0
BLOCK
  8
1
  2
*D14
 70
1
 10
0
 20
0
 30
0
  0
LINE
  8
1
 62
2
 10
110.8919913369008
 20
202.439614087573
 30
0
 11
168.0919913369011
 21
202.439614087573
 31
0
  0
LINE
  8
1
 62
2
 10
168.0919913369011
 20
154.4999999999997
 30
0
 11
168.0919913369011
 21
203.439614087573
 31
0
  0
LINE
  8
1
 62
2
 10
110.8919913369008
 20
154.4999999999997
 30
0
 11
110.8919913369008
 21
203.439614087573
 31
0
  0
SOLID
  8
1
 62
2
 10
110.8919913369008
 20
202.439614087573
 30
0
 11
114.3919913369008
 21
202.894614087573
 31
0
 12
114.3919913369008
 22
201.984614087573
 32
0
 13
114.3919913369008
 23
201.984614087573
 33
0
  0
SOLID
  8
1
 62
2
 10
168.0919913369011
 20
202.439614087573
 30
0
 11
164.5919913369011
 21
201.984614087573
 31
0
 12
164.5919913369011
 22
202.894614087573
 32
0
 13
164.5919913369011
 23
202.894614087573
 33
0
  0
TEXT
  8
1
 62
2
 10
128.4206678074889
 20
204.439614087573
 30
0
 40
3.5
  1
57.2
 41
0.9
  0
TEXT
  8
1
 62
2
 10
139.8831678074889
 20
204.439614087573
 30
0
 40
3.5
  1
ü}0.2
 41
0.9
  0
ENDBLK
  8
0
  0
BLOCK
  8
1
  2
*D15
 70
1
 10
0
 20
0
 30
0
  0
LINE
  8
1
 62
2
 10
107.0919913369007
 20
212.0226935244492
 30
0
 11
171.8919913369007
 21
212.0226935244492
 31
0
  0
LINE
  8
1
 62
2
 10
171.8919913369007
 20
155.634415144413
 30
0
 11
171.8919913369007
 21
213.0226935244492
 31
0
  0
LINE
  8
1
 62
2
 10
107.0919913369007
 20
155.6497227708567
 30
0
 11
107.0919913369007
 21
213.0226935244492
 31
0
  0
SOLID
  8
1
 62
2
 10
171.8919913369007
 20
212.0226935244492
 30
0
 11
168.3919913369007
 21
211.5676935244492
 31
0
 12
168.3919913369007
 22
212.4776935244492
 32
0
 13
168.3919913369007
 23
212.4776935244492
 33
0
  0
SOLID
  8
1
 62
2
 10
107.0919913369007
 20
212.0226935244492
 30
0
 11
110.5919913369007
 21
212.4776935244492
 31
0
 12
110.5919913369007
 22
211.5676935244492
 32
0
 13
110.5919913369007
 23
211.5676935244492
 33
0
  0
TEXT
  8
1
 62
2
 10
134.0093627543339
 20
214.0226935244492
 30
0
 40
3.5
  1
64.8
 41
0.9
  0
ENDBLK
  8
0
  0
BLOCK
  8
1
  2
*D16
 70
1
 10
0
 20
0
 30
0
  0
LINE
  8
1
 62
2
 10
291.4999999999999
 20
202.6682583972583
 30
0
 11
284.4999999999999
 21
202.6682583972583
 31
0
  0
LINE
  8
1
 62
2
 10
291.4999999999999
 20
202.6682583972583
 30
0
 11
294.4999999999999
 21
202.6682583972583
 31
0
  0
LINE
  8
1
 62
2
 10
294.4999999999999
 20
202.6682583972583
 30
0
 11
294.4999999999999
 21
202.6682583972583
 31
0
  0
LINE
  8
1
 62
2
 10
294.4999999999999
 20
178.8999999999997
 30
0
 11
294.4999999999999
 21
203.6682583972583
 31
0
  0
LINE
  8
1
 62
2
 10
291.4999999999999
 20
171.6999999999912
 30
0
 11
291.4999999999999
 21
203.6682583972583
 31
0
  0
SOLID
  8
1
 62
2
 10
291.4999999999999
 20
202.6682583972583
 30
0
 11
287.9999999999999
 21
202.2132583972583
 31
0
 12
287.9999999999999
 22
203.1232583972583
 32
0
 13
287.9999999999999
 23
203.1232583972583
 33
0
  0
TEXT
  8
1
 62
2
 10
285.6432623897277
 20
204.6682583972583
 30
0
 40
3.5
  1
3
 41
0.9
  0
ENDBLK
  8
0
  0
BLOCK
  8
1
  2
*D17
 70
1
 10
0
 20
0
 30
0
  0
LINE
  8
1
 62
2
 10
337.6706539359037
 20
129.9999999999997
 30
0
 11
337.6706539359037
 21
177.7999999999997
 31
0
  0
LINE
  8
1
 62
2
 10
320.3999999999999
 20
129.9999999999997
 30
0
 11
338.6706539359037
 21
129.9999999999997
 31
0
  0
LINE
  8
1
 62
2
 10
320.3999999999999
 20
177.7999999999997
 30
0
 11
338.6706539359037
 21
177.7999999999997
 31
0
  0
SOLID
  8
1
 62
2
 10
337.6706539359037
 20
177.7999999999997
 30
0
 11
338.0866539359037
 21
174.5999999999997
 31
0
 12
337.2546539359037
 22
174.5999999999997
 32
0
 13
337.2546539359037
 23
174.5999999999997
 33
0
  0
SOLID
  8
1
 62
2
 10
337.6706539359037
 20
129.9999999999997
 30
0
 11
337.2546539359037
 21
133.1999999999997
 31
0
 12
338.0866539359037
 22
133.1999999999997
 32
0
 13
338.0866539359037
 23
133.1999999999997
 33
0
  0
TEXT
  8
1
 62
2
 10
335.895568730918
 20
152.2073842237435
 30
0
 40
3.2
  1
47.8
 50
90
 41
0.9
  0
TEXT
  8
1
 62
2
 10
335.895568730918
 20
148.3673842237435
 30
0
 40
3.2
  1
%%c
 50
90
 41
0.9
  0
ENDBLK
  8
0
  0
BLOCK
  8
1
  2
*D18
 70
1
 10
0
 20
0
 30
0
  0
LINE
  8
1
 62
2
 10
279.4999999999999
 20
192.9499999999912
 30
0
 11
289.4999999999999
 21
192.9499999999912
 31
0
  0
LINE
  8
1
 62
2
 10
279.4999999999999
 20
169.2999999999912
 30
0
 11
279.4999999999999
 21
193.9499999999912
 31
0
  0
LINE
  8
1
 62
2
 10
289.4999999999999
 20
169.7999999999912
 30
0
 11
289.4999999999999
 21
193.9499999999912
 31
0
  0
SOLID
  8
1
 62
2
 10
279.4999999999999
 20
192.9499999999912
 30
0
 11
282.6999999999999
 21
193.3659999999912
 31
0
 12
282.6999999999999
 22
192.5339999999912
 32
0
 13
282.6999999999999
 23
192.5339999999912
 33
0
  0
SOLID
  8
1
 62
2
 10
289.4999999999999
 20
192.9499999999912
 30
0
 11
286.2999999999999
 21
192.5339999999912
 31
0
 12
286.2999999999999
 22
193.3659999999912
 32
0
 13
286.2999999999999
 23
193.3659999999912
 33
0
  0
TEXT
  8
1
 62
2
 10
282.5799999999999
 20
193.9499999999912
 30
0
 40
3.2
  1
10
 41
0.9
  0
ENDBLK
  8
0
  0
BLOCK
  8
1
  2
*D19
 70
1
 10
0
 20
0
 30
0
  0
LINE
  8
1
 62
2
 10
187.0886700145978
 20
140.7881001693163
 30
0
 11
187.0886700145978
 21
153.7999999999997
 31
0
  0
LINE
  8
1
 62
2
 10
162.203401200178
 20
140.7881001693163
 30
0
 11
188.0886700145978
 21
140.7881001693163
 31
0
  0
LINE
  8
1
 62
2
 10
169.091991336901
 20
153.7999999999997
 30
0
 11
188.0886700145978
 21
153.7999999999997
 31
0
  0
SOLID
  8
1
 62
2
 10
187.0886700145978
 20
140.7881001693163
 30
0
 11
186.6726700145978
 21
143.9881001693163
 31
0
 12
187.5046700145978
 22
143.9881001693163
 32
0
 13
187.5046700145978
 23
143.9881001693163
 33
0
  0
SOLID
  8
1
 62
2
 10
187.0886700145978
 20
153.7999999999997
 30
0
 11
187.5046700145978
 21
150.5999999999997
 31
0
 12
186.6726700145978
 22
150.5999999999997
 32
0
 13
186.6726700145978
 23
150.5999999999997
 33
0
  0
TEXT
  8
1
 62
2
 10
186.0886700145979
 20
145.374050084658
 30
0
 40
3.200000000000001
  1
13
 50
90
 41
0.9
  0
ENDBLK
  8
0
  0
BLOCK
  8
1
  2
*D20
 70
1
 10
0
 20
0
 30
0
  0
LINE
  8
1
 62
2
 10
178.4026976369877
 20
178.8170949784711
 30
0
 11
195.0261417027776
 21
178.8170949784711
 31
0
  0
LINE
  8
1
 62
2
 10
169.5252824640073
 20
157.0193289907248
 30
0
 11
178.4026976369877
 21
178.8170949784711
 31
0
  0
SOLID
  8
1
 62
2
 10
169.5252824640073
 20
157.0193289907248
 30
0
 11
170.3469905552174
 21
160.1398821168292
 31
0
 12
171.1175383763446
 22
159.8260667963681
 32
0
 13
171.1175383763446
 23
159.8260667963681
 33
0
  0
TEXT
  8
1
 62
2
 10
189.1861417027777
 20
180.1525952791636
 30
0
 40
3.2
  1
3.8
 41
0.9
  0
TEXT
  8
1
 62
2
 10
179.9061417027777
 20
180.1525952791636
 30
0
 40
3.2
  1
4-R
 41
0.9
  0
ENDBLK
  8
0
  0
BLOCK
  8
1
  2
*D21
 70
1
 10
0
 20
0
 30
0
  0
LINE
  8
1
 62
2
 10
93.82823606079698
 20
128.399989817541
 30
0
 11
61.98353017844403
 21
128.399989817541
 31
0
  0
LINE
  8
1
 62
2
 10
116.6416469550496
 20
151.3823539206662
 30
0
 11
93.82823606079698
 21
128.399989817541
 31
0
  0
SOLID
  8
1
 62
2
 10
110.7239034410327
 20
145.4207843536048
 30
0
 11
108.7647645952129
 21
142.8566410302315
 31
0
 12
108.1742853238113
 22
143.4427794354269
 32
0
 13
108.1742853238113
 23
143.4427794354269
 33
0
  0
SOLID
  8
1
 62
2
 10
113.2600792327687
 20
147.9757427395028
 30
0
 11
115.2192180785885
 21
150.5398860628761
 31
0
 12
115.8096973499901
 22
149.9537476576807
 32
0
 13
115.8096973499901
 23
149.9537476576807
 33
0
  0
TEXT
  8
1
 62
2
 10
71.26353017844403
 20
129.399989817541
 30
0
 40
3.2
  1
3.6
 41
0.9
  0
TEXT
  8
1
 62
2
 10
61.98353017844404
 20
129.399989817541
 30
0
 40
3.2
  1
4-%%c
 41
0.9
  0
TEXT
  8
1
 62
2
 10
78.86353017844404
 20
129.399989817541
 30
0
 40
3.2
  1
ü}0.2
 41
0.9
  0
ENDBLK
  8
0
  0
BLOCK
  8
1
  2
*D22
 70
1
 10
0
 20
0
 30
0
  0
LINE
  8
1
 62
2
 10
139.4919913368861
 20
153.7999999999997
 30
0
 11
92.19504144200789
 21
113.7951599243589
 31
0
  0
LINE
  8
1
 62
2
 10
92.19504144200789
 20
113.7951599243589
 30
0
 11
78.35504144200775
 21
113.7951599243589
 31
0
  0
SOLID
  8
1
 62
2
 10
121.1677298600993
 20
138.3009212747888
 30
0
 11
123.3423140257673
 21
140.6850856370813
 31
0
 12
123.8796154215746
 22
140.0498445725527
 32
0
 13
123.8796154215746
 23
140.0498445725527
 33
0
  0
TEXT
  8
1
 62
2
 10
82.19504144200791
 20
114.7951599243589
 30
0
 40
3.200000000000001
  1
48
 41
0.9
  0
TEXT
  8
1
 62
2
 10
78.35504144200792
 20
114.7951599243589
 30
0
 40
3.200000000000001
  1
%%c
 41
0.9
  0
ENDBLK
  8
0
  0
ENDSEC
  0
SECTION
  2
ENTITIES
  0
LINE
  8
1
 62
7
 10
141.191991336901
 20
104.116703593251
 30
0
 11
141.191991336901
 21
67.2983749005634
 31
0
  0
LINE
  8
1
 62
7
 10
139.4919913369007
 20
104.116703593251
 30
0
 11
139.4919913369007
 21
67.2983749005634
 31
0
  0
LINE
  8
1
 62
7
 10
137.7919913369009
 20
104.116703593251
 30
0
 11
137.7919913369009
 21
67.2983749005634
 31
0
  0
LINE
  8
1
 62
7
 10
138.2919913369009
 20
67.2983749005634
 30
0
 11
138.9919913369007
 21
67.2983749005634
 31
0
  0
LINE
  8
1
 62
7
 10
138.2919913369009
 20
60.2983749005634
 30
0
 11
138.2919913369009
 21
67.2983749005634
 31
0
  0
LINE
  8
1
 62
7
 10
138.9919913369007
 20
60.2983749005634
 30
0
 11
138.2919913369009
 21
60.2983749005634
 31
0
  0
LINE
  8
1
 62
7
 10
138.9919913369007
 20
67.2983749005634
 30
0
 11
139.4919913369007
 21
67.2983749005634
 31
0
  0
LINE
  8
1
 62
7
 10
138.9919913369007
 20
67.2983749005634
 30
0
 11
138.9919913369007
 21
60.2983749005634
 31
0
  0
LINE
  8
1
 62
7
 10
139.9919913369007
 20
67.2983749005634
 30
0
 11
140.691991336901
 21
67.2983749005634
 31
0
  0
LINE
  8
1
 62
7
 10
139.9919913369007
 20
60.2983749005634
 30
0
 11
139.9919913369007
 21
67.2983749005634
 31
0
  0
LINE
  8
1
 62
7
 10
140.691991336901
 20
60.2983749005634
 30
0
 11
139.9919913369007
 21
60.2983749005634
 31
0
  0
LINE
  8
1
 62
7
 10
140.691991336901
 20
67.2983749005634
 30
0
 11
141.191991336901
 21
67.2983749005634
 31
0
  0
LINE
  8
1
 62
7
 10
140.691991336901
 20
67.2983749005634
 30
0
 11
140.691991336901
 21
60.2983749005634
 31
0
  0
LINE
  8
1
 62
7
 10
139.4919913369007
 20
67.2983749005634
 30
0
 11
139.9919913369007
 21
67.2983749005634
 31
0
  0
LINE
  8
1
 62
7
 10
137.7919913369009
 20
67.2983749005634
 30
0
 11
138.2919913369009
 21
67.2983749005634
 31
0
  0
LINE
  8
1
 62
7
 10
139.4919913369007
 20
128.7999999999997
 30
0
 11
144.4919913369007
 21
128.7999999999997
 31
0
  0
LINE
  8
1
 62
2
 10
139.4919913369007
 20
128.7999999999997
 30
0
 11
139.4919913369007
 21
120.2569350297514
 31
0
  0
LINE
  8
1
 62
7
 10
139.4919913369007
 20
128.7999999999997
 30
0
 11
139.4919913369007
 21
105.73857171838
 31
0
  0
LINE
  8
1
 62
7
 10
137.7919913369009
 20
128.7999999999997
 30
0
 11
139.4919913369007
 21
128.7999999999997
 31
0
  0
LINE
  8
1
 62
7
 10
137.7919913369009
 20
128.7999999999997
 30
0
 11
137.7919913369009
 21
105.73857171838
 31
0
  0
LINE
  8
1
 62
7
 10
141.191991336901
 20
120.2569350297514
 30
0
 11
141.191991336901
 21
105.73857171838
 31
0
  0
LINE
  8
1
 62
7
 10
310.3000000000078
 20
121.5251185721891
 30
0
 11
310.3000000000078
 21
128.9000000000001
 31
0
  0
LINE
  8
1
 62
7
 10
295.4999999999999
 20
130
 30
0
 11
295.4999999999908
 21
130
 31
0
  0
LINE
  8
1
 62
7
 10
295.4999999999999
 20
130.6499999999997
 30
0
 11
295.4999999999908
 21
130
 31
0
  0
LINE
  8
1
 62
2
 10
297.4999999999999
 20
166.2999999999912
 30
0
 11
277.4999999999999
 21
166.2999999999912
 31
0
  0
LINE
  8
1
 62
7
 10
279.8000000000001
 20
168.2999999999912
 30
0
 11
279.4999999999999
 21
168.2999999999912
 31
0
  0
LINE
  8
1
 62
7
 10
279.8000000000001
 20
163.7999999999912
 30
0
 11
279.8000000000001
 21
168.2999999999912
 31
0
  0
LINE
  8
1
 62
7
 10
279.4999999999999
 20
164.0999999999912
 30
0
 11
279.8000000000001
 21
163.7999999999912
 31
0
  0
LINE
  8
1
 62
7
 10
291.4999999999999
 20
163.7999999999912
 30
0
 11
291.4999999999999
 21
168.7999999999912
 31
0
  0
LINE
  8
1
 62
7
 10
291.4999999999999
 20
163.7999999999912
 30
0
 11
279.8000000000001
 21
163.7999999999912
 31
0
  0
LINE
  8
1
 62
7
 10
279.4999999999999
 20
168.2999999999912
 30
0
 11
279.4999999999999
 21
164.0999999999912
 31
0
  0
LINE
  8
1
 62
7
 10
289.4999999999999
 20
168.2999999999912
 30
0
 11
279.8000000000001
 21
168.2999999999912
 31
0
  0
LINE
  8
1
 62
7
 10
289.4999999999999
 20
168.7999999999912
 30
0
 11
289.4999999999999
 21
168.2999999999912
 31
0
  0
LINE
  8
1
 62
7
 10
291.4999999999999
 20
168.7999999999912
 30
0
 11
291.4999999999999
 21
170.6999999999912
 31
0
  0
LINE
  8
1
 62
7
 10
291.4999999999999
 20
168.7999999999912
 30
0
 11
289.4999999999999
 21
168.7999999999912
 31
0
  0
LINE
  8
1
 62
2
 10
332.0933607873789
 20
193.2025804246666
 30
0
 11
359.0341912557741
 21
193.2025804246666
 31
0
  0
LINE
  8
1
 62
7
 10
322.1999999999997
 20
131.7999999999997
 30
0
 11
322.1999999999997
 21
175.7999999999997
 31
0
  0
LINE
  8
1
 62
2
 10
110.8919913369008
 20
150.6999999999997
 30
0
 11
110.8919913369008
 21
203.5440149995933
 31
0
  0
LINE
  8
1
 62
2
 10
170.8919913369008
 20
153.4999999999997
 30
0
 11
165.2919913369009
 21
153.4999999999997
 31
0
  0
LINE
  8
1
 62
2
 10
168.0919913369011
 20
150.6999999999997
 30
0
 11
168.091991336902
 21
203.5434878940521
 31
0
  0
LINE
  8
1
 62
2
 10
110.0919913369011
 20
153.7999999999997
 30
0
 11
168.0919913369011
 21
153.7999999999997
 31
0
  0
LINE
  8
1
 62
2
 10
111.9919913369007
 20
143.7999999999997
 30
0
 11
111.9919913369012
 21
193.1803322725417
 31
0
  0
LINE
  8
1
 62
2
 10
114.8919913369008
 20
146.6999999999997
 30
0
 11
111.9919913369007
 21
146.6999999999997
 31
0
  0
LINE
  8
1
 62
2
 10
113.8919913369008
 20
153.4999999999997
 30
0
 11
110.8919913369008
 21
153.4999999999997
 31
0
  0
LINE
  8
1
 62
2
 10
148.4919913369007
 20
166.1999999999997
 30
0
 11
139.4919913369007
 21
166.1999999999997
 31
0
  0
LINE
  8
1
 62
7
 10
170.7432274521019
 20
146.0931823931289
 30
0
 11
171.8432274521027
 21
152.8931823931289
 31
0
  0
LINE
  8
1
 62
2
 10
292.9999999999999
 20
146.6999999999997
 30
0
 11
296.9999999999999
 21
146.6999999999997
 31
0
  0
LINE
  8
1
 62
2
 10
292.9999999999999
 20
153.4999999999997
 30
0
 11
296.9999999999999
 21
153.4999999999997
 31
0
  0
LINE
  8
1
 62
2
 10
291.3656551621529
 20
153.7999999999997
 30
0
 11
324.4999999999999
 21
153.7999999999997
 31
0
  0
LINE
  8
1
 62
7
 10
294.4999999999999
 20
140.8209460303128
 30
0
 11
294.4999999999999
 21
158.7999999999997
 31
0
  0
LINE
  8
1
 62
7
 10
295.4999999999999
 20
140.8209460303128
 30
0
 11
295.4999999999999
 21
130.6499999999997
 31
0
  0
LINE
  8
1
 62
7
 10
295.4999999999999
 20
140.8209460303128
 30
0
 11
294.4999999999999
 21
140.8209460303128
 31
0
  0
LINE
  8
1
 62
7
 10
294.4999999999999
 20
158.7999999999997
 30
0
 11
294.4999999999999
 21
177.8999999999997
 31
0
  0
LINE
  8
1
 62
7
 10
295.4999999999999
 20
158.7999999999997
 30
0
 11
295.4999999999999
 21
140.8209460303128
 31
0
  0
LINE
  8
1
 62
7
 10
295.4999999999999
 20
158.7999999999997
 30
0
 11
294.4999999999999
 21
158.7999999999997
 31
0
  0
LINE
  8
1
 62
7
 10
295.4999999999999
 20
177.8999999999997
 30
0
 11
295.4999999999999
 21
158.7999999999997
 31
0
  0
LINE
  8
1
 62
7
 10
291.9999999999999
 20
170.6999999999912
 30
0
 11
291.9999999999999
 21
171.2999999999912
 31
0
  0
LINE
  8
1
 62
7
 10
291.4999999999999
 20
170.6999999999912
 30
0
 11
291.9999999999999
 21
170.6999999999912
 31
0
  0
LINE
  8
1
 62
7
 10
291.4999999999999
 20
161.8999999999912
 30
0
 11
291.4999999999999
 21
163.7999999999912
 31
0
  0
LINE
  8
1
 62
7
 10
291.9999999999999
 20
161.8999999999912
 30
0
 11
291.9999999999999
 21
170.6999999999912
 31
0
  0
LINE
  8
1
 62
7
 10
291.9999999999999
 20
161.8999999999912
 30
0
 11
291.4999999999999
 21
161.8999999999912
 31
0
  0
LINE
  8
1
 62
7
 10
294.4999999999999
 20
130
 30
0
 11
294.4999999999999
 21
140.8209460303128
 31
0
  0
LINE
  8
1
 62
7
 10
296.4999999999908
 20
130.6499999999997
 30
0
 11
296.4999999999908
 21
128.9000000000001
 31
0
  0
LINE
  8
1
 62
7
 10
306.4999999999908
 20
128.9000000000001
 30
0
 11
295.4999999999908
 21
128.9000000000001
 31
0
  0
LINE
  8
1
 62
7
 10
291.9999999999999
 20
161.2999999999912
 30
0
 11
291.9999999999999
 21
161.8999999999912
 31
0
  0
LINE
  8
1
 62
7
 10
130.457727812723
 20
132.4675318361329
 30
0
 11
130.6736375992758
 21
133.1320338317514
 31
0
  0
LINE
  8
1
 62
7
 10
130.457727812723
 20
132.4675318361329
 30
0
 11
130.4318646498217
 21
132.3879332054542
 31
0
  0
LINE
  8
1
 62
7
 10
148.3103450745028
 20
133.132033831756
 30
0
 11
148.7847159550578
 21
131.6720703821879
 31
0
  0
LINE
  8
1
 62
7
 10
133.4919913369007
 20
132.1452502167876
 30
0
 11
133.4919913369007
 21
129.7999999999997
 31
0
  0
LINE
  8
1
 62
7
 10
160.5748206174498
 20
163.6018778571873
 30
0
 11
161.2821298056869
 21
163.8593173481336
 31
0
  0
LINE
  8
1
 62
7
 10
291.9999999999999
 20
161.2999999999912
 30
0
 11
294.4999999999999
 21
161.2999999999912
 31
0
  0
LINE
  8
1
 62
7
 10
291.9999999999999
 20
171.2999999999912
 30
0
 11
294.4999999999999
 21
171.2999999999912
 31
0
  0
LINE
  8
1
 62
7
 10
145.4919913369007
 20
129.7999999999997
 30
0
 11
145.4919913369007
 21
132.1452502167876
 31
0
  0
LINE
  8
1
 62
2
  6
DASHED
 10
132.9919913369007
 20
166.1999999999997
 30
0
 11
132.9919913369007
 21
161.1999999999997
 31
0
  0
LINE
  8
1
 62
2
  6
DASHED
 10
134.4919913369007
 20
159.6999999999997
 30
0
 11
144.4919913369007
 21
159.6999999999997
 31
0
  0
LINE
  8
1
 62
2
  6
DASHED
 10
145.9919913369007
 20
161.1999999999997
 30
0
 11
145.9919913369007
 21
166.1999999999997
 31
0
  0
LINE
  8
1
 62
7
 10
131.9919913369007
 20
161.1999999999997
 30
0
 11
131.9919913369007
 21
166.1999999999997
 31
0
  0
LINE
  8
1
 62
7
 10
146.9919913369007
 20
166.1999999999997
 30
0
 11
146.9919913369007
 21
161.1999999999997
 31
0
  0
LINE
  8
1
 62
7
 10
144.4919913369007
 20
158.6999999999997
 30
0
 11
134.4919913369007
 21
158.6999999999997
 31
0
  0
LINE
  8
1
 62
7
 10
294.4999999999999
 20
177.8999999999997
 30
0
 11
295.4999999999999
 21
177.8999999999997
 31
0
  0
LINE
  8
1
 62
7
 10
167.983359871744
 20
143.0315959290004
 30
0
 11
159.658559284764
 21
140.7881001693164
 31
0
  0
LINE
  8
1
 62
7
 10
162.9631673419889
 20
158.8103789215479
 30
0
 11
169.0788796182577
 21
157.1696119032016
 31
0
  0
LINE
  8
1
 62
7
 10
107.1407552217
 20
152.8931823931289
 30
0
 11
108.2407552216999
 21
146.0931823931289
 31
0
  0
LINE
  8
1
 62
7
 10
119.2582941957461
 20
140.7999999999997
 30
0
 11
111.0006228020578
 21
143.0315959290004
 31
0
  0
LINE
  8
1
 62
7
 10
109.9051030555437
 20
157.1696119032016
 30
0
 11
116.0214726276621
 21
158.8134570428087
 31
0
  0
LINE
  8
1
 62
7
 10
295.4999999999999
 20
177.7999999999997
 30
0
 11
319.4
 21
177.7999999999997
 31
0
  0
LINE
  8
1
 62
7
 10
308.1999999999961
 20
130
 30
0
 11
308.1999999999947
 21
128.9000000000001
 31
0
  0
LINE
  8
1
 62
7
 10
308.1999999999961
 20
130
 30
0
 11
306.4999999999908
 21
130
 31
0
  0
LINE
  8
1
 62
7
 10
308.1999999999947
 20
128.9000000000001
 30
0
 11
312.7999999999937
 21
128.9000000000001
 31
0
  0
LINE
  8
1
 62
7
 10
312.7999999999937
 20
128.9000000000001
 30
0
 11
312.7999999999937
 21
130
 31
0
  0
LINE
  8
1
 62
7
 10
308.1999999999961
 20
130
 30
0
 11
319.4
 21
129.9999999999997
 31
0
  0
LINE
  8
1
 62
7
 10
314.7999999999937
 20
130
 30
0
 11
314.7999999999937
 21
128.9000000000001
 31
0
  0
LINE
  8
1
 62
7
 10
314.7999999999937
 20
128.9000000000001
 30
0
 11
319.4000000000009
 21
128.9000000000001
 31
0
  0
LINE
  8
1
 62
7
 10
319.4
 20
129.9999999999997
 30
0
 11
319.4000000000009
 21
128.9000000000001
 31
0
  0
LINE
  8
1
 62
7
 10
321.4
 20
131.9999999999997
 30
0
 11
321.4
 21
175.7999999999997
 31
0
  0
LINE
  8
1
 62
7
 10
306.4999999999908
 20
130.6499999999997
 30
0
 11
306.4999999999908
 21
128.9000000000001
 31
0
  0
LINE
  8
1
 62
7
 10
295.4999999999999
 20
130.6499999999997
 30
0
 11
306.4999999999908
 21
130.6499999999997
 31
0
  0
LINE
  8
1
 62
7
 10
311.9999999999908
 20
128.9000000000001
 30
0
 11
311.9999999999908
 21
121.2805073528292
 31
0
  0
LINE
  8
1
 62
7
 10
316.4
 20
128.9000000000001
 30
0
 11
316.4
 21
121.6126269589461
 31
0
  0
LINE
  8
1
 62
7
 10
318.099999999983
 20
128.9000000000001
 30
0
 11
318.099999999983
 21
121.2441074848968
 31
0
  0
LINE
  8
1
 62
7
 10
309.4999999999908
 20
121.1901880925241
 30
0
 11
309.4999999999908
 21
128.9000000000001
 31
0
  0
LINE
  8
1
 62
7
 10
315.599999999983
 20
121.2358598230675
 30
0
 11
315.599999999983
 21
128.9000000000001
 31
0
  0
LINE
  8
1
 62
2
 10
139.4919913369007
 20
179.8499999999997
 30
0
 11
139.4919913369007
 21
128.7999999999997
 31
0
  0
LINE
  8
1
 62
7
 10
137.7919913369009
 20
120.2569350297514
 30
0
 11
137.7919913369009
 21
128.7999999999997
 31
0
  0
LINE
  8
1
 62
7
 10
134.4919913369007
 20
128.7999999999997
 30
0
 11
137.7919913369009
 21
128.7999999999997
 31
0
  0
LINE
  8
1
 62
7
 10
141.191991336901
 20
120.2569350297514
 30
0
 11
141.191991336901
 21
128.7999999999997
 31
0
  0
LINE
  8
1
 62
2
 10
169.9074764051178
 20
146.6817492673991
 30
0
 11
164.3074764051179
 21
146.6817492673991
 31
0
  0
LINE
  8
1
 62
2
 10
166.9924112220077
 20
143.9058750537127
 30
0
 11
166.9924112220095
 21
193.2010093621282
 31
0
  0
LINE
  8
1
 62
7
 10
118.4091620563339
 20
163.6018778571874
 30
0
 11
119.1443716425778
 21
163.3342834518467
 31
0
  0
LINE
  8
1
 62
7
 10
118.4091620563339
 20
163.6018778571874
 30
0
 11
118.4091620563521
 21
163.6018778571873
 31
0
  0
LINE
  8
1
 62
7
 10
117.0410814830387
 20
159.8431073740435
 30
0
 11
117.0410814830487
 21
159.8431073740437
 31
0
  0
LINE
  8
1
 62
7
 10
117.0410814830387
 20
159.8431073740435
 30
0
 11
117.0410814830487
 21
159.8431073740437
 31
0
  0
LINE
  8
1
 62
7
 10
137.4919913368857
 20
177.716521486203
 30
0
 11
137.4919913368857
 21
176.9638187697971
 31
0
  0
LINE
  8
1
 62
7
 10
159.8396110311868
 20
163.3342834518467
 30
0
 11
160.5748206174498
 21
163.6018778571873
 31
0
  0
LINE
  8
1
 62
7
 10
161.207691604497
 20
159.5755129687036
 30
0
 11
161.9429011907531
 21
159.8431073740437
 31
0
  0
LINE
  8
1
 62
7
 10
130.1992667187291
 20
131.6720703821834
 30
0
 11
130.4318646498217
 21
132.3879332054542
 31
0
  0
LINE
  8
1
 62
7
 10
162.6502103789889
 20
160.1005468649905
 30
0
 11
161.9429011907531
 21
159.8431073740437
 31
0
  0
LINE
  8
1
 62
7
 10
116.333772294783
 20
160.1005468649905
 30
0
 11
117.0410814830487
 21
159.8431073740437
 31
0
  0
LINE
  8
1
 62
7
 10
117.701852868085
 20
163.8593173481336
 30
0
 11
118.4091620563339
 21
163.6018778571874
 31
0
  0
LINE
  8
1
 62
7
 10
295.4999999999908
 20
130
 30
0
 11
295.4999999999908
 21
128.9000000000001
 31
0
  0
LINE
  8
1
 62
7
 10
295.4999999999908
 20
130
 30
0
 11
294.4999999999999
 21
130
 31
0
  0
LINE
  8
1
 62
2
 10
295.4999999999908
 20
130
 30
0
 11
295.4999999999999
 21
130
 31
0
  0
LINE
  8
1
 62
7
 10
137.4919913368857
 20
176.9638187697971
 30
0
 11
137.4919913368857
 21
176.1814250702114
 31
0
  0
LINE
  8
1
 62
7
 10
141.4919913368857
 20
176.1814250702114
 30
0
 11
141.4919913368857
 21
176.9638187697811
 31
0
  0
LINE
  8
1
 62
7
 10
141.4919913368857
 20
176.9638187697811
 30
0
 11
141.4919913368857
 21
177.716521486203
 31
0
  0
LINE
  8
1
 62
7
 10
137.9919913369003
 20
168.1999999999994
 30
0
 11
140.9919913369012
 21
168.1999999999994
 31
0
  0
LINE
  8
1
 62
7
 10
117.0410814830487
 20
159.8431073740437
 30
0
 11
117.0410814830387
 21
159.8431073740435
 31
0
  0
LINE
  8
1
 62
7
 10
117.0410814830487
 20
159.8431073740437
 30
0
 11
117.0410814830387
 21
159.8431073740435
 31
0
  0
LINE
  8
1
 62
7
 10
117.0410814830387
 20
159.8431073740435
 30
0
 11
117.0410814830487
 21
159.8431073740437
 31
0
  0
LINE
  8
1
 62
7
 10
117.0410814830387
 20
159.8431073740435
 30
0
 11
117.0410814830487
 21
159.8431073740437
 31
0
  0
LINE
  8
1
 62
7
 10
117.0410814830487
 20
159.8431073740437
 30
0
 11
117.0410814830387
 21
159.8431073740435
 31
0
  0
LINE
  8
1
 62
7
 10
117.0410814830487
 20
159.8431073740437
 30
0
 11
117.7762910692758
 21
159.5755129687036
 31
0
  0
ARC
  8
1
 62
2
 10
139.4919913368771
 20
153.800000000042
 30
0
 40
23.25000000004833
 50
295.2556935420102
 51
304.7509713661955
  0
ARC
  8
1
 62
2
 10
139.491991336873
 20
153.7999999999997
 30
0
 40
23.25000000002762
 50
355.2502986154582
 51
4.749701384541787
  0
ARC
  8
1
 62
2
 10
139.4919913369239
 20
153.7999999999618
 30
0
 40
23.25000000004426
 50
115.2556935420138
 51
124.7497013845405
  0
ARC
  8
1
 62
7
 10
168.0919913369011
 20
153.4999999999997
 30
0
 40
3.800000000000161
 50
350.8111639226423
 51
0
  0
ARC
  8
1
 62
7
 10
110.8919913369008
 20
153.4999999999997
 30
0
 40
3.800000000000147
 50
105.0527035293322
 51
180
  0
ARC
  8
1
 62
2
 10
152.4588245682147
 20
172.4876656809326
 30
0
 40
0.5042871640568261
 50
55.46084146467709
 51
163.3265242403907
  0
ARC
  8
1
 62
2
 10
139.4919913369007
 20
153.7999999999997
 30
0
 40
23.24999999999981
 50
124.7497013845468
 51
155.0652320194881
  0
ARC
  8
1
 62
2
 10
129.4999945394637
 20
134.1999999999997
 30
0
 40
1.49999999999954
 50
313.3581491271697
 51
172.6172629550806
  0
ARC
  8
1
 62
2
 10
139.4919913369007
 20
153.7999999999997
 30
0
 40
23.25000000000002
 50
4.749701384547436
 51
15.06523201948822
  0
ARC
  8
1
 62
2
 10
139.4919913369007
 20
153.7999999999997
 30
0
 40
23.25000000000008
 50
24.93476798051135
 51
55.2490286337929
  0
ARC
  8
1
 62
2
 10
162.1638663369007
 20
155.6837685591319
 30
0
 40
0.4999999999999585
 50
250.3704430860529
 51
4.749701384545878
  0
ARC
  8
1
 62
2
 10
162.1638663369007
 20
151.9162314408675
 30
0
 40
0.5000000000000239
 50
355.2502986154541
 51
109.6295569139439
  0
ARC
  8
1
 62
2
 10
139.4919913369007
 20
153.7999999999997
 30
0
 40
23.25000000000009
 50
304.7509713662071
 51
355.2502986154526
  0
ARC
  8
1
 62
2
 10
149.1984748157828
 20
133.2246098828186
 30
0
 40
0.4999999999996868
 50
8.397737519434161
 51
49.70236783303441
  0
ARC
  8
1
 62
2
 10
139.4919913369007
 20
153.7999999999997
 30
0
 40
23.24999999999997
 50
292.9347679805115
 51
295.2556935420021
  0
ARC
  8
1
 62
2
  6
DASHED
 10
139.4919913369007
 20
166.1999999999997
 30
0
 40
6.5
 50
0
 51
180
  0
ARC
  8
1
 62
7
 10
139.4919913369007
 20
166.1999999999997
 30
0
 40
7.5
 50
0
 51
180
  0
ARC
  8
1
 62
7
 10
166.9919913369007
 20
146.6999999999997
 30
0
 40
3.800000000000225
 50
285.1226678316484
 51
350.8111639226409
  0
ARC
  8
1
 62
7
 10
168.0919913369011
 20
153.4999999999997
 30
0
 40
3.799999999999699
 50
0
 51
74.94729647067487
  0
ARC
  8
1
 62
7
 10
111.9919913369007
 20
146.6999999999997
 30
0
 40
3.799999999999365
 50
189.1888360773601
 51
254.8773321683576
  0
ARC
  8
1
 62
7
 10
110.8919913369008
 20
153.4999999999997
 30
0
 40
3.799999999999699
 50
180
 51
189.1888360773596
  0
ARC
  8
1
 62
2
 10
129.8089077610097
 20
174.3723007486755
 30
0
 40
0.5131617036757393
 50
117.4719970267719
 51
227.486064348336
  0
ARC
  8
1
 62
7
 10
139.491991336843
 20
153.7999999998469
 30
0
 40
22.47060720511145
 50
246.8936227049358
 51
254.5132525030793
  0
ARC
  8
1
 62
7
 10
139.4919913368857
 20
153.7999999999997
 30
0
 40
23.99999999999846
 50
247.2198081528095
 51
255.52248781407
  0
ARC
  8
1
 62
7
 10
139.491991336843
 20
153.8000000001248
 30
0
 40
22.47060720540181
 50
285.4867474969413
 51
293.106377295008
  0
ARC
  8
1
 62
7
 10
139.4919913368857
 20
153.7999999999997
 30
0
 40
23.99999999999979
 50
284.47751218593
 51
292.7801918472288
  0
ARC
  8
1
 62
7
 10
139.4919913368857
 20
153.7999999999997
 30
0
 40
23.99999999999949
 50
155.2198081528014
 51
164.7801918471983
  0
ARC
  8
1
 62
7
 10
139.4919913370899
 20
153.7999999999297
 30
0
 40
22.4706072052803
 50
154.8936227049913
 51
165.1063772950355
  0
ARC
  8
1
 62
7
 10
139.4919913368857
 20
153.8000000000148
 30
0
 40
22.47060720525426
 50
84.89362270497092
 51
95.10637729502908
  0
ARC
  8
1
 62
7
 10
139.4919913366829
 20
153.7999999999306
 30
0
 40
22.47060720528056
 50
14.89362270496222
 51
25.10637729501551
  0
ARC
  8
1
 62
7
 10
139.4919913368857
 20
153.7999999999997
 30
0
 40
24.00000000000058
 50
12.05003410010166
 51
15.21980815280138
  0
ARC
  8
1
 62
7
 10
139.4919913368857
 20
153.7999999999997
 30
0
 40
23.99999999999952
 50
15.21980815280138
 51
24.78019184719807
  0
ARC
  8
1
 62
7
 10
139.4919913368857
 20
153.7999999999997
 30
0
 40
23.99999999999996
 50
24.78019184719807
 51
85.21980815280094
  0
ARC
  8
1
 62
7
 10
139.4919913368857
 20
153.7999999999997
 30
0
 40
24.0000000000005
 50
94.78019184719906
 51
155.2198081528014
  0
ARC
  8
1
 62
7
 10
139.4919913368857
 20
153.7999999999997
 30
0
 40
24.0000000000005
 50
85.21980815280094
 51
94.78019184719906
  0
ARC
  8
1
 62
7
 10
139.4919913368857
 20
153.7999999999997
 30
0
 40
23.99999999999563
 50
212.7971682958301
 51
247.2198081528095
  0
ARC
  8
1
 62
7
 10
139.4919913368857
 20
153.7999999999997
 30
0
 40
24.0000000000003
 50
292.7801918472288
 51
327.1690292062609
  0
ARC
  8
1
 62
7
 10
139.4919913368857
 20
153.7999999999997
 30
0
 40
23.99999999999901
 50
164.7801918471983
 51
167.942451754622
  0
ARC
  8
1
 62
2
 10
150.4919913369007
 20
134.7499999999998
 30
0
 40
1.500000000001049
 50
10.30429707519455
 51
229.7023678330012
  0
ARC
  8
1
 62
2
 10
150.4919913369007
 20
134.7499999999998
 30
0
 40
1.500000000000131
 50
229.7023678330012
 51
245.4340069338
  0
ARC
  8
1
 62
2
 10
129.4999945394997
 20
134.1999999999408
 30
0
 40
1.499999999932016
 50
297.6649432740211
 51
313.3581491277147
  0
ARC
  8
1
 62
2
 10
150.491991336883
 20
134.7500000000009
 30
0
 40
1.500000000017831
 50
354.5726579745131
 51
10.30429707503191
  0
ARC
  8
1
 62
2
 10
139.4919913369007
 20
153.7999999999997
 30
0
 40
22.90000000000018
 50
356.4476256637291
 51
3.552374336270663
  0
ARC
  8
1
 62
2
 10
161.4919913369007
 20
153.7999999999997
 30
0
 40
1.499999999998887
 50
54.67723723311627
 51
305.3227627668794
  0
ARC
  8
1
 62
2
 10
139.4919913369007
 20
153.7999999999997
 30
0
 40
22.90000000000018
 50
56.93643899656844
 51
63.06356100343433
  0
ARC
  8
1
 62
2
 10
139.4919913369007
 20
153.7999999999997
 30
0
 40
22.90000000000012
 50
56.44964754360583
 51
56.93643899656844
  0
ARC
  8
1
 62
2
 10
150.4919913369007
 20
172.8525588832574
 30
0
 40
1.500000000000745
 50
114.6772372331225
 51
5.322762766928381
  0
ARC
  8
1
 62
2
 10
128.4919913369007
 20
172.8499999999997
 30
0
 40
1.50000000000148
 50
174.5726579744582
 51
65.4340069338089
  0
ARC
  8
1
 62
2
 10
139.4919913368052
 20
153.8000000003713
 30
0
 40
23.24999999962322
 50
94.93476798039249
 51
115.2556935421798
  0
ARC
  8
1
 62
2
 10
139.4919913368539
 20
153.7999999999194
 30
0
 40
23.25000000009273
 50
55.24902863381095
 51
64.73637559475647
  0
ARC
  8
1
 62
2
 10
139.4919913366283
 20
153.7999999988055
 30
0
 40
23.25000000119639
 50
64.73637559542519
 51
85.06523201910649
  0
ARC
  8
1
 62
2
 10
139.4919913369007
 20
153.7999999999997
 30
0
 40
22.89999999999933
 50
63.06356100343433
 51
63.53904854649957
  0
ARC
  8
1
 62
2
 10
139.4919913369022
 20
153.7999999999973
 30
0
 40
22.9000000000033
 50
116.427690520064
 51
123.5523743362719
  0
ARC
  8
1
 62
2
 10
139.4919913369287
 20
153.8000000000548
 30
0
 40
22.90000000006218
 50
239.4353317048722
 51
246.5400803773968
  0
ARC
  8
1
 62
2
 10
129.4999945394551
 20
134.1999999999971
 30
0
 40
1.499999999992072
 50
172.6172629549393
 51
188.310468808011
  0
ARC
  8
1
 62
2
 10
152.4733057245748
 20
135.1405603786287
 30
0
 40
0.5200783130761347
 50
233.1936104808061
 51
301.4604756085283
  0
ARC
  8
1
 62
2
 10
139.4919913369239
 20
153.7999999999593
 30
0
 40
22.8999999999541
 50
296.4530205902713
 51
303.5911759053656
  0
ARC
  8
1
 62
2
 10
149.1984748157828
 20
133.2246098828186
 30
0
 40
0.499999999999923
 50
295.2556935419747
 51
8.397737519434161
  0
ARC
  8
1
 62
2
 10
152.4733057245748
 20
135.1405603786287
 30
0
 40
0.5200783130767396
 50
193.5947928327915
 51
233.1936104808061
  0
ARC
  8
1
 62
2
 10
116.7553724732684
 20
153.6331818907348
 30
0
 40
0.5131617036756506
 50
182.6866816962361
 51
292.7007490178112
  0
ARC
  8
1
 62
2
 10
117.5853694910937
 20
151.7993952652225
 30
0
 40
1.500000000001487
 50
239.7873426439308
 51
130.6486916032793
  0
ARC
  8
1
 62
2
 10
139.4919913369036
 20
153.8000000000001
 30
0
 40
22.9000000000034
 50
181.6423751895356
 51
188.7670590057437
  0
ARC
  8
1
 62
2
 10
139.4919913350059
 20
153.7999999963344
 30
0
 40
23.24999999588606
 50
238.238004655802
 51
247.065232020269
  0
ARC
  8
1
 62
2
 10
139.4919913332489
 20
153.7999999975271
 30
0
 40
23.24999999597525
 50
189.9643860495743
 51
238.2380046610305
  0
ARC
  8
1
 62
2
 10
139.4919913262769
 20
153.7999999990313
 30
0
 40
23.24999998936865
 50
180.4703782093021
 51
189.9643860561982
  0
ARC
  8
1
 62
2
 10
139.4919913264741
 20
153.8000000013355
 30
0
 40
23.24999998958487
 50
164.9347679770117
 51
180.4703782149763
  0
CIRCLE
  8
1
 62
7
 10
139.4919913369007
 20
166.1999999999997
 30
0
 40
4.399999999999608
  0
CIRCLE
  8
1
 62
7
 10
139.4919913369007
 20
166.1999999999997
 30
0
 40
5
  0
CIRCLE
  8
1
 62
7
 10
166.9919913369007
 20
146.6999999999997
 30
0
 40
1.900000000000091
  0
CIRCLE
  8
1
 62
7
 10
168.0919913369011
 20
153.4999999999997
 30
0
 40
1.799999999999699
  0
CIRCLE
  8
1
 62
7
 10
110.8919913369008
 20
153.4999999999997
 30
0
 40
1.799999999999699
  0
CIRCLE
  8
1
 62
7
 10
139.4919913369007
 20
166.1999999999997
 30
0
 40
4.399999999999608
  0
CIRCLE
  8
1
 62
7
 10
111.9919913369007
 20
146.6982635465538
 30
0
 40
1.800000000017903
  0
CIRCLE
  8
1
 62
7
 10
139.4919913369007
 20
166.1999999999997
 30
0
 40
2.5
  0
POLYLINE
  8
1
 62
2
 66
1
  0
VERTEX
  8
1
 10
308.7424396628698
 20
120.834347510685
 30
0
 42
-1.548149375531389e-005
  0
VERTEX
  8
1
 10
308.8915312905955
 20
120.9044674581788
 30
0
 42
-4.607519684226315e-005
  0
VERTEX
  8
1
 10
309.0412280282457
 20
120.974849447891
 30
0
 42
-7.558285693525215e-005
  0
VERTEX
  8
1
 10
309.1921349857453
 20
121.0457555220403
 30
0
 42
-0.0001033507690931175
  0
VERTEX
  8
1
 10
309.3448572730188
 20
121.1174477228452
 30
0
 42
-0.0001288228192584892
  0
VERTEX
  8
1
 10
309.4999999999908
 20
121.1901880925241
 30
0
 42
-0.005668980463603997
  0
VERTEX
  8
1
 10
309.8335393495739
 20
121.3432992339509
 30
0
 42
-0.01662217796246519
  0
VERTEX
  8
1
 10
310.1753238820702
 20
121.4822264335667
 30
0
 42
-0.02938499370136498
  0
VERTEX
  8
1
 10
310.5203387397753
 20
121.587043502872
 30
0
 42
-0.04516871843305345
  0
VERTEX
  8
1
 10
310.8635690649853
 20
121.6378242533673
 30
0
 42
-0.06254466449237796
  0
VERTEX
  8
1
 10
311.1999999999961
 20
121.6146424965529
 30
0
 42
-0.0298478400678506
  0
VERTEX
  8
1
 10
311.3626402261481
 20
121.5710422835846
 30
0
 42
-0.0205662557552847
  0
VERTEX
  8
1
 10
311.5231741956943
 20
121.5101423085167
 30
0
 42
-0.01195459242239506
  0
VERTEX
  8
1
 10
311.6823880521639
 20
121.4376289255605
 30
0
 42
-0.003992718889163573
  0
VERTEX
  8
1
 10
311.8410679390864
 20
121.3591884889275
 30
0
 42
0.003691449290898151
  0
VERTEX
  8
1
 10
311.9999999999908
 20
121.2805073528292
 30
0
 42
0.01393105473427769
  0
VERTEX
  8
1
 10
312.2847432746832
 20
121.1518274260171
 30
0
 42
0.008090389651102047
  0
VERTEX
  8
1
 10
312.5721113853758
 20
121.0369139535573
 30
0
 42
0.008681196986344281
  0
VERTEX
  8
1
 10
312.8614481230685
 20
120.9323253218617
 30
0
 42
0.002602956745856633
  0
VERTEX
  8
1
 10
313.1520972787612
 20
120.8346199173423
 30
0
 42
0.00306598322856453
  0
VERTEX
  8
1
 10
313.4434026434541
 20
120.7403561264109
 30
0
  0
SEQEND
  8
1
  0
POLYLINE
  8
1
 62
2
 66
1
  0
VERTEX
  8
1
 10
314.806277715434
 20
120.6933604342738
 30
0
 42
-0.0004840093596988889
  0
VERTEX
  8
1
 10
314.9619176027035
 20
120.803280685331
 30
0
 42
-0.001445489114015601
  0
VERTEX
  8
1
 10
315.118333632383
 20
120.9128458430637
 30
0
 42
-0.002387360366321061
  0
VERTEX
  8
1
 10
315.2763019468828
 20
121.021700814147
 30
0
 42
-0.003296604759311183
  0
VERTEX
  8
1
 10
315.4365986886128
 20
121.1294905052565
 30
0
 42
-0.004160371441150387
  0
VERTEX
  8
1
 10
315.599999999983
 20
121.2358598230675
 30
0
 42
-0.006674043123237755
  0
VERTEX
  8
1
 10
315.7535937991667
 20
121.3314644320629
 30
0
 42
-0.01178308271211304
  0
VERTEX
  8
1
 10
315.9104306795149
 20
121.4212552279055
 30
0
 42
-0.01735909390873998
  0
VERTEX
  8
1
 10
316.070470660273
 20
121.5009204328384
 30
0
 42
-0.02357688347957224
  0
VERTEX
  8
1
 10
316.2336737606863
 20
121.5661482691043
 30
0
 42
-0.03035521369259497
  0
VERTEX
  8
1
 10
316.4
 20
121.6126269589461
 30
0
 42
-0.05960058307328283
  0
VERTEX
  8
1
 10
316.7353917210011
 20
121.6413390968531
 30
0
 42
-0.04326734535174391
  0
VERTEX
  8
1
 10
317.0779007261634
 20
121.5998295486058
 30
0
 42
-0.02821618365562504
  0
VERTEX
  8
1
 10
317.4227138708234
 20
121.5071119840001
 30
0
 42
-0.01577871549505012
  0
VERTEX
  8
1
 10
317.7650180103177
 20
121.3822000728318
 30
0
 42
-0.004902035742794435
  0
VERTEX
  8
1
 10
318.099999999983
 20
121.2441074848968
 30
0
 42
0.0001883636280174901
  0
VERTEX
  8
1
 10
318.2411783547831
 20
121.1849351324344
 30
0
 42
0.0001509375297150995
  0
VERTEX
  8
1
 10
318.3805501402544
 20
121.1266311318943
 30
0
 42
0.0001094981830126187
  0
VERTEX
  8
1
 10
318.5185669987292
 20
121.068978395296
 30
0
 42
6.704959967918286e-005
  0
VERTEX
  8
1
 10
318.6556805725396
 20
121.011759834659
 30
0
 42
2.236755337488004e-005
  0
VERTEX
  8
1
 10
318.7923425040179
 20
120.9547583620025
 30
0
  0
SEQEND
  8
1
  0
POLYLINE
  8
1
 62
2
 66
1
  0
VERTEX
  8
1
 10
136.808354441193
 20
104.657326301627
 30
0
 42
0.06746549811303586
  0
VERTEX
  8
1
 10
137.2364006789647
 20
104.3272506332135
 30
0
 42
0.06313988483400704
  0
VERTEX
  8
1
 10
137.7015127788249
 20
104.1389048180501
 30
0
 42
0.04742367547262621
  0
VERTEX
  8
1
 10
138.1947343802278
 20
104.0591035078375
 30
0
 42
0.02891330354891428
  0
VERTEX
  8
1
 10
138.7071091226273
 20
104.0546613542763
 30
0
 42
0.01201995785521596
  0
VERTEX
  8
1
 10
139.2296806454773
 20
104.0923930090671
 30
0
 42
-0.003633020984924871
  0
VERTEX
  8
1
 10
139.7904892572194
 20
104.1423136981609
 30
0
 42
-0.01608116645430462
  0
VERTEX
  8
1
 10
140.3820238224078
 20
104.1716765167249
 30
0
 42
-0.02915909272264282
  0
VERTEX
  8
1
 10
140.9624461153306
 20
104.1478479498745
 30
0
 42
-0.0426413228412153
  0
VERTEX
  8
1
 10
141.5271594499872
 20
104.041970161121
 30
0
 42
-0.05369952807693697
  0
VERTEX
  8
1
 10
142.0715671403772
 20
103.825185313976
 30
0
  0
VERTEX
  8
1
 10
142.334719904597
 20
103.666184669604
 30
0
  0
SEQEND
  8
1
  0
POLYLINE
  8
1
 62
2
 66
1
  0
VERTEX
  8
1
 10
136.808354441193
 20
106.279194426756
 30
0
 42
0.0674654981130909
  0
VERTEX
  8
1
 10
137.2364006789647
 20
105.9491187583425
 30
0
 42
0.06313988483398093
  0
VERTEX
  8
1
 10
137.7015127788249
 20
105.760772943179
 30
0
 42
0.04742367547254286
  0
VERTEX
  8
1
 10
138.1947343802278
 20
105.6809716329665
 30
0
 42
0.02891330354888626
  0
VERTEX
  8
1
 10
138.7071091226273
 20
105.6765294794053
 30
0
 42
0.01201995785521621
  0
VERTEX
  8
1
 10
139.2296806454773
 20
105.7142611341961
 30
0
 42
-0.003633020984928298
  0
VERTEX
  8
1
 10
139.7904892572194
 20
105.7641818232899
 30
0
 42
-0.01608116645432858
  0
VERTEX
  8
1
 10
140.3820238224078
 20
105.7935446418539
 30
0
 42
-0.02915909272256978
  0
VERTEX
  8
1
 10
140.9624461153306
 20
105.7697160750035
 30
0
 42
-0.04264132284116651
  0
VERTEX
  8
1
 10
141.5271594499872
 20
105.66383828625
 30
0
 42
-0.05369952807689077
  0
VERTEX
  8
1
 10
142.0715671403772
 20
105.447053439105
 30
0
  0
VERTEX
  8
1
 10
142.334719904597
 20
105.288052794733
 30
0
  0
SEQEND
  8
1
  0
ARC
  8
1
 62
7
 10
144.4919913369007
 20
129.7999999999997
 30
0
 40
1
 50
270
 51
0
  0
ARC
  8
1
 62
7
 10
134.4919913369007
 20
129.7999999999997
 30
0
 40
1
 50
180
 51
270
  0
ARC
  8
1
 62
2
 10
149.2013227616138
 20
174.3740463517772
 30
0
 40
0.4999999999999328
 50
316.9308144473446
 51
64.73637559478966
  0
ARC
  8
1
 62
2
 10
130.8731077626779
 20
132.7458472995469
 30
0
 40
0.4999999999998497
 50
174.5953634482674
 51
213.8231225981594
  0
ARC
  8
1
 62
2
 10
127.516574693679
 20
134.4569936095434
 30
0
 40
0.4999999999994768
 50
311.3800486339718
 51
352.6172629550763
  0
ARC
  8
1
 62
2
  6
DASHED
 10
134.4919913369007
 20
161.1999999999997
 30
0
 40
1.5
 50
180
 51
270
  0
ARC
  8
1
 62
2
  6
DASHED
 10
144.4919913369007
 20
161.1999999999997
 30
0
 40
1.5
 50
270
 51
0
  0
ARC
  8
1
 62
7
 10
134.4919913369007
 20
161.1999999999997
 30
0
 40
2.5
 50
180
 51
270
  0
ARC
  8
1
 62
7
 10
144.4919913369007
 20
161.1999999999997
 30
0
 40
2.5
 50
270
 51
0
  0
ARC
  8
1
 62
7
 10
319.4
 20
175.7999999999997
 30
0
 40
2
 50
0
 51
90
  0
ARC
  8
1
 62
7
 10
319.4
 20
131.9999999999997
 30
0
 40
2
 50
270
 51
0
  0
ARC
  8
1
 62
2
 10
126.5246624098417
 20
172.4925354218589
 30
0
 40
0.4999999999997592
 50
12.36294444130214
 51
124.7497013845033
  0
ARC
  8
1
 62
2
 10
127.516574693679
 20
134.4569936095434
 30
0
 40
0.5000000000001859
 50
238.2380046565334
 51
311.3800486339718
  0
ARC
  8
1
 62
2
 10
130.8731077626779
 20
132.7458472995469
 30
0
 40
0.5000000000004244
 50
133.3581491272446
 51
174.5953634482674
  0
ARC
  8
1
 62
2
 10
117.0851637323688
 20
149.8634308464361
 30
0
 40
0.4999999999997854
 50
77.57762911076918
 51
189.9643860539754
  0
LINE
  8
1
 62
2
 10
332.0933607873789
 20
193.2025804246666
 30
0
 11
322.1999999999997
 21
165.9598436989642
 31
0
  0
SOLID
  8
1
 62
2
 10
322.9615962896508
 20
169.4069138676831
 30
0
 11
323.8278129348489
 21
169.0923421755193
 31
0
 12
322.1999999999997
 22
165.9598436989642
 32
0
 13
322.1999999999997
 23
165.9598436989642
 33
0
  0
LINE
  8
1
 62
2
 10
139.4919913369007
 20
153.7999999999997
 30
0
 11
157.8190196483337
 21
169.295806957736
 31
0
  0
SOLID
  8
1
 62
2
 10
155.4438370157659
 20
166.6841352481924
 30
0
 11
154.8488190233979
 21
167.3878683046046
 31
0
 12
157.8190196483337
 22
169.295806957736
 32
0
 13
157.8190196483337
 23
169.295806957736
 33
0
  0
TEXT
  8
1
 62
2
 10
227.7183712555093
 20
48.83247470326639
 30
0
 40
5
  1
SR48G
 41
0.9
  0
TEXT
  8
1
 62
2
 10
323.416206803041
 20
194.4915722985804
 30
0
 40
3.5
  1
âlü|âÇâvâîü|âg
 41
0.9
 72
1
 73
2
 11
345.466206803041
 21
196.2415722985804
 31
0
  0
TEXT
  8
1
 62
2
 10
74.06070277247807
 20
123.6093225418028
 30
0
 40
3.5
  1
HOLES
 41
0.9
 72
1
 73
2
 11
81.93570277247807
 21
125.3593225418028
 31
0
  0
TEXT
  8
1
 62
2
 10
334.6848438533878
 20
188.0005108488598
 30
0
 40
3.5
  1
NAME PLATE
 41
0.72
 72
1
 73
2
 11
347.2848438533878
 21
189.7505108488598
 31
0
  0
DIMENSION
  8
1
  6
CONTINUOUS
 62
2
  2
*D0
  3
DMST_1
 10
197.243754722158
 20
153.7999999999997
 30
0
 11
194.643754722158
 21
141.2999999999997
 31
0
 12
0
 22
0
 32
0
 70
0
 13
144.4919913369007
 23
128.7999999999997
 33
0
 14
168.0919913369011
 24
153.7999999999997
 34
0
 50
90
 53
0
  0
DIMENSION
  8
1
  6
CONTINUOUS
 62
2
  2
*D1
  3
DMST_2
 10
186.60133531142
 20
60.2983749005634
 30
0
 11
184.00133531142
 21
53.8965388614434
 31
0
 12
0
 22
0
 32
0
 70
0
 13
141.191991336901
 23
67.2983749005634
 33
0
 14
140.691991336901
 24
60.2983749005634
 34
0
 50
90
 53
0
  0
DIMENSION
  8
1
  6
CONTINUOUS
 62
2
  2
*D2
  3
DMST_3
 10
197.243754722158
 20
128.7999999999997
 30
0
 11
194.643754722158
 21
94.54918745028155
 31
0
 12
0
 22
0
 32
0
 70
0
  1
200
 13
140.691991336901
 23
60.2983749005634
 33
0
 14
144.4919913369007
 24
128.7999999999997
 34
0
 50
90
 53
0
  0
DIMENSION
  8
1
  6
CONTINUOUS
 62
2
  2
*D3
  3
DMST_4
 10
295.4999999999999
 20
202.6682583972583
 30
0
 11
302.7704883945479
 21
205.2682583972583
 31
0
 12
0
 22
0
 32
0
 70
0
 13
294.4999999999999
 23
177.8999999999997
 33
0
 14
295.4999999999999
 24
177.8999999999997
 34
0
 53
0
  0
DIMENSION
  8
1
  6
CONTINUOUS
 62
2
  2
*D4
  3
DMST_5
 10
321.4
 20
212.7662893861809
 30
0
 11
308.6225771118838
 21
216.5162893861809
 31
0
 12
0
 22
0
 32
0
 70
0
  1
27.5
 13
294.4999999999999
 23
177.8999999999997
 33
0
 14
321.4
 24
175.7999999999997
 34
0
 53
0
  0
DIMENSION
  8
1
  6
CONTINUOUS
 62
2
  2
*D5
  3
DMST_6
 10
244.4902516587508
 20
171.2999999999912
 30
0
 11
240.153006587398
 21
181.93403433094
 31
0
 12
0
 22
0
 32
0
 70
0
  1
%%c<>
 13
291.9999999999999
 23
161.2999999999912
 33
0
 14
291.9999999999999
 24
171.2999999999912
 34
0
 50
90
 53
0
  0
DIMENSION
  8
1
  6
CONTINUOUS
 62
2
  2
*D6
  3
DMST_7
 10
254.578294209094
 20
168.7999999999912
 30
0
 11
251.4015218088879
 21
181.3367680359939
 31
0
 12
0
 22
0
 32
0
 70
0
  1
%%c<>
 13
279.8000000000001
 23
163.7999999999912
 33
0
 14
289.4999999999999
 24
168.7999999999912
 34
0
 50
90
 53
0
  0
DIMENSION
  8
1
  6
CONTINUOUS
 62
2
  2
*D7
  3
DMST_8
 10
264.4829178039757
 20
168.2999999999912
 30
0
 11
261.1568712930078
 21
181.0381348885209
 31
0
 12
0
 22
0
 32
0
 70
0
 13
279.8000000000001
 23
163.7999999999912
 33
0
 14
279.4999999999999
 24
168.2999999999912
 34
0
 50
90
 53
0
  0
DIMENSION
  8
1
  6
CONTINUOUS
 62
2
  2
*D8
  3
DMST_9
 10
279.4999999999999
 20
212.7689811079118
 30
0
 11
286.7260547920399
 21
216.5189811079118
 31
0
 12
0
 22
0
 32
0
 70
0
 13
294.4999999999999
 23
177.8999999999997
 33
0
 14
279.4999999999999
 24
168.2999999999912
 34
0
 53
0
  0
DIMENSION
  8
1
  6
CONTINUOUS
 62
2
  2
*D9
  3
DMST_10
 10
92.2792424781959
 20
166.1999999999997
 30
0
 11
87.87651687521782
 21
160.1352773830126
 31
0
 12
0
 22
0
 32
0
 70
0
  1
(12.4)
 13
110.0919913369011
 23
153.7999999999997
 33
0
 14
139.4919913369007
 24
166.1999999999997
 34
0
 50
90
 53
0
  0
DIMENSION
  8
1
  6
CONTINUOUS
 62
2
  2
*D10
  3
DMST_10
 10
187.0886700145979
 20
158.8103789215479
 30
0
 11
184.3364104840279
 21
156.433752073036
 31
0
 12
0
 22
0
 32
0
 70
0
  1
5
 13
168.0919913369011
 23
153.7999999999997
 33
0
 14
162.9631673419889
 24
158.8103789215479
 34
0
 50
90
 53
0
  0
DIMENSION
  8
1
  6
CONTINUOUS
 62
2
  2
*D11
  3
DMST_11
 10
80.7023497868021
 20
166.1999999999997
 30
0
 11
76.9523497868021
 21
178.887571294361
 31
0
 12
0
 22
0
 32
0
 70
0
 13
110.8919913369008
 23
153.4999999999997
 33
0
 14
139.4919913369007
 24
166.1999999999997
 34
0
 50
90
 53
0
  0
DIMENSION
  8
1
  6
CONTINUOUS
 62
2
  2
*D12
  3
DMST_11
 10
72.2697428402488
 20
146.6999999999997
 30
0
 11
68.5197428402488
 21
155.6933585011872
 31
0
 12
0
 22
0
 32
0
 70
0
 13
139.4919913369007
 23
166.1999999999997
 33
0
 14
111.9919913369007
 24
146.6999999999997
 34
0
 50
90
 53
0
  0
DIMENSION
  8
1
  6
CONTINUOUS
 62
2
  2
*D13
  3
DMST_12
 10
166.9919913369007
 20
192.1223372704273
 30
0
 11
139.4919913369007
 21
195.8723372704273
 31
0
 12
0
 22
0
 32
0
 70
0
 13
111.9919913369007
 23
146.6999999999997
 33
0
 14
166.9919913369007
 24
146.6999999999997
 34
0
 53
0
  0
DIMENSION
  8
1
  6
CONTINUOUS
 62
2
  2
*D14
  3
DMST_12
 10
110.8919913369008
 20
202.439614087573
 30
0
 11
139.4919913369007
 21
206.189614087573
 31
0
 12
0
 22
0
 32
0
 70
0
 13
168.0919913369011
 23
153.4999999999997
 33
0
 14
110.8919913369008
 24
153.4999999999997
 34
0
 53
0
  0
DIMENSION
  8
1
  6
CONTINUOUS
 62
2
  2
*D15
  3
DMST_13
 10
107.0919913369007
 20
212.0226935244492
 30
0
 11
138.7781127543339
 21
215.7726935244492
 31
0
 12
0
 22
0
 32
0
 70
0
 13
171.8919913369008
 23
153.4999999999997
 33
0
 14
107.0919913369011
 24
153.4999999999997
 34
0
 53
0
  0
DIMENSION
  8
1
  6
CONTINUOUS
 62
2
  2
*D17
  3
DMST_1
 10
337.6706539359037
 20
177.7999999999997
 30
0
 11
334.295568730918
 21
154.6473842237435
 31
0
 12
0
 22
0
 32
0
 70
0
  1
47.8
 13
319.4
 23
129.9999999999997
 33
0
 14
319.4
 24
177.7999999999997
 34
0
 50
90
 53
0
  0
DIMENSION
  8
1
  6
CONTINUOUS
 62
2
  2
*D18
  3
DMST_1
 10
279.4999999999999
 20
192.9499999999912
 30
0
 11
284.4999999999999
 21
195.5499999999912
 31
0
 12
0
 22
0
 32
0
 70
0
 13
289.4999999999999
 23
168.7999999999912
 33
0
 14
279.4999999999999
 24
168.2999999999912
 34
0
 53
0
  0
DIMENSION
  8
1
  6
CONTINUOUS
 62
2
  2
*D19
  3
DMST_1
 10
187.0886700145978
 20
140.7881001693163
 30
0
 11
184.4886700145979
 21
147.294050084658
 31
0
 12
0
 22
0
 32
0
 70
0
  1
13
 13
168.0919913369011
 23
153.7999999999997
 33
0
 14
159.658559284764
 24
140.7881001693164
 34
0
 50
90
 53
0
  0
DIMENSION
  8
1
  6
CONTINUOUS
 62
2
  2
*D20
  3
DMST_14
 10
168.0919913369011
 20
153.4999999999997
 30
0
 11
187.4661417027777
 21
181.7525952791636
 31
0
 12
0
 22
0
 32
0
 70
4
  1
4-R<>
 15
169.5252824640072
 25
157.0193289907246
 35
0
 40
0
 53
0
  0
DIMENSION
  8
1
  6
CONTINUOUS
 62
2
  2
*D21
  3
DMST_15
 10
113.2600792327687
 20
147.9757427395028
 30
0
 11
75.3058831196205
 21
130.999989817541
 31
0
 12
0
 22
0
 32
0
 70
3
  1
4-%%c<>
 15
110.7239034410327
 25
145.4207843536048
 35
0
 40
0
 53
0
  0
DIMENSION
  8
1
  6
CONTINUOUS
 62
2
  2
*D22
  3
DMST_14
 10
157.8162528136702
 20
169.2990787252085
 30
0
 11
82.67504144200791
 21
116.3951599243589
 31
0
 12
0
 22
0
 32
0
 70
3
 15
121.1677298601015
 25
138.3009212747905
 35
0
 40
0
 53
0
  0
INSERT
  8
1
  2
*D16
 10
0
 20
0
 30
0
  0
ENDSEC
  0
EOF
