  0
SECTION
  2
HEADER
  9
$ACADVER
  1
AC1009
  9
$INSBASE
 10
0
 20
0
  9
$EXTMIN
 10
-57.0587553118104
 20
-92.7144863690183
  9
$EXTMAX
 10
174.0311016426865
 20
77.94026579197696
  9
$LIMMIN
 10
-57.0587553118104
 20
-92.7144863690183
  9
$LIMMAX
 10
174.0311016426865
 20
77.94026579197696
  9
$VIEWCTR
 10
10
 20
10
  9
$VIEWSIZE
 40
10
  9
$SNAPMODE
 70
0
  9
$SNAPUNIT
 10
1
 20
1
  9
$SNAPBASE
 10
0
 20
0
  9
$SNAPANG
 50
0
  9
$SNAPSTYLE
 70
0
  9
$SNAPISOPAIR
 70
0
  9
$GRIDMODE
 70
0
  9
$GRIDUNIT
 10
0
 20
0
  9
$ORTHOMODE
 70
0
  9
$REGENMODE
 70
1
  9
$FILLMODE
 70
1
  9
$QTEXTMODE
 70
0
  9
$DRAGMODE
 70
2
  9
$LTSCALE
 40
1
  9
$OSMODE
 70
0
  9
$ATTMODE
 70
1
  9
$TEXTSIZE
 40
3.5
  9
$TRACEWID
 40
0.5
  9
$TEXTSTYLE
  7
STANDARD
  9
$CLAYER
  8
0
  9
$CELTYPE
  6
BYLAYER
  9
$CECOLOR
 62
256
  9
$DIMSCALE
 40
1
  9
$DIMASZ
 40
0.18
  9
$DIMEXO
 40
0.0625
  9
$DIMDLI
 40
0.38
  9
$DIMRND
 40
0
  9
$DIMDLE
 40
0
  9
$DIMEXE
 40
0.18
  9
$DIMTP
 40
0
  9
$DIMTM
 40
0
  9
$DIMTXT
 40
0.18
  9
$DIMCEN
 40
0.09
  9
$DIMTSZ
 40
0
  9
$DIMTOL
 70
0
  9
$DIMLIM
 70
0
  9
$DIMTIH
 70
1
  9
$DIMTOH
 70
1
  9
$DIMSE1
 70
0
  9
$DIMSE2
 70
0
  9
$DIMTAD
 70
0
  9
$DIMZIN
 70
0
  9
$DIMBLK
  1

  9
$DIMASO
 70
1
  9
$DIMSHO
 70
1
  9
$DIMPOST
  1

  9
$DIMAPOST
  1

  9
$DIMALT
 70
0
  9
$DIMALTD
 70
2
  9
$DIMALTF
 40
25.4
  9
$DIMLFAC
 40
1
  9
$DIMTOFL
 70
0
  9
$DIMTVP
 40
0
  9
$DIMTIX
 70
0
  9
$DIMSOXD
 70
0
  9
$DIMSAH
 70
0
  9
$DIMBLK1
  1

  9
$DIMBLK2
  1

  9
$DIMSTYLE
  2
*UNNAMED
  9
$DIMCLRD
 70
0
  9
$DIMCLRE
 70
0
  9
$DIMCLRT
 70
0
  9
$DIMTFAC
 40
1
  9
$DIMGAP
 40
0.09
  9
$LUNITS
 70
2
  9
$LUPREC
 70
4
  9
$AXISMODE
 70
0
  9
$AXISUNIT
 10
0
 20
0
  9
$SKETCHINC
 40
0.1
  9
$FILLETRAD
 40
2
  9
$AUNITS
 70
0
  9
$AUPREC
 70
0
  9
$MENU
  1
ACAD
  9
$ELEVATION
 40
0
  9
$THICKNESS
 40
0
  9
$VIEWDIR
 10
0
 20
0
 30
1
  9
$LIMCHECK
 70
0
  9
$BLIPMODE
 70
1
  9
$CHAMFERA
 40
0
  9
$CHAMFERB
 40
0
  9
$FASTZOOM
 70
1
  9
$SKPOLY
 70
0
  9
$ANGBASE
 50
0
  9
$ANGDIR
 70
0
  9
$PDMODE
 70
0
  9
$PDSIZE
 40
0
  9
$PLINEWID
 40
0
  9
$COORDS
 70
2
  0
ENDSEC
  0
SECTION
  2
TABLES
  0
TABLE
  2
DIMSTYLE
 70
5
  0
DIMSTYLE
  2
DMST_1
 70
0
  3

  4

  5

  6

  7

 40
1
 41
3.2
 42
1
 43
7
 44
2
 45
0
 46
0
 47
0
 48
0
140
3.2
141
0
142
0
143
25.4
144
1
145
0
146
1
147
0.09
 71
0
 72
0
 73
0
 74
0
 75
0
 76
0
 77
1
 78
9
170
0
171
2
172
0
173
0
174
0
175
0
176
7
177
7
178
7
  0
DIMSTYLE
  2
DMST_2
 70
0
  3

  4

  5

  6

  7

 40
1
 41
3.2
 42
1
 43
7
 44
2
 45
0
 46
0
 47
0
 48
0.02
140
3.2
141
0
142
0
143
25.4
144
1
145
0
146
0.6
147
0.09
 71
1
 72
0
 73
0
 74
0
 75
0
 76
0
 77
1
 78
9
170
0
171
2
172
0
173
0
174
0
175
0
176
7
177
7
178
7
  0
DIMSTYLE
  2
DMST_3
 70
0
  3
MAX.
  4

  5

  6

  7

 40
1
 41
3.2
 42
1
 43
7
 44
2
 45
0
 46
0
 47
0
 48
0
140
3.2
141
0
142
0
143
25.4
144
1
145
0
146
1
147
0.09
 71
0
 72
0
 73
1
 74
1
 75
0
 76
0
 77
1
 78
9
170
0
171
2
172
1
173
0
174
0
175
0
176
7
177
7
178
7
  0
DIMSTYLE
  2
DMST_4
 70
0
  3

  4

  5

  6

  7

 40
1
 41
3.2
 42
1
 43
7
 44
2
 45
0
 46
0
 47
0
 48
0
140
3.2
141
0
142
0
143
25.4
144
1
145
0
146
1
147
0.09
 71
0
 72
0
 73
1
 74
1
 75
0
 76
0
 77
1
 78
9
170
0
171
2
172
1
173
0
174
0
175
0
176
7
177
7
178
7
  0
DIMSTYLE
  2
DMST_5
 70
0
  3

  4

  5

  6

  7

 40
1
 41
0
 42
1
 43
7
 44
2
 45
0
 46
0
 47
0
 48
0
140
3.2
141
0
142
0
143
25.4
144
1
145
0
146
1
147
0.09
 71
0
 72
0
 73
1
 74
1
 75
0
 76
0
 77
0
 78
9
170
0
171
2
172
0
173
0
174
0
175
0
176
7
177
7
178
7
  0
ENDTAB
  0
TABLE
  2
LTYPE
 70
9
  0
LTYPE
  2
CONTINUOUS
 70
64
  3
Solid line
 72
65
 73
0
 40
0
  0
LTYPE
  2
BORDER
 70
64
  3
__ __ . __ __ .
 72
65
 73
6
 40
10.64229604395709
 49
3.04065601255917
 49
-1.520328006279585
 49
3.04065601255917
 49
-1.520328006279585
 49
0
 49
-1.520328006279585
  0
LTYPE
  2
CENTER
 70
64
  3
____ _ ____ _
 72
65
 73
4
 40
12.16262405023668
 49
7.601640031397924
 49
-1.520328006279585
 49
1.520328006279585
 49
-1.520328006279585
  0
LTYPE
  2
DASHDOT
 70
64
  3
__ . __ . __ .
 72
65
 73
4
 40
6.081312025118339
 49
3.04065601255917
 49
-1.520328006279585
 49
0
 49
-1.520328006279585
  0
LTYPE
  2
DASHED
 70
64
  3
__ __ __ __ __
 72
65
 73
2
 40
4.560984018838754
 49
3.04065601255917
 49
-1.520328006279585
  0
LTYPE
  2
DIVIDE
 70
64
  3
__ . . __ . . 
 72
65
 73
6
 40
7.601640031397924
 49
3.04065601255917
 49
-1.520328006279585
 49
0
 49
-1.520328006279585
 49
0
 49
-1.520328006279585
  0
LTYPE
  2
DOT
 70
64
  3
..............
 72
65
 73
4
 40
3.04065601255917
 49
0
 49
-1.520328006279585
 49
0
 49
-1.520328006279585
  0
LTYPE
  2
HIDDEN
 70
64
  3
_ _ _ _ _ _ _
 72
65
 73
2
 40
2.280492009419377
 49
1.520328006279585
 49
-0.7601640031397924
  0
LTYPE
  2
PHANTOM
 70
64
  3
_____ _ _ _____ _ _ 
 72
65
 73
6
 40
15.20328006279585
 49
7.601640031397924
 49
-1.520328006279585
 49
1.520328006279585
 49
-1.520328006279585
 49
1.520328006279585
 49
-1.520328006279585
  0
ENDTAB
  0
TABLE
  2
LAYER
 70
3
  0
LAYER
  2
1
 70
0
 62
7
  6
CONTINUOUS
  0
LAYER
  2
0
 70
0
 62
7
  6
CONTINUOUS
  0
ENDTAB
  0
TABLE
  2
STYLE
 70
4
  0
STYLE
  2
STANDARD
 70
0
 40
0
 41
1
 50
0
 71
0
 42
3.5
  3
txt
  4

  0
STYLE
  2
SIMPLEX
 70
0
 40
0
 41
1
 50
0
 71
0
 42
3.5
  3
simplex
  4

  0
STYLE
  2
COMPLEX
 70
0
 40
0
 41
1
 50
0
 71
0
 42
3.5
  3
complex
  4

  0
STYLE
  2
ITALIC
 70
0
 40
0
 41
1
 50
0
 71
0
 42
3.5
  3
italic
  4

  0
ENDTAB
  0
TABLE
  2
VIEW
 70
0
  0
ENDTAB
  0
ENDSEC
  0
SECTION
  2
BLOCKS
  0
BLOCK
  8
1
  2
*D0
 70
1
 10
0
 20
0
 30
0
  0
LINE
  8
1
 62
7
 10
73.40804881506914
 20
72.74026579197697
 30
0
 11
88.40804881506914
 21
72.74026579197697
 31
0
  0
LINE
  8
1
 62
7
 10
73.40804881506914
 20
33.21279995367546
 30
0
 11
73.40804881506914
 21
74.74026579197697
 31
0
  0
LINE
  8
1
 62
7
 10
88.40804881506914
 20
46.96279995367546
 30
0
 11
88.40804881506914
 21
74.74026579197697
 31
0
  0
SOLID
  8
1
 62
7
 10
73.40804881506914
 20
72.74026579197697
 30
0
 11
76.60804881506914
 21
73.15626579197696
 31
0
 12
76.60804881506914
 22
72.32426579197697
 32
0
 13
76.60804881506914
 23
72.32426579197697
 33
0
  0
SOLID
  8
1
 62
7
 10
88.40804881506914
 20
72.74026579197697
 30
0
 11
85.20804881506913
 21
72.32426579197697
 31
0
 12
85.20804881506913
 22
73.15626579197696
 32
0
 13
85.20804881506913
 23
73.15626579197696
 33
0
  0
TEXT
  8
1
 62
7
 10
79.05037887812712
 20
74.74026579197697
 30
0
 40
3.2
  1
15
 41
0.9
  0
ENDBLK
  8
0
  0
BLOCK
  8
1
  2
*D1
 70
1
 10
0
 20
0
 30
0
  0
LINE
  8
1
 62
7
 10
88.40804881506909
 20
72.74026579197697
 30
0
 11
170.9080488150691
 21
72.74026579197697
 31
0
  0
LINE
  8
1
 62
7
 10
88.40804881506909
 20
46.96279995367546
 30
0
 11
88.40804881506909
 21
74.74026579197697
 31
0
  0
LINE
  8
1
 62
7
 10
170.9080488150691
 20
45.41279995367546
 30
0
 11
170.9080488150691
 21
74.74026579197697
 31
0
  0
SOLID
  8
1
 62
7
 10
88.40804881506909
 20
72.74026579197697
 30
0
 11
91.6080488150691
 21
73.15626579197696
 31
0
 12
91.6080488150691
 22
72.32426579197697
 32
0
 13
91.6080488150691
 23
72.32426579197697
 33
0
  0
SOLID
  8
1
 62
7
 10
170.9080488150691
 20
72.74026579197697
 30
0
 11
167.7080488150691
 21
72.32426579197697
 31
0
 12
167.7080488150691
 22
73.15626579197696
 32
0
 13
167.7080488150691
 23
73.15626579197696
 33
0
  0
TEXT
  8
1
 62
7
 10
124.5380488150691
 20
74.74026579197697
 30
0
 40
3.2
  1
    
 41
0.9
  0
ENDBLK
  8
0
  0
BLOCK
  8
1
  2
*D2
 70
1
 10
0
 20
0
 30
0
  0
LINE
  8
1
 62
7
 10
49.52409889392857
 20
9.462799953675461
 30
0
 11
49.52409889392857
 21
45.96279995367546
 31
0
  0
LINE
  8
1
 62
7
 10
87.40804881506909
 20
9.462799953675461
 30
0
 11
47.52409889392857
 21
9.462799953675461
 31
0
  0
LINE
  8
1
 62
7
 10
87.40804881506909
 20
45.96279995367546
 30
0
 11
47.52409889392857
 21
45.96279995367546
 31
0
  0
SOLID
  8
1
 62
7
 10
49.52409889392857
 20
9.462799953675461
 30
0
 11
49.10809889392857
 21
12.66279995367546
 31
0
 12
49.94009889392857
 22
12.66279995367546
 32
0
 13
49.94009889392857
 23
12.66279995367546
 33
0
  0
SOLID
  8
1
 62
7
 10
49.52409889392857
 20
45.96279995367546
 30
0
 11
49.94009889392857
 21
42.76279995367545
 31
0
 12
49.10809889392857
 22
42.76279995367545
 32
0
 13
49.10809889392857
 23
42.76279995367545
 33
0
  0
TEXT
  8
1
 62
7
 10
46.67076556059524
 20
27.33632936544016
 30
0
 40
3.2
  1
37
 50
90
 41
0.9
  0
TEXT
  8
1
 62
7
 10
46.67076556059524
 20
23.28927054191075
 30
0
 40
3.2
  1
φ
 50
90
 41
0.9
  0
ENDBLK
  8
0
  0
BLOCK
  8
1
  2
*D3
 70
1
 10
0
 20
0
 30
0
  0
LINE
  8
1
 62
7
 10
57.09743222726191
 20
22.71279995367546
 30
0
 11
57.09743222726191
 21
32.71279995367546
 31
0
  0
LINE
  8
1
 62
7
 10
72.90804881506911
 20
22.71279995367546
 30
0
 11
55.09743222726191
 21
22.71279995367546
 31
0
  0
LINE
  8
1
 62
7
 10
72.90804881506911
 20
32.71279995367546
 30
0
 11
55.09743222726191
 21
32.71279995367546
 31
0
  0
SOLID
  8
1
 62
7
 10
57.09743222726191
 20
22.71279995367546
 30
0
 11
56.68143222726191
 21
25.91279995367546
 31
0
 12
57.51343222726191
 22
25.91279995367546
 32
0
 13
57.51343222726191
 23
25.91279995367546
 33
0
  0
SOLID
  8
1
 62
7
 10
57.09743222726191
 20
32.71279995367546
 30
0
 11
57.51343222726191
 21
29.51279995367546
 31
0
 12
56.68143222726191
 22
29.51279995367546
 32
0
 13
56.68143222726191
 23
29.51279995367546
 33
0
  0
TEXT
  8
1
 62
7
 10
54.27076556059524
 20
23.58432936544017
 30
0
 40
3.2
  1
10
 50
90
 41
0.9
  0
TEXT
  8
1
 62
7
 10
52.19076556059525
 20
29.02432936544017
 30
0
 40
1.92
  1
 0
 50
90
 41
0.9
  0
TEXT
  8
1
 62
7
 10
55.07076556059525
 20
29.02432936544017
 30
0
 40
1.92
  1
-0.02
 50
90
 41
0.9
  0
TEXT
  8
1
 62
7
 10
54.27076556059524
 20
19.53727054191076
 30
0
 40
3.2
  1
φ
 50
90
 41
0.9
  0
ENDBLK
  8
0
  0
BLOCK
  8
1
  2
*D4
 70
1
 10
0
 20
0
 30
0
  0
LINE
  8
1
 62
7
 10
-27.8384308238251
 20
35.86170305479195
 30
0
 11
-57.0587553118104
 21
35.86170305479195
 31
0
  0
LINE
  8
1
 62
7
 10
-1.081619910332108
 20
27.71279995367546
 30
0
 11
-27.8384308238251
 21
35.86170305479195
 31
0
  0
SOLID
  8
1
 62
7
 10
-22.10070584357258
 20
34.11425396468551
 30
0
 11
-25.28308455760446
 21
34.64859628986368
 31
0
 12
-25.04068766009182
 22
35.44450315883532
 32
0
 13
-25.04068766009182
 23
35.44450315883532
 33
0
  0
TEXT
  8
1
 62
7
 10
-53.2187553118104
 20
36.9859900614437
 30
0
 40
3.2
  1
25
 41
0.9
  0
TEXT
  8
1
 62
7
 10
-57.0587553118104
 20
36.9859900614437
 30
0
 40
3.2
  1
R
 41
0.9
  0
TEXT
  8
1
 62
7
 10
-46.8187553118104
 20
36.9859900614437
 30
0
 40
3.2
  1
MAX.
 41
0.9
  0
ENDBLK
  8
0
  0
BLOCK
  8
1
  2
*D5
 70
1
 10
0
 20
0
 30
0
  0
LINE
  8
1
 62
7
 10
18.24752839806502
 20
57.61838993815966
 30
0
 11
43.92752839806501
 21
57.61838993815966
 31
0
  0
LINE
  8
1
 62
7
 10
-1.081619910332094
 20
27.71279995367546
 30
0
 11
18.24752839806502
 21
57.61838993815966
 31
0
  0
SOLID
  8
1
 62
7
 10
10.56146571488682
 20
45.72669996140494
 30
0
 11
11.94913007305838
 21
48.64002171312759
 31
0
 12
12.6478817695297
 22
48.18839125946171
 32
0
 13
12.6478817695297
 23
48.18839125946171
 33
0
  0
TEXT
  8
1
 62
7
 10
27.28752839806501
 20
59.61838993815966
 30
0
 40
3.2
  1
24
 41
0.9
  0
TEXT
  8
1
 62
7
 10
23.44752839806501
 20
59.61838993815966
 30
0
 40
3.2
  1
R
 41
0.9
  0
TEXT
  8
1
 62
7
 10
33.68752839806501
 20
59.61838993815966
 30
0
 40
3.2
  1
MAX.
 41
0.9
  0
ENDBLK
  8
0
  0
BLOCK
  8
1
  2
*D6
 70
1
 10
0
 20
0
 30
0
  0
LINE
  8
1
 62
7
 10
-36.3525421557834
 20
20.24936023222703
 30
0
 11
-56.90933880584961
 21
20.24936023222703
 31
0
  0
LINE
  8
1
 62
7
 10
13.5934332707832
 20
30.8180880452118
 30
0
 11
-36.3525421557834
 21
20.24936023222703
 31
0
  0
SOLID
  8
1
 62
7
 10
-15.75667309144741
 20
24.60751186213912
 30
0
 11
-12.71211506921475
 21
25.67696146322314
 31
0
 12
-12.53987508973754
 22
24.86298518011061
 32
0
 13
-12.53987508973754
 23
24.86298518011061
 33
0
  0
SOLID
  8
1
 62
7
 10
13.5934332707832
 20
30.8180880452118
 30
0
 11
10.54887524855054
 21
29.74863844412779
 31
0
 12
10.37663526907333
 22
30.56261472724031
 32
0
 13
10.37663526907333
 23
30.56261472724031
 33
0
  0
TEXT
  8
1
 62
7
 10
-52.8622799823202
 20
22.06158118024997
 30
0
 40
3.2
  1
30
 41
0.9
  0
TEXT
  8
1
 62
7
 10
-56.90933880584961
 20
22.06158118024997
 30
0
 40
3.2
  1
φ
 41
0.9
  0
ENDBLK
  8
0
  0
BLOCK
  8
1
  2
*D7
 70
1
 10
0
 20
0
 30
0
  0
LINE
  8
1
 62
7
 10
-22.54228271200222
 20
49.17346275534557
 30
0
 11
-23.95649627437532
 21
50.58767631771866
 31
0
  0
LINE
  8
1
 62
7
 10
-20.09178313692666
 20
46.72296318027001
 30
0
 11
-22.54228271200222
 21
49.17346275534557
 31
0
  0
ARC
  8
1
 62
7
 10
-1.081619910332112
 20
27.71279995367546
 30
0
 40
30.34996039163766
 50
90
 51
135
  0
TEXT
  8
1
 62
7
 10
-30.0307315390925
 20
55.5306298033744
 30
0
 40
3.2
  1
45%%d
 41
0.9
  0
ENDBLK
  8
0
  0
BLOCK
  8
1
  2
*D8
 70
1
 10
0
 20
0
 30
0
  0
LINE
  8
1
 62
7
 10
10.16335956796046
 20
62.32128816989008
 30
0
 11
10.78139355671036
 21
64.22340120248039
 31
0
  0
LINE
  8
1
 62
7
 10
-12.32659938862468
 20
62.32128816989008
 30
0
 11
-12.94463337737457
 21
64.22340120248039
 31
0
  0
LINE
  8
1
 62
7
 10
7.226126047077421
 20
53.28141291782903
 30
0
 11
10.16335956796046
 21
62.32128816989008
 31
0
  0
LINE
  8
1
 62
7
 10
-9.389365867741635
 20
53.28141291782903
 30
0
 11
-12.32659938862468
 21
62.32128816989008
 31
0
  0
ARC
  8
1
 62
7
 10
-1.081619910332108
 20
27.71279995367546
 30
0
 40
36.38951799734489
 50
72.00000000000001
 51
108
  0
TEXT
  8
1
 62
7
 10
-8.64567952805738
 20
66.17083685140911
 30
0
 40
3.2
  1
36%%d
 41
0.9
  0
ENDBLK
  8
0
  0
ENDSEC
  0
SECTION
  2
ENTITIES
  0
LINE
  8
1
 62
7
 10
12.1743577944725
 20
-38.86594092855961
 30
0
 11
102.1743577944725
 21
-38.86594092855961
 31
0
  0
LINE
  8
1
 62
7
 10
12.1743577944725
 20
-45.86594092855961
 30
0
 11
102.1743577944725
 21
-45.86594092855961
 31
0
  0
LINE
  8
1
 62
7
 10
12.1743577944725
 20
-46.86594092855961
 30
0
 11
102.1743577944725
 21
-46.86594092855961
 31
0
  0
LINE
  8
1
 62
7
 10
12.1743577944725
 20
-53.86594092855961
 30
0
 11
102.1743577944725
 21
-53.86594092855961
 31
0
  0
LINE
  8
1
 62
7
 10
12.1743577944725
 20
-60.86594092855961
 30
0
 11
102.1743577944725
 21
-60.86594092855961
 31
0
  0
LINE
  8
1
 62
7
 10
12.1743577944725
 20
-67.86594092855961
 30
0
 11
102.1743577944725
 21
-67.86594092855961
 31
0
  0
LINE
  8
1
 62
7
 10
12.1743577944725
 20
-74.86594092855961
 30
0
 11
102.1743577944725
 21
-74.86594092855961
 31
0
  0
LINE
  8
1
 62
7
 10
102.1743577944725
 20
-38.86594092855961
 30
0
 11
102.1743577944725
 21
-74.86594092855961
 31
0
  0
LINE
  8
1
 62
7
 10
72.17435779447247
 20
-38.86594092855961
 30
0
 11
72.17435779447247
 21
-74.86594092855961
 31
0
  0
LINE
  8
1
 62
7
 10
42.17435779447248
 20
-38.86594092855961
 30
0
 11
42.17435779447248
 21
-74.86594092855961
 31
0
  0
LINE
  8
1
 62
7
 10
12.1743577944725
 20
-38.86594092855961
 30
0
 11
12.1743577944725
 21
-74.86594092855961
 31
0
  0
LINE
  8
1
 62
7
  6
CENTER
 10
61.31334494584604
 20
-2.094232367577945
 30
0
 11
69.31334494584604
 21
-2.094232367577945
 31
0
  0
LINE
  8
1
 62
7
 10
73.40804881506909
 20
27.71279995367546
 30
0
 11
174.0311016426865
 21
27.71279995367546
 31
0
  0
LINE
  8
1
 62
7
 10
69.31334494584604
 20
24.71279995367546
 30
0
 11
73.40804881506909
 21
24.71279995367546
 31
0
  0
LINE
  8
1
 62
7
 10
68.31334494584604
 20
25.71279995367546
 30
0
 11
73.40804881506909
 21
25.71279995367546
 31
0
  0
LINE
  8
1
 62
7
 10
67.81334494584604
 20
26.71279995367546
 30
0
 11
73.40804881506909
 21
26.71279995367546
 31
0
  0
LINE
  8
1
 62
7
 10
66.31334494584604
 20
28.71279995367546
 30
0
 11
73.40804881506909
 21
28.71279995367546
 31
0
  0
LINE
  8
1
 62
7
 10
65.31334494584604
 20
29.71279995367546
 30
0
 11
73.40804881506909
 21
29.71279995367546
 31
0
  0
LINE
  8
1
 62
7
 10
64.81334494584604
 20
30.71279995367546
 30
0
 11
73.40804881506909
 21
30.71279995367546
 31
0
  0
LINE
  8
1
 62
7
 10
88.40804881506909
 20
8.556957254182962
 30
0
 11
88.40804881506909
 21
-6.95753448678245
 31
0
  0
LINE
  8
1
 62
7
 10
6.917109052702472
 20
52.33035640153388
 30
0
 11
7.717362204897199
 21
54.79328235361619
 31
0
  0
LINE
  8
1
 62
7
 10
-1.081619910332108
 20
57.12748446022756
 30
0
 11
-1.081619910332108
 21
59.97696095467354
 31
0
  0
LINE
  8
1
 62
7
 10
-8.580266826631203
 20
50.7912621190592
 30
0
 11
-9.643679113805206
 21
54.06410860852456
 31
0
  0
LINE
  8
1
 62
7
 10
-1.081619910332108
 20
27.71279995367546
 30
0
 11
-19.38467635574011
 21
46.01585639908346
 31
0
  0
LINE
  8
1
 62
7
 10
-1.081619910332108
 20
27.71279995367546
 30
0
 11
-9.080348873366688
 21
52.33035640153388
 31
0
  0
LINE
  8
1
 62
7
 10
-1.081619910332108
 20
27.71279995367546
 30
0
 11
6.917109052702472
 21
52.33035640153388
 31
0
  0
LINE
  8
1
 62
7
 10
-46.08161991033211
 20
-16.27854681244834
 30
0
 11
-11.08161991033211
 21
-16.27854681244834
 31
0
  0
LINE
  8
1
 62
7
 10
-46.08161991033211
 20
-11.27854681244834
 30
0
 11
-11.08161991033211
 21
-11.27854681244834
 31
0
  0
LINE
  8
1
 62
7
 10
-46.08161991033211
 20
-6.27854681244834
 30
0
 11
-11.12223715389811
 21
-6.27854681244834
 31
0
  0
LINE
  8
1
 62
7
 10
54.985006453106
 20
-28.23887270193674
 30
0
 11
110.0906481558337
 21
-28.23887270193674
 31
0
  0
LINE
  8
1
 62
7
 10
54.985006453106
 20
-23.23887270193674
 30
0
 11
109.985006453106
 21
-23.23887270193674
 31
0
  0
LINE
  8
1
 62
7
 10
54.985006453106
 20
-18.23887270193674
 30
0
 11
109.985006453106
 21
-18.23887270193674
 31
0
  0
LINE
  8
1
 62
7
 10
-1.081619910332108
 20
57.71279995367546
 30
0
 11
-1.081619910332108
 21
-2.287200046324543
 31
0
  0
LINE
  8
1
 62
7
 10
65.31334494584604
 20
26.21279995367546
 30
0
 11
65.31334494584604
 21
-2.094232367577931
 31
0
  0
LINE
  8
1
 62
7
 10
73.40804881506909
 20
27.71279995367546
 30
0
 11
59.88128079654342
 21
27.71279995367546
 31
0
  0
LINE
  8
1
 62
7
 10
67.31334494584604
 20
24.71279995367546
 30
0
 11
67.31334494584604
 21
-2.094232367577945
 31
0
  0
LINE
  8
1
 62
7
 10
66.31334494584604
 20
25.21279995367546
 30
0
 11
66.31334494584604
 21
-2.094232367577945
 31
0
  0
LINE
  8
1
 62
7
 10
64.31334494584604
 20
26.71279995367546
 30
0
 11
64.31334494584604
 21
-2.094232367577945
 31
0
  0
LINE
  8
1
 62
7
 10
63.31334494584604
 20
27.71279995367546
 30
0
 11
63.31334494584604
 21
-2.094232367577931
 31
0
  0
LINE
  8
1
 62
7
 10
68.31334494584604
 20
23.71279995367546
 30
0
 11
68.31334494584604
 21
-2.094232367577945
 31
0
  0
LINE
  8
1
 62
7
 10
62.31334494584604
 20
28.21279995367546
 30
0
 11
62.31334494584604
 21
-2.094232367577945
 31
0
  0
LINE
  8
1
 62
7
 10
155.4080488150691
 20
46.34296645710366
 30
0
 11
155.4080488150692
 21
45.96279995367546
 31
0
  0
LINE
  8
1
 62
7
 10
154.9080488150692
 20
46.34296645710363
 30
0
 11
155.9080488150691
 21
46.34296645710366
 31
0
  0
LINE
  8
1
 62
7
 10
154.9080488150691
 20
47.04296645710365
 30
0
 11
154.9080488150692
 21
46.34296645710363
 31
0
  0
LINE
  8
1
 62
7
 10
151.9080488150691
 20
46.34296645710366
 30
0
 11
154.9080488150692
 21
46.34296645710363
 31
0
  0
LINE
  8
1
 62
7
 10
152.9080488150692
 20
46.34296645710363
 30
0
 11
154.9080488150692
 21
46.34296645710363
 31
0
  0
LINE
  8
1
 62
7
 10
158.9080488150691
 20
46.34296645710366
 30
0
 11
161.9080488150692
 21
46.34296645710363
 31
0
  0
LINE
  8
1
 62
7
 10
160.9080488150691
 20
50.27316952354603
 30
0
 11
160.9080488150691
 21
44.57258834655124
 31
0
  0
LINE
  8
1
 62
7
 10
159.9080488150691
 20
49.04296645710365
 30
0
 11
161.9080488150691
 21
49.04296645710365
 31
0
  0
LINE
  8
1
 62
7
 10
161.9080488150691
 20
49.04296645710365
 30
0
 11
161.8080488150691
 21
49.14296645710364
 31
0
  0
LINE
  8
1
 62
7
 10
161.9080488150692
 20
46.34296645710363
 30
0
 11
162.9080488150691
 21
46.34296645710366
 31
0
  0
LINE
  8
1
 62
7
 10
161.9080488150691
 20
47.04296645710365
 30
0
 11
161.9080488150692
 21
46.34296645710363
 31
0
  0
LINE
  8
1
 62
7
 10
161.5580488150691
 20
47.04296645710365
 30
0
 11
161.9080488150691
 21
47.04296645710365
 31
0
  0
LINE
  8
1
 62
7
 10
161.9080488150691
 20
49.04296645710365
 30
0
 11
161.9080488150691
 21
48.64296645710364
 31
0
  0
LINE
  8
1
 62
7
 10
160.0080488150691
 20
49.14296645710367
 30
0
 11
161.8080488150691
 21
49.14296645710364
 31
0
  0
LINE
  8
1
 62
7
 10
159.9080488150691
 20
49.04296645710365
 30
0
 11
160.0080488150691
 21
49.14296645710367
 31
0
  0
LINE
  8
1
 62
7
 10
159.9080488150691
 20
49.04296645710365
 30
0
 11
159.9080488150691
 21
48.64296645710364
 31
0
  0
LINE
  8
1
 62
7
 10
159.9080488150691
 20
48.64296645710364
 30
0
 11
161.9080488150691
 21
48.64296645710364
 31
0
  0
LINE
  8
1
 62
7
 10
160.2580488150691
 20
47.04296645710365
 30
0
 11
161.5580488150691
 21
47.04296645710365
 31
0
  0
LINE
  8
1
 62
7
 10
160.2580488150691
 20
47.04296645710365
 30
0
 11
160.2580488150691
 21
48.64296645710364
 31
0
  0
LINE
  8
1
 62
7
 10
161.5580488150691
 20
47.04296645710365
 30
0
 11
161.5580488150691
 21
48.64296645710364
 31
0
  0
LINE
  8
1
 62
7
 10
159.9080488150691
 20
47.04296645710365
 30
0
 11
160.2580488150691
 21
47.04296645710365
 31
0
  0
LINE
  8
1
 62
7
 10
159.9080488150691
 20
47.04296645710365
 30
0
 11
159.9080488150692
 21
46.34296645710363
 31
0
  0
LINE
  8
1
 62
7
 10
162.9080488150691
 20
46.34296645710366
 30
0
 11
162.9080488150692
 21
45.96279995367546
 31
0
  0
LINE
  8
1
 62
7
 10
159.9080488150692
 20
46.34296645710363
 30
0
 11
161.9080488150692
 21
46.34296645710363
 31
0
  0
LINE
  8
1
 62
7
 10
159.4080488150691
 20
46.34296645710366
 30
0
 11
159.4080488150692
 21
45.96279995367546
 31
0
  0
LINE
  8
1
 62
7
 10
159.4080488150691
 20
46.34296645710366
 30
0
 11
159.4080488150692
 21
45.96279995367546
 31
0
  0
LINE
  8
1
 62
7
 10
159.4080488150691
 20
46.34296645710366
 30
0
 11
159.4080488150692
 21
45.96279995367546
 31
0
  0
LINE
  8
1
 62
7
 10
159.4080488150691
 20
46.34296645710366
 30
0
 11
159.4080488150692
 21
45.96279995367546
 31
0
  0
LINE
  8
1
 62
7
 10
159.4080488150691
 20
46.34296645710366
 30
0
 11
159.4080488150692
 21
45.96279995367546
 31
0
  0
LINE
  8
1
 62
7
 10
159.4080488150691
 20
46.34296645710366
 30
0
 11
159.4080488150692
 21
45.96279995367546
 31
0
  0
LINE
  8
1
 62
7
 10
155.4080488150691
 20
46.34296645710366
 30
0
 11
158.4080488150692
 21
46.34296645710363
 31
0
  0
LINE
  8
1
 62
7
 10
157.4080488150691
 20
50.27316952354603
 30
0
 11
157.4080488150691
 21
44.57258834655124
 31
0
  0
LINE
  8
1
 62
7
 10
156.4080488150691
 20
49.04296645710365
 30
0
 11
158.4080488150691
 21
49.04296645710365
 31
0
  0
LINE
  8
1
 62
7
 10
158.4080488150691
 20
49.04296645710365
 30
0
 11
158.3080488150691
 21
49.14296645710364
 31
0
  0
LINE
  8
1
 62
7
 10
158.4080488150692
 20
46.34296645710363
 30
0
 11
159.4080488150691
 21
46.34296645710366
 31
0
  0
LINE
  8
1
 62
7
 10
158.4080488150691
 20
47.04296645710365
 30
0
 11
158.4080488150692
 21
46.34296645710363
 31
0
  0
LINE
  8
1
 62
7
 10
158.0580488150691
 20
47.04296645710365
 30
0
 11
158.4080488150691
 21
47.04296645710365
 31
0
  0
LINE
  8
1
 62
7
 10
158.4080488150691
 20
49.04296645710365
 30
0
 11
158.4080488150691
 21
48.64296645710364
 31
0
  0
LINE
  8
1
 62
7
 10
156.5080488150691
 20
49.14296645710367
 30
0
 11
158.3080488150691
 21
49.14296645710364
 31
0
  0
LINE
  8
1
 62
7
 10
156.4080488150691
 20
49.04296645710365
 30
0
 11
156.5080488150691
 21
49.14296645710367
 31
0
  0
LINE
  8
1
 62
7
 10
156.4080488150691
 20
49.04296645710365
 30
0
 11
156.4080488150691
 21
48.64296645710364
 31
0
  0
LINE
  8
1
 62
7
 10
156.4080488150691
 20
48.64296645710364
 30
0
 11
158.4080488150691
 21
48.64296645710364
 31
0
  0
LINE
  8
1
 62
7
 10
156.7580488150691
 20
47.04296645710365
 30
0
 11
158.0580488150691
 21
47.04296645710365
 31
0
  0
LINE
  8
1
 62
7
 10
156.7580488150691
 20
47.04296645710365
 30
0
 11
156.7580488150691
 21
48.64296645710364
 31
0
  0
LINE
  8
1
 62
7
 10
158.0580488150691
 20
47.04296645710365
 30
0
 11
158.0580488150691
 21
48.64296645710364
 31
0
  0
LINE
  8
1
 62
7
 10
156.4080488150691
 20
47.04296645710365
 30
0
 11
156.7580488150691
 21
47.04296645710365
 31
0
  0
LINE
  8
1
 62
7
 10
156.4080488150691
 20
47.04296645710365
 30
0
 11
156.4080488150692
 21
46.34296645710363
 31
0
  0
LINE
  8
1
 62
7
 10
159.4080488150691
 20
46.34296645710366
 30
0
 11
159.4080488150692
 21
45.96279995367546
 31
0
  0
LINE
  8
1
 62
7
 10
156.4080488150692
 20
46.34296645710363
 30
0
 11
158.4080488150692
 21
46.34296645710363
 31
0
  0
LINE
  8
1
 62
7
 10
151.9080488150691
 20
46.34296645710366
 30
0
 11
154.9080488150692
 21
46.34296645710363
 31
0
  0
LINE
  8
1
 62
7
 10
153.9080488150691
 20
50.27316952354603
 30
0
 11
153.9080488150691
 21
44.57258834655124
 31
0
  0
LINE
  8
1
 62
7
 10
152.9080488150691
 20
49.04296645710365
 30
0
 11
154.9080488150691
 21
49.04296645710365
 31
0
  0
LINE
  8
1
 62
7
 10
154.9080488150691
 20
49.04296645710365
 30
0
 11
154.8080488150691
 21
49.14296645710364
 31
0
  0
LINE
  8
1
 62
7
 10
154.9080488150692
 20
46.34296645710363
 30
0
 11
155.9080488150691
 21
46.34296645710366
 31
0
  0
LINE
  8
1
 62
7
 10
154.9080488150691
 20
47.04296645710365
 30
0
 11
154.9080488150692
 21
46.34296645710363
 31
0
  0
LINE
  8
1
 62
7
 10
154.5580488150691
 20
47.04296645710365
 30
0
 11
154.9080488150691
 21
47.04296645710365
 31
0
  0
LINE
  8
1
 62
7
 10
154.9080488150691
 20
49.04296645710365
 30
0
 11
154.9080488150691
 21
48.64296645710364
 31
0
  0
LINE
  8
1
 62
7
 10
153.0080488150691
 20
49.14296645710367
 30
0
 11
154.8080488150691
 21
49.14296645710364
 31
0
  0
LINE
  8
1
 62
7
 10
152.9080488150691
 20
49.04296645710365
 30
0
 11
153.0080488150691
 21
49.14296645710367
 31
0
  0
LINE
  8
1
 62
7
 10
152.9080488150691
 20
49.04296645710365
 30
0
 11
152.9080488150691
 21
48.64296645710364
 31
0
  0
LINE
  8
1
 62
7
 10
152.9080488150691
 20
48.64296645710364
 30
0
 11
154.9080488150691
 21
48.64296645710364
 31
0
  0
LINE
  8
1
 62
7
 10
153.2580488150691
 20
47.04296645710365
 30
0
 11
154.5580488150691
 21
47.04296645710365
 31
0
  0
LINE
  8
1
 62
7
 10
153.2580488150691
 20
47.04296645710365
 30
0
 11
153.2580488150691
 21
48.64296645710364
 31
0
  0
LINE
  8
1
 62
7
 10
154.5580488150691
 20
47.04296645710365
 30
0
 11
154.5580488150691
 21
48.64296645710364
 31
0
  0
LINE
  8
1
 62
7
 10
152.9080488150691
 20
47.04296645710365
 30
0
 11
153.2580488150691
 21
47.04296645710365
 31
0
  0
LINE
  8
1
 62
7
 10
152.9080488150691
 20
47.04296645710365
 30
0
 11
152.9080488150692
 21
46.34296645710363
 31
0
  0
LINE
  8
1
 62
7
 10
152.9080488150692
 20
46.34296645710363
 30
0
 11
154.9080488150692
 21
46.34296645710363
 31
0
  0
LINE
  8
1
 62
7
 10
152.4080488150691
 20
46.34296645710366
 30
0
 11
152.4080488150692
 21
45.96279995367546
 31
0
  0
LINE
  8
1
 62
7
 10
152.4080488150691
 20
46.34296645710366
 30
0
 11
152.4080488150692
 21
45.96279995367546
 31
0
  0
LINE
  8
1
 62
7
 10
152.4080488150691
 20
46.34296645710366
 30
0
 11
152.4080488150692
 21
45.96279995367546
 31
0
  0
LINE
  8
1
 62
7
 10
152.4080488150691
 20
46.34296645710366
 30
0
 11
152.4080488150692
 21
45.96279995367546
 31
0
  0
LINE
  8
1
 62
7
 10
150.4080488150691
 20
50.27316952354603
 30
0
 11
150.4080488150691
 21
44.57258834655124
 31
0
  0
LINE
  8
1
 62
7
 10
149.4080488150691
 20
49.04296645710365
 30
0
 11
151.4080488150691
 21
49.04296645710365
 31
0
  0
LINE
  8
1
 62
7
 10
151.4080488150691
 20
49.04296645710365
 30
0
 11
151.3080488150691
 21
49.14296645710364
 31
0
  0
LINE
  8
1
 62
7
 10
151.4080488150692
 20
46.34296645710363
 30
0
 11
152.4080488150691
 21
46.34296645710366
 31
0
  0
LINE
  8
1
 62
7
 10
151.4080488150691
 20
47.04296645710365
 30
0
 11
151.4080488150692
 21
46.34296645710363
 31
0
  0
LINE
  8
1
 62
7
 10
151.0580488150691
 20
47.04296645710365
 30
0
 11
151.4080488150691
 21
47.04296645710365
 31
0
  0
LINE
  8
1
 62
7
 10
151.4080488150691
 20
49.04296645710365
 30
0
 11
151.4080488150691
 21
48.64296645710364
 31
0
  0
LINE
  8
1
 62
7
 10
149.5080488150691
 20
49.14296645710367
 30
0
 11
151.3080488150691
 21
49.14296645710364
 31
0
  0
LINE
  8
1
 62
7
 10
149.4080488150691
 20
49.04296645710365
 30
0
 11
149.5080488150691
 21
49.14296645710367
 31
0
  0
LINE
  8
1
 62
7
 10
149.4080488150691
 20
49.04296645710365
 30
0
 11
149.4080488150691
 21
48.64296645710364
 31
0
  0
LINE
  8
1
 62
7
 10
149.4080488150691
 20
48.64296645710364
 30
0
 11
151.4080488150691
 21
48.64296645710364
 31
0
  0
LINE
  8
1
 62
7
 10
149.7580488150691
 20
47.04296645710365
 30
0
 11
151.0580488150691
 21
47.04296645710365
 31
0
  0
LINE
  8
1
 62
7
 10
149.7580488150691
 20
47.04296645710365
 30
0
 11
149.7580488150691
 21
48.64296645710364
 31
0
  0
LINE
  8
1
 62
7
 10
151.0580488150691
 20
47.04296645710365
 30
0
 11
151.0580488150691
 21
48.64296645710364
 31
0
  0
LINE
  8
1
 62
7
 10
149.4080488150691
 20
47.04296645710365
 30
0
 11
149.7580488150691
 21
47.04296645710365
 31
0
  0
LINE
  8
1
 62
7
 10
149.4080488150691
 20
47.04296645710365
 30
0
 11
149.4080488150692
 21
46.34296645710363
 31
0
  0
LINE
  8
1
 62
7
 10
148.4080488150691
 20
46.34296645710366
 30
0
 11
148.4080488150692
 21
45.96279995367546
 31
0
  0
LINE
  8
1
 62
7
 10
152.4080488150691
 20
46.34296645710366
 30
0
 11
152.4080488150692
 21
45.96279995367546
 31
0
  0
LINE
  8
1
 62
7
 10
148.4080488150691
 20
46.34296645710366
 30
0
 11
151.4080488150692
 21
46.34296645710363
 31
0
  0
LINE
  8
1
 62
7
 10
149.4080488150692
 20
46.34296645710363
 30
0
 11
151.4080488150692
 21
46.34296645710363
 31
0
  0
LINE
  8
1
 62
7
 10
147.9080488150691
 20
49.04296645710365
 30
0
 11
147.8080488150691
 21
49.14296645710364
 31
0
  0
LINE
  8
1
 62
7
 10
147.9080488150692
 20
46.34296645710363
 30
0
 11
148.9080488150691
 21
46.34296645710366
 31
0
  0
LINE
  8
1
 62
7
 10
147.9080488150691
 20
47.04296645710365
 30
0
 11
147.9080488150692
 21
46.34296645710363
 31
0
  0
LINE
  8
1
 62
7
 10
147.9080488150691
 20
49.04296645710365
 30
0
 11
147.9080488150691
 21
48.64296645710364
 31
0
  0
LINE
  8
1
 62
7
 10
146.9080488150691
 20
50.27316952354603
 30
0
 11
146.9080488150691
 21
44.57258834655124
 31
0
  0
LINE
  8
1
 62
7
 10
145.9080488150691
 20
49.04296645710365
 30
0
 11
147.9080488150691
 21
49.04296645710365
 31
0
  0
LINE
  8
1
 62
7
 10
147.9080488150691
 20
49.04296645710365
 30
0
 11
147.8080488150691
 21
49.14296645710364
 31
0
  0
LINE
  8
1
 62
7
 10
147.9080488150692
 20
46.34296645710363
 30
0
 11
148.9080488150691
 21
46.34296645710366
 31
0
  0
LINE
  8
1
 62
7
 10
147.9080488150691
 20
47.04296645710365
 30
0
 11
147.9080488150692
 21
46.34296645710363
 31
0
  0
LINE
  8
1
 62
7
 10
147.5580488150691
 20
47.04296645710365
 30
0
 11
147.9080488150691
 21
47.04296645710365
 31
0
  0
LINE
  8
1
 62
7
 10
147.9080488150691
 20
49.04296645710365
 30
0
 11
147.9080488150691
 21
48.64296645710364
 31
0
  0
LINE
  8
1
 62
7
 10
146.0080488150691
 20
49.14296645710367
 30
0
 11
147.8080488150691
 21
49.14296645710364
 31
0
  0
LINE
  8
1
 62
7
 10
145.9080488150691
 20
49.04296645710365
 30
0
 11
146.0080488150691
 21
49.14296645710367
 31
0
  0
LINE
  8
1
 62
7
 10
145.9080488150691
 20
49.04296645710365
 30
0
 11
145.9080488150691
 21
48.64296645710364
 31
0
  0
LINE
  8
1
 62
7
 10
145.9080488150691
 20
48.64296645710364
 30
0
 11
147.9080488150691
 21
48.64296645710364
 31
0
  0
LINE
  8
1
 62
7
 10
146.2580488150691
 20
47.04296645710365
 30
0
 11
147.5580488150691
 21
47.04296645710365
 31
0
  0
LINE
  8
1
 62
7
 10
146.2580488150691
 20
47.04296645710365
 30
0
 11
146.2580488150691
 21
48.64296645710364
 31
0
  0
LINE
  8
1
 62
7
 10
147.5580488150691
 20
47.04296645710365
 30
0
 11
147.5580488150691
 21
48.64296645710364
 31
0
  0
LINE
  8
1
 62
7
 10
145.9080488150691
 20
47.04296645710365
 30
0
 11
146.2580488150691
 21
47.04296645710365
 31
0
  0
LINE
  8
1
 62
7
 10
145.9080488150691
 20
47.04296645710365
 30
0
 11
145.9080488150692
 21
46.34296645710363
 31
0
  0
LINE
  8
1
 62
7
 10
144.9080488150691
 20
46.34296645710366
 30
0
 11
147.9080488150692
 21
46.34296645710363
 31
0
  0
LINE
  8
1
 62
7
 10
145.9080488150692
 20
46.34296645710363
 30
0
 11
147.9080488150692
 21
46.34296645710363
 31
0
  0
LINE
  8
1
 62
7
 10
145.4080488150691
 20
46.34296645710366
 30
0
 11
145.4080488150692
 21
45.96279995367546
 31
0
  0
LINE
  8
1
 62
7
 10
145.4080488150691
 20
46.34296645710366
 30
0
 11
145.4080488150692
 21
45.96279995367546
 31
0
  0
LINE
  8
1
 62
7
 10
143.4080488150691
 20
50.27316952354603
 30
0
 11
143.4080488150691
 21
44.57258834655124
 31
0
  0
LINE
  8
1
 62
7
 10
142.4080488150691
 20
49.04296645710365
 30
0
 11
144.4080488150691
 21
49.04296645710365
 31
0
  0
LINE
  8
1
 62
7
 10
144.4080488150691
 20
49.04296645710365
 30
0
 11
144.3080488150691
 21
49.14296645710364
 31
0
  0
LINE
  8
1
 62
7
 10
144.4080488150692
 20
46.34296645710363
 30
0
 11
145.4080488150691
 21
46.34296645710366
 31
0
  0
LINE
  8
1
 62
7
 10
144.4080488150691
 20
47.04296645710365
 30
0
 11
144.4080488150692
 21
46.34296645710363
 31
0
  0
LINE
  8
1
 62
7
 10
144.0580488150691
 20
47.04296645710365
 30
0
 11
144.4080488150691
 21
47.04296645710365
 31
0
  0
LINE
  8
1
 62
7
 10
144.4080488150691
 20
49.04296645710365
 30
0
 11
144.4080488150691
 21
48.64296645710364
 31
0
  0
LINE
  8
1
 62
7
 10
142.5080488150691
 20
49.14296645710367
 30
0
 11
144.3080488150691
 21
49.14296645710364
 31
0
  0
LINE
  8
1
 62
7
 10
142.4080488150691
 20
49.04296645710365
 30
0
 11
142.5080488150691
 21
49.14296645710367
 31
0
  0
LINE
  8
1
 62
7
 10
142.4080488150691
 20
49.04296645710365
 30
0
 11
142.4080488150691
 21
48.64296645710364
 31
0
  0
LINE
  8
1
 62
7
 10
142.4080488150691
 20
48.64296645710364
 30
0
 11
144.4080488150691
 21
48.64296645710364
 31
0
  0
LINE
  8
1
 62
7
 10
142.7580488150691
 20
47.04296645710365
 30
0
 11
144.0580488150691
 21
47.04296645710365
 31
0
  0
LINE
  8
1
 62
7
 10
142.7580488150691
 20
47.04296645710365
 30
0
 11
142.7580488150691
 21
48.64296645710364
 31
0
  0
LINE
  8
1
 62
7
 10
144.0580488150691
 20
47.04296645710365
 30
0
 11
144.0580488150691
 21
48.64296645710364
 31
0
  0
LINE
  8
1
 62
7
 10
142.4080488150691
 20
47.04296645710365
 30
0
 11
142.7580488150691
 21
47.04296645710365
 31
0
  0
LINE
  8
1
 62
7
 10
142.4080488150691
 20
47.04296645710365
 30
0
 11
142.4080488150692
 21
46.34296645710363
 31
0
  0
LINE
  8
1
 62
7
 10
141.4080488150691
 20
46.34296645710366
 30
0
 11
141.4080488150692
 21
45.96279995367546
 31
0
  0
LINE
  8
1
 62
7
 10
145.4080488150691
 20
46.34296645710366
 30
0
 11
145.4080488150692
 21
45.96279995367546
 31
0
  0
LINE
  8
1
 62
7
 10
141.4080488150691
 20
46.34296645710366
 30
0
 11
144.4080488150692
 21
46.34296645710363
 31
0
  0
LINE
  8
1
 62
7
 10
142.4080488150692
 20
46.34296645710363
 30
0
 11
144.4080488150692
 21
46.34296645710363
 31
0
  0
LINE
  8
1
 62
7
 10
139.9080488150691
 20
50.27316952354603
 30
0
 11
139.9080488150691
 21
44.57258834655124
 31
0
  0
LINE
  8
1
 62
7
 10
138.9080488150691
 20
49.04296645710365
 30
0
 11
140.9080488150691
 21
49.04296645710365
 31
0
  0
LINE
  8
1
 62
7
 10
140.9080488150691
 20
49.04296645710365
 30
0
 11
140.8080488150691
 21
49.14296645710364
 31
0
  0
LINE
  8
1
 62
7
 10
140.9080488150692
 20
46.34296645710363
 30
0
 11
141.9080488150691
 21
46.34296645710366
 31
0
  0
LINE
  8
1
 62
7
 10
140.9080488150691
 20
47.04296645710365
 30
0
 11
140.9080488150692
 21
46.34296645710363
 31
0
  0
LINE
  8
1
 62
7
 10
140.5580488150691
 20
47.04296645710365
 30
0
 11
140.9080488150691
 21
47.04296645710365
 31
0
  0
LINE
  8
1
 62
7
 10
140.9080488150691
 20
49.04296645710365
 30
0
 11
140.9080488150691
 21
48.64296645710364
 31
0
  0
LINE
  8
1
 62
7
 10
139.0080488150691
 20
49.14296645710367
 30
0
 11
140.8080488150691
 21
49.14296645710364
 31
0
  0
LINE
  8
1
 62
7
 10
138.9080488150691
 20
49.04296645710365
 30
0
 11
139.0080488150691
 21
49.14296645710367
 31
0
  0
LINE
  8
1
 62
7
 10
138.9080488150691
 20
49.04296645710365
 30
0
 11
138.9080488150692
 21
48.64296645710364
 31
0
  0
LINE
  8
1
 62
7
 10
138.9080488150692
 20
48.64296645710364
 30
0
 11
140.9080488150691
 21
48.64296645710364
 31
0
  0
LINE
  8
1
 62
7
 10
139.2580488150691
 20
47.04296645710365
 30
0
 11
140.5580488150691
 21
47.04296645710365
 31
0
  0
LINE
  8
1
 62
7
 10
139.2580488150691
 20
47.04296645710365
 30
0
 11
139.2580488150691
 21
48.64296645710364
 31
0
  0
LINE
  8
1
 62
7
 10
140.5580488150691
 20
47.04296645710365
 30
0
 11
140.5580488150691
 21
48.64296645710364
 31
0
  0
LINE
  8
1
 62
7
 10
138.9080488150691
 20
47.04296645710365
 30
0
 11
139.2580488150691
 21
47.04296645710365
 31
0
  0
LINE
  8
1
 62
7
 10
138.9080488150691
 20
47.04296645710365
 30
0
 11
138.908048815069
 21
46.34296645710366
 31
0
  0
LINE
  8
1
 62
7
 10
137.9080488150691
 20
46.34296645710366
 30
0
 11
140.9080488150692
 21
46.34296645710363
 31
0
  0
LINE
  8
1
 62
7
 10
138.908048815069
 20
46.34296645710366
 30
0
 11
140.9080488150692
 21
46.34296645710363
 31
0
  0
LINE
  8
1
 62
7
 10
136.4080488150691
 20
50.27316952354603
 30
0
 11
136.4080488150691
 21
44.57258834655124
 31
0
  0
LINE
  8
1
 62
7
 10
135.4080488150691
 20
49.04296645710365
 30
0
 11
137.4080488150691
 21
49.04296645710365
 31
0
  0
LINE
  8
1
 62
7
 10
137.4080488150691
 20
49.04296645710365
 30
0
 11
137.3080488150691
 21
49.14296645710364
 31
0
  0
LINE
  8
1
 62
7
 10
137.4080488150692
 20
46.34296645710363
 30
0
 11
138.4080488150691
 21
46.34296645710366
 31
0
  0
LINE
  8
1
 62
7
 10
137.4080488150691
 20
47.04296645710365
 30
0
 11
137.4080488150692
 21
46.34296645710363
 31
0
  0
LINE
  8
1
 62
7
 10
137.0580488150691
 20
47.04296645710365
 30
0
 11
137.4080488150691
 21
47.04296645710365
 31
0
  0
LINE
  8
1
 62
7
 10
137.4080488150691
 20
49.04296645710365
 30
0
 11
137.4080488150691
 21
48.64296645710364
 31
0
  0
LINE
  8
1
 62
7
 10
135.5080488150691
 20
49.14296645710367
 30
0
 11
137.3080488150691
 21
49.14296645710364
 31
0
  0
LINE
  8
1
 62
7
 10
135.4080488150691
 20
49.04296645710365
 30
0
 11
135.5080488150691
 21
49.14296645710367
 31
0
  0
LINE
  8
1
 62
7
 10
135.4080488150691
 20
49.04296645710365
 30
0
 11
135.4080488150692
 21
48.64296645710364
 31
0
  0
LINE
  8
1
 62
7
 10
135.4080488150692
 20
48.64296645710364
 30
0
 11
137.4080488150691
 21
48.64296645710364
 31
0
  0
LINE
  8
1
 62
7
 10
135.7580488150691
 20
47.04296645710365
 30
0
 11
137.0580488150691
 21
47.04296645710365
 31
0
  0
LINE
  8
1
 62
7
 10
135.7580488150691
 20
47.04296645710365
 30
0
 11
135.7580488150691
 21
48.64296645710364
 31
0
  0
LINE
  8
1
 62
7
 10
137.0580488150691
 20
47.04296645710365
 30
0
 11
137.0580488150691
 21
48.64296645710364
 31
0
  0
LINE
  8
1
 62
7
 10
135.4080488150691
 20
47.04296645710365
 30
0
 11
135.7580488150691
 21
47.04296645710365
 31
0
  0
LINE
  8
1
 62
7
 10
135.4080488150691
 20
47.04296645710365
 30
0
 11
135.408048815069
 21
46.34296645710366
 31
0
  0
LINE
  8
1
 62
7
 10
134.4080488150691
 20
46.34296645710366
 30
0
 11
134.4080488150692
 21
45.96279995367546
 31
0
  0
LINE
  8
1
 62
7
 10
138.4080488150691
 20
46.34296645710366
 30
0
 11
138.4080488150692
 21
45.96279995367546
 31
0
  0
LINE
  8
1
 62
7
 10
134.4080488150691
 20
46.34296645710366
 30
0
 11
137.4080488150692
 21
46.34296645710363
 31
0
  0
LINE
  8
1
 62
7
 10
135.408048815069
 20
46.34296645710366
 30
0
 11
137.4080488150692
 21
46.34296645710363
 31
0
  0
LINE
  8
1
 62
7
 10
131.5080488150691
 20
11.01279995367545
 30
0
 11
132.0080488150691
 21
11.01279995367545
 31
0
  0
LINE
  8
1
 62
7
 10
131.5080488150691
 20
44.41279995367546
 30
0
 11
132.0080488150691
 21
44.41279995367546
 31
0
  0
LINE
  8
1
 62
7
 10
131.5080488150691
 20
11.01279995367545
 30
0
 11
131.3080488150691
 21
11.01279995367545
 31
0
  0
LINE
  8
1
 62
7
 10
132.0080488150691
 20
11.01279995367545
 30
0
 11
132.0080488150691
 21
44.41279995367546
 31
0
  0
LINE
  8
1
 62
7
 10
132.0080488150691
 20
9.462799953675457
 30
0
 11
132.0080488150691
 21
11.01279995367545
 31
0
  0
LINE
  8
1
 62
7
 10
165.1080488150691
 20
9.462799953675471
 30
0
 11
132.0080488150691
 21
9.462799953675457
 31
0
  0
LINE
  8
1
 62
7
 10
132.0080488150691
 20
45.96279995367546
 30
0
 11
132.0080488150691
 21
44.41279995367546
 31
0
  0
LINE
  8
1
 62
7
 10
165.1080488150691
 20
45.96279995367546
 30
0
 11
132.0080488150691
 21
45.96279995367546
 31
0
  0
LINE
  8
1
 62
7
 10
169.3080488150691
 20
44.41279995367546
 30
0
 11
170.9080488150691
 21
44.41279995367546
 31
0
  0
LINE
  8
1
 62
7
 10
166.2580488150691
 20
45.96279995367546
 30
0
 11
166.2580488150691
 21
9.462799953675471
 31
0
  0
LINE
  8
1
 62
7
 10
168.5580488150691
 20
45.96279995367546
 30
0
 11
168.5580488150691
 21
9.462799953675471
 31
0
  0
LINE
  8
1
 62
7
 10
165.5080488150691
 20
10.35661514812112
 30
0
 11
165.5080488150691
 21
45.06898475922979
 31
0
  0
LINE
  8
1
 62
7
 10
166.2580488150691
 20
9.462799953675471
 30
0
 11
165.5080488150691
 21
10.35661514812112
 31
0
  0
LINE
  8
1
 62
7
 10
168.5580488150691
 20
9.462799953675471
 30
0
 11
166.2580488150691
 21
9.462799953675471
 31
0
  0
LINE
  8
1
 62
7
 10
169.3080488150691
 20
10.35661514812112
 30
0
 11
168.5580488150691
 21
9.462799953675471
 31
0
  0
LINE
  8
1
 62
7
 10
169.3080488150691
 20
45.06898475922979
 30
0
 11
169.3080488150691
 21
10.35661514812112
 31
0
  0
LINE
  8
1
 62
7
 10
168.5580488150691
 20
45.96279995367546
 30
0
 11
169.3080488150691
 21
45.06898475922979
 31
0
  0
LINE
  8
1
 62
7
 10
166.2580488150691
 20
45.96279995367546
 30
0
 11
168.5580488150691
 21
45.96279995367546
 31
0
  0
LINE
  8
1
 62
7
 10
165.5080488150691
 20
45.06898475922979
 30
0
 11
166.2580488150691
 21
45.96279995367546
 31
0
  0
LINE
  8
1
 62
7
 10
165.1080488150691
 20
44.96279995367544
 30
0
 11
165.1080488150691
 21
11.01279995367545
 31
0
  0
LINE
  8
1
 62
7
 10
170.9080488150691
 20
11.01279995367545
 30
0
 11
169.3080488150691
 21
11.01279995367545
 31
0
  0
LINE
  8
1
 62
7
 10
170.9080488150691
 20
44.41279995367546
 30
0
 11
170.9080488150691
 21
11.01279995367545
 31
0
  0
LINE
  8
1
 62
7
 10
165.1080488150691
 20
11.01279995367545
 30
0
 11
165.5080488150691
 21
11.01279995367545
 31
0
  0
LINE
  8
1
 62
7
 10
165.1080488150691
 20
9.462799953675471
 30
0
 11
165.1080488150691
 21
11.01279995367545
 31
0
  0
LINE
  8
1
 62
7
 10
165.1080488150691
 20
45.96279995367546
 30
0
 11
165.1080488150691
 21
44.96279995367544
 31
0
  0
LINE
  8
1
 62
7
 10
165.1080488150691
 20
44.41279995367546
 30
0
 11
165.5080488150691
 21
44.41279995367546
 31
0
  0
LINE
  8
1
 62
7
 10
165.1080488150691
 20
44.96279995367544
 30
0
 11
165.1080488150691
 21
44.41279995367546
 31
0
  0
LINE
  8
1
 62
7
 10
98.40804881506909
 20
50.27316952354603
 30
0
 11
98.40804881506909
 21
44.57258834655124
 31
0
  0
LINE
  8
1
 62
7
 10
97.40804881506909
 20
49.04296645710365
 30
0
 11
99.40804881506909
 21
49.04296645710365
 31
0
  0
LINE
  8
1
 62
7
 10
99.40804881506909
 20
49.04296645710365
 30
0
 11
99.30804881506907
 21
49.14296645710364
 31
0
  0
LINE
  8
1
 62
7
 10
99.40804881506904
 20
46.34296645710366
 30
0
 11
100.4080488150691
 21
46.34296645710366
 31
0
  0
LINE
  8
1
 62
7
 10
99.40804881506909
 20
47.04296645710365
 30
0
 11
99.40804881506904
 21
46.34296645710366
 31
0
  0
LINE
  8
1
 62
7
 10
99.05804881506907
 20
47.04296645710365
 30
0
 11
99.40804881506909
 21
47.04296645710365
 31
0
  0
LINE
  8
1
 62
7
 10
99.40804881506909
 20
49.04296645710365
 30
0
 11
99.40804881506909
 21
48.64296645710364
 31
0
  0
LINE
  8
1
 62
7
 10
97.50804881506906
 20
49.14296645710367
 30
0
 11
99.30804881506907
 21
49.14296645710364
 31
0
  0
LINE
  8
1
 62
7
 10
97.40804881506909
 20
49.04296645710365
 30
0
 11
97.50804881506906
 21
49.14296645710367
 31
0
  0
LINE
  8
1
 62
7
 10
97.40804881506909
 20
49.04296645710365
 30
0
 11
97.40804881506909
 21
48.64296645710364
 31
0
  0
LINE
  8
1
 62
7
 10
97.40804881506909
 20
48.64296645710364
 30
0
 11
99.40804881506909
 21
48.64296645710364
 31
0
  0
LINE
  8
1
 62
7
 10
97.75804881506906
 20
47.04296645710365
 30
0
 11
99.05804881506907
 21
47.04296645710365
 31
0
  0
LINE
  8
1
 62
7
 10
97.75804881506906
 20
47.04296645710365
 30
0
 11
97.75804881506906
 21
48.64296645710364
 31
0
  0
LINE
  8
1
 62
7
 10
99.05804881506907
 20
47.04296645710365
 30
0
 11
99.05804881506907
 21
48.64296645710364
 31
0
  0
LINE
  8
1
 62
7
 10
97.40804881506909
 20
47.04296645710365
 30
0
 11
97.75804881506906
 21
47.04296645710365
 31
0
  0
LINE
  8
1
 62
7
 10
97.40804881506909
 20
47.04296645710365
 30
0
 11
97.40804881506904
 21
46.34296645710366
 31
0
  0
LINE
  8
1
 62
7
 10
96.40804881506909
 20
46.34296645710366
 30
0
 11
96.40804881506909
 21
45.96279995367546
 31
0
  0
LINE
  8
1
 62
7
 10
100.4080488150691
 20
46.34296645710366
 30
0
 11
100.4080488150691
 21
45.96279995367546
 31
0
  0
LINE
  8
1
 62
7
 10
96.40804881506909
 20
46.34296645710366
 30
0
 11
99.40804881506904
 21
46.34296645710366
 31
0
  0
LINE
  8
1
 62
7
 10
97.40804881506904
 20
46.34296645710366
 30
0
 11
99.40804881506904
 21
46.34296645710366
 31
0
  0
LINE
  8
1
 62
7
 10
101.9080488150691
 20
50.27316952354603
 30
0
 11
101.9080488150691
 21
44.57258834655124
 31
0
  0
LINE
  8
1
 62
7
 10
100.9080488150691
 20
49.04296645710365
 30
0
 11
102.9080488150691
 21
49.04296645710365
 31
0
  0
LINE
  8
1
 62
7
 10
102.9080488150691
 20
49.04296645710365
 30
0
 11
102.8080488150691
 21
49.14296645710364
 31
0
  0
LINE
  8
1
 62
7
 10
102.908048815069
 20
46.34296645710366
 30
0
 11
103.9080488150691
 21
46.34296645710366
 31
0
  0
LINE
  8
1
 62
7
 10
102.9080488150691
 20
47.04296645710365
 30
0
 11
102.908048815069
 21
46.34296645710366
 31
0
  0
LINE
  8
1
 62
7
 10
102.5580488150691
 20
47.04296645710365
 30
0
 11
102.9080488150691
 21
47.04296645710365
 31
0
  0
LINE
  8
1
 62
7
 10
102.9080488150691
 20
49.04296645710365
 30
0
 11
102.9080488150691
 21
48.64296645710364
 31
0
  0
LINE
  8
1
 62
7
 10
101.0080488150691
 20
49.14296645710367
 30
0
 11
102.8080488150691
 21
49.14296645710364
 31
0
  0
LINE
  8
1
 62
7
 10
100.9080488150691
 20
49.04296645710365
 30
0
 11
101.0080488150691
 21
49.14296645710367
 31
0
  0
LINE
  8
1
 62
7
 10
100.9080488150691
 20
49.04296645710365
 30
0
 11
100.9080488150691
 21
48.64296645710364
 31
0
  0
LINE
  8
1
 62
7
 10
100.9080488150691
 20
48.64296645710364
 30
0
 11
102.9080488150691
 21
48.64296645710364
 31
0
  0
LINE
  8
1
 62
7
 10
101.2580488150691
 20
47.04296645710365
 30
0
 11
102.5580488150691
 21
47.04296645710365
 31
0
  0
LINE
  8
1
 62
7
 10
101.2580488150691
 20
47.04296645710365
 30
0
 11
101.2580488150691
 21
48.64296645710364
 31
0
  0
LINE
  8
1
 62
7
 10
102.5580488150691
 20
47.04296645710365
 30
0
 11
102.5580488150691
 21
48.64296645710364
 31
0
  0
LINE
  8
1
 62
7
 10
100.9080488150691
 20
47.04296645710365
 30
0
 11
101.2580488150691
 21
47.04296645710365
 31
0
  0
LINE
  8
1
 62
7
 10
100.9080488150691
 20
47.04296645710365
 30
0
 11
100.908048815069
 21
46.34296645710366
 31
0
  0
LINE
  8
1
 62
7
 10
99.90804881506909
 20
46.34296645710366
 30
0
 11
102.908048815069
 21
46.34296645710366
 31
0
  0
LINE
  8
1
 62
7
 10
100.908048815069
 20
46.34296645710366
 30
0
 11
102.908048815069
 21
46.34296645710366
 31
0
  0
LINE
  8
1
 62
7
 10
103.4080488150691
 20
46.34296645710366
 30
0
 11
103.4080488150691
 21
45.96279995367546
 31
0
  0
LINE
  8
1
 62
7
 10
103.4080488150691
 20
46.34296645710366
 30
0
 11
103.4080488150691
 21
45.96279995367546
 31
0
  0
LINE
  8
1
 62
7
 10
103.4080488150691
 20
46.34296645710366
 30
0
 11
103.4080488150691
 21
45.96279995367546
 31
0
  0
LINE
  8
1
 62
7
 10
103.4080488150691
 20
46.34296645710366
 30
0
 11
103.4080488150691
 21
45.96279995367546
 31
0
  0
LINE
  8
1
 62
7
 10
103.4080488150691
 20
46.34296645710366
 30
0
 11
103.4080488150691
 21
45.96279995367546
 31
0
  0
LINE
  8
1
 62
7
 10
105.4080488150691
 20
50.27316952354603
 30
0
 11
105.4080488150691
 21
44.57258834655124
 31
0
  0
LINE
  8
1
 62
7
 10
104.4080488150691
 20
49.04296645710365
 30
0
 11
106.4080488150691
 21
49.04296645710365
 31
0
  0
LINE
  8
1
 62
7
 10
106.4080488150691
 20
49.04296645710365
 30
0
 11
106.3080488150691
 21
49.14296645710364
 31
0
  0
LINE
  8
1
 62
7
 10
106.408048815069
 20
46.34296645710366
 30
0
 11
107.4080488150691
 21
46.34296645710366
 31
0
  0
LINE
  8
1
 62
7
 10
106.4080488150691
 20
47.04296645710365
 30
0
 11
106.408048815069
 21
46.34296645710366
 31
0
  0
LINE
  8
1
 62
7
 10
106.0580488150691
 20
47.04296645710365
 30
0
 11
106.4080488150691
 21
47.04296645710365
 31
0
  0
LINE
  8
1
 62
7
 10
106.4080488150691
 20
49.04296645710365
 30
0
 11
106.4080488150691
 21
48.64296645710364
 31
0
  0
LINE
  8
1
 62
7
 10
104.5080488150691
 20
49.14296645710367
 30
0
 11
106.3080488150691
 21
49.14296645710364
 31
0
  0
LINE
  8
1
 62
7
 10
104.4080488150691
 20
49.04296645710365
 30
0
 11
104.5080488150691
 21
49.14296645710367
 31
0
  0
LINE
  8
1
 62
7
 10
104.4080488150691
 20
49.04296645710365
 30
0
 11
104.4080488150691
 21
48.64296645710364
 31
0
  0
LINE
  8
1
 62
7
 10
104.4080488150691
 20
48.64296645710364
 30
0
 11
106.4080488150691
 21
48.64296645710364
 31
0
  0
LINE
  8
1
 62
7
 10
104.7580488150691
 20
47.04296645710365
 30
0
 11
106.0580488150691
 21
47.04296645710365
 31
0
  0
LINE
  8
1
 62
7
 10
104.7580488150691
 20
47.04296645710365
 30
0
 11
104.7580488150691
 21
48.64296645710364
 31
0
  0
LINE
  8
1
 62
7
 10
106.0580488150691
 20
47.04296645710365
 30
0
 11
106.0580488150691
 21
48.64296645710364
 31
0
  0
LINE
  8
1
 62
7
 10
104.4080488150691
 20
47.04296645710365
 30
0
 11
104.7580488150691
 21
47.04296645710365
 31
0
  0
LINE
  8
1
 62
7
 10
104.4080488150691
 20
47.04296645710365
 30
0
 11
104.408048815069
 21
46.34296645710366
 31
0
  0
LINE
  8
1
 62
7
 10
103.4080488150691
 20
46.34296645710366
 30
0
 11
103.4080488150691
 21
45.96279995367546
 31
0
  0
LINE
  8
1
 62
7
 10
107.4080488150691
 20
46.34296645710366
 30
0
 11
107.4080488150691
 21
45.96279995367546
 31
0
  0
LINE
  8
1
 62
7
 10
103.4080488150691
 20
46.34296645710366
 30
0
 11
106.408048815069
 21
46.34296645710366
 31
0
  0
LINE
  8
1
 62
7
 10
104.408048815069
 20
46.34296645710366
 30
0
 11
106.408048815069
 21
46.34296645710366
 31
0
  0
LINE
  8
1
 62
7
 10
108.9080488150691
 20
50.27316952354603
 30
0
 11
108.9080488150691
 21
44.57258834655124
 31
0
  0
LINE
  8
1
 62
7
 10
107.9080488150691
 20
49.04296645710365
 30
0
 11
109.908048815069
 21
49.04296645710365
 31
0
  0
LINE
  8
1
 62
7
 10
109.908048815069
 20
49.04296645710365
 30
0
 11
109.8080488150691
 21
49.14296645710364
 31
0
  0
LINE
  8
1
 62
7
 10
109.908048815069
 20
46.34296645710366
 30
0
 11
110.908048815069
 21
46.34296645710366
 31
0
  0
LINE
  8
1
 62
7
 10
109.908048815069
 20
47.04296645710365
 30
0
 11
109.908048815069
 21
46.34296645710366
 31
0
  0
LINE
  8
1
 62
7
 10
109.5580488150691
 20
47.04296645710365
 30
0
 11
109.908048815069
 21
47.04296645710365
 31
0
  0
LINE
  8
1
 62
7
 10
109.908048815069
 20
49.04296645710365
 30
0
 11
109.9080488150691
 21
48.64296645710364
 31
0
  0
LINE
  8
1
 62
7
 10
108.0080488150691
 20
49.14296645710367
 30
0
 11
109.8080488150691
 21
49.14296645710364
 31
0
  0
LINE
  8
1
 62
7
 10
107.9080488150691
 20
49.04296645710365
 30
0
 11
108.0080488150691
 21
49.14296645710367
 31
0
  0
LINE
  8
1
 62
7
 10
107.9080488150691
 20
49.04296645710365
 30
0
 11
107.9080488150691
 21
48.64296645710364
 31
0
  0
LINE
  8
1
 62
7
 10
107.9080488150691
 20
48.64296645710364
 30
0
 11
109.9080488150691
 21
48.64296645710364
 31
0
  0
LINE
  8
1
 62
7
 10
108.2580488150691
 20
47.04296645710365
 30
0
 11
109.5580488150691
 21
47.04296645710365
 31
0
  0
LINE
  8
1
 62
7
 10
108.2580488150691
 20
47.04296645710365
 30
0
 11
108.2580488150691
 21
48.64296645710364
 31
0
  0
LINE
  8
1
 62
7
 10
109.5580488150691
 20
47.04296645710365
 30
0
 11
109.5580488150691
 21
48.64296645710364
 31
0
  0
LINE
  8
1
 62
7
 10
107.9080488150691
 20
47.04296645710365
 30
0
 11
108.2580488150691
 21
47.04296645710365
 31
0
  0
LINE
  8
1
 62
7
 10
107.9080488150691
 20
47.04296645710365
 30
0
 11
107.908048815069
 21
46.34296645710366
 31
0
  0
LINE
  8
1
 62
7
 10
106.9080488150691
 20
46.34296645710366
 30
0
 11
109.908048815069
 21
46.34296645710366
 31
0
  0
LINE
  8
1
 62
7
 10
107.908048815069
 20
46.34296645710366
 30
0
 11
109.908048815069
 21
46.34296645710366
 31
0
  0
LINE
  8
1
 62
7
 10
110.4080488150691
 20
46.34296645710366
 30
0
 11
110.4080488150691
 21
45.96279995367546
 31
0
  0
LINE
  8
1
 62
7
 10
110.4080488150691
 20
46.34296645710366
 30
0
 11
110.4080488150691
 21
45.96279995367546
 31
0
  0
LINE
  8
1
 62
7
 10
110.4080488150691
 20
46.34296645710366
 30
0
 11
110.4080488150691
 21
45.96279995367546
 31
0
  0
LINE
  8
1
 62
7
 10
112.4080488150691
 20
50.27316952354603
 30
0
 11
112.408048815069
 21
44.57258834655124
 31
0
  0
LINE
  8
1
 62
7
 10
111.408048815069
 20
49.04296645710365
 30
0
 11
113.408048815069
 21
49.04296645710365
 31
0
  0
LINE
  8
1
 62
7
 10
113.408048815069
 20
49.04296645710365
 30
0
 11
113.3080488150691
 21
49.14296645710364
 31
0
  0
LINE
  8
1
 62
7
 10
113.408048815069
 20
46.34296645710366
 30
0
 11
114.408048815069
 21
46.34296645710366
 31
0
  0
LINE
  8
1
 62
7
 10
113.408048815069
 20
47.04296645710365
 30
0
 11
113.408048815069
 21
46.34296645710366
 31
0
  0
LINE
  8
1
 62
7
 10
113.0580488150691
 20
47.04296645710365
 30
0
 11
113.408048815069
 21
47.04296645710365
 31
0
  0
LINE
  8
1
 62
7
 10
113.408048815069
 20
49.04296645710365
 30
0
 11
113.4080488150691
 21
48.64296645710364
 31
0
  0
LINE
  8
1
 62
7
 10
111.5080488150691
 20
49.14296645710367
 30
0
 11
113.3080488150691
 21
49.14296645710364
 31
0
  0
LINE
  8
1
 62
7
 10
111.408048815069
 20
49.04296645710365
 30
0
 11
111.5080488150691
 21
49.14296645710367
 31
0
  0
LINE
  8
1
 62
7
 10
111.408048815069
 20
49.04296645710365
 30
0
 11
111.4080488150691
 21
48.64296645710364
 31
0
  0
LINE
  8
1
 62
7
 10
111.4080488150691
 20
48.64296645710364
 30
0
 11
113.4080488150691
 21
48.64296645710364
 31
0
  0
LINE
  8
1
 62
7
 10
111.7580488150691
 20
47.04296645710365
 30
0
 11
113.0580488150691
 21
47.04296645710365
 31
0
  0
LINE
  8
1
 62
7
 10
111.7580488150691
 20
47.04296645710365
 30
0
 11
111.7580488150691
 21
48.64296645710364
 31
0
  0
LINE
  8
1
 62
7
 10
113.0580488150691
 20
47.04296645710365
 30
0
 11
113.0580488150691
 21
48.64296645710364
 31
0
  0
LINE
  8
1
 62
7
 10
111.408048815069
 20
47.04296645710365
 30
0
 11
111.7580488150691
 21
47.04296645710365
 31
0
  0
LINE
  8
1
 62
7
 10
111.408048815069
 20
47.04296645710365
 30
0
 11
111.408048815069
 21
46.34296645710366
 31
0
  0
LINE
  8
1
 62
7
 10
110.4080488150691
 20
46.34296645710366
 30
0
 11
110.4080488150691
 21
45.96279995367546
 31
0
  0
LINE
  8
1
 62
7
 10
114.408048815069
 20
46.34296645710366
 30
0
 11
114.4080488150691
 21
45.96279995367546
 31
0
  0
LINE
  8
1
 62
7
 10
110.4080488150691
 20
46.34296645710366
 30
0
 11
113.408048815069
 21
46.34296645710366
 31
0
  0
LINE
  8
1
 62
7
 10
111.408048815069
 20
46.34296645710366
 30
0
 11
113.408048815069
 21
46.34296645710366
 31
0
  0
LINE
  8
1
 62
7
 10
115.9080488150691
 20
50.27316952354603
 30
0
 11
115.908048815069
 21
44.57258834655124
 31
0
  0
LINE
  8
1
 62
7
 10
114.908048815069
 20
49.04296645710365
 30
0
 11
116.908048815069
 21
49.04296645710365
 31
0
  0
LINE
  8
1
 62
7
 10
116.908048815069
 20
49.04296645710365
 30
0
 11
116.8080488150691
 21
49.14296645710364
 31
0
  0
LINE
  8
1
 62
7
 10
116.908048815069
 20
46.34296645710366
 30
0
 11
117.908048815069
 21
46.34296645710366
 31
0
  0
LINE
  8
1
 62
7
 10
116.908048815069
 20
47.04296645710365
 30
0
 11
116.908048815069
 21
46.34296645710366
 31
0
  0
LINE
  8
1
 62
7
 10
116.5580488150691
 20
47.04296645710365
 30
0
 11
116.908048815069
 21
47.04296645710365
 31
0
  0
LINE
  8
1
 62
7
 10
116.908048815069
 20
49.04296645710365
 30
0
 11
116.9080488150691
 21
48.64296645710364
 31
0
  0
LINE
  8
1
 62
7
 10
115.0080488150691
 20
49.14296645710367
 30
0
 11
116.8080488150691
 21
49.14296645710364
 31
0
  0
LINE
  8
1
 62
7
 10
114.908048815069
 20
49.04296645710365
 30
0
 11
115.0080488150691
 21
49.14296645710367
 31
0
  0
LINE
  8
1
 62
7
 10
114.908048815069
 20
49.04296645710365
 30
0
 11
114.9080488150691
 21
48.64296645710364
 31
0
  0
LINE
  8
1
 62
7
 10
114.9080488150691
 20
48.64296645710364
 30
0
 11
116.9080488150691
 21
48.64296645710364
 31
0
  0
LINE
  8
1
 62
7
 10
115.2580488150691
 20
47.04296645710365
 30
0
 11
116.5580488150691
 21
47.04296645710365
 31
0
  0
LINE
  8
1
 62
7
 10
115.2580488150691
 20
47.04296645710365
 30
0
 11
115.2580488150691
 21
48.64296645710364
 31
0
  0
LINE
  8
1
 62
7
 10
116.5580488150691
 20
47.04296645710365
 30
0
 11
116.5580488150691
 21
48.64296645710364
 31
0
  0
LINE
  8
1
 62
7
 10
114.908048815069
 20
47.04296645710365
 30
0
 11
115.2580488150691
 21
47.04296645710365
 31
0
  0
LINE
  8
1
 62
7
 10
114.908048815069
 20
47.04296645710365
 30
0
 11
114.908048815069
 21
46.34296645710366
 31
0
  0
LINE
  8
1
 62
7
 10
113.9080488150691
 20
46.34296645710366
 30
0
 11
116.908048815069
 21
46.34296645710366
 31
0
  0
LINE
  8
1
 62
7
 10
114.908048815069
 20
46.34296645710366
 30
0
 11
116.908048815069
 21
46.34296645710366
 31
0
  0
LINE
  8
1
 62
7
 10
117.4080488150691
 20
46.34296645710366
 30
0
 11
117.4080488150691
 21
45.96279995367546
 31
0
  0
LINE
  8
1
 62
7
 10
119.4080488150691
 20
50.27316952354603
 30
0
 11
119.408048815069
 21
44.57258834655124
 31
0
  0
LINE
  8
1
 62
7
 10
118.408048815069
 20
49.04296645710365
 30
0
 11
120.408048815069
 21
49.04296645710365
 31
0
  0
LINE
  8
1
 62
7
 10
120.408048815069
 20
49.04296645710365
 30
0
 11
120.3080488150691
 21
49.14296645710364
 31
0
  0
LINE
  8
1
 62
7
 10
120.4080488150691
 20
46.34296645710363
 30
0
 11
121.408048815069
 21
46.34296645710366
 31
0
  0
LINE
  8
1
 62
7
 10
120.408048815069
 20
47.04296645710365
 30
0
 11
120.4080488150691
 21
46.34296645710363
 31
0
  0
LINE
  8
1
 62
7
 10
120.0580488150691
 20
47.04296645710365
 30
0
 11
120.408048815069
 21
47.04296645710365
 31
0
  0
LINE
  8
1
 62
7
 10
120.408048815069
 20
49.04296645710365
 30
0
 11
120.4080488150691
 21
48.64296645710364
 31
0
  0
LINE
  8
1
 62
7
 10
118.5080488150691
 20
49.14296645710367
 30
0
 11
120.3080488150691
 21
49.14296645710364
 31
0
  0
LINE
  8
1
 62
7
 10
118.408048815069
 20
49.04296645710365
 30
0
 11
118.5080488150691
 21
49.14296645710367
 31
0
  0
LINE
  8
1
 62
7
 10
118.408048815069
 20
49.04296645710365
 30
0
 11
118.4080488150691
 21
48.64296645710364
 31
0
  0
LINE
  8
1
 62
7
 10
118.4080488150691
 20
48.64296645710364
 30
0
 11
120.4080488150691
 21
48.64296645710364
 31
0
  0
LINE
  8
1
 62
7
 10
118.7580488150691
 20
47.04296645710365
 30
0
 11
120.0580488150691
 21
47.04296645710365
 31
0
  0
LINE
  8
1
 62
7
 10
118.7580488150691
 20
47.04296645710365
 30
0
 11
118.7580488150691
 21
48.64296645710364
 31
0
  0
LINE
  8
1
 62
7
 10
120.0580488150691
 20
47.04296645710365
 30
0
 11
120.0580488150691
 21
48.64296645710364
 31
0
  0
LINE
  8
1
 62
7
 10
118.408048815069
 20
47.04296645710365
 30
0
 11
118.7580488150691
 21
47.04296645710365
 31
0
  0
LINE
  8
1
 62
7
 10
118.408048815069
 20
47.04296645710365
 30
0
 11
118.408048815069
 21
46.34296645710366
 31
0
  0
LINE
  8
1
 62
7
 10
117.4080488150691
 20
46.34296645710366
 30
0
 11
117.4080488150691
 21
45.96279995367546
 31
0
  0
LINE
  8
1
 62
7
 10
121.408048815069
 20
46.34296645710366
 30
0
 11
121.4080488150691
 21
45.96279995367546
 31
0
  0
LINE
  8
1
 62
7
 10
117.4080488150691
 20
46.34296645710366
 30
0
 11
120.4080488150691
 21
46.34296645710363
 31
0
  0
LINE
  8
1
 62
7
 10
118.408048815069
 20
46.34296645710366
 30
0
 11
120.4080488150691
 21
46.34296645710363
 31
0
  0
LINE
  8
1
 62
7
  6
DASHED
 10
120.25297339881
 20
45.96279995367546
 30
0
 11
125.480225112816
 21
45.96279995367546
 31
0
  0
LINE
  8
1
 62
7
 10
122.9080488150691
 20
50.27316952354603
 30
0
 11
122.908048815069
 21
44.57258834655124
 31
0
  0
LINE
  8
1
 62
7
 10
121.908048815069
 20
49.04296645710365
 30
0
 11
123.908048815069
 21
49.04296645710365
 31
0
  0
LINE
  8
1
 62
7
 10
123.908048815069
 20
49.04296645710365
 30
0
 11
123.8080488150691
 21
49.14296645710364
 31
0
  0
LINE
  8
1
 62
7
 10
123.9080488150691
 20
46.34296645710363
 30
0
 11
124.908048815069
 21
46.34296645710366
 31
0
  0
LINE
  8
1
 62
7
 10
123.908048815069
 20
47.04296645710365
 30
0
 11
123.9080488150691
 21
46.34296645710363
 31
0
  0
LINE
  8
1
 62
7
 10
123.5580488150691
 20
47.04296645710365
 30
0
 11
123.908048815069
 21
47.04296645710365
 31
0
  0
LINE
  8
1
 62
7
 10
123.908048815069
 20
49.04296645710365
 30
0
 11
123.9080488150691
 21
48.64296645710364
 31
0
  0
LINE
  8
1
 62
7
 10
122.0080488150691
 20
49.14296645710367
 30
0
 11
123.8080488150691
 21
49.14296645710364
 31
0
  0
LINE
  8
1
 62
7
 10
121.908048815069
 20
49.04296645710365
 30
0
 11
122.0080488150691
 21
49.14296645710367
 31
0
  0
LINE
  8
1
 62
7
 10
121.908048815069
 20
49.04296645710365
 30
0
 11
121.9080488150691
 21
48.64296645710364
 31
0
  0
LINE
  8
1
 62
7
 10
121.9080488150691
 20
48.64296645710364
 30
0
 11
123.9080488150691
 21
48.64296645710364
 31
0
  0
LINE
  8
1
 62
7
 10
122.2580488150691
 20
47.04296645710365
 30
0
 11
123.5580488150691
 21
47.04296645710365
 31
0
  0
LINE
  8
1
 62
7
 10
122.2580488150691
 20
47.04296645710365
 30
0
 11
122.2580488150691
 21
48.64296645710364
 31
0
  0
LINE
  8
1
 62
7
 10
123.5580488150691
 20
47.04296645710365
 30
0
 11
123.5580488150691
 21
48.64296645710364
 31
0
  0
LINE
  8
1
 62
7
 10
121.908048815069
 20
47.04296645710365
 30
0
 11
122.2580488150691
 21
47.04296645710365
 31
0
  0
LINE
  8
1
 62
7
 10
121.908048815069
 20
47.04296645710365
 30
0
 11
121.908048815069
 21
46.34296645710366
 31
0
  0
LINE
  8
1
 62
7
 10
124.908048815069
 20
46.34296645710366
 30
0
 11
124.9080488150691
 21
45.96279995367546
 31
0
  0
LINE
  8
1
 62
7
 10
120.9080488150691
 20
46.34296645710366
 30
0
 11
123.9080488150691
 21
46.34296645710363
 31
0
  0
LINE
  8
1
 62
7
 10
121.908048815069
 20
46.34296645710366
 30
0
 11
123.9080488150691
 21
46.34296645710363
 31
0
  0
LINE
  8
1
 62
7
 10
88.40804881506909
 20
9.462799953675457
 30
0
 11
127.1080488150691
 21
9.462799953675471
 31
0
  0
LINE
  8
1
 62
7
 10
88.40804881506909
 20
45.96279995367546
 30
0
 11
127.1080488150691
 21
45.96279995367546
 31
0
  0
LINE
  8
1
 62
7
 10
131.3080488150691
 20
44.41279995367546
 30
0
 11
131.5080488150691
 21
44.41279995367546
 31
0
  0
LINE
  8
1
 62
7
 10
128.2580488150691
 20
45.96279995367546
 30
0
 11
128.2580488150691
 21
9.462799953675471
 31
0
  0
LINE
  8
1
 62
7
 10
130.5580488150691
 20
45.96279995367546
 30
0
 11
130.5580488150691
 21
9.462799953675471
 31
0
  0
LINE
  8
1
 62
7
 10
127.5080488150691
 20
10.35661514812112
 30
0
 11
127.5080488150691
 21
45.06898475922979
 31
0
  0
LINE
  8
1
 62
7
 10
128.2580488150691
 20
9.462799953675471
 30
0
 11
127.5080488150691
 21
10.35661514812112
 31
0
  0
LINE
  8
1
 62
7
 10
130.5580488150691
 20
9.462799953675471
 30
0
 11
128.2580488150691
 21
9.462799953675471
 31
0
  0
LINE
  8
1
 62
7
 10
131.3080488150691
 20
10.35661514812112
 30
0
 11
130.5580488150691
 21
9.462799953675471
 31
0
  0
LINE
  8
1
 62
7
 10
131.3080488150691
 20
45.06898475922979
 30
0
 11
131.3080488150691
 21
10.35661514812112
 31
0
  0
LINE
  8
1
 62
7
 10
130.5580488150691
 20
45.96279995367546
 30
0
 11
131.3080488150691
 21
45.06898475922979
 31
0
  0
LINE
  8
1
 62
7
 10
128.2580488150691
 20
45.96279995367546
 30
0
 11
130.5580488150691
 21
45.96279995367546
 31
0
  0
LINE
  8
1
 62
7
 10
127.5080488150691
 20
45.06898475922979
 30
0
 11
128.2580488150691
 21
45.96279995367546
 31
0
  0
LINE
  8
1
 62
7
 10
127.1080488150691
 20
44.96279995367544
 30
0
 11
127.1080488150691
 21
11.01279995367545
 31
0
  0
LINE
  8
1
 62
7
 10
127.1080488150691
 20
11.01279995367545
 30
0
 11
127.5080488150691
 21
11.01279995367545
 31
0
  0
LINE
  8
1
 62
7
 10
127.1080488150691
 20
9.462799953675471
 30
0
 11
127.1080488150691
 21
11.01279995367545
 31
0
  0
LINE
  8
1
 62
7
 10
127.1080488150691
 20
45.96279995367546
 30
0
 11
127.1080488150691
 21
44.96279995367544
 31
0
  0
LINE
  8
1
 62
7
 10
127.1080488150691
 20
44.41279995367546
 30
0
 11
127.5080488150691
 21
44.41279995367546
 31
0
  0
LINE
  8
1
 62
7
 10
127.1080488150691
 20
44.96279995367544
 30
0
 11
127.1080488150691
 21
44.41279995367546
 31
0
  0
LINE
  8
1
 62
7
 10
-8.053157506801512
 20
49.16898644312779
 30
0
 11
-6.291581045296198
 21
43.74741156807738
 31
0
  0
LINE
  8
1
 62
7
 10
-8.624060369033828
 20
47.68997680604649
 30
0
 11
-6.72194733644352
 21
48.3080107947964
 31
0
  0
LINE
  8
1
 62
7
 10
-6.72194733644352
 20
48.3080107947964
 30
0
 11
-6.847954687510509
 21
48.37221474698843
 31
0
  0
LINE
  8
1
 62
7
 10
-5.887601451631099
 20
45.74015820079949
 30
0
 11
-4.936544935336002
 21
46.04917519517444
 31
0
  0
LINE
  8
1
 62
7
 10
-6.103913347693606
 20
46.4058977622061
 30
0
 11
-5.887601451631099
 21
45.74015820079949
 31
0
  0
LINE
  8
1
 62
7
 10
-6.436783128396911
 20
46.29774181417487
 30
0
 11
-6.103913347693606
 21
46.4058977622061
 31
0
  0
LINE
  8
1
 62
7
 10
-6.72194733644352
 20
48.3080107947964
 30
0
 11
-6.598340538693492
 21
47.92758818827834
 31
0
  0
LINE
  8
1
 62
7
 10
-8.559856416841797
 20
47.81598415711353
 30
0
 11
-6.847954687510509
 21
48.37221474698843
 31
0
  0
LINE
  8
1
 62
7
 10
-8.624060369033828
 20
47.68997680604649
 30
0
 11
-8.559856416841797
 21
47.81598415711353
 31
0
  0
LINE
  8
1
 62
7
 10
-8.624060369033828
 20
47.68997680604649
 30
0
 11
-8.500453571283799
 21
47.30955419952845
 31
0
  0
LINE
  8
1
 62
7
 10
-8.500453571283799
 20
47.30955419952845
 30
0
 11
-6.598340538693492
 21
47.92758818827834
 31
0
  0
LINE
  8
1
 62
7
 10
-7.673156599580608
 20
45.89601972148743
 30
0
 11
-6.436783128396911
 21
46.29774181417487
 31
0
  0
LINE
  8
1
 62
7
 10
-7.673156599580608
 20
45.89601972148743
 30
0
 11
-8.167583790580522
 21
47.41771014755967
 31
0
  0
LINE
  8
1
 62
7
 10
-6.436783128396911
 20
46.29774181417487
 30
0
 11
-6.931210319396826
 21
47.81943224024711
 31
0
  0
LINE
  8
1
 62
7
 10
-8.006026380283913
 20
45.78786377345621
 30
0
 11
-7.673156599580608
 21
45.89601972148743
 31
0
  0
LINE
  8
1
 62
7
 10
-8.006026380283913
 20
45.78786377345621
 30
0
 11
-7.78971448422152
 21
45.1221242120496
 31
0
  0
LINE
  8
1
 62
7
 10
-8.740771000516588
 20
44.81310721767464
 30
0
 11
-8.589325921746905
 21
44.34700719195902
 31
0
  0
LINE
  8
1
 62
7
 10
-4.936544935336002
 20
46.04917519517444
 30
0
 11
-4.785099856566319
 21
45.58307516945881
 31
0
  0
LINE
  8
1
 62
7
 10
-8.740771000516588
 20
44.81310721767464
 30
0
 11
-5.887601451631099
 21
45.74015820079949
 31
0
  0
LINE
  8
1
 62
7
 10
-7.78971448422152
 20
45.1221242120496
 30
0
 11
-5.887601451631099
 21
45.74015820079949
 31
0
  0
LINE
  8
1
 62
7
 10
5.889917686137324
 20
49.16898644312779
 30
0
 11
4.12834122463201
 21
43.74741156807738
 31
0
  0
LINE
  8
1
 62
7
 10
4.558707515779304
 20
48.30801079479637
 30
0
 11
6.460820548369611
 21
47.68997680604649
 31
0
  0
LINE
  8
1
 62
7
 10
6.460820548369611
 20
47.68997680604649
 30
0
 11
6.39661659617758
 21
47.81598415711351
 31
0
  0
LINE
  8
1
 62
7
 10
5.626474663557247
 20
45.12212421204958
 30
0
 11
6.577531179852429
 21
44.81310721767464
 31
0
  0
LINE
  8
1
 62
7
 10
5.842786559619725
 20
45.78786377345621
 30
0
 11
5.626474663557247
 21
45.12212421204958
 31
0
  0
LINE
  8
1
 62
7
 10
5.50991677891642
 20
45.89601972148743
 30
0
 11
5.842786559619725
 21
45.78786377345621
 31
0
  0
LINE
  8
1
 62
7
 10
6.460820548369611
 20
47.68997680604649
 30
0
 11
6.33721375061964
 21
47.30955419952845
 31
0
  0
LINE
  8
1
 62
7
 10
4.684714866846321
 20
48.37221474698841
 30
0
 11
6.39661659617758
 21
47.81598415711351
 31
0
  0
LINE
  8
1
 62
7
 10
4.558707515779304
 20
48.30801079479637
 30
0
 11
4.684714866846321
 21
48.37221474698841
 31
0
  0
LINE
  8
1
 62
7
 10
4.558707515779304
 20
48.30801079479637
 30
0
 11
4.435100718029332
 21
47.92758818827834
 31
0
  0
LINE
  8
1
 62
7
 10
4.435100718029332
 20
47.92758818827834
 30
0
 11
6.33721375061964
 21
47.30955419952845
 31
0
  0
LINE
  8
1
 62
7
 10
4.273543307732723
 20
46.29774181417487
 30
0
 11
5.50991677891642
 21
45.89601972148743
 31
0
  0
LINE
  8
1
 62
7
 10
4.273543307732723
 20
46.29774181417487
 30
0
 11
4.767970498732638
 21
47.81943224024711
 31
0
  0
LINE
  8
1
 62
7
 10
5.50991677891642
 20
45.89601972148743
 30
0
 11
6.004343969916334
 21
47.41771014755967
 31
0
  0
LINE
  8
1
 62
7
 10
3.940673527029418
 20
46.4058977622061
 30
0
 11
4.273543307732723
 21
46.29774181417487
 31
0
  0
LINE
  8
1
 62
7
 10
3.940673527029418
 20
46.4058977622061
 30
0
 11
3.724361630966996
 21
45.74015820079949
 31
0
  0
LINE
  8
1
 62
7
 10
2.773305114671786
 20
46.04917519517444
 30
0
 11
2.621860035902103
 21
45.58307516945881
 31
0
  0
LINE
  8
1
 62
7
 10
6.577531179852429
 20
44.81310721767464
 30
0
 11
6.426086101082746
 21
44.34700719195902
 31
0
  0
LINE
  8
1
 62
7
 10
2.773305114671786
 20
46.04917519517444
 30
0
 11
5.626474663557247
 21
45.12212421204958
 31
0
  0
LINE
  8
1
 62
7
 10
3.724361630966996
 20
45.74015820079949
 30
0
 11
5.626474663557247
 21
45.12212421204958
 31
0
  0
LINE
  8
1
 62
7
 10
-12.45920953629809
 20
44.46239174730918
 30
0
 11
-20.6234030720471
 21
36.29819821156004
 31
0
  0
LINE
  8
1
 62
7
 10
-12.53240657307663
 20
41.99201374116618
 30
0
 11
-14.74790058619121
 21
44.20750775428074
 31
0
  0
LINE
  8
1
 62
7
 10
-17.13070478808402
 20
41.78198584410502
 30
0
 11
-14.97626816064781
 21
39.62754921666878
 31
0
  0
LINE
  8
1
 62
7
 10
-15.3608336978229
 20
39.16358661642001
 30
0
 11
-17.54331857271882
 21
41.34607149131594
 31
0
  0
LINE
  8
1
 62
7
 10
-14.74203545646202
 20
43.35311448712754
 30
0
 11
-12.99636917332549
 21
41.6074482039911
 31
0
  0
LINE
  8
1
 62
7
 10
-17.96762262912142
 20
41.77037554771862
 30
0
 11
-17.96757007541061
 21
41.77042956464344
 31
0
  0
LINE
  8
1
 62
7
 10
-17.12493293638562
 20
41.77621399240653
 30
0
 11
-17.12487964604543
 21
41.77616070206643
 31
0
  0
LINE
  8
1
 62
7
 10
-17.96757007541061
 20
41.77042956464344
 30
0
 11
-17.9733672505682
 21
41.76447098304595
 31
0
  0
LINE
  8
1
 62
7
 10
-15.60221333275263
 20
44.20164317729888
 30
0
 11
-17.54918370244809
 21
42.20046475846912
 31
0
  0
LINE
  8
1
 62
7
 10
-17.54918370244809
 20
42.20046475846912
 30
0
 11
-17.12487964604543
 21
41.77616070206643
 31
0
  0
LINE
  8
1
 62
7
 10
-17.12487964604543
 20
41.77616070206643
 30
0
 11
-15.5963482030233
 21
43.34724991014568
 31
0
  0
LINE
  8
1
 62
7
 10
-17.96758264143071
 20
40.92180742260398
 30
0
 11
-16.06020679498741
 21
39.01443157616062
 31
0
  0
LINE
  8
1
 62
7
 10
-16.06020679498741
 20
39.01443157616062
 30
0
 11
-15.63594272627552
 21
39.43869564487257
 31
0
  0
LINE
  8
1
 62
7
 10
-14.6148805342421
 20
44.07448770233158
 30
0
 11
-14.40274849988612
 21
44.28661973668754
 31
0
  0
LINE
  8
1
 62
7
 10
-14.11990578741143
 20
44.28661973668754
 30
0
 11
-12.6349815469197
 21
42.80169549619578
 31
0
  0
LINE
  8
1
 62
7
 10
-12.6349815469197
 20
42.51885278372117
 30
0
 11
-12.84711358127572
 21
42.3067207493652
 31
0
  0
LINE
  8
1
 62
7
 10
-13.5542203624623
 20
42.16529939312788
 30
0
 11
-15.53411934978459
 21
40.18540040580557
 31
0
  0
LINE
  8
1
 62
7
 10
-18.9282318994799
 20
37.07413056858475
 30
0
 11
-19.8474707150225
 21
37.99336938412726
 31
0
  0
LINE
  8
1
 62
7
 10
-19.8474707150225
 20
38.27621209660188
 30
0
 11
-17.58472901522561
 21
40.53895379639882
 31
0
  0
LINE
  8
1
 62
7
 10
-16.73620087780171
 20
41.3874819338227
 30
0
 11
-14.7565418220712
 21
43.36714098955315
 31
0
  0
LINE
  8
1
 62
7
 10
-16.38264748720849
 20
39.3368722683817
 30
0
 11
-18.64538918700541
 21
37.07413056858475
 31
0
  0
LINE
  8
1
 62
7
 10
-19.8474707150225
 20
38.27621209660188
 30
0
 11
-19.8474707150225
 21
37.99336938412726
 31
0
  0
LINE
  8
1
 62
7
 10
-18.64538918700541
 20
37.07413056858475
 30
0
 11
-18.9282318994799
 21
37.07413056858475
 31
0
  0
LINE
  8
1
 62
7
 10
-17.69114488090833
 20
44.3223249242518
 30
0
 11
-13.39379394305132
 21
40.02497398639459
 31
0
  0
LINE
  8
1
 62
7
 10
-26.08161991033211
 20
27.71279995367546
 30
0
 11
23.91838008966789
 21
27.71279995367546
 31
0
  0
LINE
  8
1
 62
7
 10
88.40804881506909
 20
45.96279995367546
 30
0
 11
88.40804881506909
 21
9.462799953675457
 31
0
  0
LINE
  8
1
 62
7
 10
88.40804881506909
 20
32.71279995367546
 30
0
 11
73.90804881506909
 21
32.71279995367546
 31
0
  0
LINE
  8
1
 62
7
 10
73.40804881506909
 20
32.21279995367546
 30
0
 11
73.40804881506909
 21
23.21279995367546
 31
0
  0
LINE
  8
1
 62
7
 10
73.90804881506909
 20
22.71279995367546
 30
0
 11
88.40804881506909
 21
22.71279995367546
 31
0
  0
LINE
  8
1
 62
7
 10
73.40804881506909
 20
32.21279995367546
 30
0
 11
73.90804881506909
 21
32.71279995367546
 31
0
  0
LINE
  8
1
 62
7
 10
73.90804881506909
 20
22.71279995367546
 30
0
 11
73.40804881506909
 21
23.21279995367546
 31
0
  0
LINE
  8
1
 62
7
 10
73.90804881506909
 20
32.71279995367546
 30
0
 11
73.90804881506909
 21
22.71279995367546
 31
0
  0
LINE
  8
1
 62
7
 10
14.1198887936483
 20
36.48939509600699
 30
0
 11
9.905362587473462
 21
34.05613725636522
 31
0
  0
LINE
  8
1
 62
7
 10
-16.41010271342913
 20
36.56270362631204
 30
0
 11
-12.02841575171919
 21
34.03293547946417
 31
0
  0
ARC
  8
1
 62
7
 10
-1.081619910332108
 20
27.71279995367546
 30
0
 40
21.44905677097841
 50
39.46606858406965
 51
67.19845956711102
  0
ARC
  8
1
 62
7
 10
-1.081619910332108
 20
27.71279995367546
 30
0
 40
21.44905677097843
 50
76.40853696084113
 51
102.6957224254696
  0
ARC
  8
1
 62
7
 10
-1.081619910332108
 20
27.71279995367546
 30
0
 40
21.97226858847361
 50
141.9829387457831
 51
171.4440200710333
  0
CIRCLE
  8
1
 62
7
  6
DASHDOT
 10
-1.081619910332108
 20
27.71279995367546
 30
0
 40
15
  0
CIRCLE
  8
1
 62
7
 10
-1.081619910332108
 20
27.71279995367546
 30
0
 40
5
  0
CIRCLE
  8
1
 62
7
 10
-1.081619910332108
 20
27.71279995367546
 30
0
 40
18.25
  0
CIRCLE
  8
1
 62
7
 10
-1.081619910332108
 20
12.71279995367546
 30
0
 40
1.5
  0
CIRCLE
  8
1
 62
7
 10
-1.081619910332108
 20
27.71279995367546
 30
0
 40
4.5
  0
CIRCLE
  8
1
 62
7
 10
-1.081619910332108
 20
27.71279995367546
 30
0
 40
3.550000000000011
  0
CIRCLE
  8
1
 62
7
 10
-1.081619910332108
 20
12.71279995367546
 30
0
 40
0.9999999999999998
  0
CIRCLE
  8
1
 62
7
 10
11.90876114643447
 20
35.21279995367546
 30
0
 40
1.5
  0
CIRCLE
  8
1
 62
7
 10
11.90876114643447
 20
35.21279995367546
 30
0
 40
1.000000000000008
  0
CIRCLE
  8
1
 62
7
 10
-14.07200096709869
 20
35.21279995367546
 30
0
 40
1.500000000000006
  0
CIRCLE
  8
1
 62
7
 10
-14.07200096709869
 20
35.21279995367546
 30
0
 40
0.9999999999999959
  0
CIRCLE
  8
1
 62
7
 10
-29.79424012250021
 20
-12.29348127980315
 30
0
 40
0.6769626132965195
  0
CIRCLE
  8
1
 62
7
 10
-39.01516157052006
 20
-12.15962974855522
 30
0
 40
0.6769626132965225
  0
CIRCLE
  8
1
 62
7
 10
-15.20522516489762
 20
58.59868709049238
 30
0
 40
0.6769626132965132
  0
CIRCLE
  8
1
 62
7
 10
3.702104803724879
 20
69.12909654815118
 30
0
 40
0.6769626132965156
  0
ARC
  8
1
 62
7
 10
64.81334494584604
 20
28.21279995367546
 30
0
 40
2.5
 50
90
 51
180
  0
ARC
  8
1
 62
7
 10
65.31334494584604
 20
27.71279995367546
 30
0
 40
2
 50
90
 51
180
  0
ARC
  8
1
 62
7
 10
66.31334494584604
 20
26.71279995367546
 30
0
 40
2
 50
90
 51
180
  0
ARC
  8
1
 62
7
 10
66.81334494584604
 20
26.21279995367546
 30
0
 40
1.5
 50
90
 51
180
  0
ARC
  8
1
 62
7
 10
67.81334494584604
 20
25.21279995367546
 30
0
 40
1.5
 50
90
 51
180
  0
ARC
  8
1
 62
7
 10
68.31334494584604
 20
24.71279995367546
 30
0
 40
1
 50
90
 51
180
  0
ARC
  8
1
 62
7
 10
69.31334494584604
 20
23.71279995367546
 30
0
 40
1
 50
90
 51
180
  0
ARC
  8
1
 62
7
 10
-15.1721646549031
 20
43.78324368556881
 30
0
 40
0.5999999999999711
 50
45.00000000000264
 51
135.7866211363339
  0
ARC
  8
1
 62
7
 10
-15.16629952517383
 20
42.92885041841562
 30
0
 40
0.5999999999999109
 50
45.00000000000744
 51
135.7866211363304
  0
ARC
  8
1
 62
7
 10
-17.54331857271882
 20
41.34607149131594
 30
0
 40
0.5999999999999434
 50
135.7866211363272
 51
225.0000000000046
  0
ARC
  8
1
 62
7
 10
-17.54339872949163
 20
41.35774819930033
 30
0
 40
0.5917999999998693
 50
45.00000000001288
 51
135.7866211363361
  0
ARC
  8
1
 62
7
 10
-14.26132714364883
 20
44.14519838045024
 30
0
 40
0.2000000000000586
 50
44.9999999999802
 51
134.9999999999978
  0
ARC
  8
1
 62
7
 10
-12.77640290315711
 20
42.66027413995847
 30
0
 40
0.2000000000000599
 50
315.0000000000231
 51
44.99999999997984
  0
LINE
  8
1
 62
7
 10
-11.12223715389811
 20
-6.27854681244834
 30
0
 11
-1.812107324273711
 21
11.40268998192768
 31
0
  0
SOLID
  8
1
 62
7
 10
-2.930255760061379
 20
8.374946986231937
 30
0
 11
-3.67579332698756
 21
8.767512937452771
 31
0
 12
-1.812107324273711
 22
11.40268998192768
 32
0
 13
-1.812107324273711
 23
11.40268998192768
 33
0
  0
LINE
  8
1
 62
7
 10
54.985006453106
 20
-18.23887270193674
 30
0
 11
62.31334494584604
 21
-2.094232367577945
 31
0
  0
SOLID
  8
1
 62
7
 10
61.37430873128888
 20
-5.182224362416855
 30
0
 11
60.60707447499613
 21
-4.833963130398379
 31
0
 12
62.31334494584604
 22
-2.094232367577945
 32
0
 13
62.31334494584604
 23
-2.094232367577945
 33
0
  0
LINE
  8
1
 62
7
 10
157.4050074846595
 20
-5.650133497375251
 30
0
 11
139.5165075375667
 21
-5.650133497375251
 31
0
  0
LINE
  8
1
 62
7
 10
139.5165075375667
 20
-5.650133497375251
 30
0
 11
146.450813696833
 21
9.462799953675471
 31
0
  0
SOLID
  8
1
 62
7
 10
145.4992244441693
 20
6.37865315647953
 30
0
 11
144.7334131326598
 21
6.730032331901437
 31
0
 12
146.450813696833
 22
9.462799953675471
 32
0
 13
146.450813696833
 23
9.462799953675471
 33
0
  0
LINE
  8
1
 62
7
 10
115.6986733383477
 20
-5.650133497375251
 30
0
 11
98.41315653553897
 21
-5.650133497375251
 31
0
  0
LINE
  8
1
 62
7
 10
98.41315653553897
 20
-5.650133497375251
 30
0
 11
105.2469655040913
 21
9.462799953675471
 31
0
  0
SOLID
  8
1
 62
7
 10
104.312375269607
 20
6.373459463207387
 30
0
 11
103.5446405038659
 21
6.720615939783182
 31
0
 12
105.2469655040913
 22
9.462799953675471
 32
0
 13
105.2469655040913
 23
9.462799953675471
 33
0
  0
LINE
  8
1
 62
7
 10
73.44053547660423
 20
-5.650133497375251
 30
0
 11
88.40804881506909
 21
-5.650133497375251
 31
0
  0
SOLID
  8
1
 62
7
 10
85.20804881506909
 20
-6.071421489654917
 30
0
 11
85.20804881506909
 21
-5.228845505095584
 31
0
 12
88.40804881506909
 22
-5.650133497375251
 32
0
 13
88.40804881506909
 23
-5.650133497375251
 33
0
  0
LINE
  8
1
 62
7
 10
126.4080488150691
 20
58.71279995367546
 30
0
 11
108.4080488150691
 21
58.71279995367546
 31
0
  0
LINE
  8
1
 62
7
 10
108.4080488150691
 20
58.71279995367546
 30
0
 11
104.4589158857235
 21
55.90214137443716
 31
0
  0
SOLID
  8
1
 62
7
 10
106.8217445589331
 20
58.10089652985976
 30
0
 11
107.3103128340137
 21
57.41443070380511
 31
0
 12
104.4589158857235
 22
55.90214137443716
 32
0
 13
104.4589158857235
 23
55.90214137443716
 33
0
  0
LINE
  8
1
 62
7
 10
-20.96504952496234
 20
50.63599033527975
 30
0
 11
-22.54228271200222
 21
49.17346275534557
 31
0
  0
SOLID
  8
1
 62
7
 10
-20.6110272622717
 20
51.50289268753394
 30
0
 11
-20.07393236526377
 21
50.92367359602882
 31
0
 12
-22.54228271200222
 22
49.17346275534557
 32
0
 13
-22.54228271200222
 23
49.17346275534557
 33
0
  0
LINE
  8
1
 62
7
 10
-3.231055361844287
 20
57.98165123268855
 30
0
 11
-1.081619910332112
 21
58.06276034531311
 31
0
  0
SOLID
  8
1
 62
7
 10
-4.064593132808371
 20
57.55495903074353
 30
0
 11
-4.094379436389362
 21
58.3443122219545
 31
0
 12
-1.081619910332112
 22
58.06276034531311
 32
0
 13
-1.081619910332112
 23
58.06276034531311
 33
0
  0
LINE
  8
1
 62
7
 10
-10.24208697279626
 20
62.95494425393636
 30
0
 11
-12.30082466335954
 21
62.3318466934997
 31
0
  0
SOLID
  8
1
 62
7
 10
-9.543868892520683
 20
63.57891778158061
 30
0
 11
-9.315044134177537
 21
62.82287220469706
 31
0
 12
-12.30082466335954
 22
62.3318466934997
 32
0
 13
-12.30082466335954
 23
62.3318466934997
 33
0
  0
LINE
  8
1
 62
7
 10
8.078847152132047
 20
62.95494425393636
 30
0
 11
10.13758484269532
 21
62.3318466934997
 31
0
  0
SOLID
  8
1
 62
7
 10
7.151804313513319
 20
62.82287220469707
 30
0
 11
7.380629071856464
 21
63.57891778158061
 31
0
 12
10.13758484269532
 22
62.3318466934997
 32
0
 13
10.13758484269532
 23
62.3318466934997
 33
0
  0
TEXT
  8
1
 62
7
 10
54.5246327605038
 20
-92.7144863690183
 30
0
 40
4
  1
S35
 41
0.9
  0
TEXT
  8
1
 62
7
 10
-46.7880575743577
 20
21.9931726168857
 30
0
 40
3
  1
±0．1
 41
0.9
  0
TEXT
  8
1
 62
7
 10
85.66041093715775
 20
-51.9189471168402
 30
0
 40
3.2
  1
1
 41
0.9
  0
TEXT
  8
1
 62
7
 10
85.66041093715775
 20
-58.9589471168402
 30
0
 40
3.2
  1
1
 41
0.9
  0
TEXT
  8
1
 62
7
 10
85.66041093715775
 20
-65.9989471168402
 30
0
 40
3.2
  1
2
 41
0.9
  0
TEXT
  8
1
 62
7
 10
85.66041093715775
 20
-73.03894711684021
 30
0
 40
3.2
  1
2
 41
0.9
  0
TEXT
  8
1
 62
7
 10
49.6923555612622
 20
-52.24594092855961
 30
0
 40
3.199999999999998
  1
31MAX
 41
0.9
  0
TEXT
  8
1
 62
7
 10
49.6923555612622
 20
-59.28594092855961
 30
0
 40
3.199999999999998
  1
45MAX
 41
0.9
  0
TEXT
  8
1
 62
7
 10
49.6923555612622
 20
-66.3259409285596
 30
0
 40
3.199999999999998
  1
69MAX
 41
0.9
  0
TEXT
  8
1
 62
7
 10
49.6923555612622
 20
-73.3659409285596
 30
0
 40
3.199999999999998
  1
83MAX
 41
0.9
  0
TEXT
  8
1
 62
7
 10
21.5553098023076
 20
-44.09922594325111
 30
0
 40
3.2
  1
極　数
 41
0.9
  0
TEXT
  8
1
 62
7
 10
52.71713546342419
 20
-44.09922594325111
 30
0
 40
3
  1
L寸法
 41
0.9
  0
TEXT
  8
1
 62
7
 10
79.7490806152362
 20
-43.91150410191911
 30
0
 40
3.2
  1
カップ数
 41
0.9
  0
TEXT
  8
1
 62
7
 10
11.1704112518057
 20
-52.03811389130263
 30
0
 40
3.199999999999996
  1
  2 ～ 4p
 41
0.9
  0
TEXT
  8
1
 62
7
 10
11.1704112518057
 20
-59.07811389130262
 30
0
 40
3.199999999999996
  1
  5 ～ 8p
 41
0.9
  0
TEXT
  8
1
 62
7
 10
11.1704112518057
 20
-66.11811389130261
 30
0
 40
3.199999999999996
  1
  9 ～12p
 41
0.9
  0
TEXT
  8
1
 62
7
 10
11.1704112518057
 20
-73.15811389130261
 30
0
 40
3.199999999999996
  1
 13 ～16p
 41
0.9
  0
TEXT
  8
1
 62
7
 10
142.7324176404149
 20
-4.173656868889836
 30
0
 40
3.5
  1
２ＣＵＰ
 41
0.9
  0
TEXT
  8
1
 62
7
 10
100.9255863033891
 20
-4.374651250317839
 30
0
 40
3.5
  1
１ＣＵＰ
 41
0.9
  0
TEXT
  8
1
 62
7
 10
74.36915288700652
 20
-4.691372771809938
 30
0
 40
3.5
  1
取付面
 41
0.9
  0
TEXT
  8
1
 62
7
 10
121.3968481044293
 20
74.53179667387376
 30
0
 40
4
  1
L
 41
0.9
  0
TEXT
  8
1
 62
7
 10
60.67397166448222
 20
-22.12477532596734
 30
0
 40
3.199999999999999
  1
２～　８Ｐ ： ０．３ｓｑ
 41
0.9
  0
TEXT
  8
1
 62
7
 10
60.67397166448222
 20
-27.72477532596734
 30
0
 40
3.199999999999999
  1
９～１６Ｐ ： ０．２ｓｑ
 41
0.9
  0
TEXT
  8
1
 62
7
 10
47.2246684518509
 20
-17.03351768357554
 30
0
 40
3.199999999999999
  1
    PVC電線　L=500MIN．
 41
0.9
  0
TEXT
  8
1
 62
7
 10
159.2159947036134
 20
53.81338431288647
 30
0
 40
2
  1
16
 41
0.9
  0
TEXT
  8
1
 62
7
 10
155.7059255486205
 20
50.47881861564316
 30
0
 40
2
  1
15
 41
0.9
  0
TEXT
  8
1
 62
7
 10
152.1081046647527
 20
53.85726017732385
 30
0
 40
2
  1
14
 41
0.9
  0
TEXT
  8
1
 62
7
 10
148.5980355097597
 20
50.56657034451796
 30
0
 40
2
  1
13
 41
0.9
  0
TEXT
  8
1
 62
7
 10
145.1757180836416
 20
53.76950844844906
 30
0
 40
2
  1
12
 41
0.9
  0
TEXT
  8
1
 62
7
 10
141.6656489286487
 20
50.56657034451796
 30
0
 40
2
  1
11
 41
0.9
  0
TEXT
  8
1
 62
7
 10
137.9800763159061
 20
53.81338431288647
 30
0
 40
2
  1
10
 41
0.9
  0
TEXT
  8
1
 62
7
 10
135.6107796362858
 20
50.52269448008055
 30
0
 40
2
  1
9
 41
0.9
  0
TEXT
  8
1
 62
7
 10
122.1508226257371
 20
53.93130446958837
 30
0
 40
2
  1
8
 41
0.9
  0
TEXT
  8
1
 62
7
 10
118.8044770018117
 20
50.40504779061315
 30
0
 40
2
  1
7
 41
0.9
  0
TEXT
  8
1
 62
7
 10
115.2782203228365
 20
53.75139341453856
 30
0
 40
2
  1
6
 41
0.9
  0
TEXT
  8
1
 62
7
 10
111.6440170108315
 20
50.58495884566297
 30
0
 40
2
  1
5
 41
0.9
  0
TEXT
  8
1
 62
7
 10
108.0817781208464
 20
53.85934004756847
 30
0
 40
2
  1
4
 41
0.9
  0
TEXT
  8
1
 62
7
 10
104.5915036528812
 20
50.76486990071267
 30
0
 40
2
  1
3
 41
0.9
  0
TEXT
  8
1
 62
7
 10
101.029264762896
 20
54.00326889160824
 30
0
 40
2
  1
2
 41
0.9
  0
TEXT
  8
1
 62
7
 10
97.57497250594082
 20
50.72888768970275
 30
0
 40
2
  1
1
 41
0.9
  0
TEXT
  8
1
 62
7
 10
112.0458949089968
 20
59.76720615987826
 30
0
 40
3.199999999999999
  1
端子番号
 41
0.9
  0
TEXT
  8
1
 62
7
 10
-46.06145096013209
 20
-5.186053424035801
 30
0
 40
3
  1
3-M3×0．5-2
 41
0.9
  0
TEXT
  8
1
 62
7
 10
-46.08161991033211
 20
-10.68452415318856
 30
0
 40
3
  1
有効深サ3．5ＭＩＮ
 41
0.9
  0
TEXT
  8
1
 62
7
 10
-46.0411363850951
 20
-15.8082670376984
 30
0
 40
3
  1
120 ±1 等間隔
 41
0.9
  0
TEXT
  8
1
 62
7
 10
-22.1537281324114
 20
55.3687961133438
 30
0
 40
3
  1
±10
 41
0.6300000000000001
  0
TEXT
  8
1
 62
7
 10
-0.94540206969889
 20
66.1359229950789
 30
0
 40
3
  1
±5
 41
0.6300000000000001
  0
TEXT
  8
1
 62
7
 10
46.58731600411661
 20
32.90319484485431
 30
0
 40
3
  1
MAX
 50
90
 41
0.9
  0
DIMENSION
  8
1
  6
CONTINUOUS
 62
7
  2
*D0
  3
DMST_1
 10
88.40804881506914
 20
72.74026579197697
 30
0
 11
80.97037887812712
 21
76.34026579197696
 31
0
 12
0
 22
0
 32
0
 70
0
 13
73.40804881506909
 23
32.21279995367546
 33
0
 14
88.40804881506909
 24
45.96279995367546
 34
0
 50
180
 53
0
  0
DIMENSION
  8
1
  6
CONTINUOUS
 62
7
  2
*D1
  3
DMST_1
 10
88.40804881506909
 20
72.74026579197697
 30
0
 11
129.6580488150691
 21
76.34026579197696
 31
0
 12
0
 22
0
 32
0
 70
0
  1
    
 13
170.9080488150691
 23
44.41279995367546
 33
0
 14
88.40804881506909
 24
45.96279995367546
 34
0
 50
180
 53
0
  0
DIMENSION
  8
1
  6
CONTINUOUS
 62
7
  2
*D2
  3
DMST_1
 10
49.52409889392857
 20
9.462799953675461
 30
0
 11
45.4974322272619
 21
27.71279995367546
 31
0
 12
0
 22
0
 32
0
 70
0
  1
37
 13
88.40804881506909
 23
45.96279995367546
 33
0
 14
88.40804881506909
 24
9.462799953675457
 34
0
 50
90
 53
0
  0
DIMENSION
  8
1
  6
CONTINUOUS
 62
7
  2
*D3
  3
DMST_2
 10
57.09743222726191
 20
22.71279995367546
 30
0
 11
52.69743222726191
 21
27.71279995367546
 31
0
 12
0
 22
0
 32
0
 70
0
  1
φ<>
 13
73.90804881506909
 23
32.71279995367546
 33
0
 14
73.90804881506909
 24
22.71279995367546
 34
0
 50
90
 53
0
  0
DIMENSION
  8
1
  6
CONTINUOUS
 62
7
  2
*D4
  3
DMST_3
 10
-1.081619910332108
 20
27.71279995367546
 30
0
 11
-46.7387553118104
 21
38.5859900614437
 31
0
 12
0
 22
0
 32
0
 70
4
  1
25
 15
-22.10070584357258
 25
34.11425396468551
 35
0
 40
0
 53
0
  0
DIMENSION
  8
1
  6
CONTINUOUS
 62
7
  2
*D5
  3
DMST_3
 10
-1.081619910332108
 20
27.71279995367546
 30
0
 11
33.68752839806501
 21
61.21838993815966
 31
0
 12
0
 22
0
 32
0
 70
4
  1
24
 15
10.56146571488681
 25
45.72669996140492
 35
0
 40
0
 53
0
  0
DIMENSION
  8
1
  6
CONTINUOUS
 62
7
  2
*D6
  3
DMST_4
 10
13.59343327078321
 20
30.8180880452118
 30
0
 11
-52.4858093940849
 21
23.2349145135833
 31
0
 12
0
 22
0
 32
0
 70
3
  1
φ<>
 15
-15.75667309144742
 25
24.60751186213912
 35
0
 40
0
 53
0
  0
DIMENSION
  8
1
  6
CONTINUOUS
 62
7
  2
*D7
  3
DMST_5
 10
-1.081619910332108
 20
57.71279995367546
 30
0
 11
-26.5107315390925
 21
57.1306298033744
 31
0
 12
0
 22
0
 32
0
 70
2
 13
-1.081619910332108
 23
27.71279995367546
 33
0
 14
-19.38467635574011
 24
46.01585639908346
 34
0
 15
-1.081619910332108
 25
-2.287200046324543
 35
0
 16
-12.69604692514853
 26
55.75250717203772
 36
0
 53
0
  0
DIMENSION
  8
1
  6
CONTINUOUS
 62
7
  2
*D8
  3
DMST_5
 10
-1.081619910332106
 20
64.10231795102035
 30
0
 11
-5.12567952805738
 21
67.7708368514091
 31
0
 12
0
 22
0
 32
0
 70
5
 13
6.917109052702472
 23
52.33035640153388
 33
0
 14
-9.080348873366688
 24
52.33035640153388
 34
0
 15
-1.081619910332108
 25
27.71279995367546
 35
0
 53
0
  0
ENDSEC
  0
EOF
