  0
SECTION
  2
HEADER
  9
$ACADVER
  1
AC1015
  9
$ACADMAINTVER
 70
     6
  9
$DWGCODEPAGE
  3
ANSI_932
  9
$INSBASE
 10
0.0
 20
0.0
 30
0.0
  9
$EXTMIN
 10
1317.99433504145
 20
67.0740248551754
 30
0.0
  9
$EXTMAX
 10
1552.051128950779
 20
191.0384231373851
 30
0.0
  9
$LIMMIN
 10
0.0
 20
0.0
  9
$LIMMAX
 10
12.0
 20
9.0
  9
$ORTHOMODE
 70
     0
  9
$REGENMODE
 70
     1
  9
$FILLMODE
 70
     1
  9
$QTEXTMODE
 70
     0
  9
$MIRRTEXT
 70
     1
  9
$LTSCALE
 40
1.0
  9
$ATTMODE
 70
     1
  9
$TEXTSIZE
 40
0.2
  9
$TRACEWID
 40
0.05
  9
$TEXTSTYLE
  7
Standard
  9
$CLAYER
  8
0
  9
$CELTYPE
  6
ByLayer
  9
$CECOLOR
 62
   256
  9
$CELTSCALE
 40
1.0
  9
$DISPSILH
 70
     0
  9
$DIMSCALE
 40
1.0
  9
$DIMASZ
 40
0.18
  9
$DIMEXO
 40
0.0625
  9
$DIMDLI
 40
0.38
  9
$DIMRND
 40
0.0
  9
$DIMDLE
 40
0.0
  9
$DIMEXE
 40
0.18
  9
$DIMTP
 40
0.0
  9
$DIMTM
 40
0.0
  9
$DIMTXT
 40
0.18
  9
$DIMCEN
 40
0.09
  9
$DIMTSZ
 40
0.0
  9
$DIMTOL
 70
     0
  9
$DIMLIM
 70
     0
  9
$DIMTIH
 70
     1
  9
$DIMTOH
 70
     1
  9
$DIMSE1
 70
     0
  9
$DIMSE2
 70
     0
  9
$DIMTAD
 70
     0
  9
$DIMZIN
 70
     0
  9
$DIMBLK
  1

  9
$DIMASO
 70
     1
  9
$DIMSHO
 70
     1
  9
$DIMPOST
  1

  9
$DIMAPOST
  1

  9
$DIMALT
 70
     0
  9
$DIMALTD
 70
     2
  9
$DIMALTF
 40
25.4
  9
$DIMLFAC
 40
1.0
  9
$DIMTOFL
 70
     0
  9
$DIMTVP
 40
0.0
  9
$DIMTIX
 70
     0
  9
$DIMSOXD
 70
     0
  9
$DIMSAH
 70
     0
  9
$DIMBLK1
  1

  9
$DIMBLK2
  1

  9
$DIMSTYLE
  2
Standard
  9
$DIMCLRD
 70
     0
  9
$DIMCLRE
 70
     0
  9
$DIMCLRT
 70
     0
  9
$DIMTFAC
 40
1.0
  9
$DIMGAP
 40
0.09
  9
$DIMJUST
 70
     0
  9
$DIMSD1
 70
     0
  9
$DIMSD2
 70
     0
  9
$DIMTOLJ
 70
     1
  9
$DIMTZIN
 70
     0
  9
$DIMALTZ
 70
     0
  9
$DIMALTTZ
 70
     0
  9
$DIMUPT
 70
     0
  9
$DIMDEC
 70
     4
  9
$DIMTDEC
 70
     4
  9
$DIMALTU
 70
     2
  9
$DIMALTTD
 70
     2
  9
$DIMTXSTY
  7
Standard
  9
$DIMAUNIT
 70
     0
  9
$DIMADEC
 70
     0
  9
$DIMALTRND
 40
0.0
  9
$DIMAZIN
 70
     0
  9
$DIMDSEP
 70
    46
  9
$DIMATFIT
 70
     3
  9
$DIMFRAC
 70
     0
  9
$DIMLDRBLK
  1

  9
$DIMLUNIT
 70
     2
  9
$DIMLWD
 70
    -2
  9
$DIMLWE
 70
    -2
  9
$DIMTMOVE
 70
     0
  9
$LUNITS
 70
     2
  9
$LUPREC
 70
     4
  9
$SKETCHINC
 40
0.1
  9
$FILLETRAD
 40
0.5
  9
$AUNITS
 70
     0
  9
$AUPREC
 70
     0
  9
$MENU
  1
.
  9
$ELEVATION
 40
0.0
  9
$PELEVATION
 40
0.0
  9
$THICKNESS
 40
0.0
  9
$LIMCHECK
 70
     0
  9
$CHAMFERA
 40
0.5
  9
$CHAMFERB
 40
0.5
  9
$CHAMFERC
 40
1.0
  9
$CHAMFERD
 40
0.0
  9
$SKPOLY
 70
     0
  9
$TDCREATE
 40
2457743.547273958
  9
$TDUCREATE
 40
2457743.172273958
  9
$TDUPDATE
 40
2457743.547275405
  9
$TDUUPDATE
 40
2457743.172275405
  9
$TDINDWG
 40
0.0000000116
  9
$TDUSRTIMER
 40
0.0000000116
  9
$USRTIMER
 70
     1
  9
$ANGBASE
 50
0.0
  9
$ANGDIR
 70
     0
  9
$PDMODE
 70
     0
  9
$PDSIZE
 40
0.0
  9
$PLINEWID
 40
0.0
  9
$SPLFRAME
 70
     0
  9
$SPLINETYPE
 70
     6
  9
$SPLINESEGS
 70
     8
  9
$HANDSEED
  5
26D
  9
$SURFTAB1
 70
     6
  9
$SURFTAB2
 70
     6
  9
$SURFTYPE
 70
     6
  9
$SURFU
 70
     6
  9
$SURFV
 70
     6
  9
$UCSBASE
  2

  9
$UCSNAME
  2

  9
$UCSORG
 10
0.0
 20
0.0
 30
0.0
  9
$UCSXDIR
 10
1.0
 20
0.0
 30
0.0
  9
$UCSYDIR
 10
0.0
 20
1.0
 30
0.0
  9
$UCSORTHOREF
  2

  9
$UCSORTHOVIEW
 70
     0
  9
$UCSORGTOP
 10
0.0
 20
0.0
 30
0.0
  9
$UCSORGBOTTOM
 10
0.0
 20
0.0
 30
0.0
  9
$UCSORGLEFT
 10
0.0
 20
0.0
 30
0.0
  9
$UCSORGRIGHT
 10
0.0
 20
0.0
 30
0.0
  9
$UCSORGFRONT
 10
0.0
 20
0.0
 30
0.0
  9
$UCSORGBACK
 10
0.0
 20
0.0
 30
0.0
  9
$PUCSBASE
  2

  9
$PUCSNAME
  2

  9
$PUCSORG
 10
0.0
 20
0.0
 30
0.0
  9
$PUCSXDIR
 10
1.0
 20
0.0
 30
0.0
  9
$PUCSYDIR
 10
0.0
 20
1.0
 30
0.0
  9
$PUCSORTHOREF
  2

  9
$PUCSORTHOVIEW
 70
     0
  9
$PUCSORGTOP
 10
0.0
 20
0.0
 30
0.0
  9
$PUCSORGBOTTOM
 10
0.0
 20
0.0
 30
0.0
  9
$PUCSORGLEFT
 10
0.0
 20
0.0
 30
0.0
  9
$PUCSORGRIGHT
 10
0.0
 20
0.0
 30
0.0
  9
$PUCSORGFRONT
 10
0.0
 20
0.0
 30
0.0
  9
$PUCSORGBACK
 10
0.0
 20
0.0
 30
0.0
  9
$USERI1
 70
     0
  9
$USERI2
 70
     0
  9
$USERI3
 70
     0
  9
$USERI4
 70
     0
  9
$USERI5
 70
     0
  9
$USERR1
 40
18.1
  9
$USERR2
 40
0.0
  9
$USERR3
 40
0.0
  9
$USERR4
 40
0.0
  9
$USERR5
 40
0.0
  9
$WORLDVIEW
 70
     1
  9
$SHADEDGE
 70
     3
  9
$SHADEDIF
 70
    70
  9
$TILEMODE
 70
     1
  9
$MAXACTVP
 70
    64
  9
$PINSBASE
 10
0.0
 20
0.0
 30
0.0
  9
$PLIMCHECK
 70
     0
  9
$PEXTMIN
 10
1.00000000000000E+20
 20
1.00000000000000E+20
 30
1.00000000000000E+20
  9
$PEXTMAX
 10
-1.00000000000000E+20
 20
-1.00000000000000E+20
 30
-1.00000000000000E+20
  9
$PLIMMIN
 10
0.0
 20
0.0
  9
$PLIMMAX
 10
12.0
 20
9.0
  9
$UNITMODE
 70
     0
  9
$VISRETAIN
 70
     1
  9
$PLINEGEN
 70
     0
  9
$PSLTSCALE
 70
     1
  9
$TREEDEPTH
 70
  3020
  9
$CMLSTYLE
  2
Standard
  9
$CMLJUST
 70
     0
  9
$CMLSCALE
 40
1.0
  9
$PROXYGRAPHICS
 70
     1
  9
$MEASUREMENT
 70
     1
  9
$CELWEIGHT
370
    -1
  9
$ENDCAPS
280
     0
  9
$JOINSTYLE
280
     0
  9
$LWDISPLAY
290
     0
  9
$INSUNITS
 70
     4
  9
$HYPERLINKBASE
  1

  9
$STYLESHEET
  1

  9
$XEDIT
290
     1
  9
$CEPSNTYPE
380
     0
  9
$PSTYLEMODE
290
     1
  9
$FINGERPRINTGUID
  2
{DBD31CCC-5E47-4DF3-9E80-A8979E4E4B5A}
  9
$VERSIONGUID
  2
{FAEB1C32-E019-11D5-929B-00C0DF256EC4}
  9
$EXTNAMES
290
     1
  9
$PSVPSCALE
 40
0.0
  9
$OLESTARTUP
290
     0
  0
ENDSEC
  0
SECTION
  2
CLASSES
  0
CLASS
  1
ACDBDICTIONARYWDFLT
  2
AcDbDictionaryWithDefault
  3
ObjectDBX Classes
 90
        0
280
     0
281
     0
  0
CLASS
  1
VISUALSTYLE
  2
AcDbVisualStyle
  3
ObjectDBX Classes
 90
     4095
280
     0
281
     0
  0
CLASS
  1
MATERIAL
  2
AcDbMaterial
  3
ObjectDBX Classes
 90
     1153
280
     0
281
     0
  0
CLASS
  1
DICTIONARYVAR
  2
AcDbDictionaryVar
  3
ObjectDBX Classes
 90
        0
280
     0
281
     0
  0
CLASS
  1
ACDBPLACEHOLDER
  2
AcDbPlaceHolder
  3
ObjectDBX Classes
 90
        0
280
     0
281
     0
  0
CLASS
  1
LAYOUT
  2
AcDbLayout
  3
ObjectDBX Classes
 90
        0
280
     0
281
     0
  0
ENDSEC
  0
SECTION
  2
TABLES
  0
TABLE
  2
VPORT
  5
8
330
0
100
AcDbSymbolTable
 70
     1
  0
VPORT
  5
29
330
8
100
AcDbSymbolTableRecord
100
AcDbViewportTableRecord
  2
*Active
 70
     0
 10
0.0
 20
0.0
 11
1.0
 21
1.0
 12
1435.022731996115
 22
129.0562239962803
 13
0.0
 23
0.0
 14
0.5
 24
0.5
 15
0.5
 25
0.5
 16
0.0
 26
0.0
 36
1.0
 17
0.0
 27
0.0
 37
0.0
 40
160.6451086887428
 41
1.60267857142857
 42
50.0
 43
0.0
 44
0.0
 50
0.0
 51
0.0
 71
     0
 72
   100
 73
     1
 74
     3
 75
     0
 76
     0
 77
     0
 78
     0
281
     0
 65
     1
110
0.0
120
0.0
130
0.0
111
1.0
121
0.0
131
0.0
112
0.0
122
1.0
132
0.0
 79
     0
146
0.0
  0
ENDTAB
  0
TABLE
  2
LTYPE
  5
5
330
0
100
AcDbSymbolTable
 70
     8
  0
LTYPE
  5
14
330
5
100
AcDbSymbolTableRecord
100
AcDbLinetypeTableRecord
  2
ByBlock
 70
     0
  3

 72
    65
 73
     0
 40
0.0
  0
LTYPE
  5
15
330
5
100
AcDbSymbolTableRecord
100
AcDbLinetypeTableRecord
  2
ByLayer
 70
     0
  3

 72
    65
 73
     0
 40
0.0
  0
LTYPE
  5
16
330
5
100
AcDbSymbolTableRecord
100
AcDbLinetypeTableRecord
  2
Continuous
 70
     0
  3
Solid line
 72
    65
 73
     0
 40
0.0
  0
LTYPE
  5
3F
330
5
100
AcDbSymbolTableRecord
100
AcDbLinetypeTableRecord
  2
DASHED
 70
     0
  3
Dashed
 72
    65
 73
     2
 40
15.0
 49
7.0
 74
     0
 49
-8.0
 74
     0
  0
LTYPE
  5
40
330
5
100
AcDbSymbolTableRecord
100
AcDbLinetypeTableRecord
  2
DOTTED
 70
     0
  3
Dotted
 72
    65
 73
     2
 40
1.0
 49
0.0
 74
     0
 49
-1.0
 74
     0
  0
LTYPE
  5
41
330
5
100
AcDbSymbolTableRecord
100
AcDbLinetypeTableRecord
  2
DOT_CENTER
 70
     0
  3
Dot_Center
 72
    65
 73
     4
 40
14.0
 49
12.0
 74
     0
 49
-1.0
 74
     0
 49
0.0
 74
     0
 49
-1.0
 74
     0
  0
LTYPE
  5
42
330
5
100
AcDbSymbolTableRecord
100
AcDbLinetypeTableRecord
  2
LONG_DASHED
 70
     0
  3
Long_Dashed
 72
    65
 73
     2
 40
15.0
 49
10.0
 74
     0
 49
-5.0
 74
     0
  0
LTYPE
  5
43
330
5
100
AcDbSymbolTableRecord
100
AcDbLinetypeTableRecord
  2
DASH_CENTER
 70
     0
  3
Dash_Center
 72
    65
 73
     4
 40
14.0
 49
11.0
 74
     0
 49
-1.0
 74
     0
 49
1.0
 74
     0
 49
-1.0
 74
     0
  0
LTYPE
  5
44
330
5
100
AcDbSymbolTableRecord
100
AcDbLinetypeTableRecord
  2
PHANTOM
 70
     0
  3
Phantom
 72
    65
 73
     6
 40
13.0
 49
10.0
 74
     0
 49
-1.0
 74
     0
 49
0.0
 74
     0
 49
-1.0
 74
     0
 49
0.0
 74
     0
 49
-1.0
 74
     0
  0
LTYPE
  5
45
330
5
100
AcDbSymbolTableRecord
100
AcDbLinetypeTableRecord
  2
CENTER_DASH_DASH
 70
     0
  3
Center_Dash_Dash
 72
    65
 73
     6
 40
14.0
 49
9.0
 74
     0
 49
-1.0
 74
     0
 49
1.0
 74
     0
 49
-1.0
 74
     0
 49
1.0
 74
     0
 49
-1.0
 74
     0
  0
ENDTAB
  0
TABLE
  2
LAYER
  5
2
330
0
100
AcDbSymbolTable
 70
     2
  0
LAYER
  5
10
330
2
100
AcDbSymbolTableRecord
100
AcDbLayerTableRecord
  2
0
 70
     0
 62
     7
  6
Continuous
370
    -3
390
F
  0
LAYER
  5
46
330
2
100
AcDbSymbolTableRecord
100
AcDbLayerTableRecord
  2
1
 70
     0
 62
     7
  6
Continuous
370
    -3
390
F
  0
ENDTAB
  0
TABLE
  2
STYLE
  5
3
330
0
100
AcDbSymbolTable
 70
     6
  0
STYLE
  5
11
330
3
100
AcDbSymbolTableRecord
100
AcDbTextStyleTableRecord
  2
Standard
 70
     0
 40
0.0
 41
1.0
 50
0.0
 71
     0
 42
0.2
  3
txt
  4

  0
STYLE
  5
18C
330
3
100
AcDbSymbolTableRecord
100
AcDbTextStyleTableRecord
  2
CONVERTER_11
 70
     0
 40
0.0
 41
0.72
 50
0.0
 71
     0
 42
0.2
  3
txt.shx
  4

  0
STYLE
  5
18E
330
3
100
AcDbSymbolTableRecord
100
AcDbTextStyleTableRecord
  2
CONVERTER_12
 70
     0
 40
0.0
 41
0.749
 50
0.0
 71
     0
 42
0.2
  3
txt.shx
  4

  0
STYLE
  5
190
330
3
100
AcDbSymbolTableRecord
100
AcDbTextStyleTableRecord
  2
CONVERTER_13
 70
     0
 40
0.0
 41
0.72
 50
0.0
 71
     0
 42
0.2
  3
txt.shx
  4

  0
STYLE
  5
193
330
3
100
AcDbSymbolTableRecord
100
AcDbTextStyleTableRecord
  2
CONVERTER_14
 70
     0
 40
0.0
 41
0.535
 50
0.0
 71
     0
 42
0.2
  3
txt.shx
  4

  0
STYLE
  5
19B
330
3
100
AcDbSymbolTableRecord
100
AcDbTextStyleTableRecord
  2
CONVERTER_15
 70
     0
 40
0.0
 41
0.9
 50
0.0
 71
     0
 42
0.2
  3
txt.shx
  4

  0
ENDTAB
  0
TABLE
  2
VIEW
  5
6
330
0
100
AcDbSymbolTable
 70
     0
  0
ENDTAB
  0
TABLE
  2
UCS
  5
7
330
0
100
AcDbSymbolTable
 70
     0
  0
ENDTAB
  0
TABLE
  2
APPID
  5
9
330
0
100
AcDbSymbolTable
 70
     1
  0
APPID
  5
12
330
9
100
AcDbSymbolTableRecord
100
AcDbRegAppTableRecord
  2
ACAD
 70
     0
  0
ENDTAB
  0
TABLE
  2
DIMSTYLE
  5
A
330
0
100
AcDbSymbolTable
 70
    15
100
AcDbDimStyleTable
  0
DIMSTYLE
105
27
330
A
100
AcDbSymbolTableRecord
100
AcDbDimStyleTableRecord
  2
Standard
 70
     0
178
     0
340
11
  0
DIMSTYLE
105
19F
102
{ACAD_REACTORS
330
1A0
102
}
330
A
100
AcDbSymbolTableRecord
100
AcDbDimStyleTableRecord
  2
ME10_DIM_10
 70
     0
  3
(<>)
 41
3.2
 42
1.0
 44
1.0
 73
     0
 74
     0
 77
     1
 78
     8
140
3.2
147
2.0
172
     1
173
     1
174
     1
175
     1
176
     2
177
     2
178
     2
340
19B
  0
DIMSTYLE
105
1AA
102
{ACAD_REACTORS
330
1AB
102
}
330
A
100
AcDbSymbolTableRecord
100
AcDbDimStyleTableRecord
  2
ME10_DIM_11
 70
     0
  3
φ<>
 41
3.2
 42
1.0
 44
1.0
 47
0.03
 48
0.03
 71
     1
 73
     0
 74
     0
 77
     1
 78
     8
140
3.2
146
0.6
147
2.0
172
     1
173
     1
174
     1
175
     1
176
     2
177
     2
178
     2
272
     2
340
19B
  0
DIMSTYLE
105
1B7
102
{ACAD_REACTORS
330
1B8
102
}
330
A
100
AcDbSymbolTableRecord
100
AcDbDimStyleTableRecord
  2
ME10_DIM_12
 70
     0
 41
3.2
 42
1.0
 44
1.0
 47
0.2
 48
0.2
 71
     1
 77
     1
 78
     8
140
3.2
146
0.6
147
2.0
172
     1
173
     1
174
     1
175
     1
176
     2
177
     2
178
     2
272
     1
340
19B
  0
DIMSTYLE
105
1C2
102
{ACAD_REACTORS
330
1C3
102
}
330
A
100
AcDbSymbolTableRecord
100
AcDbDimStyleTableRecord
  2
ME10_DIM_13
 70
     0
 41
3.2
 42
1.0
 44
1.0
 47
0.5
 48
0.5
 71
     1
 73
     0
 74
     0
 77
     1
 78
     8
140
3.2
146
0.6
147
2.0
172
     1
173
     1
174
     1
175
     1
176
     2
177
     2
178
     2
272
     1
340
19B
  0
DIMSTYLE
105
1CF
102
{ACAD_REACTORS
330
1D0
102
}
330
A
100
AcDbSymbolTableRecord
100
AcDbDimStyleTableRecord
  2
ME10_DIM_14
 70
     0
  3
φ<>
 41
3.2
 42
1.0
 44
1.0
 48
0.02
 71
     1
 73
     0
 74
     0
 77
     1
 78
     8
140
3.2
146
0.6
147
2.0
172
     1
173
     1
174
     1
175
     1
176
     2
177
     2
178
     2
272
     0
340
19B
  0
DIMSTYLE
105
1DA
102
{ACAD_REACTORS
330
1DB
102
}
330
A
100
AcDbSymbolTableRecord
100
AcDbDimStyleTableRecord
  2
ME10_DIM_15
 70
     0
  3
(<>)
 41
3.2
 42
1.0
 44
1.5
 73
     0
 74
     0
 77
     1
 78
     8
140
3.2
147
2.0
172
     1
173
     1
174
     1
175
     1
176
     2
177
     2
178
     2
340
19B
  0
DIMSTYLE
105
1E5
102
{ACAD_REACTORS
330
1E6
102
}
330
A
100
AcDbSymbolTableRecord
100
AcDbDimStyleTableRecord
  2
ME10_DIM_16
 70
     0
 41
3.2
 42
1.0
 44
1.5
 47
0.2
 48
0.2
 71
     1
 73
     0
 74
     0
 77
     1
 78
     8
140
3.2
146
0.7
147
2.0
172
     1
173
     1
174
     1
175
     1
176
     2
177
     2
178
     2
272
     1
340
19B
  0
DIMSTYLE
105
1F0
102
{ACAD_REACTORS
330
1F1
102
}
330
A
100
AcDbSymbolTableRecord
100
AcDbDimStyleTableRecord
  2
ME10_DIM_17
 70
     0
  3
(<>)
 41
3.2
 42
1.0
 44
1.5
 73
     0
 74
     0
 77
     1
 78
     8
140
3.2
147
2.0
172
     1
173
     1
174
     1
175
     1
176
     2
177
     2
178
     2
340
19B
  0
DIMSTYLE
105
1FB
102
{ACAD_REACTORS
330
1FC
102
}
330
A
100
AcDbSymbolTableRecord
100
AcDbDimStyleTableRecord
  2
ME10_DIM_18
 70
     0
 41
3.2
 42
1.0
 44
1.5
 47
0.2
 48
0.2
 71
     1
 73
     0
 74
     0
 77
     1
 78
     8
140
3.2
146
0.7
147
2.0
172
     1
173
     1
174
     1
175
     1
176
     2
177
     2
178
     2
272
     1
340
19B
  0
DIMSTYLE
105
207
102
{ACAD_REACTORS
330
208
102
}
330
A
100
AcDbSymbolTableRecord
100
AcDbDimStyleTableRecord
  2
ME10_DIM_19
 70
     0
  3
(<>)
 41
3.2
 42
1.0
 44
1.5
 73
     0
 74
     0
 77
     1
 78
     8
140
3.2
147
2.0
172
     1
173
     1
174
     1
175
     1
176
     2
177
     2
178
     2
340
19B
  0
DIMSTYLE
105
212
102
{ACAD_REACTORS
330
213
102
}
330
A
100
AcDbSymbolTableRecord
100
AcDbDimStyleTableRecord
  2
ME10_DIM_20
 70
     0
  3
(<>)
 41
3.2
 42
1.0
 44
1.5
 73
     0
 74
     0
 77
     1
 78
     8
140
3.2
147
2.0
172
     1
173
     1
174
     1
175
     1
176
     2
177
     2
178
     2
340
19B
  0
DIMSTYLE
105
21E
102
{ACAD_REACTORS
330
21F
102
}
330
A
100
AcDbSymbolTableRecord
100
AcDbDimStyleTableRecord
  2
ME10_DIM_21
 70
     0
  3
(<>)
 41
3.2
 42
1.0
 44
1.5
 73
     0
 74
     0
 77
     1
 78
     8
140
3.2
147
2.0
172
     1
173
     1
174
     1
175
     1
176
     2
177
     2
178
     2
340
19B
  0
DIMSTYLE
105
22B
102
{ACAD_REACTORS
330
22C
102
}
330
A
100
AcDbSymbolTableRecord
100
AcDbDimStyleTableRecord
  2
ME10_DIM_22
 70
     0
  3
(<>)
 41
3.2
 42
1.0
 44
1.5
 73
     0
 74
     0
 77
     1
 78
     8
140
3.2
147
2.0
172
     1
173
     1
174
     1
175
     1
176
     2
177
     2
178
     2
340
19B
  0
DIMSTYLE
105
238
102
{ACAD_REACTORS
330
239
102
}
330
A
100
AcDbSymbolTableRecord
100
AcDbDimStyleTableRecord
  2
ME10_DIM_23
 70
     0
 41
3.2
 42
1.0
 44
1.5
 73
     0
 74
     0
 77
     1
 78
     8
140
3.2
147
2.0
172
     1
173
     1
174
     1
175
     1
176
     2
177
     2
178
     2
340
19B
  0
ENDTAB
  0
TABLE
  2
BLOCK_RECORD
  5
1
330
0
100
AcDbSymbolTable
 70
    20
  0
BLOCK_RECORD
  5
1F
330
1
100
AcDbSymbolTableRecord
100
AcDbBlockTableRecord
  2
*Model_Space
340
22
  0
BLOCK_RECORD
  5
1B
330
1
100
AcDbSymbolTableRecord
100
AcDbBlockTableRecord
  2
*Paper_Space
340
1E
  0
BLOCK_RECORD
  5
23
330
1
100
AcDbSymbolTableRecord
100
AcDbBlockTableRecord
  2
*Paper_Space0
340
26
  0
BLOCK_RECORD
  5
47
330
1
100
AcDbSymbolTableRecord
100
AcDbBlockTableRecord
  2
ﾅﾍﾞﾈM3_ﾍｲﾒﾝｽﾞ__1
340
0
102
{BLKREFS
331
53
102
}
  0
BLOCK_RECORD
  5
4A
330
1
100
AcDbSymbolTableRecord
100
AcDbBlockTableRecord
  2
ﾅﾍﾞﾈM3_ﾍｲﾒﾝｽﾞ__2
340
0
102
{BLKREFS
331
54
102
}
  0
BLOCK_RECORD
  5
4D
330
1
100
AcDbSymbolTableRecord
100
AcDbBlockTableRecord
  2
ﾅﾍﾞﾈM3_ﾍｲﾒﾝｽﾞ__3
340
0
102
{BLKREFS
331
55
102
}
  0
BLOCK_RECORD
  5
50
330
1
100
AcDbSymbolTableRecord
100
AcDbBlockTableRecord
  2
ﾅﾍﾞﾈM3_ﾍｲﾒﾝｽﾞ__4
340
0
102
{BLKREFS
331
56
102
}
  0
BLOCK_RECORD
  5
195
330
1
100
AcDbSymbolTableRecord
100
AcDbBlockTableRecord
  2
*D5
340
0
  0
BLOCK_RECORD
  5
1A1
330
1
100
AcDbSymbolTableRecord
100
AcDbBlockTableRecord
  2
*D6
340
0
  0
BLOCK_RECORD
  5
1AC
330
1
100
AcDbSymbolTableRecord
100
AcDbBlockTableRecord
  2
*D7
340
0
  0
BLOCK_RECORD
  5
1B9
330
1
100
AcDbSymbolTableRecord
100
AcDbBlockTableRecord
  2
*D8
340
0
  0
BLOCK_RECORD
  5
1C4
330
1
100
AcDbSymbolTableRecord
100
AcDbBlockTableRecord
  2
*D9
340
0
  0
BLOCK_RECORD
  5
1D1
330
1
100
AcDbSymbolTableRecord
100
AcDbBlockTableRecord
  2
*D10
340
0
  0
BLOCK_RECORD
  5
1DC
330
1
100
AcDbSymbolTableRecord
100
AcDbBlockTableRecord
  2
*D11
340
0
  0
BLOCK_RECORD
  5
1E7
330
1
100
AcDbSymbolTableRecord
100
AcDbBlockTableRecord
  2
*D12
340
0
  0
BLOCK_RECORD
  5
1F2
330
1
100
AcDbSymbolTableRecord
100
AcDbBlockTableRecord
  2
*D13
340
0
  0
BLOCK_RECORD
  5
1FD
330
1
100
AcDbSymbolTableRecord
100
AcDbBlockTableRecord
  2
*D14
340
0
  0
BLOCK_RECORD
  5
209
330
1
100
AcDbSymbolTableRecord
100
AcDbBlockTableRecord
  2
*D15
340
0
  0
BLOCK_RECORD
  5
214
330
1
100
AcDbSymbolTableRecord
100
AcDbBlockTableRecord
  2
*D16
340
0
  0
BLOCK_RECORD
  5
220
330
1
100
AcDbSymbolTableRecord
100
AcDbBlockTableRecord
  2
*D17
340
0
  0
BLOCK_RECORD
  5
22D
330
1
100
AcDbSymbolTableRecord
100
AcDbBlockTableRecord
  2
*D18
340
0
  0
BLOCK_RECORD
  5
23A
330
1
100
AcDbSymbolTableRecord
100
AcDbBlockTableRecord
  2
*D19
340
0
102
{BLKREFS
331
241
102
}
  0
ENDTAB
  0
ENDSEC
  0
SECTION
  2
BLOCKS
  0
BLOCK
  5
20
330
1F
100
AcDbEntity
  8
0
100
AcDbBlockBegin
  2
*Model_Space
 70
     0
 10
0.0
 20
0.0
 30
0.0
  3
*Model_Space
  1

  0
ENDBLK
  5
21
330
1F
100
AcDbEntity
  8
0
100
AcDbBlockEnd
  0
BLOCK
  5
1C
330
1B
100
AcDbEntity
 67
     1
  8
0
100
AcDbBlockBegin
  2
*Paper_Space
 70
     0
 10
0.0
 20
0.0
 30
0.0
  3
*Paper_Space
  1

  0
ENDBLK
  5
1D
330
1B
100
AcDbEntity
 67
     1
  8
0
100
AcDbBlockEnd
  0
BLOCK
  5
24
330
23
100
AcDbEntity
  8
0
100
AcDbBlockBegin
  2
*Paper_Space0
 70
     0
 10
0.0
 20
0.0
 30
0.0
  3
*Paper_Space0
  1

  0
ENDBLK
  5
25
330
23
100
AcDbEntity
  8
0
100
AcDbBlockEnd
  0
BLOCK
  5
48
330
47
100
AcDbEntity
  8
0
100
AcDbBlockBegin
  2
ﾅﾍﾞﾈM3_ﾍｲﾒﾝｽﾞ__1
 70
     0
 10
1336.101032474998
 20
148.7195502435174
 30
0.0
  3
ﾅﾍﾞﾈM3_ﾍｲﾒﾝｽﾞ__1
  1

  0
LINE
  5
57
330
47
100
AcDbEntity
  8
1
  6
Continuous
 62
     1
100
AcDbLine
 10
1336.101032474998
 20
152.3595502435176
 30
0.0
 11
1336.101032474998
 21
145.0795502435171
 31
0.0
  0
LINE
  5
58
330
47
100
AcDbEntity
  8
1
  6
Continuous
 62
     1
100
AcDbLine
 10
1339.741032474999
 20
148.7195502435174
 30
0.0
 11
1332.461032474998
 21
148.7195502435174
 31
0.0
  0
LINE
  5
59
330
47
100
AcDbEntity
  8
1
  6
Continuous
 62
     2
100
AcDbLine
 10
1335.371299285526
 20
149.9725424510679
 30
0.0
 11
1335.982338656678
 21
149.3615030799153
 31
0.0
  0
LINE
  5
5A
330
47
100
AcDbEntity
  8
1
  6
Continuous
 62
     2
100
AcDbLine
 10
1336.830765664471
 20
149.9725424510679
 30
0.0
 11
1336.219726293318
 21
149.3615030799153
 31
0.0
  0
LINE
  5
5B
330
47
100
AcDbEntity
  8
1
  6
Continuous
 62
     2
100
AcDbLine
 10
1334.848040267448
 20
147.9898170540449
 30
0.0
 11
1335.459079638601
 21
148.6008564251975
 31
0.0
  0
LINE
  5
5C
330
47
100
AcDbEntity
  8
1
  6
Continuous
 62
     2
100
AcDbLine
 10
1334.848040267448
 20
149.4492834329898
 30
0.0
 11
1335.459079638601
 21
148.8382440618372
 31
0.0
  0
LINE
  5
5D
330
47
100
AcDbEntity
  8
1
  6
Continuous
 62
     2
100
AcDbLine
 10
1336.219726293318
 20
148.0775974071194
 30
0.0
 11
1336.225861243138
 21
148.0714624572996
 31
0.0
  0
LINE
  5
5E
330
47
100
AcDbEntity
  8
1
  6
Continuous
 62
     2
100
AcDbLine
 10
1336.225861243138
 20
148.0714624572996
 30
0.0
 11
1336.830765664471
 21
147.4665580359668
 31
0.0
  0
LINE
  5
5F
330
47
100
AcDbEntity
  8
1
  6
Continuous
 62
     2
100
AcDbLine
 10
1335.371299285526
 20
147.4665580359668
 30
0.0
 11
1335.982338656678
 21
148.0775974071194
 31
0.0
  0
LINE
  5
60
330
47
100
AcDbEntity
  8
1
  6
Continuous
 62
     2
100
AcDbLine
 10
1337.354024682549
 20
149.4492834329898
 30
0.0
 11
1336.742985311396
 21
148.8382440618372
 31
0.0
  0
LINE
  5
61
330
47
100
AcDbEntity
  8
1
  6
Continuous
 62
     2
100
AcDbLine
 10
1337.354024682549
 20
147.9898170540449
 30
0.0
 11
1336.742985311396
 21
148.6008564251975
 31
0.0
  0
ARC
  5
62
330
47
100
AcDbEntity
  8
1
  6
Continuous
 62
     2
100
AcDbCircle
 10
1336.101032474998
 20
148.7195502435174
 30
0.0
 40
1.450000000000341
100
AcDbArc
 50
30.21619828523947
 51
59.78380171472724
  0
ARC
  5
63
330
47
100
AcDbEntity
  8
1
  6
Continuous
 62
     2
100
AcDbCircle
 10
1336.101032474998
 20
148.7195502435174
 30
0.0
 40
0.6349999999999535
100
AcDbArc
 50
82.54155094363018
 51
97.45844905626711
  0
ARC
  5
64
330
47
100
AcDbEntity
  8
1
  6
Continuous
 62
     2
100
AcDbCircle
 10
1336.101032474998
 20
148.7195502435174
 30
0.0
 40
1.449999999999733
100
AcDbArc
 50
120.216198285234
 51
149.7838017147425
  0
ARC
  5
65
330
47
100
AcDbEntity
  8
1
  6
Continuous
 62
     2
100
AcDbCircle
 10
1336.101032474998
 20
148.7195502435174
 30
0.0
 40
0.634999999999882
100
AcDbArc
 50
172.5415509436992
 51
187.4584490563085
  0
ARC
  5
66
330
47
100
AcDbEntity
  8
1
  6
Continuous
 62
     2
100
AcDbCircle
 10
1336.101032474998
 20
148.7195502435174
 30
0.0
 40
1.449999999999612
100
AcDbArc
 50
210.2161982852614
 51
239.7838017147677
  0
ARC
  5
67
330
47
100
AcDbEntity
  8
1
  6
Continuous
 62
     2
100
AcDbCircle
 10
1336.101032474998
 20
148.7195502435174
 30
0.0
 40
0.6349999999999186
100
AcDbArc
 50
262.5415509437332
 51
277.4584490563685
  0
ARC
  5
68
330
47
100
AcDbEntity
  8
1
  6
Continuous
 62
     2
100
AcDbCircle
 10
1336.101032474998
 20
148.7195502435174
 30
0.0
 40
1.450000000000379
100
AcDbArc
 50
300.216198285271
 51
329.7838017147566
  0
ARC
  5
69
330
47
100
AcDbEntity
  8
1
  6
Continuous
 62
     2
100
AcDbCircle
 10
1336.101032474998
 20
148.7195502435174
 30
0.0
 40
0.6350000000010203
100
AcDbArc
 50
352.5415509437048
 51
7.45844905628751
  0
CIRCLE
  5
6A
330
47
100
AcDbEntity
  8
1
  6
Continuous
 62
     2
100
AcDbCircle
 10
1336.101032474998
 20
148.7195502435174
 30
0.0
 40
2.799999999999955
  0
ARC
  5
6B
330
47
100
AcDbEntity
  8
1
  6
Continuous
 62
     2
100
AcDbCircle
 10
1336.01297995053
 20
149.3921443737667
 30
0.0
 40
0.0433333333338157
100
AcDbArc
 50
224.9999999993356
 51
277.4584490561764
  0
ARC
  5
6C
330
47
100
AcDbEntity
  8
1
  6
Continuous
 62
     2
100
AcDbCircle
 10
1336.189084999467
 20
149.3921443737667
 30
0.0
 40
0.0433333333334425
100
AcDbArc
 50
262.5415509438383
 51
314.9999999996014
  0
ARC
  5
6D
330
47
100
AcDbEntity
  8
1
  6
Continuous
 62
     2
100
AcDbCircle
 10
1335.428438344749
 20
148.6314977190489
 30
0.0
 40
0.043333333333655
100
AcDbArc
 50
315.0000000004517
 51
7.458449056431
  0
ARC
  5
6E
330
47
100
AcDbEntity
  8
1
  6
Continuous
 62
     2
100
AcDbCircle
 10
1335.428438344749
 20
148.8076027679858
 30
0.0
 40
0.0433333333329782
100
AcDbArc
 50
352.5415509436063
 51
44.99999999954827
  0
ARC
  5
6F
330
47
100
AcDbEntity
  8
1
  6
Continuous
 62
     2
100
AcDbCircle
 10
1336.189084999467
 20
148.046956113268
 30
0.0
 40
0.0433333333330119
100
AcDbArc
 50
45.00000000039859
 51
97.45844905616664
  0
ARC
  5
70
330
47
100
AcDbEntity
  8
1
  6
Continuous
 62
     2
100
AcDbCircle
 10
1336.01297995053
 20
148.046956113268
 30
0.0
 40
0.0433333333334143
100
AcDbArc
 50
82.54155094383336
 51
135.0000000006643
  0
ARC
  5
71
330
47
100
AcDbEntity
  8
1
  6
Continuous
 62
     2
100
AcDbCircle
 10
1336.773626605248
 20
148.8076027679858
 30
0.0
 40
0.043333333333655
100
AcDbArc
 50
135.0000000004517
 51
187.4584490563937
  0
ARC
  5
72
330
47
100
AcDbEntity
  8
1
  6
Continuous
 62
     2
100
AcDbCircle
 10
1336.773626605248
 20
148.6314977190489
 30
0.0
 40
0.0433333333329819
100
AcDbArc
 50
172.541550943569
 51
224.9999999995482
  0
ENDBLK
  5
49
330
47
100
AcDbEntity
  8
0
100
AcDbBlockEnd
  0
BLOCK
  5
4B
330
4A
100
AcDbEntity
  8
0
100
AcDbBlockBegin
  2
ﾅﾍﾞﾈM3_ﾍｲﾒﾝｽﾞ__2
 70
     0
 10
1385.701032474998
 20
148.7195502435174
 30
0.0
  3
ﾅﾍﾞﾈM3_ﾍｲﾒﾝｽﾞ__2
  1

  0
LINE
  5
73
330
4A
100
AcDbEntity
  8
1
  6
Continuous
 62
     1
100
AcDbLine
 10
1385.701032474998
 20
152.3595502435175
 30
0.0
 11
1385.701032474998
 21
145.0795502435173
 31
0.0
  0
LINE
  5
74
330
4A
100
AcDbEntity
  8
1
  6
Continuous
 62
     1
100
AcDbLine
 10
1389.341032474998
 20
148.7195502435174
 30
0.0
 11
1382.061032474998
 21
148.7195502435174
 31
0.0
  0
LINE
  5
75
330
4A
100
AcDbEntity
  8
1
  6
Continuous
 62
     2
100
AcDbLine
 10
1386.954024682549
 20
147.9898170540449
 30
0.0
 11
1386.342985311396
 21
148.6008564251975
 31
0.0
  0
LINE
  5
76
330
4A
100
AcDbEntity
  8
1
  6
Continuous
 62
     2
100
AcDbLine
 10
1386.954024682549
 20
149.4492834329898
 30
0.0
 11
1386.342985311396
 21
148.8382440618372
 31
0.0
  0
LINE
  5
77
330
4A
100
AcDbEntity
  8
1
  6
Continuous
 62
     2
100
AcDbLine
 10
1384.971299285526
 20
147.4665580359668
 30
0.0
 11
1385.582338656679
 21
148.0775974071194
 31
0.0
  0
LINE
  5
78
330
4A
100
AcDbEntity
  8
1
  6
Continuous
 62
     2
100
AcDbLine
 10
1385.825861243138
 20
148.0714624572996
 30
0.0
 11
1386.430765664471
 21
147.4665580359668
 31
0.0
  0
LINE
  5
79
330
4A
100
AcDbEntity
  8
1
  6
Continuous
 62
     2
100
AcDbLine
 10
1385.819726293318
 20
148.0775974071194
 30
0.0
 11
1385.825861243138
 21
148.0714624572996
 31
0.0
  0
LINE
  5
7A
330
4A
100
AcDbEntity
  8
1
  6
Continuous
 62
     2
100
AcDbLine
 10
1384.448040267448
 20
149.4492834329898
 30
0.0
 11
1385.059079638601
 21
148.8382440618372
 31
0.0
  0
LINE
  5
7B
330
4A
100
AcDbEntity
  8
1
  6
Continuous
 62
     2
100
AcDbLine
 10
1384.448040267448
 20
147.9898170540449
 30
0.0
 11
1385.059079638601
 21
148.6008564251975
 31
0.0
  0
LINE
  5
7C
330
4A
100
AcDbEntity
  8
1
  6
Continuous
 62
     2
100
AcDbLine
 10
1386.430765664471
 20
149.9725424510679
 30
0.0
 11
1385.819726293318
 21
149.3615030799153
 31
0.0
  0
LINE
  5
7D
330
4A
100
AcDbEntity
  8
1
  6
Continuous
 62
     2
100
AcDbLine
 10
1384.971299285526
 20
149.9725424510679
 30
0.0
 11
1385.582338656679
 21
149.3615030799153
 31
0.0
  0
ARC
  5
7E
330
4A
100
AcDbEntity
  8
1
  6
Continuous
 62
     2
100
AcDbCircle
 10
1385.701032474998
 20
148.7195502435174
 30
0.0
 40
0.6349999999998931
100
AcDbArc
 50
352.5415509436915
 51
7.45844905630083
  0
ARC
  5
7F
330
4A
100
AcDbEntity
  8
1
  6
Continuous
 62
     2
100
AcDbCircle
 10
1385.701032474998
 20
148.7195502435174
 30
0.0
 40
1.450000000000264
100
AcDbArc
 50
300.2161982852633
 51
329.7838017147566
  0
ARC
  5
80
330
4A
100
AcDbEntity
  8
1
  6
Continuous
 62
     2
100
AcDbCircle
 10
1385.701032474998
 20
148.7195502435174
 30
0.0
 40
0.6349999999999482
100
AcDbArc
 50
262.5415509437129
 51
277.4584490563481
  0
ARC
  5
81
330
4A
100
AcDbEntity
  8
1
  6
Continuous
 62
     2
100
AcDbCircle
 10
1385.701032474998
 20
148.7195502435174
 30
0.0
 40
1.449999999999612
100
AcDbArc
 50
210.2161982852614
 51
239.78380171476
  0
ARC
  5
82
330
4A
100
AcDbEntity
  8
1
  6
Continuous
 62
     2
100
AcDbCircle
 10
1385.701032474998
 20
148.7195502435174
 30
0.0
 40
0.6350000000001075
100
AcDbArc
 50
172.5415509437018
 51
187.4584490563058
  0
ARC
  5
83
330
4A
100
AcDbEntity
  8
1
  6
Continuous
 62
     2
100
AcDbCircle
 10
1385.701032474998
 20
148.7195502435174
 30
0.0
 40
1.449999999999847
100
AcDbArc
 50
120.2161982852417
 51
149.7838017147425
  0
ARC
  5
84
330
4A
100
AcDbEntity
  8
1
  6
Continuous
 62
     2
100
AcDbCircle
 10
1385.701032474998
 20
148.7195502435174
 30
0.0
 40
0.634999999999924
100
AcDbArc
 50
82.54155094365052
 51
97.45844905628745
  0
ARC
  5
85
330
4A
100
AcDbEntity
  8
1
  6
Continuous
 62
     2
100
AcDbCircle
 10
1385.701032474998
 20
148.7195502435174
 30
0.0
 40
1.450000000000341
100
AcDbArc
 50
30.21619828523947
 51
59.78380171473501
  0
CIRCLE
  5
86
330
4A
100
AcDbEntity
  8
1
  6
Continuous
 62
     2
100
AcDbCircle
 10
1385.701032474998
 20
148.7195502435174
 30
0.0
 40
2.799999999999955
  0
ARC
  5
87
330
4A
100
AcDbEntity
  8
1
  6
Continuous
 62
     2
100
AcDbCircle
 10
1386.373626605248
 20
148.6314977190489
 30
0.0
 40
0.0433333333341091
100
AcDbArc
 50
172.5415509437641
 51
224.9999999993356
  0
ARC
  5
88
330
4A
100
AcDbEntity
  8
1
  6
Continuous
 62
     2
100
AcDbCircle
 10
1386.373626605248
 20
148.8076027679858
 30
0.0
 40
0.0433333333338157
100
AcDbArc
 50
135.0000000006643
 51
187.4584490561986
  0
ARC
  5
89
330
4A
100
AcDbEntity
  8
1
  6
Continuous
 62
     2
100
AcDbCircle
 10
1385.61297995053
 20
148.046956113268
 30
0.0
 40
0.0433333333334143
100
AcDbArc
 50
82.54155094383336
 51
134.9999999996014
  0
ARC
  5
8A
330
4A
100
AcDbEntity
  8
1
  6
Continuous
 62
     2
100
AcDbCircle
 10
1385.789084999467
 20
148.046956113268
 30
0.0
 40
0.0433333333330119
100
AcDbArc
 50
45.00000000039859
 51
97.45844905616664
  0
ARC
  5
8B
330
4A
100
AcDbEntity
  8
1
  6
Continuous
 62
     2
100
AcDbCircle
 10
1385.028438344749
 20
148.8076027679858
 30
0.0
 40
0.0433333333329782
100
AcDbArc
 50
352.5415509436063
 51
44.99999999954827
  0
ARC
  5
8C
330
4A
100
AcDbEntity
  8
1
  6
Continuous
 62
     2
100
AcDbCircle
 10
1385.028438344749
 20
148.6314977190489
 30
0.0
 40
0.043333333333655
100
AcDbArc
 50
315.0000000004517
 51
7.458449056431
  0
ARC
  5
8D
330
4A
100
AcDbEntity
  8
1
  6
Continuous
 62
     2
100
AcDbCircle
 10
1385.789084999467
 20
149.3921443737667
 30
0.0
 40
0.0433333333334425
100
AcDbArc
 50
262.5415509438383
 51
314.9999999996014
  0
ARC
  5
8E
330
4A
100
AcDbEntity
  8
1
  6
Continuous
 62
     2
100
AcDbCircle
 10
1385.61297995053
 20
149.3921443737667
 30
0.0
 40
0.0433333333330119
100
AcDbArc
 50
225.0000000003986
 51
277.4584490561764
  0
ENDBLK
  5
4C
330
4A
100
AcDbEntity
  8
0
100
AcDbBlockEnd
  0
BLOCK
  5
4E
330
4D
100
AcDbEntity
  8
0
100
AcDbBlockBegin
  2
ﾅﾍﾞﾈM3_ﾍｲﾒﾝｽﾞ__3
 70
     0
 10
1385.701032474998
 20
117.9195502435173
 30
0.0
  3
ﾅﾍﾞﾈM3_ﾍｲﾒﾝｽﾞ__3
  1

  0
LINE
  5
8F
330
4D
100
AcDbEntity
  8
1
  6
Continuous
 62
     1
100
AcDbLine
 10
1385.701032474998
 20
121.5595502435174
 30
0.0
 11
1385.701032474998
 21
114.2795502435172
 31
0.0
  0
LINE
  5
90
330
4D
100
AcDbEntity
  8
1
  6
Continuous
 62
     1
100
AcDbLine
 10
1389.341032474998
 20
117.9195502435173
 30
0.0
 11
1382.061032474998
 21
117.9195502435173
 31
0.0
  0
LINE
  5
91
330
4D
100
AcDbEntity
  8
1
  6
Continuous
 62
     2
100
AcDbLine
 10
1385.582338656679
 20
117.2775974071195
 30
0.0
 11
1384.971299285526
 21
116.6665580359668
 31
0.0
  0
LINE
  5
92
330
4D
100
AcDbEntity
  8
1
  6
Continuous
 62
     2
100
AcDbLine
 10
1385.819726293318
 20
117.2775974071195
 30
0.0
 11
1386.430765664471
 21
116.6665580359668
 31
0.0
  0
LINE
  5
93
330
4D
100
AcDbEntity
  8
1
  6
Continuous
 62
     2
100
AcDbLine
 10
1385.059079638601
 20
118.0382440618372
 30
0.0
 11
1384.448040267448
 21
118.6492834329899
 31
0.0
  0
LINE
  5
94
330
4D
100
AcDbEntity
  8
1
  6
Continuous
 62
     2
100
AcDbLine
 10
1385.059079638601
 20
117.8008564251975
 30
0.0
 11
1384.448040267448
 21
117.1898170540449
 31
0.0
  0
LINE
  5
95
330
4D
100
AcDbEntity
  8
1
  6
Continuous
 62
     2
100
AcDbLine
 10
1385.825861243138
 20
118.5676380297352
 30
0.0
 11
1385.819726293318
 21
118.5615030799153
 31
0.0
  0
LINE
  5
96
330
4D
100
AcDbEntity
  8
1
  6
Continuous
 62
     2
100
AcDbLine
 10
1386.430765664471
 20
119.172542451068
 30
0.0
 11
1385.825861243138
 21
118.5676380297352
 31
0.0
  0
LINE
  5
97
330
4D
100
AcDbEntity
  8
1
  6
Continuous
 62
     2
100
AcDbLine
 10
1385.582338656679
 20
118.5615030799153
 30
0.0
 11
1384.971299285526
 21
119.172542451068
 31
0.0
  0
LINE
  5
98
330
4D
100
AcDbEntity
  8
1
  6
Continuous
 62
     2
100
AcDbLine
 10
1386.342985311396
 20
117.8008564251975
 30
0.0
 11
1386.954024682549
 21
117.1898170540449
 31
0.0
  0
LINE
  5
99
330
4D
100
AcDbEntity
  8
1
  6
Continuous
 62
     2
100
AcDbLine
 10
1386.342985311396
 20
118.0382440618372
 30
0.0
 11
1386.954024682549
 21
118.6492834329899
 31
0.0
  0
ARC
  5
9A
330
4D
100
AcDbEntity
  8
1
  6
Continuous
 62
     2
100
AcDbCircle
 10
1385.701032474998
 20
117.9195502435173
 30
0.0
 40
1.450000000000191
100
AcDbArc
 50
300.216198285265
 51
329.78380171476
  0
ARC
  5
9B
330
4D
100
AcDbEntity
  8
1
  6
Continuous
 62
     2
100
AcDbCircle
 10
1385.701032474998
 20
117.9195502435173
 30
0.0
 40
0.6349999999999482
100
AcDbArc
 50
262.5415509437129
 51
277.4584490563493
  0
ARC
  5
9C
330
4D
100
AcDbEntity
  8
1
  6
Continuous
 62
     2
100
AcDbCircle
 10
1385.701032474998
 20
117.9195502435173
 30
0.0
 40
1.449999999999562
100
AcDbArc
 50
210.216198285258
 51
239.7838017147583
  0
ARC
  5
9D
330
4D
100
AcDbEntity
  8
1
  6
Continuous
 62
     2
100
AcDbCircle
 10
1385.701032474998
 20
117.9195502435173
 30
0.0
 40
0.6350000000001185
100
AcDbArc
 50
172.5415509436942
 51
187.4584490562893
  0
ARC
  5
9E
330
4D
100
AcDbEntity
  8
1
  6
Continuous
 62
     2
100
AcDbCircle
 10
1385.701032474998
 20
117.9195502435173
 30
0.0
 40
1.450000000000007
100
AcDbArc
 50
120.2161982852381
 51
149.7838017147357
  0
ARC
  5
9F
330
4D
100
AcDbEntity
  8
1
  6
Continuous
 62
     2
100
AcDbCircle
 10
1385.701032474998
 20
117.9195502435173
 30
0.0
 40
0.6350000000001212
100
AcDbArc
 50
82.54155094365285
 51
97.45844905628611
  0
ARC
  5
A0
330
4D
100
AcDbEntity
  8
1
  6
Continuous
 62
     2
100
AcDbCircle
 10
1385.701032474998
 20
117.9195502435173
 30
0.0
 40
1.450000000000441
100
AcDbArc
 50
30.21619828524626
 51
59.78380171473868
  0
ARC
  5
A1
330
4D
100
AcDbEntity
  8
1
  6
Continuous
 62
     2
100
AcDbCircle
 10
1385.701032474998
 20
117.9195502435173
 30
0.0
 40
0.6349999999998691
100
AcDbArc
 50
352.541550943708
 51
7.45844905630846
  0
CIRCLE
  5
A2
330
4D
100
AcDbEntity
  8
1
  6
Continuous
 62
     2
100
AcDbCircle
 10
1385.701032474998
 20
117.9195502435173
 30
0.0
 40
2.799999999999955
  0
ARC
  5
A3
330
4D
100
AcDbEntity
  8
1
  6
Continuous
 62
     2
100
AcDbCircle
 10
1385.61297995053
 20
117.246956113268
 30
0.0
 40
0.0433333333333298
100
AcDbArc
 50
82.54155094381872
 51
134.9999999995084
  0
ARC
  5
A4
330
4D
100
AcDbEntity
  8
1
  6
Continuous
 62
     2
100
AcDbCircle
 10
1385.789084999467
 20
117.246956113268
 30
0.0
 40
0.0433333333330822
100
AcDbArc
 50
45.0000000004916
 51
97.45844905616421
  0
ARC
  5
A5
330
4D
100
AcDbEntity
  8
1
  6
Continuous
 62
     2
100
AcDbCircle
 10
1385.028438344749
 20
118.0076027679858
 30
0.0
 40
0.04333333333298
100
AcDbArc
 50
352.5415509435877
 51
44.99999999954827
  0
ARC
  5
A6
330
4D
100
AcDbEntity
  8
1
  6
Continuous
 62
     2
100
AcDbCircle
 10
1385.028438344749
 20
117.831497719049
 30
0.0
 40
0.0433333333337253
100
AcDbArc
 50
315.0000000003587
 51
7.45844905641237
  0
ARC
  5
A7
330
4D
100
AcDbEntity
  8
1
  6
Continuous
 62
     2
100
AcDbCircle
 10
1385.789084999467
 20
118.5921443737668
 30
0.0
 40
0.0433333333334284
100
AcDbArc
 50
262.5415509438358
 51
314.9999999995084
  0
ARC
  5
A8
330
4D
100
AcDbEntity
  8
1
  6
Continuous
 62
     2
100
AcDbCircle
 10
1385.61297995053
 20
118.5921443737668
 30
0.0
 40
0.0433333333330822
100
AcDbArc
 50
225.0000000004916
 51
277.4584490561642
  0
ARC
  5
A9
330
4D
100
AcDbEntity
  8
1
  6
Continuous
 62
     2
100
AcDbCircle
 10
1386.373626605248
 20
117.831497719049
 30
0.0
 40
0.0433333333341073
100
AcDbArc
 50
172.5415509437828
 51
224.9999999994287
  0
ARC
  5
AA
330
4D
100
AcDbEntity
  8
1
  6
Continuous
 62
     2
100
AcDbCircle
 10
1386.373626605248
 20
118.0076027679858
 30
0.0
 40
0.0433333333338157
100
AcDbArc
 50
135.0000000006643
 51
187.4584490562172
  0
ENDBLK
  5
4F
330
4D
100
AcDbEntity
  8
0
100
AcDbBlockEnd
  0
BLOCK
  5
51
330
50
100
AcDbEntity
  8
0
100
AcDbBlockBegin
  2
ﾅﾍﾞﾈM3_ﾍｲﾒﾝｽﾞ__4
 70
     0
 10
1336.101032474998
 20
117.9195502435173
 30
0.0
  3
ﾅﾍﾞﾈM3_ﾍｲﾒﾝｽﾞ__4
  1

  0
LINE
  5
AB
330
50
100
AcDbEntity
  8
1
  6
Continuous
 62
     1
100
AcDbLine
 10
1336.101032474998
 20
121.5595502435176
 30
0.0
 11
1336.101032474998
 21
114.2795502435171
 31
0.0
  0
LINE
  5
AC
330
50
100
AcDbEntity
  8
1
  6
Continuous
 62
     1
100
AcDbLine
 10
1339.741032474999
 20
117.9195502435173
 30
0.0
 11
1332.461032474998
 21
117.9195502435173
 31
0.0
  0
LINE
  5
AD
330
50
100
AcDbEntity
  8
1
  6
Continuous
 62
     2
100
AcDbLine
 10
1336.742985311396
 20
118.0382440618372
 30
0.0
 11
1337.354024682549
 21
118.6492834329899
 31
0.0
  0
LINE
  5
AE
330
50
100
AcDbEntity
  8
1
  6
Continuous
 62
     2
100
AcDbLine
 10
1336.742985311396
 20
117.8008564251975
 30
0.0
 11
1337.354024682549
 21
117.1898170540449
 31
0.0
  0
LINE
  5
AF
330
50
100
AcDbEntity
  8
1
  6
Continuous
 62
     2
100
AcDbLine
 10
1335.982338656678
 20
118.5615030799153
 30
0.0
 11
1335.371299285526
 21
119.172542451068
 31
0.0
  0
LINE
  5
B0
330
50
100
AcDbEntity
  8
1
  6
Continuous
 62
     2
100
AcDbLine
 10
1336.830765664471
 20
119.172542451068
 30
0.0
 11
1336.225861243138
 21
118.5676380297352
 31
0.0
  0
LINE
  5
B1
330
50
100
AcDbEntity
  8
1
  6
Continuous
 62
     2
100
AcDbLine
 10
1336.225861243138
 20
118.5676380297352
 30
0.0
 11
1336.219726293318
 21
118.5615030799153
 31
0.0
  0
LINE
  5
B2
330
50
100
AcDbEntity
  8
1
  6
Continuous
 62
     2
100
AcDbLine
 10
1335.459079638601
 20
117.8008564251975
 30
0.0
 11
1334.848040267448
 21
117.1898170540449
 31
0.0
  0
LINE
  5
B3
330
50
100
AcDbEntity
  8
1
  6
Continuous
 62
     2
100
AcDbLine
 10
1335.459079638601
 20
118.0382440618372
 30
0.0
 11
1334.848040267448
 21
118.6492834329899
 31
0.0
  0
LINE
  5
B4
330
50
100
AcDbEntity
  8
1
  6
Continuous
 62
     2
100
AcDbLine
 10
1336.219726293318
 20
117.2775974071195
 30
0.0
 11
1336.830765664471
 21
116.6665580359668
 31
0.0
  0
LINE
  5
B5
330
50
100
AcDbEntity
  8
1
  6
Continuous
 62
     2
100
AcDbLine
 10
1335.982338656678
 20
117.2775974071195
 30
0.0
 11
1335.371299285526
 21
116.6665580359668
 31
0.0
  0
ARC
  5
B6
330
50
100
AcDbEntity
  8
1
  6
Continuous
 62
     2
100
AcDbCircle
 10
1336.101032474998
 20
117.9195502435173
 30
0.0
 40
0.6350000000009963
100
AcDbArc
 50
352.5415509437214
 51
7.45844905629514
  0
ARC
  5
B7
330
50
100
AcDbEntity
  8
1
  6
Continuous
 62
     2
100
AcDbCircle
 10
1336.101032474998
 20
117.9195502435173
 30
0.0
 40
1.450000000000441
100
AcDbArc
 50
30.21619828524626
 51
59.78380171473091
  0
ARC
  5
B8
330
50
100
AcDbEntity
  8
1
  6
Continuous
 62
     2
100
AcDbCircle
 10
1336.101032474998
 20
117.9195502435173
 30
0.0
 40
0.6350000000001507
100
AcDbArc
 50
82.54155094363252
 51
97.45844905626576
  0
ARC
  5
B9
330
50
100
AcDbEntity
  8
1
  6
Continuous
 62
     2
100
AcDbCircle
 10
1336.101032474998
 20
117.9195502435173
 30
0.0
 40
1.449999999999893
100
AcDbArc
 50
120.2161982852303
 51
149.7838017147357
  0
ARC
  5
BA
330
50
100
AcDbEntity
  8
1
  6
Continuous
 62
     2
100
AcDbCircle
 10
1336.101032474998
 20
117.9195502435173
 30
0.0
 40
0.6349999999998931
100
AcDbArc
 50
172.5415509436915
 51
187.4584490562919
  0
ARC
  5
BB
330
50
100
AcDbEntity
  8
1
  6
Continuous
 62
     2
100
AcDbCircle
 10
1336.101032474998
 20
117.9195502435173
 30
0.0
 40
1.449999999999562
100
AcDbArc
 50
210.216198285258
 51
239.7838017147661
  0
ARC
  5
BC
330
50
100
AcDbEntity
  8
1
  6
Continuous
 62
     2
100
AcDbCircle
 10
1336.101032474998
 20
117.9195502435173
 30
0.0
 40
0.6349999999999186
100
AcDbArc
 50
262.5415509437332
 51
277.4584490563697
  0
ARC
  5
BD
330
50
100
AcDbEntity
  8
1
  6
Continuous
 62
     2
100
AcDbCircle
 10
1336.101032474998
 20
117.9195502435173
 30
0.0
 40
1.450000000000305
100
AcDbArc
 50
300.2161982852728
 51
329.78380171476
  0
CIRCLE
  5
BE
330
50
100
AcDbEntity
  8
1
  6
Continuous
 62
     2
100
AcDbCircle
 10
1336.101032474998
 20
117.9195502435173
 30
0.0
 40
2.799999999999955
  0
ARC
  5
BF
330
50
100
AcDbEntity
  8
1
  6
Continuous
 62
     2
100
AcDbCircle
 10
1336.773626605248
 20
118.0076027679858
 30
0.0
 40
0.043333333333655
100
AcDbArc
 50
135.0000000004517
 51
187.4584490564123
  0
ARC
  5
C0
330
50
100
AcDbEntity
  8
1
  6
Continuous
 62
     2
100
AcDbCircle
 10
1336.773626605248
 20
117.831497719049
 30
0.0
 40
0.04333333333298
100
AcDbArc
 50
172.5415509435876
 51
224.9999999996413
  0
ARC
  5
C1
330
50
100
AcDbEntity
  8
1
  6
Continuous
 62
     2
100
AcDbCircle
 10
1336.01297995053
 20
118.5921443737668
 30
0.0
 40
0.0433333333338861
100
AcDbArc
 50
224.9999999994287
 51
277.4584490561642
  0
ARC
  5
C2
330
50
100
AcDbEntity
  8
1
  6
Continuous
 62
     2
100
AcDbCircle
 10
1336.189084999467
 20
118.5921443737668
 30
0.0
 40
0.0433333333334284
100
AcDbArc
 50
262.5415509438358
 51
314.9999999995084
  0
ARC
  5
C3
330
50
100
AcDbEntity
  8
1
  6
Continuous
 62
     2
100
AcDbCircle
 10
1335.428438344749
 20
117.831497719049
 30
0.0
 40
0.0433333333337253
100
AcDbArc
 50
315.0000000003587
 51
7.45844905641237
  0
ARC
  5
C4
330
50
100
AcDbEntity
  8
1
  6
Continuous
 62
     2
100
AcDbCircle
 10
1335.428438344749
 20
118.0076027679858
 30
0.0
 40
0.04333333333298
100
AcDbArc
 50
352.5415509435877
 51
44.99999999954827
  0
ARC
  5
C5
330
50
100
AcDbEntity
  8
1
  6
Continuous
 62
     2
100
AcDbCircle
 10
1336.189084999467
 20
117.246956113268
 30
0.0
 40
0.0433333333330822
100
AcDbArc
 50
45.0000000004916
 51
97.45844905616421
  0
ARC
  5
C6
330
50
100
AcDbEntity
  8
1
  6
Continuous
 62
     2
100
AcDbCircle
 10
1336.01297995053
 20
117.246956113268
 30
0.0
 40
0.0433333333333298
100
AcDbArc
 50
82.54155094381872
 51
135.0000000005713
  0
ENDBLK
  5
52
330
50
100
AcDbEntity
  8
0
100
AcDbBlockEnd
  0
BLOCK
  5
19D
330
195
100
AcDbEntity
  8
0
100
AcDbBlockBegin
  2
*D5
 70
     1
 10
0.0
 20
0.0
 30
0.0
  3
*D5
  1

  0
LINE
  5
196
330
195
100
AcDbEntity
  8
1
  6
Continuous
 62
     2
100
AcDbLine
 10
1483.345282522037
 20
185.8384231373851
 30
0.0
 11
1535.345282522037
 21
185.8384231373851
 31
0.0
  0
LINE
  5
197
330
195
100
AcDbEntity
  8
1
  6
Continuous
 62
     2
100
AcDbLine
 10
1535.345282522037
 20
161.3195502435171
 30
0.0
 11
1535.345282522037
 21
186.8384231373851
 31
0.0
  0
LINE
  5
198
330
195
100
AcDbEntity
  8
1
  6
Continuous
 62
     2
100
AcDbLine
 10
1483.345282522037
 20
162.3195502435173
 30
0.0
 11
1483.345282522037
 21
186.8384231373851
 31
0.0
  0
SOLID
  5
199
330
195
100
AcDbEntity
  8
1
 62
     2
100
AcDbTrace
 10
1486.545282522037
 20
186.2597111296648
 30
0.0
 11
1486.545282522037
 21
185.4171351451054
 31
0.0
 12
1483.345282522037
 22
185.8384231373851
 32
0.0
 13
1483.345282522037
 23
185.8384231373851
 33
0.0
  0
SOLID
  5
19A
330
195
100
AcDbEntity
  8
1
 62
     2
100
AcDbTrace
 10
1532.145282522037
 20
185.4171351451054
 30
0.0
 11
1532.145282522037
 21
186.2597111296648
 31
0.0
 12
1535.345282522037
 22
185.8384231373851
 32
0.0
 13
1535.345282522037
 23
185.8384231373851
 33
0.0
  0
MTEXT
  5
19C
330
195
100
AcDbEntity
  8
1
 62
     2
100
AcDbMText
 10
1503.908099883497
 20
187.8384167766296
 30
0.0
 40
3.2
 41
0.0
 71
     7
 72
     1
  1
\C2;(\C2;52\C2;)
  7
CONVERTER_15
 11
0.9999999999970619
 21
2.424068405545306E-6
 31
0.0
 73
     1
 44
0.60024009603842
  0
ENDBLK
  5
19E
330
195
100
AcDbEntity
  8
0
100
AcDbBlockEnd
  0
BLOCK
  5
1A8
330
1A1
100
AcDbEntity
  8
0
100
AcDbBlockBegin
  2
*D6
 70
     1
 10
0.0
 20
0.0
 30
0.0
  3
*D6
  1

  0
LINE
  5
1A2
330
1A1
100
AcDbEntity
  8
1
  6
Continuous
 62
     2
100
AcDbLine
 10
1436.588613013128
 20
152.3695502435174
 30
0.0
 11
1436.588613013128
 21
114.2695502435173
 31
0.0
  0
LINE
  5
1A3
330
1A1
100
AcDbEntity
  8
1
  6
Continuous
 62
     2
100
AcDbLine
 10
1480.745282522037
 20
114.2695502435173
 30
0.0
 11
1435.588613013128
 21
114.2695502435173
 31
0.0
  0
LINE
  5
1A4
330
1A1
100
AcDbEntity
  8
1
  6
Continuous
 62
     2
100
AcDbLine
 10
1480.745282522037
 20
152.3695502435174
 30
0.0
 11
1435.588613013128
 21
152.3695502435174
 31
0.0
  0
SOLID
  5
1A5
330
1A1
100
AcDbEntity
  8
1
 62
     2
100
AcDbTrace
 10
1437.009901005408
 20
149.1695502435174
 30
0.0
 11
1436.167325020848
 21
149.1695502435174
 31
0.0
 12
1436.588613013128
 22
152.3695502435174
 32
0.0
 13
1436.588613013128
 23
152.3695502435174
 33
0.0
  0
SOLID
  5
1A6
330
1A1
100
AcDbEntity
  8
1
 62
     2
100
AcDbTrace
 10
1436.167325020848
 20
117.4695502435173
 30
0.0
 11
1437.009901005408
 21
117.4695502435173
 31
0.0
 12
1436.588613013128
 22
114.2695502435173
 32
0.0
 13
1436.588613013128
 23
114.2695502435173
 33
0.0
  0
MTEXT
  5
1A7
330
1A1
100
AcDbEntity
  8
1
 62
     2
100
AcDbMText
 10
1433.49570882439
 20
125.695991457186
 30
0.0
 40
3.2
 41
0.0
 71
     7
 72
     1
  1
\C2;\U+03c6\C2;\C2;38.1\C2;\H1.92;{\Fgdt;`}0.03
  7
CONVERTER_15
 11
0.0
 21
1.0
 31
0.0
 73
     1
 44
0.60024009603842
  0
ENDBLK
  5
1A9
330
1A1
100
AcDbEntity
  8
0
100
AcDbBlockEnd
  0
BLOCK
  5
1B5
330
1AC
100
AcDbEntity
  8
0
100
AcDbBlockBegin
  2
*D7
 70
     1
 10
0.0
 20
0.0
 30
0.0
  3
*D7
  1

  0
LINE
  5
1AD
330
1AC
100
AcDbEntity
  8
1
  6
Continuous
 62
     2
100
AcDbLine
 10
1483.345282522037
 20
171.3195502435173
 30
0.0
 11
1489.745282522038
 21
171.3195502435173
 31
0.0
  0
LINE
  5
1AE
330
1AC
100
AcDbEntity
  8
1
  6
Continuous
 62
     2
100
AcDbLine
 10
1481.745282522038
 20
171.3195502435173
 30
0.0
 11
1483.345282522037
 21
171.3195502435173
 31
0.0
  0
LINE
  5
1AF
330
1AC
100
AcDbEntity
  8
1
  6
Continuous
 62
     2
100
AcDbLine
 10
1469.129299583784
 20
171.3195502435173
 30
0.0
 11
1481.745282522038
 21
171.3195502435173
 31
0.0
  0
LINE
  5
1B0
330
1AC
100
AcDbEntity
  8
1
  6
Continuous
 62
     2
100
AcDbLine
 10
1483.345282522037
 20
162.3195502435173
 30
0.0
 11
1483.345282522037
 21
172.3195502435173
 31
0.0
  0
LINE
  5
1B1
330
1AC
100
AcDbEntity
  8
1
  6
Continuous
 62
     2
100
AcDbLine
 10
1481.745282522038
 20
153.3695502435174
 30
0.0
 11
1481.745282522038
 21
172.3195502435173
 31
0.0
  0
SOLID
  5
1B2
330
1AC
100
AcDbEntity
  8
1
 62
     2
100
AcDbTrace
 10
1478.545282522037
 20
170.8982622512376
 30
0.0
 11
1478.545282522037
 21
171.740838235797
 31
0.0
 12
1481.745282522038
 22
171.3195502435173
 32
0.0
 13
1481.745282522038
 23
171.3195502435173
 33
0.0
  0
SOLID
  5
1B3
330
1AC
100
AcDbEntity
  8
1
 62
     2
100
AcDbTrace
 10
1486.545282522037
 20
171.740838235797
 30
0.0
 11
1486.545282522037
 21
170.8982622512376
 31
0.0
 12
1483.345282522037
 22
171.3195502435173
 32
0.0
 13
1483.345282522037
 23
171.3195502435173
 33
0.0
  0
MTEXT
  5
1B4
330
1AC
100
AcDbEntity
  8
1
 62
     2
100
AcDbMText
 10
1469.129299583784
 20
173.3195502435173
 30
0.0
 40
3.2
 41
0.0
 71
     7
 72
     1
  1
\C2;1.6\C2;\H1.92;{\Fgdt;`}0.2
  7
CONVERTER_15
 11
0.9999999999970619
 21
2.424068405545306E-6
 31
0.0
 73
     1
 44
0.60024009603842
  0
ENDBLK
  5
1B6
330
1AC
100
AcDbEntity
  8
0
100
AcDbBlockEnd
  0
BLOCK
  5
1C0
330
1B9
100
AcDbEntity
  8
0
100
AcDbBlockBegin
  2
*D8
 70
     1
 10
0.0
 20
0.0
 30
0.0
  3
*D8
  1

  0
LINE
  5
1BA
330
1B9
100
AcDbEntity
  8
1
  6
Continuous
 62
     2
100
AcDbLine
 10
1462.745282522037
 20
185.8384231373851
 30
0.0
 11
1483.345282522037
 21
185.8384231373851
 31
0.0
  0
LINE
  5
1BB
330
1B9
100
AcDbEntity
  8
1
  6
Continuous
 62
     2
100
AcDbLine
 10
1483.345282522037
 20
162.3195502435172
 30
0.0
 11
1483.345282522037
 21
186.8384231373851
 31
0.0
  0
LINE
  5
1BC
330
1B9
100
AcDbEntity
  8
1
  6
Continuous
 62
     2
100
AcDbLine
 10
1462.745282522037
 20
136.9945502435172
 30
0.0
 11
1462.745282522037
 21
186.8384231373851
 31
0.0
  0
SOLID
  5
1BD
330
1B9
100
AcDbEntity
  8
1
 62
     2
100
AcDbTrace
 10
1465.945282522037
 20
186.2597111296648
 30
0.0
 11
1465.945282522037
 21
185.4171351451054
 31
0.0
 12
1462.745282522037
 22
185.8384231373851
 32
0.0
 13
1462.745282522037
 23
185.8384231373851
 33
0.0
  0
SOLID
  5
1BE
330
1B9
100
AcDbEntity
  8
1
 62
     2
100
AcDbTrace
 10
1480.145282522037
 20
185.4171351451054
 30
0.0
 11
1480.145282522037
 21
186.2597111296648
 31
0.0
 12
1483.345282522037
 22
185.8384231373851
 32
0.0
 13
1483.345282522037
 23
185.8384231373851
 33
0.0
  0
MTEXT
  5
1BF
330
1B9
100
AcDbEntity
  8
1
 62
     2
100
AcDbMText
 10
1465.080149322721
 20
187.8384231373851
 30
0.0
 40
3.2
 41
0.0
 71
     7
 72
     1
  1
\C2;20.6\C2;\H1.92;{\Fgdt;`}0.5
  7
CONVERTER_15
 11
0.9999999999970619
 21
2.424068405545306E-6
 31
0.0
 73
     1
 44
0.60024009603842
  0
ENDBLK
  5
1C1
330
1B9
100
AcDbEntity
  8
0
100
AcDbBlockEnd
  0
BLOCK
  5
1CD
330
1C4
100
AcDbEntity
  8
0
100
AcDbBlockBegin
  2
*D9
 70
     1
 10
0.0
 20
0.0
 30
0.0
  3
*D9
  1

  0
LINE
  5
1C5
330
1C4
100
AcDbEntity
  8
1
  6
Continuous
 62
     2
100
AcDbLine
 10
1446.113310718756
 20
130.1445502435173
 30
0.0
 11
1446.113310718756
 21
123.7445502435173
 31
0.0
  0
LINE
  5
1C6
330
1C4
100
AcDbEntity
  8
1
  6
Continuous
 62
     2
100
AcDbLine
 10
1446.113310718756
 20
136.494550243519
 30
0.0
 11
1446.113310718756
 21
130.1445502435173
 31
0.0
  0
LINE
  5
1C7
330
1C4
100
AcDbEntity
  8
1
  6
Continuous
 62
     2
100
AcDbLine
 10
1446.113310718756
 20
177.49172967929
 30
0.0
 11
1446.113310718756
 21
136.494550243519
 31
0.0
  0
LINE
  5
1C8
330
1C4
100
AcDbEntity
  8
1
  6
Continuous
 62
     2
100
AcDbLine
 10
1462.245282522037
 20
130.1445502435173
 30
0.0
 11
1445.113310718756
 21
130.1445502435173
 31
0.0
  0
LINE
  5
1C9
330
1C4
100
AcDbEntity
  8
1
  6
Continuous
 62
     2
100
AcDbLine
 10
1462.245282522037
 20
136.494550243519
 30
0.0
 11
1445.113310718756
 21
136.494550243519
 31
0.0
  0
SOLID
  5
1CA
330
1C4
100
AcDbEntity
  8
1
 62
     2
100
AcDbTrace
 10
1445.692022726476
 20
139.694550243519
 30
0.0
 11
1446.534598711036
 21
139.694550243519
 31
0.0
 12
1446.113310718756
 22
136.494550243519
 32
0.0
 13
1446.113310718756
 23
136.494550243519
 33
0.0
  0
SOLID
  5
1CB
330
1C4
100
AcDbEntity
  8
1
 62
     2
100
AcDbTrace
 10
1446.534598711036
 20
126.9445502435173
 30
0.0
 11
1445.692022726476
 21
126.9445502435173
 31
0.0
 12
1446.113310718756
 22
130.1445502435173
 32
0.0
 13
1446.113310718756
 23
130.1445502435173
 33
0.0
  0
MTEXT
  5
1CC
330
1C4
100
AcDbEntity
  8
1
 62
     2
100
AcDbMText
 10
1442.74077455625
 20
157.52372967929
 30
0.0
 40
3.2
 41
0.0
 71
     7
 72
     1
  1
\C2;\U+03c6\C2;\C2;6.35\C2;\H1.92;\S 0^ -0.02;
  7
CONVERTER_15
 11
0.0
 21
1.0
 31
0.0
 73
     1
 44
0.60024009603842
  0
ENDBLK
  5
1CE
330
1C4
100
AcDbEntity
  8
0
100
AcDbBlockEnd
  0
BLOCK
  5
1D8
330
1D1
100
AcDbEntity
  8
0
100
AcDbBlockBegin
  2
*D10
 70
     1
 10
0.0
 20
0.0
 30
0.0
  3
*D10
  1

  0
LINE
  5
1D2
330
1D1
100
AcDbEntity
  8
1
  6
Continuous
 62
     2
100
AcDbLine
 10
1332.901032474998
 20
181.3195502435173
 30
0.0
 11
1388.901032474998
 21
181.3195502435173
 31
0.0
  0
LINE
  5
1D3
330
1D1
100
AcDbEntity
  8
1
  6
Continuous
 62
     2
100
AcDbLine
 10
1388.901032474998
 20
158.3195502435173
 30
0.0
 11
1388.901032474998
 21
182.8195502435173
 31
0.0
  0
LINE
  5
1D4
330
1D1
100
AcDbEntity
  8
1
  6
Continuous
 62
     2
100
AcDbLine
 10
1332.901032474998
 20
158.3195502435173
 30
0.0
 11
1332.901032474998
 21
182.8195502435173
 31
0.0
  0
SOLID
  5
1D5
330
1D1
100
AcDbEntity
  8
1
 62
     2
100
AcDbTrace
 10
1336.101032474998
 20
181.740838235797
 30
0.0
 11
1336.101032474998
 21
180.8982622512376
 31
0.0
 12
1332.901032474998
 22
181.3195502435173
 32
0.0
 13
1332.901032474998
 23
181.3195502435173
 33
0.0
  0
SOLID
  5
1D6
330
1D1
100
AcDbEntity
  8
1
 62
     2
100
AcDbTrace
 10
1385.701032474998
 20
180.8982622512376
 30
0.0
 11
1385.701032474998
 21
181.740838235797
 31
0.0
 12
1388.901032474998
 22
181.3195502435173
 32
0.0
 13
1388.901032474998
 23
181.3195502435173
 33
0.0
  0
MTEXT
  5
1D7
330
1D1
100
AcDbEntity
  8
1
 62
     2
100
AcDbMText
 10
1356.902307858871
 20
183.3195438827618
 30
0.0
 40
3.2
 41
0.0
 71
     7
 72
     1
  1
\C2;(\C2;56\C2;)
  7
CONVERTER_15
 11
0.9999999999970619
 21
2.424068405545306E-6
 31
0.0
 73
     1
 44
0.60024009603842
  0
ENDBLK
  5
1D9
330
1D1
100
AcDbEntity
  8
0
100
AcDbBlockEnd
  0
BLOCK
  5
1E3
330
1DC
100
AcDbEntity
  8
0
100
AcDbBlockBegin
  2
*D11
 70
     1
 10
0.0
 20
0.0
 30
0.0
  3
*D11
  1

  0
LINE
  5
1DD
330
1DC
100
AcDbEntity
  8
1
  6
Continuous
 62
     2
100
AcDbLine
 10
1337.331032474998
 20
171.3195502435173
 30
0.0
 11
1384.471032474998
 21
171.3195502435173
 31
0.0
  0
LINE
  5
1DE
330
1DC
100
AcDbEntity
  8
1
  6
Continuous
 62
     2
100
AcDbLine
 10
1384.471032474998
 20
163.3895502435175
 30
0.0
 11
1384.471032474998
 21
172.8195502435173
 31
0.0
  0
LINE
  5
1DF
330
1DC
100
AcDbEntity
  8
1
  6
Continuous
 62
     2
100
AcDbLine
 10
1337.331032474998
 20
163.3895502435175
 30
0.0
 11
1337.331032474998
 21
172.8195502435173
 31
0.0
  0
SOLID
  5
1E0
330
1DC
100
AcDbEntity
  8
1
 62
     2
100
AcDbTrace
 10
1340.531032474998
 20
171.740838235797
 30
0.0
 11
1340.531032474998
 21
170.8982622512376
 31
0.0
 12
1337.331032474998
 22
171.3195502435173
 32
0.0
 13
1337.331032474998
 23
171.3195502435173
 33
0.0
  0
SOLID
  5
1E1
330
1DC
100
AcDbEntity
  8
1
 62
     2
100
AcDbTrace
 10
1381.271032474998
 20
170.8982622512376
 30
0.0
 11
1381.271032474998
 21
171.740838235797
 31
0.0
 12
1384.471032474998
 22
171.3195502435173
 32
0.0
 13
1384.471032474998
 23
171.3195502435173
 33
0.0
  0
MTEXT
  5
1E2
330
1DC
100
AcDbEntity
  8
1
 62
     2
100
AcDbMText
 10
1351.51126126787
 20
173.53930709138
 30
0.0
 40
3.2
 41
0.0
 71
     7
 72
     1
  1
\C2;47.14\C2;\H2.24;{\Fgdt;`}0.2
  7
CONVERTER_15
 11
0.9999999999970619
 21
2.424068405545306E-6
 31
0.0
 73
     1
 44
0.60024009603842
  0
ENDBLK
  5
1E4
330
1DC
100
AcDbEntity
  8
0
100
AcDbBlockEnd
  0
BLOCK
  5
1EE
330
1E7
100
AcDbEntity
  8
0
100
AcDbBlockBegin
  2
*D12
 70
     1
 10
0.0
 20
0.0
 30
0.0
  3
*D12
  1

  0
LINE
  5
1E8
330
1E7
100
AcDbEntity
  8
1
  6
Continuous
 62
     2
100
AcDbLine
 10
1409.901032474999
 20
105.3195502435173
 30
0.0
 11
1409.901032474999
 21
161.3195502435173
 31
0.0
  0
LINE
  5
1E9
330
1E7
100
AcDbEntity
  8
1
  6
Continuous
 62
     2
100
AcDbLine
 10
1385.901032474999
 20
161.3195502435173
 30
0.0
 11
1411.401032474999
 21
161.3195502435173
 31
0.0
  0
LINE
  5
1EA
330
1E7
100
AcDbEntity
  8
1
  6
Continuous
 62
     2
100
AcDbLine
 10
1385.901032474999
 20
105.3195502435173
 30
0.0
 11
1411.401032474999
 21
105.3195502435173
 31
0.0
  0
SOLID
  5
1EB
330
1E7
100
AcDbEntity
  8
1
 62
     2
100
AcDbTrace
 10
1409.479744482719
 20
108.5195502435173
 30
0.0
 11
1410.322320467279
 21
108.5195502435173
 31
0.0
 12
1409.901032474999
 22
105.3195502435173
 32
0.0
 13
1409.901032474999
 23
105.3195502435173
 33
0.0
  0
SOLID
  5
1EC
330
1E7
100
AcDbEntity
  8
1
 62
     2
100
AcDbTrace
 10
1410.322320467279
 20
158.1195502435173
 30
0.0
 11
1409.479744482719
 21
158.1195502435173
 31
0.0
 12
1409.901032474999
 22
161.3195502435173
 32
0.0
 13
1409.901032474999
 23
161.3195502435173
 33
0.0
  0
MTEXT
  5
1ED
330
1E7
100
AcDbEntity
  8
1
 62
     2
100
AcDbMText
 10
1407.901032474999
 20
127.9134900044931
 30
0.0
 40
3.2
 41
0.0
 71
     7
 72
     1
  1
\C2;(\C2;56\C2;)
  7
CONVERTER_15
 11
0.0
 21
1.0
 31
0.0
 73
     1
 44
0.60024009603842
  0
ENDBLK
  5
1EF
330
1E7
100
AcDbEntity
  8
0
100
AcDbBlockEnd
  0
BLOCK
  5
1F9
330
1F2
100
AcDbEntity
  8
0
100
AcDbBlockBegin
  2
*D13
 70
     1
 10
0.0
 20
0.0
 30
0.0
  3
*D13
  1

  0
LINE
  5
1F3
330
1F2
100
AcDbEntity
  8
1
  6
Continuous
 62
     2
100
AcDbLine
 10
1400.861032474998
 20
109.7495502435169
 30
0.0
 11
1400.861032474998
 21
156.8895502435175
 31
0.0
  0
LINE
  5
1F4
330
1F2
100
AcDbEntity
  8
1
  6
Continuous
 62
     2
100
AcDbLine
 10
1390.971032474999
 20
156.8895502435175
 30
0.0
 11
1402.361032474998
 21
156.8895502435175
 31
0.0
  0
LINE
  5
1F5
330
1F2
100
AcDbEntity
  8
1
  6
Continuous
 62
     2
100
AcDbLine
 10
1390.971032474999
 20
109.7495502435169
 30
0.0
 11
1402.361032474998
 21
109.7495502435169
 31
0.0
  0
SOLID
  5
1F6
330
1F2
100
AcDbEntity
  8
1
 62
     2
100
AcDbTrace
 10
1400.439744482719
 20
112.9495502435169
 30
0.0
 11
1401.282320467278
 21
112.9495502435169
 31
0.0
 12
1400.861032474998
 22
109.7495502435169
 32
0.0
 13
1400.861032474998
 23
109.7495502435169
 33
0.0
  0
SOLID
  5
1F7
330
1F2
100
AcDbEntity
  8
1
 62
     2
100
AcDbTrace
 10
1401.282320467278
 20
153.6895502435175
 30
0.0
 11
1400.439744482719
 21
153.6895502435175
 31
0.0
 12
1400.861032474998
 22
156.8895502435175
 32
0.0
 13
1400.861032474998
 23
156.8895502435175
 33
0.0
  0
MTEXT
  5
1F8
330
1F2
100
AcDbEntity
  8
1
 62
     2
100
AcDbMText
 10
1398.90715622618
 20
125.003591457186
 30
0.0
 40
3.2
 41
0.0
 71
     7
 72
     1
  1
\C2;47.14\C2;\H2.24;{\Fgdt;`}0.2
  7
CONVERTER_15
 11
0.0
 21
1.0
 31
0.0
 73
     1
 44
0.60024009603842
  0
ENDBLK
  5
1FA
330
1F2
100
AcDbEntity
  8
0
100
AcDbBlockEnd
  0
BLOCK
  5
205
330
1FD
100
AcDbEntity
  8
0
100
AcDbBlockBegin
  2
*D14
 70
     1
 10
0.0
 20
0.0
 30
0.0
  3
*D14
  1

  0
LINE
  5
1FE
330
1FD
100
AcDbEntity
  8
1
  6
Continuous
 62
     2
100
AcDbLine
 10
1409.901032474999
 20
95.01955024351733
 30
0.0
 11
1409.901032474999
 21
81.33205541756439
 31
0.0
  0
LINE
  5
1FF
330
1FD
100
AcDbEntity
  8
1
  6
Continuous
 62
     2
100
AcDbLine
 10
1409.901032474999
 20
105.3195502435173
 30
0.0
 11
1409.901032474999
 21
95.01955024351733
 31
0.0
  0
LINE
  5
200
330
1FD
100
AcDbEntity
  8
1
  6
Continuous
 62
     2
100
AcDbLine
 10
1370.401032474999
 20
95.01955024351733
 30
0.0
 11
1411.401032474999
 21
95.01955024351733
 31
0.0
  0
LINE
  5
201
330
1FD
100
AcDbEntity
  8
1
  6
Continuous
 62
     2
100
AcDbLine
 10
1385.901032474999
 20
105.3195502435173
 30
0.0
 11
1411.401032474999
 21
105.3195502435173
 31
0.0
  0
SOLID
  5
202
330
1FD
100
AcDbEntity
  8
1
 62
     2
100
AcDbTrace
 10
1410.322320467279
 20
102.1195502435173
 30
0.0
 11
1409.479744482719
 21
102.1195502435173
 31
0.0
 12
1409.901032474999
 22
105.3195502435173
 32
0.0
 13
1409.901032474999
 23
105.3195502435173
 33
0.0
  0
SOLID
  5
203
330
1FD
100
AcDbEntity
  8
1
 62
     2
100
AcDbTrace
 10
1409.479744482719
 20
98.21955024351733
 30
0.0
 11
1410.322320467279
 21
98.21955024351733
 31
0.0
 12
1409.901032474999
 22
95.01955024351733
 32
0.0
 13
1409.901032474999
 23
95.01955024351733
 33
0.0
  0
MTEXT
  5
204
330
1FD
100
AcDbEntity
  8
1
 62
     2
100
AcDbMText
 10
1408.130338882539
 20
80.7880554175644
 30
0.0
 40
3.2
 41
0.0
 71
     7
 72
     1
  1
\C2;(\C2;10.3\C2;)
  7
CONVERTER_15
 11
0.0
 21
1.0
 31
0.0
 73
     1
 44
0.60024009603842
  0
ENDBLK
  5
206
330
1FD
100
AcDbEntity
  8
0
100
AcDbBlockEnd
  0
BLOCK
  5
210
330
209
100
AcDbEntity
  8
0
100
AcDbBlockBegin
  2
*D15
 70
     1
 10
0.0
 20
0.0
 30
0.0
  3
*D15
  1

  0
LINE
  5
20A
330
209
100
AcDbEntity
  8
1
  6
Continuous
 62
     2
100
AcDbLine
 10
1348.901032370673
 20
68.5740248551754
 30
0.0
 11
1372.901032579323
 21
68.5740248551754
 31
0.0
  0
LINE
  5
20B
330
209
100
AcDbEntity
  8
1
  6
Continuous
 62
     2
100
AcDbLine
 10
1372.901032579323
 20
98.01955076806738
 30
0.0
 11
1372.901032579323
 21
67.0740248551754
 31
0.0
  0
LINE
  5
20C
330
209
100
AcDbEntity
  8
1
  6
Continuous
 62
     2
100
AcDbLine
 10
1348.901032370673
 20
98.01955076806738
 30
0.0
 11
1348.901032370673
 21
67.0740248551754
 31
0.0
  0
SOLID
  5
20D
330
209
100
AcDbEntity
  8
1
 62
     2
100
AcDbTrace
 10
1352.101032370673
 20
68.99531284745507
 30
0.0
 11
1352.101032370673
 21
68.15273686289572
 31
0.0
 12
1348.901032370673
 22
68.5740248551754
 32
0.0
 13
1348.901032370673
 23
68.5740248551754
 33
0.0
  0
SOLID
  5
20E
330
209
100
AcDbEntity
  8
1
 62
     2
100
AcDbTrace
 10
1369.701032579323
 20
68.15273686289574
 30
0.0
 11
1369.701032579323
 21
68.99531284745507
 31
0.0
 12
1372.901032579323
 22
68.5740248551754
 32
0.0
 13
1372.901032579323
 23
68.5740248551754
 33
0.0
  0
MTEXT
  5
20F
330
209
100
AcDbEntity
  8
1
 62
     2
100
AcDbMText
 10
1356.216338126362
 20
70.5740184944199
 30
0.0
 40
3.2
 41
0.0
 71
     7
 72
     1
  1
\C2;(\C2;24\C2;)
  7
CONVERTER_15
 11
0.9999999999970619
 21
2.424068405545306E-6
 31
0.0
 73
     1
 44
0.60024009603842
  0
ENDBLK
  5
211
330
209
100
AcDbEntity
  8
0
100
AcDbBlockEnd
  0
BLOCK
  5
21C
330
214
100
AcDbEntity
  8
0
100
AcDbBlockBegin
  2
*D16
 70
     1
 10
0.0
 20
0.0
 30
0.0
  3
*D16
  1

  0
LINE
  5
215
330
214
100
AcDbEntity
  8
1
  6
Continuous
 62
     2
100
AcDbLine
 10
1535.345282522037
 20
88.01955024351881
 30
0.0
 11
1523.545282509038
 21
88.01955024351881
 31
0.0
  0
LINE
  5
216
330
214
100
AcDbEntity
  8
1
  6
Continuous
 62
     2
100
AcDbLine
 10
1552.051128950779
 20
88.01955024351881
 30
0.0
 11
1535.345282522037
 21
88.01955024351881
 31
0.0
  0
LINE
  5
217
330
214
100
AcDbEntity
  8
1
  6
Continuous
 62
     2
100
AcDbLine
 10
1523.545282509038
 20
97.01954870866908
 30
0.0
 11
1523.545282509038
 21
86.51955024351881
 31
0.0
  0
LINE
  5
218
330
214
100
AcDbEntity
  8
1
  6
Continuous
 62
     2
100
AcDbLine
 10
1535.345282522037
 20
98.01955024351881
 30
0.0
 11
1535.345282522037
 21
86.51955024351881
 31
0.0
  0
SOLID
  5
219
330
214
100
AcDbEntity
  8
1
 62
     2
100
AcDbTrace
 10
1532.145282522037
 20
87.59826225123913
 30
0.0
 11
1532.145282522037
 21
88.44083823579848
 31
0.0
 12
1535.345282522037
 22
88.01955024351881
 32
0.0
 13
1535.345282522037
 23
88.01955024351881
 33
0.0
  0
SOLID
  5
21A
330
214
100
AcDbEntity
  8
1
 62
     2
100
AcDbTrace
 10
1526.745282509038
 20
88.44083823579848
 30
0.0
 11
1526.745282509038
 21
87.59826225123913
 31
0.0
 12
1523.545282509038
 22
88.01955024351881
 32
0.0
 13
1523.545282509038
 23
88.01955024351881
 33
0.0
  0
MTEXT
  5
21B
330
214
100
AcDbEntity
  8
1
 62
     2
100
AcDbMText
 10
1540.547128950787
 20
90.01954388276332
 30
0.0
 40
3.2
 41
0.0
 71
     7
 72
     1
  1
\C2;(\C2;11.8\C2;)
  7
CONVERTER_15
 11
0.9999999999970619
 21
2.424068405545306E-6
 31
0.0
 73
     1
 44
0.60024009603842
  0
ENDBLK
  5
21D
330
214
100
AcDbEntity
  8
0
100
AcDbBlockEnd
  0
BLOCK
  5
229
330
220
100
AcDbEntity
  8
0
100
AcDbBlockBegin
  2
*D17
 70
     1
 10
0.0
 20
0.0
 30
0.0
  3
*D17
  1

  0
LINE
  5
221
330
220
100
AcDbEntity
  8
1
  6
Continuous
 62
     2
100
AcDbLine
 10
1323.19433504145
 20
98.01954874151731
 30
0.0
 11
1323.19433504145
 21
91.6195487415173
 31
0.0
  0
LINE
  5
222
330
220
100
AcDbEntity
  8
1
  6
Continuous
 62
     2
100
AcDbLine
 10
1323.19433504145
 20
105.3195502435173
 30
0.0
 11
1323.19433504145
 21
98.01954874151731
 31
0.0
  0
LINE
  5
223
330
220
100
AcDbEntity
  8
1
  6
Continuous
 62
     2
100
AcDbLine
 10
1323.19433504145
 20
111.7195502435173
 30
0.0
 11
1323.19433504145
 21
105.3195502435173
 31
0.0
  0
LINE
  5
224
330
220
100
AcDbEntity
  8
1
  6
Continuous
 62
     2
100
AcDbLine
 10
1349.201032024973
 20
98.01954874151731
 30
0.0
 11
1321.69433504145
 21
98.01954874151731
 31
0.0
  0
LINE
  5
225
330
220
100
AcDbEntity
  8
1
  6
Continuous
 62
     2
100
AcDbLine
 10
1335.901032474998
 20
105.3195502435173
 30
0.0
 11
1321.69433504145
 21
105.3195502435173
 31
0.0
  0
SOLID
  5
226
330
220
100
AcDbEntity
  8
1
 62
     2
100
AcDbTrace
 10
1322.77304704917
 20
108.5195502435173
 30
0.0
 11
1323.61562303373
 21
108.5195502435173
 31
0.0
 12
1323.19433504145
 22
105.3195502435173
 32
0.0
 13
1323.19433504145
 23
105.3195502435173
 33
0.0
  0
SOLID
  5
227
330
220
100
AcDbEntity
  8
1
 62
     2
100
AcDbTrace
 10
1323.61562303373
 20
94.81954874151731
 30
0.0
 11
1322.77304704917
 21
94.81954874151731
 31
0.0
 12
1323.19433504145
 22
98.01954874151731
 32
0.0
 13
1323.19433504145
 23
98.01954874151731
 33
0.0
  0
MTEXT
  5
228
330
220
100
AcDbEntity
  8
1
 62
     2
100
AcDbMText
 10
1321.19433504145
 20
95.7404613744234
 30
0.0
 40
3.2
 41
0.0
 71
     7
 72
     1
  1
\C2;(\C2;7.3\C2;)
  7
CONVERTER_15
 11
0.0
 21
1.0
 31
0.0
 73
     1
 44
0.60024009603842
  0
ENDBLK
  5
22A
330
220
100
AcDbEntity
  8
0
100
AcDbBlockEnd
  0
BLOCK
  5
236
330
22D
100
AcDbEntity
  8
0
100
AcDbBlockBegin
  2
*D18
 70
     1
 10
0.0
 20
0.0
 30
0.0
  3
*D18
  1

  0
LINE
  5
22E
330
22D
100
AcDbEntity
  8
1
  6
Continuous
 62
     2
100
AcDbLine
 10
1488.345282522037
 20
88.01955024351881
 30
0.0
 11
1494.745282522037
 21
88.01955024351881
 31
0.0
  0
LINE
  5
22F
330
22D
100
AcDbEntity
  8
1
  6
Continuous
 62
     2
100
AcDbLine
 10
1483.345282522037
 20
88.01955024351881
 30
0.0
 11
1488.345282522037
 21
88.01955024351881
 31
0.0
  0
LINE
  5
230
330
22D
100
AcDbEntity
  8
1
  6
Continuous
 62
     2
100
AcDbLine
 10
1475.256212533899
 20
88.01955024351881
 30
0.0
 11
1483.345282522037
 21
88.01955024351881
 31
0.0
  0
LINE
  5
231
330
22D
100
AcDbEntity
  8
1
  6
Continuous
 62
     2
100
AcDbLine
 10
1488.345282522037
 20
104.3195502435173
 30
0.0
 11
1488.345282522037
 21
86.51955024351881
 31
0.0
  0
LINE
  5
232
330
22D
100
AcDbEntity
  8
1
  6
Continuous
 62
     2
100
AcDbLine
 10
1483.345282522037
 20
104.3195502435173
 30
0.0
 11
1483.345282522037
 21
86.51955024351881
 31
0.0
  0
SOLID
  5
233
330
22D
100
AcDbEntity
  8
1
 62
     2
100
AcDbTrace
 10
1480.145282522037
 20
87.59826225123915
 30
0.0
 11
1480.145282522037
 21
88.44083823579848
 31
0.0
 12
1483.345282522037
 22
88.01955024351881
 32
0.0
 13
1483.345282522037
 23
88.01955024351881
 33
0.0
  0
SOLID
  5
234
330
22D
100
AcDbEntity
  8
1
 62
     2
100
AcDbTrace
 10
1491.545282522037
 20
88.44083823579848
 30
0.0
 11
1491.545282522037
 21
87.59826225123913
 31
0.0
 12
1488.345282522037
 22
88.01955024351881
 32
0.0
 13
1488.345282522037
 23
88.01955024351881
 33
0.0
  0
MTEXT
  5
235
330
22D
100
AcDbEntity
  8
1
 62
     2
100
AcDbMText
 10
1475.256212533899
 20
90.01955024351881
 30
0.0
 40
3.2
 41
0.0
 71
     7
 72
     1
  1
5
  7
CONVERTER_15
 11
0.9999999999970619
 21
2.424068405545306E-6
 31
0.0
 73
     1
 44
0.60024009603842
  0
ENDBLK
  5
237
330
22D
100
AcDbEntity
  8
0
100
AcDbBlockEnd
  0
BLOCK
  5
23F
330
23A
100
AcDbEntity
  8
0
100
AcDbBlockBegin
  2
*D19
 70
     1
 10
0.0
 20
0.0
 30
0.0
  3
*D19
  1

  0
LINE
  5
23B
330
23A
100
AcDbEntity
  8
1
  6
Continuous
 62
     2
100
AcDbLine
 10
1393.095606207329
 20
171.1718795382883
 30
0.0
 11
1423.194039444459
 21
171.1718795382883
 31
0.0
  0
LINE
  5
23C
330
23A
100
AcDbEntity
  8
1
  6
Continuous
 62
     2
100
AcDbLine
 10
1385.634114503442
 20
158.8156188287736
 30
0.0
 11
1393.095606207329
 21
171.1718795382883
 31
0.0
  0
SOLID
  5
23D
330
23A
100
AcDbEntity
  8
1
 62
     2
100
AcDbTrace
 10
1386.927640247329
 20
161.7726908134134
 30
0.0
 11
1387.648910973796
 21
161.3371419310847
 31
0.0
 12
1385.634114503442
 22
158.8156188287736
 32
0.0
 13
1385.634114503442
 23
158.8156188287736
 33
0.0
  0
MTEXT
  5
23E
330
23A
100
AcDbEntity
  8
1
 62
     2
100
AcDbMText
 10
1396.362039444482
 20
172.6243949742227
 30
0.0
 40
3.2
 41
0.0
 71
     7
 72
     1
  1
\C2;4\U+00d7{\Fgdt;n}\C2;4.5\C2;HOLE
  7
CONVERTER_15
 11
0.9999999999970619
 21
2.424068405545306E-6
 31
0.0
 73
     1
 44
0.60024009603842
  0
ENDBLK
  5
240
330
23A
100
AcDbEntity
  8
0
100
AcDbBlockEnd
  0
ENDSEC
  0
SECTION
  2
ENTITIES
  0
INSERT
  5
53
330
1F
100
AcDbEntity
  8
1
100
AcDbBlockReference
  2
ﾅﾍﾞﾈM3_ﾍｲﾒﾝｽﾞ__1
 10
1336.101032474998
 20
148.7195502435174
 30
0.0
  0
INSERT
  5
54
330
1F
100
AcDbEntity
  8
1
100
AcDbBlockReference
  2
ﾅﾍﾞﾈM3_ﾍｲﾒﾝｽﾞ__2
 10
1385.701032474998
 20
148.7195502435174
 30
0.0
  0
INSERT
  5
55
330
1F
100
AcDbEntity
  8
1
100
AcDbBlockReference
  2
ﾅﾍﾞﾈM3_ﾍｲﾒﾝｽﾞ__3
 10
1385.701032474998
 20
117.9195502435173
 30
0.0
  0
INSERT
  5
56
330
1F
100
AcDbEntity
  8
1
100
AcDbBlockReference
  2
ﾅﾍﾞﾈM3_ﾍｲﾒﾝｽﾞ__4
 10
1336.101032474998
 20
117.9195502435173
 30
0.0
  0
LINE
  5
C7
330
1F
100
AcDbEntity
  8
1
  6
DASHED
 62
     2
100
AcDbLine
 10
1367.801032474998
 20
86.6388956388931
 30
0.0
 11
1367.801032474998
 21
95.0195502435173
 31
0.0
  0
LINE
  5
C8
330
1F
100
AcDbEntity
  8
1
  6
DASHED
 62
     2
100
AcDbLine
 10
1366.201032474999
 20
86.6388956388931
 30
0.0
 11
1366.201032474999
 21
95.0195502435173
 31
0.0
  0
LINE
  5
C9
330
1F
100
AcDbEntity
  8
1
  6
DASHED
 62
     2
100
AcDbLine
 10
1361.311032474998
 20
86.6388956388931
 30
0.0
 11
1361.311032474998
 21
95.0195502435173
 31
0.0
  0
LINE
  5
CA
330
1F
100
AcDbEntity
  8
1
  6
DASHED
 62
     2
100
AcDbLine
 10
1362.911032474998
 20
86.6388956388931
 30
0.0
 11
1362.911032474998
 21
95.0195502435173
 31
0.0
  0
LINE
  5
CB
330
1F
100
AcDbEntity
  8
1
  6
DASHED
 62
     2
100
AcDbLine
 10
1363.731032474998
 20
86.6388956388931
 30
0.0
 11
1363.731032474998
 21
95.0195502435173
 31
0.0
  0
LINE
  5
CC
330
1F
100
AcDbEntity
  8
1
  6
DASHED
 62
     2
100
AcDbLine
 10
1365.331032474998
 20
86.6388956388931
 30
0.0
 11
1365.331032474998
 21
95.0195502435173
 31
0.0
  0
LINE
  5
CD
330
1F
100
AcDbEntity
  8
1
  6
DASHED
 62
     2
100
AcDbLine
 10
1365.331032474998
 20
95.0195502435173
 30
0.0
 11
1366.201032474999
 21
95.0195502435173
 31
0.0
  0
LINE
  5
CE
330
1F
100
AcDbEntity
  8
1
  6
DASHED
 62
     2
100
AcDbLine
 10
1362.911032474998
 20
95.0195502435173
 30
0.0
 11
1363.731032474998
 21
95.0195502435173
 31
0.0
  0
LINE
  5
CF
330
1F
100
AcDbEntity
  8
1
  6
DASHED
 62
     2
100
AcDbLine
 10
1358.071032474998
 20
95.0195502435173
 30
0.0
 11
1358.891032474998
 21
95.0195502435173
 31
0.0
  0
LINE
  5
D0
330
1F
100
AcDbEntity
  8
1
  6
DASHED
 62
     2
100
AcDbLine
 10
1355.601032474998
 20
95.0195502435173
 30
0.0
 11
1356.471032474999
 21
95.0195502435173
 31
0.0
  0
LINE
  5
D1
330
1F
100
AcDbEntity
  8
1
  6
DASHED
 62
     2
100
AcDbLine
 10
1356.471032474999
 20
95.0195502435173
 30
0.0
 11
1356.471032474999
 21
86.6388956388931
 31
0.0
  0
LINE
  5
D2
330
1F
100
AcDbEntity
  8
1
  6
DASHED
 62
     2
100
AcDbLine
 10
1358.071032474998
 20
95.0195502435173
 30
0.0
 11
1358.071032474998
 21
86.6388956388931
 31
0.0
  0
LINE
  5
D3
330
1F
100
AcDbEntity
  8
1
  6
DASHED
 62
     2
100
AcDbLine
 10
1358.891032474998
 20
95.0195502435173
 30
0.0
 11
1358.891032474998
 21
86.6388956388931
 31
0.0
  0
LINE
  5
D4
330
1F
100
AcDbEntity
  8
1
  6
DASHED
 62
     2
100
AcDbLine
 10
1360.491032474998
 20
95.0195502435173
 30
0.0
 11
1360.491032474998
 21
86.6388956388931
 31
0.0
  0
LWPOLYLINE
  5
D5
330
1F
100
AcDbEntity
  8
0
  6
Continuous
 62
     3
100
AcDbPolyline
 90
        2
 70
     0
 43
0.0
 10
1371.901032415373
 20
98.0195487415173
 10
1371.601032925023
 20
98.0195487415173
  0
LWPOLYLINE
  5
D6
330
1F
100
AcDbEntity
  8
0
  6
Continuous
 62
     3
100
AcDbPolyline
 90
        2
 70
     0
 43
0.0
 10
1371.601032925023
 20
98.0195487415173
 10
1368.401032307373
 20
98.0195487415173
  0
LWPOLYLINE
  5
D7
330
1F
100
AcDbEntity
  8
0
  6
Continuous
 62
     3
100
AcDbPolyline
 90
        2
 70
     0
 43
0.0
 10
1372.901032579323
 20
99.0195507680674
 10
1372.901032579323
 20
104.3195510780173
  0
LWPOLYLINE
  5
D8
330
1F
100
AcDbEntity
  8
0
  6
Continuous
 62
     3
100
AcDbPolyline
 90
        2
 70
     0
 43
0.0
 10
1348.901032370673
 20
104.3195510780173
 10
1348.901032370673
 20
99.0195507680674
  0
LWPOLYLINE
  5
D9
330
1F
100
AcDbEntity
  8
0
  6
Continuous
 62
     3
100
AcDbPolyline
 90
        2
 70
     0
 43
0.0
 10
1371.601032925023
 20
98.0195487415173
 10
1371.601032925023
 20
105.3195502435173
  0
LWPOLYLINE
  5
DA
330
1F
100
AcDbEntity
  8
0
  6
Continuous
 62
     3
100
AcDbPolyline
 90
        2
 70
     0
 43
0.0
 10
1350.201032024973
 20
105.3195502435173
 10
1350.201032024973
 20
98.0195487415173
  0
LWPOLYLINE
  5
DB
330
1F
100
AcDbEntity
  8
0
  6
Continuous
 62
     3
100
AcDbPolyline
 90
        2
 70
     0
 43
0.0
 10
1350.201032024973
 20
98.0195487415173
 10
1349.901032534623
 20
98.0195487415173
  0
LWPOLYLINE
  5
DC
330
1F
100
AcDbEntity
  8
0
  6
Continuous
 62
     3
100
AcDbPolyline
 90
        2
 70
     0
 43
0.0
 10
1368.401032307373
 20
98.0195487415173
 10
1353.401032642623
 20
98.0195487415173
  0
LWPOLYLINE
  5
DD
330
1F
100
AcDbEntity
  8
0
  6
Continuous
 62
     3
100
AcDbPolyline
 90
        2
 70
     0
 43
0.0
 10
1353.401032642623
 20
98.0195487415173
 10
1350.201032024973
 20
98.0195487415173
  0
LINE
  5
DE
330
1F
100
AcDbEntity
  8
1
  6
Continuous
 62
     3
100
AcDbLine
 10
1367.726032522673
 20
98.01954870866749
 30
0.0
 11
1369.726032850473
 21
98.01954870866749
 31
0.0
  0
LINE
  5
DF
330
1F
100
AcDbEntity
  8
1
  6
Continuous
 62
     3
100
AcDbLine
 10
1352.076032099473
 20
98.01954870866749
 30
0.0
 11
1354.076032427323
 21
98.01954870866749
 31
0.0
  0
LWPOLYLINE
  5
E0
330
1F
100
AcDbEntity
  8
0
  6
Continuous
 62
     3
100
AcDbPolyline
 90
        2
 70
     0
 43
0.0
 10
1367.726032522673
 20
103.7195502017675
 10
1367.726032522673
 20
102.1195510571174
  0
LWPOLYLINE
  5
E1
330
1F
100
AcDbEntity
  8
0
  6
Continuous
 62
     3
100
AcDbPolyline
 90
        2
 70
     0
 43
0.0
 10
1367.726032522673
 20
103.7195502017675
 10
1354.076032427323
 20
103.7195502017675
  0
LWPOLYLINE
  5
E2
330
1F
100
AcDbEntity
  8
0
  6
Continuous
 62
     3
100
AcDbPolyline
 90
        2
 70
     0
 43
0.0
 10
1354.076032427323
 20
103.7195502017675
 10
1354.076032427323
 20
102.1195510571174
  0
LWPOLYLINE
  5
E3
330
1F
100
AcDbEntity
  8
0
  6
Continuous
 62
     3
100
AcDbPolyline
 90
        2
 70
     0
 43
0.0
 10
1354.076032427323
 20
102.1195510571174
 10
1352.076032099473
 20
102.1195510571174
  0
LWPOLYLINE
  5
E4
330
1F
100
AcDbEntity
  8
0
  6
Continuous
 62
     3
100
AcDbPolyline
 90
        2
 70
     0
 43
0.0
 10
1352.076032099473
 20
102.1195510571174
 10
1352.076032099473
 20
105.3195502435173
  0
LWPOLYLINE
  5
E5
330
1F
100
AcDbEntity
  8
0
  6
Continuous
 62
     3
100
AcDbPolyline
 90
        2
 70
     0
 43
0.0
 10
1350.426032108423
 20
105.3195502435173
 10
1350.426032108423
 20
98.01954870866749
  0
LWPOLYLINE
  5
E6
330
1F
100
AcDbEntity
  8
0
  6
Continuous
 62
     3
100
AcDbPolyline
 90
        2
 70
     0
 43
0.0
 10
1350.426032108423
 20
98.01954870866749
 10
1352.076032099473
 20
98.01954870866749
  0
LWPOLYLINE
  5
E7
330
1F
100
AcDbEntity
  8
0
  6
Continuous
 62
     3
100
AcDbPolyline
 90
        2
 70
     0
 43
0.0
 10
1352.076032099473
 20
98.01954870866749
 10
1352.076032099473
 20
100.0195490365175
  0
LWPOLYLINE
  5
E8
330
1F
100
AcDbEntity
  8
0
  6
Continuous
 62
     3
100
AcDbPolyline
 90
        2
 70
     0
 43
0.0
 10
1352.076032099473
 20
100.0195490365175
 10
1354.076032427323
 20
100.0195490365175
  0
LWPOLYLINE
  5
E9
330
1F
100
AcDbEntity
  8
0
  6
Continuous
 62
     3
100
AcDbPolyline
 90
        2
 70
     0
 43
0.0
 10
1354.076032427323
 20
100.0195490365175
 10
1354.076032427323
 20
98.01954870866749
  0
LWPOLYLINE
  5
EA
330
1F
100
AcDbEntity
  8
0
  6
Continuous
 62
     3
100
AcDbPolyline
 90
        2
 70
     0
 43
0.0
 10
1367.726032522673
 20
98.01954870866749
 10
1354.076032427323
 20
98.01954870866749
  0
LWPOLYLINE
  5
EB
330
1F
100
AcDbEntity
  8
0
  6
Continuous
 62
     3
100
AcDbPolyline
 90
        2
 70
     0
 43
0.0
 10
1367.726032522673
 20
100.0195490365175
 10
1367.726032522673
 20
98.01954870866749
  0
LWPOLYLINE
  5
EC
330
1F
100
AcDbEntity
  8
0
  6
Continuous
 62
     3
100
AcDbPolyline
 90
        2
 70
     0
 43
0.0
 10
1369.726032850473
 20
100.0195490365175
 10
1367.726032522673
 20
100.0195490365175
  0
LWPOLYLINE
  5
ED
330
1F
100
AcDbEntity
  8
0
  6
Continuous
 62
     3
100
AcDbPolyline
 90
        2
 70
     0
 43
0.0
 10
1369.726032850473
 20
98.01954870866749
 10
1369.726032850473
 20
100.0195490365175
  0
LWPOLYLINE
  5
EE
330
1F
100
AcDbEntity
  8
0
  6
Continuous
 62
     3
100
AcDbPolyline
 90
        2
 70
     0
 43
0.0
 10
1371.376032841573
 20
98.01954870866749
 10
1369.726032850473
 20
98.01954870866749
  0
LWPOLYLINE
  5
EF
330
1F
100
AcDbEntity
  8
0
  6
Continuous
 62
     3
100
AcDbPolyline
 90
        2
 70
     0
 43
0.0
 10
1371.376032841573
 20
105.3195502435173
 10
1371.376032841573
 20
98.01954870866749
  0
LWPOLYLINE
  5
F0
330
1F
100
AcDbEntity
  8
0
  6
Continuous
 62
     3
100
AcDbPolyline
 90
        2
 70
     0
 43
0.0
 10
1369.726032850473
 20
102.1195510571174
 10
1369.726032850473
 20
105.3195502435173
  0
LWPOLYLINE
  5
F1
330
1F
100
AcDbEntity
  8
0
  6
Continuous
 62
     3
100
AcDbPolyline
 90
        2
 70
     0
 43
0.0
 10
1367.726032522673
 20
102.1195510571174
 10
1369.726032850473
 20
102.1195510571174
  0
LINE
  5
F2
330
1F
100
AcDbEntity
  8
1
  6
DASHED
 62
     2
100
AcDbLine
 10
1367.801032474998
 20
95.0195502435173
 30
0.0
 11
1369.401032474998
 21
95.0195502435173
 31
0.0
  0
LINE
  5
F3
330
1F
100
AcDbEntity
  8
1
  6
DASHED
 62
     2
100
AcDbLine
 10
1353.201032474999
 20
95.81955024351728
 30
0.0
 11
1352.401032474998
 21
95.81955024351728
 31
0.0
  0
LINE
  5
F4
330
1F
100
AcDbEntity
  8
1
  6
DASHED
 62
     2
100
AcDbLine
 10
1367.801032474998
 20
95.0195502435173
 30
0.0
 11
1367.801032474998
 21
86.6388956388931
 31
0.0
  0
LINE
  5
F5
330
1F
100
AcDbEntity
  8
1
  6
DASHED
 62
     2
100
AcDbLine
 10
1355.601032474998
 20
95.0195502435173
 30
0.0
 11
1355.601032474998
 21
86.6388956388931
 31
0.0
  0
LINE
  5
F6
330
1F
100
AcDbEntity
  8
1
  6
DASHED
 62
     2
100
AcDbLine
 10
1354.001032474998
 20
95.0195502435173
 30
0.0
 11
1354.001032474998
 21
86.6388956388931
 31
0.0
  0
LINE
  5
F7
330
1F
100
AcDbEntity
  8
1
  6
DASHED
 62
     2
100
AcDbLine
 10
1368.601032474998
 20
95.81955024351728
 30
0.0
 11
1368.601032474998
 21
98.0195487415173
 31
0.0
  0
LINE
  5
F8
330
1F
100
AcDbEntity
  8
1
  6
DASHED
 62
     2
100
AcDbLine
 10
1353.201032474999
 20
95.81955024351728
 30
0.0
 11
1353.201032474999
 21
98.0195487415173
 31
0.0
  0
LINE
  5
F9
330
1F
100
AcDbEntity
  8
1
  6
DASHED
 62
     2
100
AcDbLine
 10
1369.401032474998
 20
95.81955024351728
 30
0.0
 11
1368.601032474998
 21
95.81955024351728
 31
0.0
  0
LINE
  5
FA
330
1F
100
AcDbEntity
  8
1
  6
DASHED
 62
     2
100
AcDbLine
 10
1369.401032474998
 20
95.0195502435173
 30
0.0
 11
1369.401032474998
 21
95.81955024351728
 31
0.0
  0
LINE
  5
FB
330
1F
100
AcDbEntity
  8
1
  6
DASHED
 62
     2
100
AcDbLine
 10
1352.401032474998
 20
95.0195502435173
 30
0.0
 11
1354.001032474998
 21
95.0195502435173
 31
0.0
  0
LINE
  5
FC
330
1F
100
AcDbEntity
  8
1
  6
DASHED
 62
     2
100
AcDbLine
 10
1352.401032474998
 20
95.81955024351728
 30
0.0
 11
1352.401032474998
 21
95.0195502435173
 31
0.0
  0
LINE
  5
FD
330
1F
100
AcDbEntity
  8
1
  6
Continuous
 62
     3
100
AcDbLine
 10
1525.345282522037
 20
161.3195502435173
 30
0.0
 11
1525.345282522037
 21
105.2195498560691
 31
0.0
  0
LWPOLYLINE
  5
FE
330
1F
100
AcDbEntity
  8
0
  6
Continuous
 62
     3
100
AcDbPolyline
 90
        2
 70
     0
 43
0.0
 10
1523.545282509037
 20
105.2195498560691
 10
1525.345282522037
 20
105.2195498560691
  0
LWPOLYLINE
  5
FF
330
1F
100
AcDbEntity
  8
0
  6
Continuous
 62
     3
100
AcDbPolyline
 90
        2
 70
     0
 43
0.0
 10
1523.545282509037
 20
103.7195502017691
 10
1523.545282509037
 20
105.2195498560691
  0
LWPOLYLINE
  5
100
330
1F
100
AcDbEntity
  8
0
  6
Continuous
 62
     3
100
AcDbPolyline
 90
        2
 70
     0
 43
0.0
 10
1523.545282509037
 20
103.7195502017691
 10
1523.545282509037
 20
98.0195487086691
  0
LWPOLYLINE
  5
101
330
1F
100
AcDbEntity
  8
0
  6
Continuous
 62
     3
100
AcDbPolyline
 90
        2
 70
     0
 43
0.0
 10
1530.845282522037
 20
98.01955024351878
 10
1525.345282522037
 20
98.01955024351878
  0
LWPOLYLINE
  5
102
330
1F
100
AcDbEntity
  8
0
  6
Continuous
 62
     3
100
AcDbPolyline
 90
        2
 70
     0
 43
0.0
 10
1534.345282522037
 20
98.01955024351878
 10
1530.845282522037
 20
98.01955024351878
  0
LINE
  5
103
330
1F
100
AcDbEntity
  8
0
  6
Continuous
 62
     3
100
AcDbLine
 10
1525.370282577188
 20
98.0195500890884
 30
0.0
 11
1524.545282577187
 21
98.0195500890884
 31
0.0
  0
LINE
  5
104
330
1F
100
AcDbEntity
  8
0
  6
Continuous
 62
     3
100
AcDbLine
 10
1529.470282577187
 20
98.0195500890884
 30
0.0
 11
1526.370282577188
 21
98.0195500890884
 31
0.0
  0
LWPOLYLINE
  5
105
330
1F
100
AcDbEntity
  8
0
  6
Continuous
 62
     3
100
AcDbPolyline
 90
        2
 70
     0
 43
0.0
 10
1523.545282509037
 20
98.0195487086691
 10
1524.195282559488
 20
98.0195487086691
  0
LWPOLYLINE
  5
106
330
1F
100
AcDbEntity
  8
0
  6
Continuous
 62
     3
100
AcDbPolyline
 90
        2
 70
     0
 43
0.0
 10
1524.195282559488
 20
98.0195487086691
 10
1524.445282542287
 20
98.0195487086691
  0
LWPOLYLINE
  5
107
330
1F
100
AcDbEntity
  8
0
  6
Continuous
 62
     3
100
AcDbPolyline
 90
        2
 70
     0
 43
0.0
 10
1530.695282577187
 20
98.0195487086691
 10
1526.420282515837
 20
98.0195487086691
  0
LWPOLYLINE
  5
108
330
1F
100
AcDbEntity
  8
0
  6
Continuous
 62
     3
100
AcDbPolyline
 90
        2
 70
     0
 43
0.0
 10
1525.845282656188
 20
98.0195487086691
 10
1524.445282542287
 20
98.0195487086691
  0
LINE
  5
109
330
1F
100
AcDbEntity
  8
1
  6
Continuous
 62
     3
100
AcDbLine
 10
1336.901032474998
 20
161.3195502435173
 30
0.0
 11
1384.901032474998
 21
161.3195502435173
 31
0.0
  0
LINE
  5
10A
330
1F
100
AcDbEntity
  8
1
  6
Continuous
 62
     3
100
AcDbLine
 10
1388.901032474998
 20
157.3195502435173
 30
0.0
 11
1388.901032474998
 21
153.7195502435174
 31
0.0
  0
LINE
  5
10B
330
1F
100
AcDbEntity
  8
1
  6
Continuous
 62
     3
100
AcDbLine
 10
1384.901032474998
 20
105.3195502435173
 30
0.0
 11
1336.901032474998
 21
105.3195502435173
 31
0.0
  0
LINE
  5
10C
330
1F
100
AcDbEntity
  8
1
  6
Continuous
 62
     3
100
AcDbLine
 10
1332.901032474998
 20
109.3195502435173
 30
0.0
 11
1332.901032474998
 21
157.3195502435173
 31
0.0
  0
LINE
  5
10D
330
1F
100
AcDbEntity
  8
1
  6
Continuous
 62
     1
100
AcDbLine
 10
1384.471032474998
 20
151.3895502435175
 30
0.0
 11
1384.471032474998
 21
162.3895502435175
 31
0.0
  0
LINE
  5
10E
330
1F
100
AcDbEntity
  8
1
  6
Continuous
 62
     1
100
AcDbLine
 10
1389.971032474998
 20
156.8895502435175
 30
0.0
 11
1378.971032474998
 21
156.8895502435175
 31
0.0
  0
LINE
  5
10F
330
1F
100
AcDbEntity
  8
1
  6
Continuous
 62
     1
100
AcDbLine
 10
1337.331032474998
 20
162.3895502435175
 30
0.0
 11
1337.331032474998
 21
151.3895502435175
 31
0.0
  0
LINE
  5
110
330
1F
100
AcDbEntity
  8
1
  6
Continuous
 62
     1
100
AcDbLine
 10
1342.831032474998
 20
156.8895502435175
 30
0.0
 11
1331.831032474998
 21
156.8895502435175
 31
0.0
  0
LINE
  5
111
330
1F
100
AcDbEntity
  8
1
  6
Continuous
 62
     1
100
AcDbLine
 10
1384.471032474998
 20
104.2525427317044
 30
0.0
 11
1384.471032474998
 21
115.2495502435171
 31
0.0
  0
LINE
  5
112
330
1F
100
AcDbEntity
  8
1
  6
Continuous
 62
     1
100
AcDbLine
 10
1378.971032474998
 20
109.7495502435169
 30
0.0
 11
1389.971032474998
 21
109.7495502435169
 31
0.0
  0
LINE
  5
113
330
1F
100
AcDbEntity
  8
1
  6
Continuous
 62
     1
100
AcDbLine
 10
1337.331032474998
 20
115.2495502435171
 30
0.0
 11
1337.331032474998
 21
104.2495502435171
 31
0.0
  0
LINE
  5
114
330
1F
100
AcDbEntity
  8
1
  6
Continuous
 62
     1
100
AcDbLine
 10
1331.831032474998
 20
109.7495502435169
 30
0.0
 11
1342.831032474998
 21
109.7495502435169
 31
0.0
  0
LINE
  5
115
330
1F
100
AcDbEntity
  8
1
  6
Continuous
 62
     3
100
AcDbLine
 10
1385.701032474998
 20
152.7195502435174
 30
0.0
 11
1387.901032474998
 21
152.7195502435174
 31
0.0
  0
LINE
  5
116
330
1F
100
AcDbEntity
  8
1
  6
Continuous
 62
     3
100
AcDbLine
 10
1385.701032474998
 20
144.7195502435174
 30
0.0
 11
1387.901032474998
 21
144.7195502435174
 31
0.0
  0
LINE
  5
117
330
1F
100
AcDbEntity
  8
1
  6
Continuous
 62
     3
100
AcDbLine
 10
1388.901032474998
 20
143.7195502435174
 30
0.0
 11
1388.901032474998
 21
109.3195502435173
 31
0.0
  0
LINE
  5
118
330
1F
100
AcDbEntity
  8
1
  6
Continuous
 62
     3
100
AcDbLine
 10
1388.901032474998
 20
153.7195502435174
 30
0.0
 11
1388.901032474998
 21
152.7195502435174
 31
0.0
  0
LINE
  5
119
330
1F
100
AcDbEntity
  8
1
  6
Continuous
 62
     3
100
AcDbLine
 10
1388.901032474998
 20
152.7195502435174
 30
0.0
 11
1388.901032474998
 21
144.7195502435174
 31
0.0
  0
LINE
  5
11A
330
1F
100
AcDbEntity
  8
1
  6
Continuous
 62
     3
100
AcDbLine
 10
1388.901032474998
 20
144.7195502435174
 30
0.0
 11
1388.901032474998
 21
143.7195502435174
 31
0.0
  0
LINE
  5
11B
330
1F
100
AcDbEntity
  8
1
  6
Continuous
 62
     3
100
AcDbLine
 10
1333.901032474998
 20
152.7195502435174
 30
0.0
 11
1336.101032474998
 21
152.7195502435174
 31
0.0
  0
LINE
  5
11C
330
1F
100
AcDbEntity
  8
1
  6
Continuous
 62
     3
100
AcDbLine
 10
1333.901032474998
 20
144.7195502435174
 30
0.0
 11
1336.101032474998
 21
144.7195502435174
 31
0.0
  0
LINE
  5
11D
330
1F
100
AcDbEntity
  8
1
  6
Continuous
 62
     3
100
AcDbLine
 10
1332.901032474998
 20
152.7195502435174
 30
0.0
 11
1332.901032474998
 21
153.7195502435174
 31
0.0
  0
LINE
  5
11E
330
1F
100
AcDbEntity
  8
1
  6
Continuous
 62
     3
100
AcDbLine
 10
1332.901032474998
 20
144.7195502435174
 30
0.0
 11
1332.901032474998
 21
152.7195502435174
 31
0.0
  0
LINE
  5
11F
330
1F
100
AcDbEntity
  8
1
  6
Continuous
 62
     3
100
AcDbLine
 10
1332.901032474998
 20
143.7195502435174
 30
0.0
 11
1332.901032474998
 21
144.7195502435174
 31
0.0
  0
LINE
  5
120
330
1F
100
AcDbEntity
  8
1
  6
Continuous
 62
     3
100
AcDbLine
 10
1387.901032474998
 20
113.919550243517
 30
0.0
 11
1385.701032474998
 21
113.919550243517
 31
0.0
  0
LINE
  5
121
330
1F
100
AcDbEntity
  8
1
  6
Continuous
 62
     3
100
AcDbLine
 10
1387.901032474998
 20
121.919550243517
 30
0.0
 11
1385.701032474998
 21
121.919550243517
 31
0.0
  0
LINE
  5
122
330
1F
100
AcDbEntity
  8
1
  6
Continuous
 62
     3
100
AcDbLine
 10
1388.901032474998
 20
113.919550243517
 30
0.0
 11
1388.901032474998
 21
112.919550243517
 31
0.0
  0
LINE
  5
123
330
1F
100
AcDbEntity
  8
1
  6
Continuous
 62
     3
100
AcDbLine
 10
1388.901032474998
 20
121.919550243517
 30
0.0
 11
1388.901032474998
 21
113.919550243517
 31
0.0
  0
LINE
  5
124
330
1F
100
AcDbEntity
  8
1
  6
Continuous
 62
     3
100
AcDbLine
 10
1388.901032474998
 20
122.919550243517
 30
0.0
 11
1388.901032474998
 21
121.919550243517
 31
0.0
  0
LINE
  5
125
330
1F
100
AcDbEntity
  8
1
  6
Continuous
 62
     3
100
AcDbLine
 10
1336.101032474998
 20
113.919550243517
 30
0.0
 11
1333.901032474998
 21
113.919550243517
 31
0.0
  0
LINE
  5
126
330
1F
100
AcDbEntity
  8
1
  6
Continuous
 62
     3
100
AcDbLine
 10
1336.101032474998
 20
121.919550243517
 30
0.0
 11
1333.901032474998
 21
121.919550243517
 31
0.0
  0
LINE
  5
127
330
1F
100
AcDbEntity
  8
1
  6
Continuous
 62
     3
100
AcDbLine
 10
1332.901032474998
 20
112.919550243517
 30
0.0
 11
1332.901032474998
 21
113.919550243517
 31
0.0
  0
LINE
  5
128
330
1F
100
AcDbEntity
  8
1
  6
Continuous
 62
     3
100
AcDbLine
 10
1332.901032474998
 20
113.919550243517
 30
0.0
 11
1332.901032474998
 21
121.919550243517
 31
0.0
  0
LINE
  5
129
330
1F
100
AcDbEntity
  8
1
  6
Continuous
 62
     3
100
AcDbLine
 10
1332.901032474998
 20
121.919550243517
 30
0.0
 11
1332.901032474998
 21
122.919550243517
 31
0.0
  0
LINE
  5
12A
330
1F
100
AcDbEntity
  8
1
  6
Continuous
 62
     1
100
AcDbLine
 10
1360.901032474998
 20
164.3195502435173
 30
0.0
 11
1360.901032474998
 21
96.81955024351709
 31
0.0
  0
LINE
  5
12B
330
1F
100
AcDbEntity
  8
1
  6
Continuous
 62
     1
100
AcDbLine
 10
1329.901032474998
 20
133.3195502435173
 30
0.0
 11
1391.901032474998
 21
133.3195502435173
 31
0.0
  0
LINE
  5
12C
330
1F
100
AcDbEntity
  8
1
  6
Continuous
 62
     3
100
AcDbLine
 10
1463.245282522037
 20
136.494550243519
 30
0.0
 11
1462.745282522037
 21
135.9945502435172
 31
0.0
  0
LINE
  5
12D
330
1F
100
AcDbEntity
  8
1
  6
Continuous
 62
     3
100
AcDbLine
 10
1525.345282522037
 20
114.7495502435172
 30
0.0
 11
1535.345282522037
 21
114.7495502435172
 31
0.0
  0
LINE
  5
12E
330
1F
100
AcDbEntity
  8
1
  6
Continuous
 62
     3
100
AcDbLine
 10
1525.345282522037
 20
151.8895502435173
 30
0.0
 11
1535.345282522037
 21
151.8895502435173
 31
0.0
  0
LINE
  5
12F
330
1F
100
AcDbEntity
  8
1
  6
Continuous
 62
     3
100
AcDbLine
 10
1488.345282522037
 20
114.7495502435172
 30
0.0
 11
1525.345282522037
 21
114.7495502435172
 31
0.0
  0
LINE
  5
130
330
1F
100
AcDbEntity
  8
1
  6
Continuous
 62
     3
100
AcDbLine
 10
1488.345282522037
 20
105.3195502435173
 30
0.0
 11
1488.345282522037
 21
114.7495502435172
 31
0.0
  0
LINE
  5
131
330
1F
100
AcDbEntity
  8
1
  6
Continuous
 62
     3
100
AcDbLine
 10
1488.345282522037
 20
151.8895502435173
 30
0.0
 11
1525.345282522037
 21
151.8895502435173
 31
0.0
  0
LINE
  5
132
330
1F
100
AcDbEntity
  8
1
  6
Continuous
 62
     3
100
AcDbLine
 10
1488.345282522037
 20
161.3195502435173
 30
0.0
 11
1488.345282522037
 21
151.8895502435173
 31
0.0
  0
LINE
  5
133
330
1F
100
AcDbEntity
  8
1
  6
Continuous
 62
     3
100
AcDbLine
 10
1493.345282522037
 20
161.3195502435173
 30
0.0
 11
1493.345282522037
 21
105.3195502435173
 31
0.0
  0
LINE
  5
134
330
1F
100
AcDbEntity
  8
1
  6
Continuous
 62
     2
100
AcDbLine
 10
1525.209414812503
 20
162.3195502435173
 30
0.0
 11
1534.433096103331
 21
162.3195502435173
 31
0.0
  0
LINE
  5
135
330
1F
100
AcDbEntity
  8
1
  6
Continuous
 62
     3
100
AcDbLine
 10
1462.745282522037
 20
130.6445502435173
 30
0.0
 11
1462.745282522037
 21
135.9945502435172
 31
0.0
  0
LINE
  5
136
330
1F
100
AcDbEntity
  8
1
  6
Continuous
 62
     3
100
AcDbLine
 10
1463.245282522037
 20
130.1445502435173
 30
0.0
 11
1462.745282522037
 21
130.6445502435173
 31
0.0
  0
LINE
  5
137
330
1F
100
AcDbEntity
  8
1
  6
Continuous
 62
     2
100
AcDbLine
 10
1517.345282522037
 20
112.3741137608871
 30
0.0
 11
1517.345282522037
 21
105.3225112753172
 31
0.0
  0
LINE
  5
138
330
1F
100
AcDbEntity
  8
1
  6
Continuous
 62
     2
100
AcDbLine
 10
1518.345282522037
 20
112.3741137608871
 30
0.0
 11
1518.345282522037
 21
105.3195502435173
 31
0.0
  0
LINE
  5
139
330
1F
100
AcDbEntity
  8
1
  6
Continuous
 62
     2
100
AcDbLine
 10
1519.345282522037
 20
112.3741137608871
 30
0.0
 11
1519.345282522037
 21
105.3876132460423
 31
0.0
  0
LINE
  5
13A
330
1F
100
AcDbEntity
  8
1
  6
Continuous
 62
     2
100
AcDbLine
 10
1520.345282522037
 20
112.3741137608871
 30
0.0
 11
1520.345282522037
 21
105.3270262306396
 31
0.0
  0
LINE
  5
13B
330
1F
100
AcDbEntity
  8
1
  6
Continuous
 62
     2
100
AcDbLine
 10
1521.345282522037
 20
112.3741137608871
 30
0.0
 11
1521.345282522037
 21
105.3215709027872
 31
0.0
  0
LINE
  5
13C
330
1F
100
AcDbEntity
  8
1
  6
Continuous
 62
     2
100
AcDbLine
 10
1498.345282522037
 20
154.2649867261472
 30
0.0
 11
1498.345282522037
 21
151.404760119714
 31
0.0
  0
LINE
  5
13D
330
1F
100
AcDbEntity
  8
1
  6
Continuous
 62
     2
100
AcDbLine
 10
1499.345282522037
 20
154.2649867261472
 30
0.0
 11
1499.345282522037
 21
149.7011331335155
 31
0.0
  0
LINE
  5
13E
330
1F
100
AcDbEntity
  8
1
  6
Continuous
 62
     2
100
AcDbLine
 10
1500.345282522037
 20
154.2649867261472
 30
0.0
 11
1500.345282522037
 21
147.997506147317
 31
0.0
  0
LINE
  5
13F
330
1F
100
AcDbEntity
  8
1
  6
Continuous
 62
     2
100
AcDbLine
 10
1501.345282522037
 20
154.2649867261472
 30
0.0
 11
1501.345282522037
 21
146.2938791611186
 31
0.0
  0
LINE
  5
140
330
1F
100
AcDbEntity
  8
1
  6
Continuous
 62
     2
100
AcDbLine
 10
1502.345282522037
 20
154.2649867261472
 30
0.0
 11
1502.345282522037
 21
144.5902521749202
 31
0.0
  0
LINE
  5
141
330
1F
100
AcDbEntity
  8
1
  6
Continuous
 62
     2
100
AcDbLine
 10
1524.345282522037
 20
110.1056932179253
 30
0.0
 11
1524.345282522038
 21
105.3195502435173
 31
0.0
  0
LINE
  5
142
330
1F
100
AcDbEntity
  8
1
  6
Continuous
 62
     2
100
AcDbLine
 10
1522.345282522037
 20
105.3195502435173
 30
0.0
 11
1522.345282522037
 21
112.3741137608871
 31
0.0
  0
LINE
  5
143
330
1F
100
AcDbEntity
  8
1
  6
Continuous
 62
     2
100
AcDbLine
 10
1523.345282522037
 20
112.0211819824758
 30
0.0
 11
1523.345282522037
 21
105.3195502435173
 31
0.0
  0
LINE
  5
144
330
1F
100
AcDbEntity
  8
1
  6
Continuous
 62
     2
100
AcDbLine
 10
1521.345282522037
 20
115.2363610265905
 30
0.0
 11
1521.345282522037
 21
112.3741137608871
 31
0.0
  0
LINE
  5
145
330
1F
100
AcDbEntity
  8
1
  6
Continuous
 62
     2
100
AcDbLine
 10
1520.345282522037
 20
116.9454433406415
 30
0.0
 11
1520.345282522037
 21
112.3741137608871
 31
0.0
  0
LINE
  5
146
330
1F
100
AcDbEntity
  8
1
  6
Continuous
 62
     2
100
AcDbLine
 10
1519.345282522037
 20
118.7096573422425
 30
0.0
 11
1519.345282522037
 21
112.3741137608871
 31
0.0
  0
LINE
  5
147
330
1F
100
AcDbEntity
  8
1
  6
Continuous
 62
     2
100
AcDbLine
 10
1518.345282522037
 20
120.3452213259161
 30
0.0
 11
1518.345282522037
 21
112.3741137608871
 31
0.0
  0
LINE
  5
148
330
1F
100
AcDbEntity
  8
1
  6
Continuous
 62
     2
100
AcDbLine
 10
1517.345282522037
 20
122.0518093439145
 30
0.0
 11
1517.345282522037
 21
112.3741137608871
 31
0.0
  0
LINE
  5
149
330
1F
100
AcDbEntity
  8
1
  6
Continuous
 62
     2
100
AcDbLine
 10
1502.345282522037
 20
161.3195502435173
 30
0.0
 11
1502.345282522037
 21
154.2649867261472
 31
0.0
  0
LINE
  5
14A
330
1F
100
AcDbEntity
  8
1
  6
Continuous
 62
     2
100
AcDbLine
 10
1501.345282522037
 20
161.3195502435173
 30
0.0
 11
1501.345282522037
 21
154.2649867261472
 31
0.0
  0
LINE
  5
14B
330
1F
100
AcDbEntity
  8
1
  6
Continuous
 62
     2
100
AcDbLine
 10
1500.345282522037
 20
161.3195502435173
 30
0.0
 11
1500.345282522037
 21
154.2649867261472
 31
0.0
  0
LINE
  5
14C
330
1F
100
AcDbEntity
  8
1
  6
Continuous
 62
     2
100
AcDbLine
 10
1499.345282522037
 20
161.3195502435173
 30
0.0
 11
1499.345282522037
 21
154.2649867261472
 31
0.0
  0
LINE
  5
14D
330
1F
100
AcDbEntity
  8
1
  6
Continuous
 62
     2
100
AcDbLine
 10
1498.345282522037
 20
161.3195502435173
 30
0.0
 11
1498.345282522037
 21
154.2649867261472
 31
0.0
  0
LINE
  5
14E
330
1F
100
AcDbEntity
  8
1
  6
Continuous
 62
     2
100
AcDbLine
 10
1497.345282522037
 20
161.3195502435173
 30
0.0
 11
1497.340666630097
 21
154.2649867261472
 31
0.0
  0
LINE
  5
14F
330
1F
100
AcDbEntity
  8
1
  6
Continuous
 62
     2
100
AcDbLine
 10
1496.345282522037
 20
161.3195502435173
 30
0.0
 11
1496.345282522037
 21
154.8120140921109
 31
0.0
  0
LINE
  5
150
330
1F
100
AcDbEntity
  8
1
  6
Continuous
 62
     2
100
AcDbLine
 10
1495.345282522037
 20
161.3195502435173
 30
0.0
 11
1495.345282522037
 21
156.5156410783094
 31
0.0
  0
LINE
  5
151
330
1F
100
AcDbEntity
  8
1
  6
Continuous
 62
     3
100
AcDbLine
 10
1496.645282522037
 20
105.3195502435173
 30
0.0
 11
1525.345282522037
 21
105.3195502435173
 31
0.0
  0
LINE
  5
152
330
1F
100
AcDbEntity
  8
1
  6
Continuous
 62
     3
100
AcDbLine
 10
1523.045282522037
 20
161.3195502435173
 30
0.0
 11
1534.345282522037
 21
161.3195502435171
 31
0.0
  0
LINE
  5
153
330
1F
100
AcDbEntity
  8
1
  6
Continuous
 62
     3
100
AcDbLine
 10
1535.345282522037
 20
160.3195502435171
 30
0.0
 11
1535.345282522037
 21
99.01955024351878
 31
0.0
  0
LINE
  5
154
330
1F
100
AcDbEntity
  8
1
  6
Continuous
 62
     3
100
AcDbLine
 10
1496.645282522037
 20
161.3195502435173
 30
0.0
 11
1523.045282522037
 21
161.3195502435173
 31
0.0
  0
LINE
  5
155
330
1F
100
AcDbEntity
  8
1
  6
Continuous
 62
     3
100
AcDbLine
 10
1496.645282522037
 20
161.3195502435173
 30
0.0
 11
1483.345282522037
 21
161.3195502435173
 31
0.0
  0
LINE
  5
156
330
1F
100
AcDbEntity
  8
1
  6
Continuous
 62
     3
100
AcDbLine
 10
1483.345282522037
 20
105.3195502435173
 30
0.0
 11
1496.645282522037
 21
105.3195502435173
 31
0.0
  0
LINE
  5
157
330
1F
100
AcDbEntity
  8
1
  6
Continuous
 62
     3
100
AcDbLine
 10
1483.345282522037
 20
161.3195502435173
 30
0.0
 11
1483.345282522037
 21
105.3195502435173
 31
0.0
  0
LINE
  5
158
330
1F
100
AcDbEntity
  8
1
  6
Continuous
 62
     1
100
AcDbLine
 10
1460.946621616312
 20
133.3195502435173
 30
0.0
 11
1539.345282522037
 21
133.3195502435173
 31
0.0
  0
LINE
  5
159
330
1F
100
AcDbEntity
  8
1
  6
Continuous
 62
     3
100
AcDbLine
 10
1481.745282522037
 20
114.2695502435173
 30
0.0
 11
1483.345282522037
 21
114.2695502435173
 31
0.0
  0
LINE
  5
15A
330
1F
100
AcDbEntity
  8
1
  6
Continuous
 62
     3
100
AcDbLine
 10
1481.745282522037
 20
152.3695502435174
 30
0.0
 11
1481.745282522037
 21
114.2695502435173
 31
0.0
  0
LINE
  5
15B
330
1F
100
AcDbEntity
  8
1
  6
Continuous
 62
     3
100
AcDbLine
 10
1483.345282522037
 20
152.3695502435174
 30
0.0
 11
1481.745282522037
 21
152.3695502435174
 31
0.0
  0
LINE
  5
15C
330
1F
100
AcDbEntity
  8
1
  6
Continuous
 62
     3
100
AcDbLine
 10
1481.745282522037
 20
136.4945502435172
 30
0.0
 11
1463.245282522037
 21
136.494550243519
 31
0.0
  0
LINE
  5
15D
330
1F
100
AcDbEntity
  8
1
  6
Continuous
 62
     3
100
AcDbLine
 10
1481.745282522037
 20
130.1445502435173
 30
0.0
 11
1463.245282522037
 21
130.1445502435173
 31
0.0
  0
LINE
  5
15E
330
1F
100
AcDbEntity
  8
1
  6
Continuous
 62
     3
100
AcDbLine
 10
1463.245282522037
 20
130.1445502435173
 30
0.0
 11
1463.245282522037
 21
136.494550243519
 31
0.0
  0
LWPOLYLINE
  5
15F
330
1F
100
AcDbEntity
  8
0
  6
Continuous
 62
     3
100
AcDbPolyline
 90
        2
 70
     0
 43
0.0
 10
1371.901032474973
 20
98.0195502435173
 42
0.05038204448488
 10
1372.101032474973
 20
98.03975434640378
 42
0.05038204448488
  0
LWPOLYLINE
  5
160
330
1F
100
AcDbEntity
  8
0
  6
Continuous
 62
     3
100
AcDbPolyline
 90
        2
 70
     0
 43
0.0
 10
1348.901032474973
 20
99.0195502435173
 42
0.35639395869292
 10
1349.701032474974
 20
98.03975434640378
 42
0.35639395869292
  0
LWPOLYLINE
  5
161
330
1F
100
AcDbEntity
  8
0
  6
Continuous
 62
     3
100
AcDbPolyline
 90
        2
 70
     0
 43
0.0
 10
1348.901032474973
 20
104.3195502435173
 42
0.4142135623731
 10
1347.901032474973
 20
105.3195502435173
 42
0.4142135623731
  0
LWPOLYLINE
  5
162
330
1F
100
AcDbEntity
  8
0
  6
Continuous
 62
     3
100
AcDbPolyline
 90
        2
 70
     0
 43
0.0
 10
1373.901032474973
 20
105.3195502435173
 42
0.4142135623731
 10
1372.901032474973
 20
104.3195502435173
 42
0.4142135623731
  0
LWPOLYLINE
  5
163
330
1F
100
AcDbEntity
  8
0
  6
Continuous
 62
     3
100
AcDbPolyline
 90
        2
 70
     0
 43
0.0
 10
1372.101032474973
 20
98.03975434640378
 42
0.3563939586926
 10
1372.901032474973
 20
99.0195502435173
 42
0.3563939586926
  0
LWPOLYLINE
  5
164
330
1F
100
AcDbEntity
  8
0
  6
Continuous
 62
     3
100
AcDbPolyline
 90
        2
 70
     0
 43
0.0
 10
1349.701032474974
 20
98.03975434640378
 42
0.0503820444846
 10
1349.901032474973
 20
98.0195502435173
 42
0.0503820444846
  0
LWPOLYLINE
  5
165
330
1F
100
AcDbEntity
  8
0
  6
Continuous
 62
     3
100
AcDbPolyline
 90
        2
 70
     0
 43
0.0
 10
1534.345282522037
 20
98.01955024351878
 42
0.4142135623731
 10
1535.345282522037
 20
99.01955024351878
 42
0.4142135623731
  0
ARC
  5
166
330
1F
100
AcDbEntity
  8
1
  6
Continuous
 62
     3
100
AcDbCircle
 10
1385.701032474998
 20
148.7195502435174
 30
0.0
 40
4.0
100
AcDbArc
 50
90.0
 51
270.0
  0
ARC
  5
167
330
1F
100
AcDbEntity
  8
1
  6
Continuous
 62
     3
100
AcDbCircle
 10
1336.101032474998
 20
148.7195502435174
 30
0.0
 40
4.0
100
AcDbArc
 50
270.0
 51
90.0
  0
ARC
  5
168
330
1F
100
AcDbEntity
  8
1
  6
Continuous
 62
     3
100
AcDbCircle
 10
1385.701032474998
 20
117.919550243517
 30
0.0
 40
4.0
100
AcDbArc
 50
90.0
 51
270.0
  0
ARC
  5
169
330
1F
100
AcDbEntity
  8
1
  6
Continuous
 62
     3
100
AcDbCircle
 10
1336.101032474998
 20
117.919550243517
 30
0.0
 40
4.0
100
AcDbArc
 50
270.0
 51
90.0
  0
ARC
  5
16A
330
1F
100
AcDbEntity
  8
1
  6
Continuous
 62
     3
100
AcDbCircle
 10
1385.701032474998
 20
117.919550243517
 30
0.0
 40
4.0
100
AcDbArc
 50
90.0
 51
270.0
  0
ARC
  5
16B
330
1F
100
AcDbEntity
  8
1
  6
Continuous
 62
     3
100
AcDbCircle
 10
1385.701032474998
 20
148.7195502435174
 30
0.0
 40
4.0
100
AcDbArc
 50
90.0
 51
270.0
  0
CIRCLE
  5
16C
330
1F
100
AcDbEntity
  8
1
  6
Continuous
 62
     3
100
AcDbCircle
 10
1337.331032474998
 20
156.8895502435175
 30
0.0
 40
2.25
  0
CIRCLE
  5
16D
330
1F
100
AcDbEntity
  8
1
  6
Continuous
 62
     3
100
AcDbCircle
 10
1337.331032474998
 20
109.7495502435171
 30
0.0
 40
2.25
  0
CIRCLE
  5
16E
330
1F
100
AcDbEntity
  8
1
  6
Continuous
 62
     3
100
AcDbCircle
 10
1384.471032474998
 20
109.7495502435171
 30
0.0
 40
2.25
  0
CIRCLE
  5
16F
330
1F
100
AcDbEntity
  8
1
  6
Continuous
 62
     3
100
AcDbCircle
 10
1384.471032474998
 20
156.8895502435175
 30
0.0
 40
2.25
  0
CIRCLE
  5
170
330
1F
100
AcDbEntity
  8
1
  6
Continuous
 62
     3
100
AcDbCircle
 10
1360.901032474998
 20
133.3195502435173
 30
0.0
 40
14.5
  0
CIRCLE
  5
171
330
1F
100
AcDbEntity
  8
1
  6
Continuous
 62
     3
100
AcDbCircle
 10
1360.901032474998
 20
133.3195502435173
 30
0.0
 40
17.5
  0
CIRCLE
  5
172
330
1F
100
AcDbEntity
  8
1
  6
Continuous
 62
     3
100
AcDbCircle
 10
1360.901032474998
 20
133.3195502435173
 30
0.0
 40
19.05000000000018
  0
CIRCLE
  5
173
330
1F
100
AcDbEntity
  8
1
  6
Continuous
 62
     3
100
AcDbCircle
 10
1385.701032474998
 20
148.7195502435174
 30
0.0
 40
3.0
  0
CIRCLE
  5
174
330
1F
100
AcDbEntity
  8
1
  6
Continuous
 62
     3
100
AcDbCircle
 10
1336.101032474998
 20
148.7195502435174
 30
0.0
 40
3.0
  0
CIRCLE
  5
175
330
1F
100
AcDbEntity
  8
1
  6
Continuous
 62
     3
100
AcDbCircle
 10
1385.701032474998
 20
117.919550243517
 30
0.0
 40
3.0
  0
CIRCLE
  5
176
330
1F
100
AcDbEntity
  8
1
  6
Continuous
 62
     3
100
AcDbCircle
 10
1336.101032474998
 20
117.919550243517
 30
0.0
 40
3.0
  0
CIRCLE
  5
177
330
1F
100
AcDbEntity
  8
1
  6
Continuous
 62
     3
100
AcDbCircle
 10
1360.901032474998
 20
133.3195502435173
 30
0.0
 40
4.75
  0
CIRCLE
  5
178
330
1F
100
AcDbEntity
  8
1
  6
Continuous
 62
     3
100
AcDbCircle
 10
1360.901032474998
 20
133.3195502435173
 30
0.0
 40
3.174999999999955
  0
ARC
  5
179
330
1F
100
AcDbEntity
  8
1
  6
Continuous
 62
     3
100
AcDbCircle
 10
1384.901032474998
 20
157.3195502435173
 30
0.0
 40
4.0
100
AcDbArc
 50
0.0
 51
90.0
  0
ARC
  5
17A
330
1F
100
AcDbEntity
  8
1
  6
Continuous
 62
     3
100
AcDbCircle
 10
1336.901032474998
 20
157.3195502435173
 30
0.0
 40
4.0
100
AcDbArc
 50
90.0
 51
180.0
  0
ARC
  5
17B
330
1F
100
AcDbEntity
  8
1
  6
Continuous
 62
     3
100
AcDbCircle
 10
1336.901032474998
 20
109.3195502435173
 30
0.0
 40
4.0
100
AcDbArc
 50
180.0
 51
270.0
  0
ARC
  5
17C
330
1F
100
AcDbEntity
  8
1
  6
Continuous
 62
     3
100
AcDbCircle
 10
1384.901032474998
 20
109.3195502435173
 30
0.0
 40
4.0
100
AcDbArc
 50
270.0
 51
0.0
  0
ARC
  5
17D
330
1F
100
AcDbEntity
  8
1
  6
Continuous
 62
     3
100
AcDbCircle
 10
1387.901032474998
 20
153.7195502435174
 30
0.0
 40
1.0
100
AcDbArc
 50
270.0
 51
0.0
  0
ARC
  5
17E
330
1F
100
AcDbEntity
  8
1
  6
Continuous
 62
     3
100
AcDbCircle
 10
1387.901032474998
 20
143.7195502435174
 30
0.0
 40
1.0
100
AcDbArc
 50
0.0
 51
90.0
  0
ARC
  5
17F
330
1F
100
AcDbEntity
  8
1
  6
Continuous
 62
     3
100
AcDbCircle
 10
1333.901032474998
 20
153.7195502435174
 30
0.0
 40
1.0
100
AcDbArc
 50
180.0
 51
270.0
  0
ARC
  5
180
330
1F
100
AcDbEntity
  8
1
  6
Continuous
 62
     3
100
AcDbCircle
 10
1333.901032474998
 20
143.7195502435174
 30
0.0
 40
1.0
100
AcDbArc
 50
90.0
 51
180.0
  0
ARC
  5
181
330
1F
100
AcDbEntity
  8
1
  6
Continuous
 62
     3
100
AcDbCircle
 10
1387.901032474998
 20
112.919550243517
 30
0.0
 40
1.0
100
AcDbArc
 50
0.0
 51
90.0
  0
ARC
  5
182
330
1F
100
AcDbEntity
  8
1
  6
Continuous
 62
     3
100
AcDbCircle
 10
1387.901032474998
 20
122.919550243517
 30
0.0
 40
1.0
100
AcDbArc
 50
270.0
 51
0.0
  0
ARC
  5
183
330
1F
100
AcDbEntity
  8
1
  6
Continuous
 62
     3
100
AcDbCircle
 10
1333.901032474998
 20
112.919550243517
 30
0.0
 40
1.0
100
AcDbArc
 50
90.0
 51
180.0
  0
ARC
  5
184
330
1F
100
AcDbEntity
  8
1
  6
Continuous
 62
     3
100
AcDbCircle
 10
1333.901032474998
 20
122.919550243517
 30
0.0
 40
1.0
100
AcDbArc
 50
180.0
 51
270.0
  0
ARC
  5
185
330
1F
100
AcDbEntity
  8
1
  6
Continuous
 62
     3
100
AcDbCircle
 10
1534.345282522037
 20
160.3195502435173
 30
0.0
 40
1.0
100
AcDbArc
 50
359.9999999999886
 51
90.0
  0
SOLID
  5
186
330
1F
100
AcDbEntity
  8
1
 62
     2
100
AcDbTrace
 10
1366.741435538554
 20
78.51078024169944
 30
0.0
 11
1366.741435538554
 21
79.35335622625877
 31
0.0
 12
1369.941435538554
 22
78.9320682339791
 32
0.0
 13
1369.941435538554
 23
78.9320682339791
 33
0.0
  0
LEADER
  5
187
330
1F
100
AcDbEntity
  8
1
  6
Continuous
 62
     2
100
AcDbLeader
  3
Standard
 71
     0
 76
     2
 10
1369.941435538554
 20
78.9320682339791
 30
0.0
 10
1351.69483782053
 20
78.9320682339791
 30
0.0
  0
SOLID
  5
188
330
1F
100
AcDbEntity
  8
1
 62
     2
100
AcDbTrace
 10
1462.374517861266
 20
127.3277213790991
 30
0.0
 11
1461.569737264252
 21
127.5772458877667
 31
0.0
 12
1462.919790969228
 22
130.5089413982384
 32
0.0
 13
1462.919790969228
 23
130.5089413982384
 33
0.0
  0
LEADER
  5
189
330
1F
100
AcDbEntity
  8
1
  6
Continuous
 62
     2
100
AcDbLeader
  3
Standard
 71
     0
 76
     3
 10
1462.919790969228
 20
130.5089413982384
 30
0.0
 10
1455.129587062934
 20
105.3835339420899
 30
0.0
 10
1444.667465507527
 20
105.3835339420899
 30
0.0
  0
SOLID
  5
18A
330
1F
100
AcDbEntity
  8
1
 62
     2
100
AcDbTrace
 10
1524.980561585535
 20
163.3344996590691
 30
0.0
 11
1525.347649006792
 21
164.0929066177075
 31
0.0
 12
1528.044441683762
 22
162.3195502435173
 32
0.0
 13
1528.044441683762
 23
162.3195502435173
 33
0.0
  0
LEADER
  5
18B
330
1F
100
AcDbEntity
  8
1
  6
Continuous
 62
     2
100
AcDbLeader
  3
Standard
 71
     0
 76
     3
 10
1528.044441683762
 20
162.3195502435173
 30
0.0
 10
1513.36368235188
 20
169.4253949669218
 30
0.0
 10
1496.592471242005
 20
169.4269155659362
 30
0.0
  0
TEXT
  5
18D
330
1F
100
AcDbEntity
  8
1
 62
     2
100
AcDbText
 10
1445.093065164428
 20
106.2269224917599
 30
0.0
 40
3.0
  1
C0.5
 41
0.72
  7
CONVERTER_11
100
AcDbText
  0
TEXT
  5
18F
330
1F
100
AcDbEntity
  8
1
 62
     2
100
AcDbText
 10
1352.13808430895
 20
81.15397286417169
 30
0.0
 40
4.0
  1
123456
 41
0.749
  7
CONVERTER_12
100
AcDbText
  0
MTEXT
  5
191
330
1F
100
AcDbEntity
  8
1
 62
     2
100
AcDbMText
 10
1504.659106781065
 20
175.9450711505971
 30
0.0
 40
3.2
 41
0.0
 71
     5
 72
     1
  1
\U+30cd\U+30fc\U+30e0\U+30d7\U+30ec\U+30fc\U+30c8
  7
CONVERTER_13
 73
     1
 44
1.05042016806723
  0
TEXT
  5
192
330
1F
100
AcDbEntity
  8
1
 62
     2
100
AcDbText
 10
1328.052379046245
 20
81.383667253527
 30
0.0
 40
4.0
  1
PIN No.
 41
0.749
  7
CONVERTER_12
100
AcDbText
  0
TEXT
  5
194
330
1F
100
AcDbEntity
  8
1
 62
     2
100
AcDbText
 10
1497.199215580342
 20
170.3370320734441
 30
0.0
 40
3.0
  1
NAME PLATE
 41
0.535
  7
CONVERTER_14
100
AcDbText
  0
DIMENSION
  5
1A0
330
1F
100
AcDbEntity
  8
1
100
AcDbDimension
  2
*D5
 10
1483.345282522037
 20
185.8384231373851
 30
0.0
 11
1508.932099883489
 21
189.4384231373851
 31
0.0
 70
    32
  1
<>)
 71
     5
 42
-1.0
 53
0.00013888888889
  3
ME10_DIM_10
100
AcDbAlignedDimension
 13
1535.345282522037
 23
160.3195502435171
 33
0.0
 14
1483.345282522037
 24
161.3195502435173
 34
0.0
100
AcDbRotatedDimension
  0
DIMENSION
  5
1AB
330
1F
100
AcDbEntity
  8
1
100
AcDbDimension
  2
*D6
 10
1436.588613013128
 20
152.3695502435174
 30
0.0
 11
1432.33570882439
 21
134.375991457186
 31
0.0
 70
    32
  1
<>
 71
     5
 42
-1.0
 53
90.0
  3
ME10_DIM_11
100
AcDbAlignedDimension
 13
1481.745282522037
 23
114.2695502435173
 33
0.0
 14
1481.745282522037
 24
152.3695502435174
 34
0.0
 50
90.0
100
AcDbRotatedDimension
  0
DIMENSION
  5
1B8
330
1F
100
AcDbEntity
  8
1
100
AcDbDimension
  2
*D7
 10
1481.745282522038
 20
171.3195502435173
 30
0.0
 11
1474.921299583784
 21
174.9195502435173
 31
0.0
 70
    32
  1
<>
 71
     5
 42
-1.0
 53
0.00013888888889
  3
ME10_DIM_12
100
AcDbAlignedDimension
 13
1483.345282522037
 23
161.3195502435173
 33
0.0
 14
1481.745282522037
 24
152.3695502435174
 34
0.0
100
AcDbRotatedDimension
  0
DIMENSION
  5
1C3
330
1F
100
AcDbEntity
  8
1
100
AcDbDimension
  2
*D8
 10
1462.745282522037
 20
185.8384231373851
 30
0.0
 11
1472.792149322721
 21
189.4384231373851
 31
0.0
 70
    32
  1
<>
 71
     5
 42
-1.0
 53
0.00013888888889
  3
ME10_DIM_13
100
AcDbAlignedDimension
 13
1483.345282522037
 23
161.3195502435173
 33
0.0
 14
1462.745282522037
 24
135.9945502435172
 34
0.0
100
AcDbRotatedDimension
  0
DIMENSION
  5
1D0
330
1F
100
AcDbEntity
  8
1
100
AcDbDimension
  2
*D9
 10
1446.113310718756
 20
136.494550243519
 30
0.0
 11
1441.18077455625
 21
166.77972967929
 31
0.0
 70
    32
  1
φ6.35
 71
     5
 42
-1.0
 53
90.0
  3
ME10_DIM_14
100
AcDbAlignedDimension
 13
1463.245282522037
 23
130.1445502435173
 33
0.0
 14
1463.245282522037
 24
136.494550243519
 34
0.0
 50
90.0
100
AcDbRotatedDimension
  0
DIMENSION
  5
1DB
330
1F
100
AcDbEntity
  8
1
100
AcDbDimension
  2
*D10
 10
1332.901032474998
 20
181.3195502435173
 30
0.0
 11
1361.926307858863
 21
184.9195502435173
 31
0.0
 70
    32
  1
<>)
 71
     5
 42
-1.0
 53
0.00013888888889
  3
ME10_DIM_15
100
AcDbAlignedDimension
 13
1388.901032474998
 23
157.3195502435173
 33
0.0
 14
1332.901032474998
 24
157.3195502435173
 34
0.0
100
AcDbRotatedDimension
  0
DIMENSION
  5
1E6
330
1F
100
AcDbEntity
  8
1
100
AcDbDimension
  2
*D11
 10
1337.331032474998
 20
171.3195502435173
 30
0.0
 11
1360.88366126787
 21
175.13930709138
 31
0.0
 70
    32
  1
<>
 71
     5
 42
-1.0
 53
0.00013888888889
  3
ME10_DIM_16
100
AcDbAlignedDimension
 13
1384.471032474998
 23
162.3895502435175
 33
0.0
 14
1337.331032474998
 24
162.3895502435175
 34
0.0
100
AcDbRotatedDimension
  0
DIMENSION
  5
1F1
330
1F
100
AcDbEntity
  8
1
100
AcDbDimension
  2
*D12
 10
1409.901032474999
 20
105.3195502435173
 30
0.0
 11
1406.301032474999
 21
132.8174900044931
 31
0.0
 70
    32
  1
<>)
 71
     5
 42
-1.0
 53
90.0
  3
ME10_DIM_17
100
AcDbAlignedDimension
 13
1384.901032474998
 23
161.3195502435173
 33
0.0
 14
1384.901032474998
 24
105.3195502435173
 34
0.0
 50
90.0
100
AcDbRotatedDimension
  0
DIMENSION
  5
1FC
330
1F
100
AcDbEntity
  8
1
100
AcDbDimension
  2
*D13
 10
1400.861032474998
 20
109.7495502435169
 30
0.0
 11
1397.30715622618
 21
134.375991457186
 31
0.0
 70
    32
  1
<>
 71
     5
 42
-1.0
 53
90.0
  3
ME10_DIM_18
100
AcDbAlignedDimension
 13
1389.971032474998
 23
156.8895502435175
 33
0.0
 14
1389.971032474998
 24
109.7495502435169
 34
0.0
 50
90.0
100
AcDbRotatedDimension
  0
DIMENSION
  5
208
330
1F
100
AcDbEntity
  8
1
100
AcDbDimension
  2
*D14
 10
1409.901032474999
 20
105.3195502435173
 30
0.0
 11
1406.530338882539
 21
87.37205541756438
 31
0.0
 70
    32
  1
(10.3)
 71
     5
 42
-1.0
 53
90.0
  3
ME10_DIM_19
100
AcDbAlignedDimension
 13
1369.401032474998
 23
95.0195502435173
 33
0.0
 14
1384.901032474998
 24
105.3195502435173
 34
0.0
 50
90.0
100
AcDbRotatedDimension
  0
DIMENSION
  5
213
330
1F
100
AcDbEntity
  8
1
100
AcDbDimension
  2
*D15
 10
1348.901032370673
 20
68.5740248551754
 30
0.0
 11
1361.240338126354
 21
72.17402485517539
 31
0.0
 70
    32
  1
<>)
 71
     5
 42
-1.0
 53
0.00013888888889
  3
ME10_DIM_20
100
AcDbAlignedDimension
 13
1372.901032579323
 23
99.0195507680674
 33
0.0
 14
1348.901032370673
 24
99.0195507680674
 34
0.0
100
AcDbRotatedDimension
  0
DIMENSION
  5
21F
330
1F
100
AcDbEntity
  8
1
100
AcDbDimension
  2
*D16
 10
1535.345282522037
 20
88.01955024351881
 30
0.0
 11
1546.571128950779
 21
91.6195502435188
 31
0.0
 70
    32
  1
<>)
 71
     5
 42
-1.0
 53
0.00013888888889
  3
ME10_DIM_21
100
AcDbAlignedDimension
 13
1523.545282509037
 23
98.0195487086691
 33
0.0
 14
1535.345282522037
 24
99.01955024351878
 34
0.0
100
AcDbRotatedDimension
  0
DIMENSION
  5
22C
330
1F
100
AcDbEntity
  8
1
100
AcDbDimension
  2
*D17
 10
1323.19433504145
 20
105.3195502435173
 30
0.0
 11
1319.59433504145
 21
101.2844613744234
 31
0.0
 70
    32
  1
<>)
 71
     5
 42
-1.0
 53
90.0
  3
ME10_DIM_22
100
AcDbAlignedDimension
 13
1350.201032024973
 23
98.0195487415173
 33
0.0
 14
1336.901032474998
 24
105.3195502435173
 34
0.0
 50
90.0
100
AcDbRotatedDimension
  0
DIMENSION
  5
239
330
1F
100
AcDbEntity
  8
1
100
AcDbDimension
  2
*D18
 10
1483.345282522037
 20
88.01955024351881
 30
0.0
 11
1476.216212533899
 21
91.6195502435188
 31
0.0
 70
    32
  1
<>
 71
     5
 42
-1.0
 53
0.00013888888889
  3
ME10_DIM_23
100
AcDbAlignedDimension
 13
1488.345282522037
 23
105.3195502435173
 33
0.0
 14
1483.345282522037
 24
105.3195502435173
 34
0.0
100
AcDbRotatedDimension
  0
INSERT
  5
241
330
1F
100
AcDbEntity
  8
1
100
AcDbBlockReference
  2
*D19
 10
0.0
 20
0.0
 30
0.0
  0
ENDSEC
  0
SECTION
  2
OBJECTS
  0
DICTIONARY
  5
C
330
0
100
AcDbDictionary
281
     1
  3
ACAD_GROUP
350
D
  3
ACAD_LAYOUT
350
1A
  3
ACAD_MATERIAL
350
3B
  3
ACAD_MLEADERSTYLE
350
244
  3
ACAD_MLINESTYLE
350
17
  3
ACAD_PLOTSETTINGS
350
19
  3
ACAD_PLOTSTYLENAME
350
E
  3
ACAD_VISUALSTYLE
350
2A
  3
AcDbVariableDictionary
350
242
  0
DICTIONARY
  5
D
102
{ACAD_REACTORS
330
C
102
}
330
C
100
AcDbDictionary
281
     1
  0
DICTIONARY
  5
1A
102
{ACAD_REACTORS
330
C
102
}
330
C
100
AcDbDictionary
281
     1
  3
Layout1
350
1E
  3
Layout2
350
26
  3
Model
350
22
  0
DICTIONARY
  5
3B
102
{ACAD_REACTORS
330
C
102
}
330
C
100
AcDbDictionary
281
     1
  3
ByBlock
350
3D
  3
ByLayer
350
3C
  3
Global
350
3E
  0
DICTIONARY
  5
244
102
{ACAD_REACTORS
330
C
102
}
330
C
100
AcDbDictionary
281
     1
  0
DICTIONARY
  5
17
102
{ACAD_REACTORS
330
C
102
}
330
C
100
AcDbDictionary
281
     1
  3
Standard
350
18
  0
DICTIONARY
  5
19
102
{ACAD_REACTORS
330
C
102
}
330
C
100
AcDbDictionary
281
     1
  0
ACDBDICTIONARYWDFLT
  5
E
102
{ACAD_REACTORS
330
C
102
}
330
C
100
AcDbDictionary
281
     1
  3
Normal
350
F
100
AcDbDictionaryWithDefault
340
F
  0
DICTIONARY
  5
2A
102
{ACAD_REACTORS
330
C
102
}
330
C
100
AcDbDictionary
281
     1
  3
2dWireframe
350
2F
  3
3D Hidden
350
31
  3
3dWireframe
350
30
  3
Basic
350
32
  3
Brighten
350
36
  3
ColorChange
350
3A
  3
Conceptual
350
34
  3
Dim
350
35
  3
Facepattern
350
39
  3
Flat
350
2B
  3
FlatWithEdges
350
2C
  3
Gouraud
350
2D
  3
GouraudWithEdges
350
2E
  3
Linepattern
350
38
  3
Realistic
350
33
  3
Thicken
350
37
  0
DICTIONARY
  5
242
102
{ACAD_REACTORS
330
C
102
}
330
C
100
AcDbDictionary
281
     1
  3
DIMASSOC
350
245
  3
HIDETEXT
350
246
  0
LAYOUT
  5
1E
102
{ACAD_REACTORS
330
1A
102
}
330
1A
100
AcDbPlotSettings
  1

  2
none_device
  4

  6

 40
0.0
 41
0.0
 42
0.0
 43
0.0
 44
0.0
 45
0.0
 46
0.0
 47
0.0
 48
0.0
 49
0.0
140
0.0
141
0.0
142
1.0
143
1.0
 70
   688
 72
     0
 73
     0
 74
     5
  7

 75
    16
147
1.0
148
0.0
149
0.0
100
AcDbLayout
  1
Layout1
 70
     1
 71
     1
 10
0.0
 20
0.0
 11
12.0
 21
9.0
 12
0.0
 22
0.0
 32
0.0
 14
1.00000000000000E+20
 24
1.00000000000000E+20
 34
1.00000000000000E+20
 15
-1.00000000000000E+20
 25
-1.00000000000000E+20
 35
-1.00000000000000E+20
146
0.0
 13
0.0
 23
0.0
 33
0.0
 16
1.0
 26
0.0
 36
0.0
 17
0.0
 27
1.0
 37
0.0
 76
     0
330
1B
  0
LAYOUT
  5
26
102
{ACAD_REACTORS
330
1A
102
}
330
1A
100
AcDbPlotSettings
  1

  2
none_device
  4

  6

 40
0.0
 41
0.0
 42
0.0
 43
0.0
 44
0.0
 45
0.0
 46
0.0
 47
0.0
 48
0.0
 49
0.0
140
0.0
141
0.0
142
1.0
143
1.0
 70
   688
 72
     0
 73
     0
 74
     5
  7

 75
    16
147
1.0
148
0.0
149
0.0
100
AcDbLayout
  1
Layout2
 70
     1
 71
     2
 10
0.0
 20
0.0
 11
0.0
 21
0.0
 12
0.0
 22
0.0
 32
0.0
 14
0.0
 24
0.0
 34
0.0
 15
0.0
 25
0.0
 35
0.0
146
0.0
 13
0.0
 23
0.0
 33
0.0
 16
1.0
 26
0.0
 36
0.0
 17
0.0
 27
1.0
 37
0.0
 76
     0
330
23
  0
LAYOUT
  5
22
102
{ACAD_REACTORS
330
1A
102
}
330
1A
100
AcDbPlotSettings
  1

  2
none_device
  4

  6

 40
0.0
 41
0.0
 42
0.0
 43
0.0
 44
0.0
 45
0.0
 46
0.0
 47
0.0
 48
0.0
 49
0.0
140
0.0
141
0.0
142
1.0
143
1.0
 70
  1712
 72
     0
 73
     0
 74
     0
  7

 75
     0
147
1.0
148
0.0
149
0.0
100
AcDbLayout
  1
Model
 70
     1
 71
     0
 10
0.0
 20
0.0
 11
12.0
 21
9.0
 12
0.0
 22
0.0
 32
0.0
 14
1317.99433504145
 24
67.0740248551754
 34
0.0
 15
1552.051128950779
 25
191.0384231373851
 35
0.0
146
0.0
 13
0.0
 23
0.0
 33
0.0
 16
1.0
 26
0.0
 36
0.0
 17
0.0
 27
1.0
 37
0.0
 76
     0
330
1F
331
29
  0
MATERIAL
  5
3D
102
{ACAD_REACTORS
330
3B
102
}
102
{ACAD_XDICTIONARY
360
269
102
}
330
3B
100
AcDbMaterial
  1
ByBlock
  0
MATERIAL
  5
3C
102
{ACAD_REACTORS
330
3B
102
}
102
{ACAD_XDICTIONARY
360
267
102
}
330
3B
100
AcDbMaterial
  1
ByLayer
  0
MATERIAL
  5
3E
102
{ACAD_REACTORS
330
3B
102
}
102
{ACAD_XDICTIONARY
360
26B
102
}
330
3B
100
AcDbMaterial
  1
Global
  0
MLINESTYLE
  5
18
102
{ACAD_REACTORS
330
17
102
}
330
17
100
AcDbMlineStyle
  2
Standard
 70
     0
  3

 62
   256
 51
90.0
 52
90.0
 71
     2
 49
0.5
 62
   256
  6
BYLAYER
 49
-0.5
 62
   256
  6
BYLAYER
  0
ACDBPLACEHOLDER
  5
F
102
{ACAD_REACTORS
330
E
102
}
330
E
  0
VISUALSTYLE
  5
2F
102
{ACAD_REACTORS
330
2A
102
}
102
{ACAD_XDICTIONARY
360
24F
102
}
330
2A
100
AcDbVisualStyle
  2
2dWireframe
 70
     4
 71
     0
 72
     2
 73
     0
 90
        0
 40
-0.6
 41
-30.0
 62
     5
 63
     7
 74
     1
 91
        4
 64
     7
 65
   257
 75
     1
175
     1
 42
1.0
 92
        0
 66
   257
 43
1.0
 76
     1
 77
     6
 78
     2
 67
     7
 79
     5
170
     0
171
     0
290
     0
174
     0
 93
        1
 44
0.0
173
     0
291
     0
 45
0.0
1001
ACAD
1000
AcDbSavedByObjectVersion
1070
     0
  0
VISUALSTYLE
  5
31
102
{ACAD_REACTORS
330
2A
102
}
102
{ACAD_XDICTIONARY
360
253
102
}
330
2A
100
AcDbVisualStyle
  2
3D Hidden
 70
     6
 71
     1
 72
     2
 73
     2
 90
        0
 40
-0.6
 41
-30.0
 62
     5
 63
     7
 74
     2
 91
        2
 64
     7
 65
   257
 75
     2
175
     1
 42
40.0
 92
        0
 66
   257
 43
1.0
 76
     1
 77
     6
 78
     2
 67
     7
 79
     3
170
     0
171
     0
290
     0
174
     0
 93
        1
 44
0.0
173
     0
291
     0
 45
0.0
1001
ACAD
1000
AcDbSavedByObjectVersion
1070
     0
  0
VISUALSTYLE
  5
30
102
{ACAD_REACTORS
330
2A
102
}
102
{ACAD_XDICTIONARY
360
251
102
}
330
2A
100
AcDbVisualStyle
  2
3dWireframe
 70
     5
 71
     0
 72
     2
 73
     0
 90
        0
 40
-0.6
 41
-30.0
 62
     5
 63
     7
 74
     1
 91
        4
 64
     7
 65
   257
 75
     1
175
     1
 42
1.0
 92
        0
 66
   257
 43
1.0
 76
     1
 77
     6
 78
     2
 67
     7
 79
     5
170
     0
171
     0
290
     0
174
     0
 93
        1
 44
0.0
173
     0
291
     0
 45
0.0
1001
ACAD
1000
AcDbSavedByObjectVersion
1070
     0
  0
VISUALSTYLE
  5
32
102
{ACAD_REACTORS
330
2A
102
}
102
{ACAD_XDICTIONARY
360
255
102
}
330
2A
100
AcDbVisualStyle
  2
Basic
 70
     7
 71
     1
 72
     0
 73
     1
 90
        0
 40
-0.6
 41
-30.0
 62
     5
 63
     7
 74
     0
 91
        4
 64
     7
 65
   257
 75
     1
175
     1
 42
1.0
 92
        8
 66
     7
 43
1.0
 76
     1
 77
     6
 78
     2
 67
     7
 79
     5
170
     0
171
     0
290
     0
174
     0
 93
        1
 44
0.0
173
     0
291
     1
 45
0.0
1001
ACAD
1000
AcDbSavedByObjectVersion
1070
     0
  0
VISUALSTYLE
  5
36
102
{ACAD_REACTORS
330
2A
102
}
102
{ACAD_XDICTIONARY
360
25D
102
}
330
2A
100
AcDbVisualStyle
  2
Brighten
 70
    12
 71
     2
 72
     2
 73
     0
 90
        0
 40
-0.6
 41
-30.0
 62
     5
 63
     7
 74
     1
 91
        4
 64
     7
 65
   257
 75
     1
175
     1
 42
1.0
 92
        8
 66
     7
 43
1.0
 76
     1
 77
     6
 78
     2
 67
     7
 79
     5
170
     0
171
     0
290
     0
174
     0
 93
        1
 44
50.0
173
     0
291
     1
 45
0.0
1001
ACAD
1000
AcDbSavedByObjectVersion
1070
     0
  0
VISUALSTYLE
  5
3A
102
{ACAD_REACTORS
330
2A
102
}
102
{ACAD_XDICTIONARY
360
265
102
}
330
2A
100
AcDbVisualStyle
  2
ColorChange
 70
    16
 71
     2
 72
     2
 73
     3
 90
        0
 40
-0.6
 41
-30.0
 62
     5
 63
     8
 74
     1
 91
        4
 64
     7
 65
   257
 75
     1
175
     1
 42
1.0
 92
        8
 66
     8
 43
1.0
 76
     1
 77
     6
 78
     2
 67
     7
 79
     5
170
     0
171
     0
290
     0
174
     0
 93
        1
 44
0.0
173
     0
291
     1
 45
0.0
1001
ACAD
1000
AcDbSavedByObjectVersion
1070
     0
  0
VISUALSTYLE
  5
34
102
{ACAD_REACTORS
330
2A
102
}
102
{ACAD_XDICTIONARY
360
259
102
}
330
2A
100
AcDbVisualStyle
  2
Conceptual
 70
     9
 71
     3
 72
     2
 73
     0
 90
        0
 40
-0.6
 41
-30.0
 62
     5
 63
     7
 74
     2
 91
        2
 64
     7
 65
   257
 75
     1
175
     1
 42
40.0
 92
        8
 66
     7
 43
1.0
 76
     1
 77
     6
 78
     2
 67
     7
 79
     3
170
     0
171
     0
290
     0
174
     0
 93
        1
 44
0.0
173
     0
291
     0
 45
0.0
1001
ACAD
1000
AcDbSavedByObjectVersion
1070
     0
  0
VISUALSTYLE
  5
35
102
{ACAD_REACTORS
330
2A
102
}
102
{ACAD_XDICTIONARY
360
25B
102
}
330
2A
100
AcDbVisualStyle
  2
Dim
 70
    11
 71
     2
 72
     2
 73
     0
 90
        0
 40
-0.6
 41
-30.0
 62
     5
 63
     7
 74
     1
 91
        4
 64
     7
 65
   257
 75
     1
175
     1
 42
1.0
 92
        8
 66
     7
 43
1.0
 76
     1
 77
     6
 78
     2
 67
     7
 79
     5
170
     0
171
     0
290
     0
174
     0
 93
        1
 44
-50.0
173
     0
291
     1
 45
0.0
1001
ACAD
1000
AcDbSavedByObjectVersion
1070
     0
  0
VISUALSTYLE
  5
39
102
{ACAD_REACTORS
330
2A
102
}
102
{ACAD_XDICTIONARY
360
263
102
}
330
2A
100
AcDbVisualStyle
  2
Facepattern
 70
    15
 71
     2
 72
     2
 73
     0
 90
        0
 40
-0.6
 41
-30.0
 62
     5
 63
     7
 74
     1
 91
        4
 64
     7
 65
   257
 75
     1
175
     1
 42
1.0
 92
        8
 66
     7
 43
1.0
 76
     1
 77
     6
 78
     2
 67
     7
 79
     5
170
     0
171
     0
290
     0
174
     0
 93
        1
 44
0.0
173
     0
291
     1
 45
0.0
1001
ACAD
1000
AcDbSavedByObjectVersion
1070
     0
  0
VISUALSTYLE
  5
2B
102
{ACAD_REACTORS
330
2A
102
}
102
{ACAD_XDICTIONARY
360
247
102
}
330
2A
100
AcDbVisualStyle
  2
Flat
 70
     0
 71
     2
 72
     1
 73
     1
 90
        2
 40
-0.6
 41
30.0
 62
     5
 63
     7
 74
     0
 91
        4
 64
     7
 65
   257
 75
     1
175
     1
 42
1.0
 92
        8
 66
     7
 43
1.0
 76
     1
 77
     6
 78
     2
 67
     7
 79
     5
170
     0
171
     0
290
     0
174
     0
 93
       13
 44
0.0
173
     0
291
     1
 45
0.0
1001
ACAD
1000
AcDbSavedByObjectVersion
1070
     0
  0
VISUALSTYLE
  5
2C
102
{ACAD_REACTORS
330
2A
102
}
102
{ACAD_XDICTIONARY
360
249
102
}
330
2A
100
AcDbVisualStyle
  2
FlatWithEdges
 70
     1
 71
     2
 72
     1
 73
     1
 90
        2
 40
-0.6
 41
30.0
 62
     5
 63
     7
 74
     1
 91
        4
 64
     7
 65
   257
 75
     1
175
     1
 42
1.0
 92
        0
 66
   257
 43
1.0
 76
     1
 77
     6
 78
     2
 67
     7
 79
     5
170
     0
171
     0
290
     0
174
     0
 93
       13
 44
0.0
173
     0
291
     1
 45
0.0
1001
ACAD
1000
AcDbSavedByObjectVersion
1070
     0
  0
VISUALSTYLE
  5
2D
102
{ACAD_REACTORS
330
2A
102
}
102
{ACAD_XDICTIONARY
360
24B
102
}
330
2A
100
AcDbVisualStyle
  2
Gouraud
 70
     2
 71
     2
 72
     2
 73
     1
 90
        2
 40
-0.6
 41
30.0
 62
     5
 63
     7
 74
     0
 91
        4
 64
     7
 65
   257
 75
     1
175
     1
 42
1.0
 92
        0
 66
     7
 43
1.0
 76
     1
 77
     6
 78
     2
 67
     7
 79
     5
170
     0
171
     0
290
     0
174
     0
 93
       13
 44
0.0
173
     0
291
     1
 45
0.0
1001
ACAD
1000
AcDbSavedByObjectVersion
1070
     0
  0
VISUALSTYLE
  5
2E
102
{ACAD_REACTORS
330
2A
102
}
102
{ACAD_XDICTIONARY
360
24D
102
}
330
2A
100
AcDbVisualStyle
  2
GouraudWithEdges
 70
     3
 71
     2
 72
     2
 73
     1
 90
        2
 40
-0.6
 41
30.0
 62
     5
 63
     7
 74
     1
 91
        4
 64
     7
 65
   257
 75
     1
175
     1
 42
1.0
 92
        0
 66
   257
 43
1.0
 76
     1
 77
     6
 78
     2
 67
     7
 79
     5
170
     0
171
     0
290
     0
174
     0
 93
       13
 44
0.0
173
     0
291
     1
 45
0.0
1001
ACAD
1000
AcDbSavedByObjectVersion
1070
     0
  0
VISUALSTYLE
  5
38
102
{ACAD_REACTORS
330
2A
102
}
102
{ACAD_XDICTIONARY
360
261
102
}
330
2A
100
AcDbVisualStyle
  2
Linepattern
 70
    14
 71
     2
 72
     2
 73
     0
 90
        0
 40
-0.6
 41
-30.0
 62
     5
 63
     7
 74
     1
 91
        4
 64
     7
 65
   257
 75
     7
175
     7
 42
1.0
 92
        8
 66
     7
 43
1.0
 76
     1
 77
     6
 78
     2
 67
     7
 79
     5
170
     0
171
     0
290
     0
174
     0
 93
        1
 44
0.0
173
     0
291
     1
 45
0.0
1001
ACAD
1000
AcDbSavedByObjectVersion
1070
     0
  0
VISUALSTYLE
  5
33
102
{ACAD_REACTORS
330
2A
102
}
102
{ACAD_XDICTIONARY
360
257
102
}
330
2A
100
AcDbVisualStyle
  2
Realistic
 70
     8
 71
     2
 72
     2
 73
     0
 90
        0
 40
-0.6
 41
-30.0
 62
     5
 63
     7
 74
     1
 91
        0
 64
     7
 65
   257
 75
     1
175
     1
 42
1.0
 92
        8
 66
     8
 43
1.0
 76
     1
 77
     6
 78
     2
 67
     7
 79
     5
170
     0
171
     0
290
     0
174
     0
 93
       13
 44
0.0
173
     0
291
     0
 45
0.0
1001
ACAD
1000
AcDbSavedByObjectVersion
1070
     0
  0
VISUALSTYLE
  5
37
102
{ACAD_REACTORS
330
2A
102
}
102
{ACAD_XDICTIONARY
360
25F
102
}
330
2A
100
AcDbVisualStyle
  2
Thicken
 70
    13
 71
     2
 72
     2
 73
     0
 90
        0
 40
-0.6
 41
-30.0
 62
     5
 63
     7
 74
     1
 91
        4
 64
     7
 65
   257
 75
     1
175
     1
 42
1.0
 92
       12
 66
     7
 43
1.0
 76
     1
 77
     6
 78
     2
 67
     7
 79
     5
170
     0
171
     0
290
     0
174
     0
 93
        1
 44
0.0
173
     0
291
     1
 45
0.0
1001
ACAD
1000
AcDbSavedByObjectVersion
1070
     0
  0
DICTIONARYVAR
  5
245
102
{ACAD_REACTORS
330
242
102
}
330
242
100
DictionaryVariables
280
     0
  1
2
  0
DICTIONARYVAR
  5
246
102
{ACAD_REACTORS
330
242
102
}
330
242
100
DictionaryVariables
280
     0
  1
1
  0
DICTIONARY
  5
269
330
3D
100
AcDbDictionary
280
     1
281
     1
  3
ACAD_XREC_ROUNDTRIP
360
26A
  0
DICTIONARY
  5
267
330
3C
100
AcDbDictionary
280
     1
281
     1
  3
ACAD_XREC_ROUNDTRIP
360
268
  0
DICTIONARY
  5
26B
330
3E
100
AcDbDictionary
280
     1
281
     1
  3
ACAD_XREC_ROUNDTRIP
360
26C
  0
DICTIONARY
  5
24F
330
2F
100
AcDbDictionary
280
     1
281
     1
  3
ACAD_XREC_ROUNDTRIP
360
250
  0
DICTIONARY
  5
253
330
31
100
AcDbDictionary
280
     1
281
     1
  3
ACAD_XREC_ROUNDTRIP
360
254
  0
DICTIONARY
  5
251
330
30
100
AcDbDictionary
280
     1
281
     1
  3
ACAD_XREC_ROUNDTRIP
360
252
  0
DICTIONARY
  5
255
330
32
100
AcDbDictionary
280
     1
281
     1
  3
ACAD_XREC_ROUNDTRIP
360
256
  0
DICTIONARY
  5
25D
330
36
100
AcDbDictionary
280
     1
281
     1
  3
ACAD_XREC_ROUNDTRIP
360
25E
  0
DICTIONARY
  5
265
330
3A
100
AcDbDictionary
280
     1
281
     1
  3
ACAD_XREC_ROUNDTRIP
360
266
  0
DICTIONARY
  5
259
330
34
100
AcDbDictionary
280
     1
281
     1
  3
ACAD_XREC_ROUNDTRIP
360
25A
  0
DICTIONARY
  5
25B
330
35
100
AcDbDictionary
280
     1
281
     1
  3
ACAD_XREC_ROUNDTRIP
360
25C
  0
DICTIONARY
  5
263
330
39
100
AcDbDictionary
280
     1
281
     1
  3
ACAD_XREC_ROUNDTRIP
360
264
  0
DICTIONARY
  5
247
330
2B
100
AcDbDictionary
280
     1
281
     1
  3
ACAD_XREC_ROUNDTRIP
360
248
  0
DICTIONARY
  5
249
330
2C
100
AcDbDictionary
280
     1
281
     1
  3
ACAD_XREC_ROUNDTRIP
360
24A
  0
DICTIONARY
  5
24B
330
2D
100
AcDbDictionary
280
     1
281
     1
  3
ACAD_XREC_ROUNDTRIP
360
24C
  0
DICTIONARY
  5
24D
330
2E
100
AcDbDictionary
280
     1
281
     1
  3
ACAD_XREC_ROUNDTRIP
360
24E
  0
DICTIONARY
  5
261
330
38
100
AcDbDictionary
280
     1
281
     1
  3
ACAD_XREC_ROUNDTRIP
360
262
  0
DICTIONARY
  5
257
330
33
100
AcDbDictionary
280
     1
281
     1
  3
ACAD_XREC_ROUNDTRIP
360
258
  0
DICTIONARY
  5
25F
330
37
100
AcDbDictionary
280
     1
281
     1
  3
ACAD_XREC_ROUNDTRIP
360
260
  0
XRECORD
  5
26A
102
{ACAD_REACTORS
330
269
102
}
330
269
100
AcDbXrecord
280
     1
102
MATERIAL
148
0.0
149
0.0
149
0.0
 93
        0
 94
      127
282
     0
 72
     1
 77
     1
171
     1
175
     1
179
     1
273
     0
  0
XRECORD
  5
268
102
{ACAD_REACTORS
330
267
102
}
330
267
100
AcDbXrecord
280
     1
102
MATERIAL
148
0.0
149
0.0
149
0.0
 93
        0
 94
      127
282
     0
 72
     1
 77
     1
171
     1
175
     1
179
     1
273
     0
  0
XRECORD
  5
26C
102
{ACAD_REACTORS
330
26B
102
}
330
26B
100
AcDbXrecord
280
     1
102
MATERIAL
148
0.0
149
0.0
149
0.0
 93
        0
 94
      127
282
     0
 72
     1
 77
     1
171
     1
175
     1
179
     1
273
     0
  0
XRECORD
  5
250
102
{ACAD_REACTORS
330
24F
102
}
330
24F
100
AcDbXrecord
280
     1
102
RTVSPropertyOp0
 70
     1
102
RTVSPropertyOp1
 70
     1
102
RTVSPropertyOp2
 70
     1
102
RTVSPropertyOp3
 70
     1
102
RTVSPropertyOp4
 70
     1
102
RTVSPropertyOp5
 70
     1
102
RTVSPropertyOp6
 70
     1
102
RTVSPropertyOp7
 70
     1
102
RTVSPropertyOp8
 70
     1
102
RTVSPropertyOp9
 70
     1
102
RTVSPropertyOp10
 70
     1
102
RTVSPropertyOp11
 70
     1
102
RTVSPropertyOp12
 70
     1
102
RTVSPropertyOp13
 70
     1
102
RTVSPropertyOp14
 70
     1
102
RTVSPropertyOp15
 70
     1
102
RTVSPropertyOp16
 70
     1
102
RTVSPropertyOp17
 70
     1
102
RTVSPropertyOp18
 70
     1
102
RTVSPropertyOp19
 70
     1
102
RTVSPropertyOp20
 70
     1
102
RTVSPropertyOp21
 70
     1
102
RTVSPropertyOp22
 70
     1
102
RTVSPropertyOp23
 70
     1
102
RTVSPropertyOp24
 70
     1
102
RTVSPropertyOp25
 70
     1
102
RTVSPropertyOp26
 70
     1
102
RTVSPropertyOp27
 70
     1
102
RTVSPropertyOp28
 70
     1
102
RTVSPropertyOp29
 70
     1
102
RTVSPropertyOp30
 70
     1
102
RTVSPropertyOp31
 70
     1
102
RTVSPropertyOp32
 70
     1
  0
XRECORD
  5
254
102
{ACAD_REACTORS
330
253
102
}
330
253
100
AcDbXrecord
280
     1
102
RTVSPropertyOp0
 70
     1
102
RTVSPropertyOp1
 70
     1
102
RTVSPropertyOp2
 70
     1
102
RTVSPropertyOp3
 70
     1
102
RTVSPropertyOp4
 70
     1
102
RTVSPropertyOp5
 70
     1
102
RTVSPropertyOp6
 70
     1
102
RTVSPropertyOp7
 70
     1
102
RTVSPropertyOp8
 70
     1
102
RTVSPropertyOp9
 70
     1
102
RTVSPropertyOp10
 70
     1
102
RTVSPropertyOp11
 70
     1
102
RTVSPropertyOp12
 70
     1
102
RTVSPropertyOp13
 70
     1
102
RTVSPropertyOp14
 70
     1
102
RTVSPropertyOp15
 70
     1
102
RTVSPropertyOp16
 70
     1
102
RTVSPropertyOp17
 70
     1
102
RTVSPropertyOp18
 70
     1
102
RTVSPropertyOp19
 70
     1
102
RTVSPropertyOp20
 70
     1
102
RTVSPropertyOp21
 70
     1
102
RTVSPropertyOp22
 70
     1
102
RTVSPropertyOp23
 70
     1
102
RTVSPropertyOp24
 70
     1
102
RTVSPropertyOp25
 70
     1
102
RTVSPropertyOp26
 70
     1
102
RTVSPropertyOp27
 70
     1
102
RTVSPropertyOp28
 70
     1
102
RTVSPropertyOp29
 70
     1
102
RTVSPropertyOp30
 70
     1
102
RTVSPropertyOp31
 70
     1
102
RTVSPropertyOp32
 70
     1
  0
XRECORD
  5
252
102
{ACAD_REACTORS
330
251
102
}
330
251
100
AcDbXrecord
280
     1
102
RTVSPropertyOp0
 70
     1
102
RTVSPropertyOp1
 70
     1
102
RTVSPropertyOp2
 70
     1
102
RTVSPropertyOp3
 70
     1
102
RTVSPropertyOp4
 70
     1
102
RTVSPropertyOp5
 70
     1
102
RTVSPropertyOp6
 70
     1
102
RTVSPropertyOp7
 70
     1
102
RTVSPropertyOp8
 70
     1
102
RTVSPropertyOp9
 70
     1
102
RTVSPropertyOp10
 70
     1
102
RTVSPropertyOp11
 70
     1
102
RTVSPropertyOp12
 70
     1
102
RTVSPropertyOp13
 70
     1
102
RTVSPropertyOp14
 70
     1
102
RTVSPropertyOp15
 70
     1
102
RTVSPropertyOp16
 70
     1
102
RTVSPropertyOp17
 70
     1
102
RTVSPropertyOp18
 70
     1
102
RTVSPropertyOp19
 70
     1
102
RTVSPropertyOp20
 70
     1
102
RTVSPropertyOp21
 70
     1
102
RTVSPropertyOp22
 70
     1
102
RTVSPropertyOp23
 70
     1
102
RTVSPropertyOp24
 70
     1
102
RTVSPropertyOp25
 70
     1
102
RTVSPropertyOp26
 70
     1
102
RTVSPropertyOp27
 70
     1
102
RTVSPropertyOp28
 70
     1
102
RTVSPropertyOp29
 70
     1
102
RTVSPropertyOp30
 70
     1
102
RTVSPropertyOp31
 70
     1
102
RTVSPropertyOp32
 70
     1
  0
XRECORD
  5
256
102
{ACAD_REACTORS
330
255
102
}
330
255
100
AcDbXrecord
280
     1
102
RTVSPropertyOp0
 70
     1
102
RTVSPropertyOp1
 70
     1
102
RTVSPropertyOp2
 70
     1
102
RTVSPropertyOp3
 70
     1
102
RTVSPropertyOp4
 70
     1
102
RTVSPropertyOp5
 70
     1
102
RTVSPropertyOp6
 70
     1
102
RTVSPropertyOp7
 70
     1
102
RTVSPropertyOp8
 70
     1
102
RTVSPropertyOp9
 70
     1
102
RTVSPropertyOp10
 70
     1
102
RTVSPropertyOp11
 70
     1
102
RTVSPropertyOp12
 70
     1
102
RTVSPropertyOp13
 70
     1
102
RTVSPropertyOp14
 70
     1
102
RTVSPropertyOp15
 70
     1
102
RTVSPropertyOp16
 70
     1
102
RTVSPropertyOp17
 70
     1
102
RTVSPropertyOp18
 70
     1
102
RTVSPropertyOp19
 70
     1
102
RTVSPropertyOp20
 70
     1
102
RTVSPropertyOp21
 70
     1
102
RTVSPropertyOp22
 70
     1
102
RTVSPropertyOp23
 70
     1
102
RTVSPropertyOp24
 70
     1
102
RTVSPropertyOp25
 70
     1
102
RTVSPropertyOp26
 70
     1
102
RTVSPropertyOp27
 70
     1
102
RTVSPropertyOp28
 70
     1
102
RTVSPropertyOp29
 70
     1
102
RTVSPropertyOp30
 70
     1
102
RTVSPropertyOp31
 70
     1
102
RTVSPropertyOp32
 70
     1
  0
XRECORD
  5
25E
102
{ACAD_REACTORS
330
25D
102
}
330
25D
100
AcDbXrecord
280
     1
102
RTVSPropertyOp0
 70
     1
102
RTVSPropertyOp1
 70
     1
102
RTVSPropertyOp2
 70
     1
102
RTVSPropertyOp3
 70
     1
102
RTVSPropertyOp4
 70
     1
102
RTVSPropertyOp5
 70
     1
102
RTVSPropertyOp6
 70
     1
102
RTVSPropertyOp7
 70
     1
102
RTVSPropertyOp8
 70
     1
102
RTVSPropertyOp9
 70
     1
102
RTVSPropertyOp10
 70
     1
102
RTVSPropertyOp11
 70
     1
102
RTVSPropertyOp12
 70
     1
102
RTVSPropertyOp13
 70
     1
102
RTVSPropertyOp14
 70
     1
102
RTVSPropertyOp15
 70
     1
102
RTVSPropertyOp16
 70
     1
102
RTVSPropertyOp17
 70
     1
102
RTVSPropertyOp18
 70
     1
102
RTVSPropertyOp19
 70
     1
102
RTVSPropertyOp20
 70
     1
102
RTVSPropertyOp21
 70
     1
102
RTVSPropertyOp22
 70
     1
102
RTVSPropertyOp23
 70
     1
102
RTVSPropertyOp24
 70
     1
102
RTVSPropertyOp25
 70
     1
102
RTVSPropertyOp26
 70
     1
102
RTVSPropertyOp27
 70
     1
102
RTVSPropertyOp28
 70
     1
102
RTVSPropertyOp29
 70
     1
102
RTVSPropertyOp30
 70
     1
102
RTVSPropertyOp31
 70
     1
102
RTVSPropertyOp32
 70
     1
  0
XRECORD
  5
266
102
{ACAD_REACTORS
330
265
102
}
330
265
100
AcDbXrecord
280
     1
102
RTVSPropertyOp0
 70
     1
102
RTVSPropertyOp1
 70
     1
102
RTVSPropertyOp2
 70
     1
102
RTVSPropertyOp3
 70
     1
102
RTVSPropertyOp4
 70
     1
102
RTVSPropertyOp5
 70
     1
102
RTVSPropertyOp6
 70
     1
102
RTVSPropertyOp7
 70
     1
102
RTVSPropertyOp8
 70
     1
102
RTVSPropertyOp9
 70
     1
102
RTVSPropertyOp10
 70
     1
102
RTVSPropertyOp11
 70
     1
102
RTVSPropertyOp12
 70
     1
102
RTVSPropertyOp13
 70
     1
102
RTVSPropertyOp14
 70
     1
102
RTVSPropertyOp15
 70
     1
102
RTVSPropertyOp16
 70
     1
102
RTVSPropertyOp17
 70
     1
102
RTVSPropertyOp18
 70
     1
102
RTVSPropertyOp19
 70
     1
102
RTVSPropertyOp20
 70
     1
102
RTVSPropertyOp21
 70
     1
102
RTVSPropertyOp22
 70
     1
102
RTVSPropertyOp23
 70
     1
102
RTVSPropertyOp24
 70
     1
102
RTVSPropertyOp25
 70
     1
102
RTVSPropertyOp26
 70
     1
102
RTVSPropertyOp27
 70
     1
102
RTVSPropertyOp28
 70
     1
102
RTVSPropertyOp29
 70
     1
102
RTVSPropertyOp30
 70
     1
102
RTVSPropertyOp31
 70
     1
102
RTVSPropertyOp32
 70
     1
  0
XRECORD
  5
25A
102
{ACAD_REACTORS
330
259
102
}
330
259
100
AcDbXrecord
280
     1
102
RTVSPropertyOp0
 70
     1
102
RTVSPropertyOp1
 70
     1
102
RTVSPropertyOp2
 70
     1
102
RTVSPropertyOp3
 70
     1
102
RTVSPropertyOp4
 70
     1
102
RTVSPropertyOp5
 70
     1
102
RTVSPropertyOp6
 70
     1
102
RTVSPropertyOp7
 70
     1
102
RTVSPropertyOp8
 70
     1
102
RTVSPropertyOp9
 70
     1
102
RTVSPropertyOp10
 70
     1
102
RTVSPropertyOp11
 70
     1
102
RTVSPropertyOp12
 70
     1
102
RTVSPropertyOp13
 70
     1
102
RTVSPropertyOp14
 70
     1
102
RTVSPropertyOp15
 70
     1
102
RTVSPropertyOp16
 70
     1
102
RTVSPropertyOp17
 70
     1
102
RTVSPropertyOp18
 70
     1
102
RTVSPropertyOp19
 70
     1
102
RTVSPropertyOp20
 70
     1
102
RTVSPropertyOp21
 70
     1
102
RTVSPropertyOp22
 70
     1
102
RTVSPropertyOp23
 70
     1
102
RTVSPropertyOp24
 70
     1
102
RTVSPropertyOp25
 70
     1
102
RTVSPropertyOp26
 70
     1
102
RTVSPropertyOp27
 70
     1
102
RTVSPropertyOp28
 70
     1
102
RTVSPropertyOp29
 70
     1
102
RTVSPropertyOp30
 70
     1
102
RTVSPropertyOp31
 70
     1
102
RTVSPropertyOp32
 70
     1
  0
XRECORD
  5
25C
102
{ACAD_REACTORS
330
25B
102
}
330
25B
100
AcDbXrecord
280
     1
102
RTVSPropertyOp0
 70
     1
102
RTVSPropertyOp1
 70
     1
102
RTVSPropertyOp2
 70
     1
102
RTVSPropertyOp3
 70
     1
102
RTVSPropertyOp4
 70
     1
102
RTVSPropertyOp5
 70
     1
102
RTVSPropertyOp6
 70
     1
102
RTVSPropertyOp7
 70
     1
102
RTVSPropertyOp8
 70
     1
102
RTVSPropertyOp9
 70
     1
102
RTVSPropertyOp10
 70
     1
102
RTVSPropertyOp11
 70
     1
102
RTVSPropertyOp12
 70
     1
102
RTVSPropertyOp13
 70
     1
102
RTVSPropertyOp14
 70
     1
102
RTVSPropertyOp15
 70
     1
102
RTVSPropertyOp16
 70
     1
102
RTVSPropertyOp17
 70
     1
102
RTVSPropertyOp18
 70
     1
102
RTVSPropertyOp19
 70
     1
102
RTVSPropertyOp20
 70
     1
102
RTVSPropertyOp21
 70
     1
102
RTVSPropertyOp22
 70
     1
102
RTVSPropertyOp23
 70
     1
102
RTVSPropertyOp24
 70
     1
102
RTVSPropertyOp25
 70
     1
102
RTVSPropertyOp26
 70
     1
102
RTVSPropertyOp27
 70
     1
102
RTVSPropertyOp28
 70
     1
102
RTVSPropertyOp29
 70
     1
102
RTVSPropertyOp30
 70
     1
102
RTVSPropertyOp31
 70
     1
102
RTVSPropertyOp32
 70
     1
  0
XRECORD
  5
264
102
{ACAD_REACTORS
330
263
102
}
330
263
100
AcDbXrecord
280
     1
102
RTVSPropertyOp0
 70
     1
102
RTVSPropertyOp1
 70
     1
102
RTVSPropertyOp2
 70
     1
102
RTVSPropertyOp3
 70
     1
102
RTVSPropertyOp4
 70
     1
102
RTVSPropertyOp5
 70
     1
102
RTVSPropertyOp6
 70
     1
102
RTVSPropertyOp7
 70
     1
102
RTVSPropertyOp8
 70
     1
102
RTVSPropertyOp9
 70
     1
102
RTVSPropertyOp10
 70
     1
102
RTVSPropertyOp11
 70
     1
102
RTVSPropertyOp12
 70
     1
102
RTVSPropertyOp13
 70
     1
102
RTVSPropertyOp14
 70
     1
102
RTVSPropertyOp15
 70
     1
102
RTVSPropertyOp16
 70
     1
102
RTVSPropertyOp17
 70
     1
102
RTVSPropertyOp18
 70
     1
102
RTVSPropertyOp19
 70
     1
102
RTVSPropertyOp20
 70
     1
102
RTVSPropertyOp21
 70
     1
102
RTVSPropertyOp22
 70
     1
102
RTVSPropertyOp23
 70
     1
102
RTVSPropertyOp24
 70
     1
102
RTVSPropertyOp25
 70
     1
102
RTVSPropertyOp26
 70
     1
102
RTVSPropertyOp27
 70
     1
102
RTVSPropertyOp28
 70
     1
102
RTVSPropertyOp29
 70
     1
102
RTVSPropertyOp30
 70
     1
102
RTVSPropertyOp31
 70
     1
102
RTVSPropertyOp32
 70
     1
  0
XRECORD
  5
248
102
{ACAD_REACTORS
330
247
102
}
330
247
100
AcDbXrecord
280
     1
102
RTVSPropertyOp0
 70
     1
102
RTVSPropertyOp1
 70
     1
102
RTVSPropertyOp2
 70
     1
102
RTVSPropertyOp3
 70
     1
102
RTVSPropertyOp4
 70
     1
102
RTVSPropertyOp5
 70
     1
102
RTVSPropertyOp6
 70
     1
102
RTVSPropertyOp7
 70
     1
102
RTVSPropertyOp8
 70
     1
102
RTVSPropertyOp9
 70
     1
102
RTVSPropertyOp10
 70
     1
102
RTVSPropertyOp11
 70
     1
102
RTVSPropertyOp12
 70
     1
102
RTVSPropertyOp13
 70
     1
102
RTVSPropertyOp14
 70
     1
102
RTVSPropertyOp15
 70
     1
102
RTVSPropertyOp16
 70
     1
102
RTVSPropertyOp17
 70
     1
102
RTVSPropertyOp18
 70
     1
102
RTVSPropertyOp19
 70
     1
102
RTVSPropertyOp20
 70
     1
102
RTVSPropertyOp21
 70
     1
102
RTVSPropertyOp22
 70
     1
102
RTVSPropertyOp23
 70
     1
102
RTVSPropertyOp24
 70
     1
102
RTVSPropertyOp25
 70
     1
102
RTVSPropertyOp26
 70
     1
102
RTVSPropertyOp27
 70
     1
102
RTVSPropertyOp28
 70
     1
102
RTVSPropertyOp29
 70
     1
102
RTVSPropertyOp30
 70
     1
102
RTVSPropertyOp31
 70
     1
102
RTVSPropertyOp32
 70
     1
  0
XRECORD
  5
24A
102
{ACAD_REACTORS
330
249
102
}
330
249
100
AcDbXrecord
280
     1
102
RTVSPropertyOp0
 70
     1
102
RTVSPropertyOp1
 70
     1
102
RTVSPropertyOp2
 70
     1
102
RTVSPropertyOp3
 70
     1
102
RTVSPropertyOp4
 70
     1
102
RTVSPropertyOp5
 70
     1
102
RTVSPropertyOp6
 70
     1
102
RTVSPropertyOp7
 70
     1
102
RTVSPropertyOp8
 70
     1
102
RTVSPropertyOp9
 70
     1
102
RTVSPropertyOp10
 70
     1
102
RTVSPropertyOp11
 70
     1
102
RTVSPropertyOp12
 70
     1
102
RTVSPropertyOp13
 70
     1
102
RTVSPropertyOp14
 70
     1
102
RTVSPropertyOp15
 70
     1
102
RTVSPropertyOp16
 70
     1
102
RTVSPropertyOp17
 70
     1
102
RTVSPropertyOp18
 70
     1
102
RTVSPropertyOp19
 70
     1
102
RTVSPropertyOp20
 70
     1
102
RTVSPropertyOp21
 70
     1
102
RTVSPropertyOp22
 70
     1
102
RTVSPropertyOp23
 70
     1
102
RTVSPropertyOp24
 70
     1
102
RTVSPropertyOp25
 70
     1
102
RTVSPropertyOp26
 70
     1
102
RTVSPropertyOp27
 70
     1
102
RTVSPropertyOp28
 70
     1
102
RTVSPropertyOp29
 70
     1
102
RTVSPropertyOp30
 70
     1
102
RTVSPropertyOp31
 70
     1
102
RTVSPropertyOp32
 70
     1
  0
XRECORD
  5
24C
102
{ACAD_REACTORS
330
24B
102
}
330
24B
100
AcDbXrecord
280
     1
102
RTVSPropertyOp0
 70
     1
102
RTVSPropertyOp1
 70
     1
102
RTVSPropertyOp2
 70
     1
102
RTVSPropertyOp3
 70
     1
102
RTVSPropertyOp4
 70
     1
102
RTVSPropertyOp5
 70
     1
102
RTVSPropertyOp6
 70
     1
102
RTVSPropertyOp7
 70
     1
102
RTVSPropertyOp8
 70
     1
102
RTVSPropertyOp9
 70
     1
102
RTVSPropertyOp10
 70
     1
102
RTVSPropertyOp11
 70
     1
102
RTVSPropertyOp12
 70
     1
102
RTVSPropertyOp13
 70
     1
102
RTVSPropertyOp14
 70
     1
102
RTVSPropertyOp15
 70
     1
102
RTVSPropertyOp16
 70
     1
102
RTVSPropertyOp17
 70
     1
102
RTVSPropertyOp18
 70
     1
102
RTVSPropertyOp19
 70
     1
102
RTVSPropertyOp20
 70
     1
102
RTVSPropertyOp21
 70
     1
102
RTVSPropertyOp22
 70
     1
102
RTVSPropertyOp23
 70
     1
102
RTVSPropertyOp24
 70
     1
102
RTVSPropertyOp25
 70
     1
102
RTVSPropertyOp26
 70
     1
102
RTVSPropertyOp27
 70
     1
102
RTVSPropertyOp28
 70
     1
102
RTVSPropertyOp29
 70
     1
102
RTVSPropertyOp30
 70
     1
102
RTVSPropertyOp31
 70
     1
102
RTVSPropertyOp32
 70
     1
  0
XRECORD
  5
24E
102
{ACAD_REACTORS
330
24D
102
}
330
24D
100
AcDbXrecord
280
     1
102
RTVSPropertyOp0
 70
     1
102
RTVSPropertyOp1
 70
     1
102
RTVSPropertyOp2
 70
     1
102
RTVSPropertyOp3
 70
     1
102
RTVSPropertyOp4
 70
     1
102
RTVSPropertyOp5
 70
     1
102
RTVSPropertyOp6
 70
     1
102
RTVSPropertyOp7
 70
     1
102
RTVSPropertyOp8
 70
     1
102
RTVSPropertyOp9
 70
     1
102
RTVSPropertyOp10
 70
     1
102
RTVSPropertyOp11
 70
     1
102
RTVSPropertyOp12
 70
     1
102
RTVSPropertyOp13
 70
     1
102
RTVSPropertyOp14
 70
     1
102
RTVSPropertyOp15
 70
     1
102
RTVSPropertyOp16
 70
     1
102
RTVSPropertyOp17
 70
     1
102
RTVSPropertyOp18
 70
     1
102
RTVSPropertyOp19
 70
     1
102
RTVSPropertyOp20
 70
     1
102
RTVSPropertyOp21
 70
     1
102
RTVSPropertyOp22
 70
     1
102
RTVSPropertyOp23
 70
     1
102
RTVSPropertyOp24
 70
     1
102
RTVSPropertyOp25
 70
     1
102
RTVSPropertyOp26
 70
     1
102
RTVSPropertyOp27
 70
     1
102
RTVSPropertyOp28
 70
     1
102
RTVSPropertyOp29
 70
     1
102
RTVSPropertyOp30
 70
     1
102
RTVSPropertyOp31
 70
     1
102
RTVSPropertyOp32
 70
     1
  0
XRECORD
  5
262
102
{ACAD_REACTORS
330
261
102
}
330
261
100
AcDbXrecord
280
     1
102
RTVSPropertyOp0
 70
     1
102
RTVSPropertyOp1
 70
     1
102
RTVSPropertyOp2
 70
     1
102
RTVSPropertyOp3
 70
     1
102
RTVSPropertyOp4
 70
     1
102
RTVSPropertyOp5
 70
     1
102
RTVSPropertyOp6
 70
     1
102
RTVSPropertyOp7
 70
     1
102
RTVSPropertyOp8
 70
     1
102
RTVSPropertyOp9
 70
     1
102
RTVSPropertyOp10
 70
     1
102
RTVSPropertyOp11
 70
     1
102
RTVSPropertyOp12
 70
     1
102
RTVSPropertyOp13
 70
     1
102
RTVSPropertyOp14
 70
     1
102
RTVSPropertyOp15
 70
     1
102
RTVSPropertyOp16
 70
     1
102
RTVSPropertyOp17
 70
     1
102
RTVSPropertyOp18
 70
     1
102
RTVSPropertyOp19
 70
     1
102
RTVSPropertyOp20
 70
     1
102
RTVSPropertyOp21
 70
     1
102
RTVSPropertyOp22
 70
     1
102
RTVSPropertyOp23
 70
     1
102
RTVSPropertyOp24
 70
     1
102
RTVSPropertyOp25
 70
     1
102
RTVSPropertyOp26
 70
     1
102
RTVSPropertyOp27
 70
     1
102
RTVSPropertyOp28
 70
     1
102
RTVSPropertyOp29
 70
     1
102
RTVSPropertyOp30
 70
     1
102
RTVSPropertyOp31
 70
     1
102
RTVSPropertyOp32
 70
     1
  0
XRECORD
  5
258
102
{ACAD_REACTORS
330
257
102
}
330
257
100
AcDbXrecord
280
     1
102
RTVSPropertyOp0
 70
     1
102
RTVSPropertyOp1
 70
     1
102
RTVSPropertyOp2
 70
     1
102
RTVSPropertyOp3
 70
     1
102
RTVSPropertyOp4
 70
     1
102
RTVSPropertyOp5
 70
     1
102
RTVSPropertyOp6
 70
     1
102
RTVSPropertyOp7
 70
     1
102
RTVSPropertyOp8
 70
     1
102
RTVSPropertyOp9
 70
     1
102
RTVSPropertyOp10
 70
     1
102
RTVSPropertyOp11
 70
     1
102
RTVSPropertyOp12
 70
     1
102
RTVSPropertyOp13
 70
     1
102
RTVSPropertyOp14
 70
     1
102
RTVSPropertyOp15
 70
     1
102
RTVSPropertyOp16
 70
     1
102
RTVSPropertyOp17
 70
     1
102
RTVSPropertyOp18
 70
     1
102
RTVSPropertyOp19
 70
     1
102
RTVSPropertyOp20
 70
     1
102
RTVSPropertyOp21
 70
     1
102
RTVSPropertyOp22
 70
     1
102
RTVSPropertyOp23
 70
     1
102
RTVSPropertyOp24
 70
     1
102
RTVSPropertyOp25
 70
     1
102
RTVSPropertyOp26
 70
     1
102
RTVSPropertyOp27
 70
     1
102
RTVSPropertyOp28
 70
     1
102
RTVSPropertyOp29
 70
     1
102
RTVSPropertyOp30
 70
     1
102
RTVSPropertyOp31
 70
     1
102
RTVSPropertyOp32
 70
     1
  0
XRECORD
  5
260
102
{ACAD_REACTORS
330
25F
102
}
330
25F
100
AcDbXrecord
280
     1
102
RTVSPropertyOp0
 70
     1
102
RTVSPropertyOp1
 70
     1
102
RTVSPropertyOp2
 70
     1
102
RTVSPropertyOp3
 70
     1
102
RTVSPropertyOp4
 70
     1
102
RTVSPropertyOp5
 70
     1
102
RTVSPropertyOp6
 70
     1
102
RTVSPropertyOp7
 70
     1
102
RTVSPropertyOp8
 70
     1
102
RTVSPropertyOp9
 70
     1
102
RTVSPropertyOp10
 70
     1
102
RTVSPropertyOp11
 70
     1
102
RTVSPropertyOp12
 70
     1
102
RTVSPropertyOp13
 70
     1
102
RTVSPropertyOp14
 70
     1
102
RTVSPropertyOp15
 70
     1
102
RTVSPropertyOp16
 70
     1
102
RTVSPropertyOp17
 70
     1
102
RTVSPropertyOp18
 70
     1
102
RTVSPropertyOp19
 70
     1
102
RTVSPropertyOp20
 70
     1
102
RTVSPropertyOp21
 70
     1
102
RTVSPropertyOp22
 70
     1
102
RTVSPropertyOp23
 70
     1
102
RTVSPropertyOp24
 70
     1
102
RTVSPropertyOp25
 70
     1
102
RTVSPropertyOp26
 70
     1
102
RTVSPropertyOp27
 70
     1
102
RTVSPropertyOp28
 70
     1
102
RTVSPropertyOp29
 70
     1
102
RTVSPropertyOp30
 70
     1
102
RTVSPropertyOp31
 70
     1
102
RTVSPropertyOp32
 70
     1
  0
ENDSEC
  0
EOF
