  0
SECTION
  2
HEADER
  9
$ACADVER
  1
AC1009
  9
$INSBASE
 10
0
 20
0
  9
$EXTMIN
 10
-220.326713376602
 20
94.86590043867331
  9
$EXTMAX
 10
12.83456231438073
 20
273.771018451397
  9
$LIMMIN
 10
-220.326713376602
 20
94.86590043867331
  9
$LIMMAX
 10
12.83456231438073
 20
273.771018451397
  9
$VIEWCTR
 10
10
 20
10
  9
$VIEWSIZE
 40
10
  9
$SNAPMODE
 70
0
  9
$SNAPUNIT
 10
1
 20
1
  9
$SNAPBASE
 10
0
 20
0
  9
$SNAPANG
 50
0
  9
$SNAPSTYLE
 70
0
  9
$SNAPISOPAIR
 70
0
  9
$GRIDMODE
 70
0
  9
$GRIDUNIT
 10
0
 20
0
  9
$ORTHOMODE
 70
0
  9
$REGENMODE
 70
1
  9
$FILLMODE
 70
1
  9
$QTEXTMODE
 70
0
  9
$DRAGMODE
 70
2
  9
$LTSCALE
 40
1
  9
$OSMODE
 70
0
  9
$ATTMODE
 70
1
  9
$TEXTSIZE
 40
3.5
  9
$TRACEWID
 40
0.5
  9
$TEXTSTYLE
  7
STANDARD
  9
$CLAYER
  8
0
  9
$CELTYPE
  6
BYLAYER
  9
$CECOLOR
 62
256
  9
$DIMSCALE
 40
1
  9
$DIMASZ
 40
0.18
  9
$DIMEXO
 40
0.0625
  9
$DIMDLI
 40
0.38
  9
$DIMRND
 40
0
  9
$DIMDLE
 40
0
  9
$DIMEXE
 40
0.18
  9
$DIMTP
 40
0
  9
$DIMTM
 40
0
  9
$DIMTXT
 40
0.18
  9
$DIMCEN
 40
0.09
  9
$DIMTSZ
 40
0
  9
$DIMTOL
 70
0
  9
$DIMLIM
 70
0
  9
$DIMTIH
 70
1
  9
$DIMTOH
 70
1
  9
$DIMSE1
 70
0
  9
$DIMSE2
 70
0
  9
$DIMTAD
 70
0
  9
$DIMZIN
 70
0
  9
$DIMBLK
  1

  9
$DIMASO
 70
1
  9
$DIMSHO
 70
1
  9
$DIMPOST
  1

  9
$DIMAPOST
  1

  9
$DIMALT
 70
0
  9
$DIMALTD
 70
2
  9
$DIMALTF
 40
25.4
  9
$DIMLFAC
 40
1
  9
$DIMTOFL
 70
0
  9
$DIMTVP
 40
0
  9
$DIMTIX
 70
0
  9
$DIMSOXD
 70
0
  9
$DIMSAH
 70
0
  9
$DIMBLK1
  1

  9
$DIMBLK2
  1

  9
$DIMSTYLE
  2
*UNNAMED
  9
$DIMCLRD
 70
0
  9
$DIMCLRE
 70
0
  9
$DIMCLRT
 70
0
  9
$DIMTFAC
 40
1
  9
$DIMGAP
 40
0.09
  9
$LUNITS
 70
2
  9
$LUPREC
 70
4
  9
$AXISMODE
 70
0
  9
$AXISUNIT
 10
0
 20
0
  9
$SKETCHINC
 40
0.1
  9
$FILLETRAD
 40
2
  9
$AUNITS
 70
0
  9
$AUPREC
 70
0
  9
$MENU
  1
ACAD
  9
$ELEVATION
 40
0
  9
$THICKNESS
 40
0
  9
$VIEWDIR
 10
0
 20
0
 30
1
  9
$LIMCHECK
 70
0
  9
$BLIPMODE
 70
1
  9
$CHAMFERA
 40
0
  9
$CHAMFERB
 40
0
  9
$FASTZOOM
 70
1
  9
$SKPOLY
 70
0
  9
$ANGBASE
 50
0
  9
$ANGDIR
 70
0
  9
$PDMODE
 70
0
  9
$PDSIZE
 40
0
  9
$PLINEWID
 40
0
  9
$COORDS
 70
2
  0
ENDSEC
  0
SECTION
  2
TABLES
  0
TABLE
  2
DIMSTYLE
 70
7
  0
DIMSTYLE
  2
DMST_1
 70
0
  3

  4

  5

  6

  7

 40
1
 41
3.2
 42
1
 43
7
 44
1
 45
0
 46
0
 47
0
 48
0
140
3.2
141
0
142
0
143
25.4
144
1
145
0
146
0.6
147
0.09
 71
1
 72
0
 73
0
 74
0
 75
0
 76
0
 77
1
 78
9
170
0
171
2
172
0
173
0
174
0
175
0
176
2
177
2
178
2
  0
DIMSTYLE
  2
DMST_2
 70
0
  3
MAX.
  4

  5

  6

  7

 40
1
 41
3.2
 42
1
 43
7
 44
1
 45
0
 46
0
 47
0
 48
0
140
3.2
141
0
142
0
143
25.4
144
1
145
0
146
1
147
0.09
 71
0
 72
0
 73
0
 74
0
 75
0
 76
0
 77
1
 78
9
170
0
171
2
172
0
173
0
174
0
175
0
176
2
177
2
178
2
  0
DIMSTYLE
  2
DMST_3
 70
0
  3

  4

  5

  6

  7

 40
1
 41
3.2
 42
1
 43
7
 44
1.5
 45
0
 46
0
 47
0.5
 48
0.5
140
3.2
141
0
142
0
143
25.4
144
1
145
0
146
0.7
147
0.09
 71
1
 72
0
 73
1
 74
1
 75
0
 76
0
 77
1
 78
9
170
0
171
2
172
0
173
0
174
0
175
0
176
2
177
2
178
2
  0
DIMSTYLE
  2
DMST_4
 70
0
  3

  4

  5

  6

  7

 40
1
 41
3.200000000000001
 42
1
 43
7
 44
1
 45
0
 46
0
 47
0.2
 48
0.2
140
3.200000000000001
141
0
142
0
143
25.4
144
1
145
0
146
0.6
147
0.09
 71
1
 72
0
 73
0
 74
0
 75
0
 76
0
 77
1
 78
9
170
0
171
2
172
0
173
0
174
0
175
0
176
2
177
2
178
2
  0
DIMSTYLE
  2
DMST_5
 70
0
  3

  4

  5

  6

  7

 40
1
 41
3.2
 42
0
 43
7
 44
1
 45
0
 46
0
 47
0
 48
0
140
3.2
141
0
142
0
143
25.4
144
1
145
0
146
0.6
147
0.09
 71
1
 72
0
 73
0
 74
0
 75
0
 76
0
 77
1
 78
9
170
0
171
2
172
0
173
0
174
0
175
0
176
2
177
2
178
2
  0
DIMSTYLE
  2
DMST_6
 70
0
  3
)
  4

  5

  6

  7

 40
1
 41
3.2
 42
1
 43
7
 44
1
 45
0
 46
0
 47
0
 48
0
140
3.2
141
0
142
0
143
25.4
144
1
145
0
146
1
147
0.09
 71
0
 72
0
 73
0
 74
0
 75
0
 76
0
 77
1
 78
9
170
0
171
2
172
0
173
0
174
0
175
0
176
2
177
2
178
2
  0
DIMSTYLE
  2
DMST_7
 70
0
  3
)
  4

  5

  6

  7

 40
1
 41
3.2
 42
1
 43
7
 44
1.5
 45
0
 46
0
 47
0
 48
0
140
3.2
141
0
142
0
143
25.4
144
1
145
0
146
1
147
0.09
 71
0
 72
0
 73
0
 74
0
 75
0
 76
0
 77
1
 78
9
170
0
171
2
172
0
173
0
174
0
175
0
176
2
177
2
178
2
  0
ENDTAB
  0
TABLE
  2
LTYPE
 70
9
  0
LTYPE
  2
CONTINUOUS
 70
64
  3
Solid line
 72
65
 73
0
 40
0
  0
LTYPE
  2
BORDER
 70
64
  3
__ __ . __ __ .
 72
65
 73
6
 40
10.7376903278742
 49
3.067911522249772
 49
-1.533955761124886
 49
3.067911522249772
 49
-1.533955761124886
 49
0
 49
-1.533955761124886
  0
LTYPE
  2
CENTER
 70
64
  3
____ _ ____ _
 72
65
 73
4
 40
12.27164608899909
 49
7.669778805624431
 49
-1.533955761124886
 49
1.533955761124886
 49
-1.533955761124886
  0
LTYPE
  2
DASHDOT
 70
64
  3
__ . __ . __ .
 72
65
 73
4
 40
6.135823044499545
 49
3.067911522249772
 49
-1.533955761124886
 49
0
 49
-1.533955761124886
  0
LTYPE
  2
DASHED
 70
64
  3
__ __ __ __ __
 72
65
 73
2
 40
4.601867283374658
 49
3.067911522249772
 49
-1.533955761124886
  0
LTYPE
  2
DIVIDE
 70
64
  3
__ . . __ . . 
 72
65
 73
6
 40
7.669778805624431
 49
3.067911522249772
 49
-1.533955761124886
 49
0
 49
-1.533955761124886
 49
0
 49
-1.533955761124886
  0
LTYPE
  2
DOT
 70
64
  3
..............
 72
65
 73
4
 40
3.067911522249772
 49
0
 49
-1.533955761124886
 49
0
 49
-1.533955761124886
  0
LTYPE
  2
HIDDEN
 70
64
  3
_ _ _ _ _ _ _
 72
65
 73
2
 40
2.300933641687329
 49
1.533955761124886
 49
-0.7669778805624431
  0
LTYPE
  2
PHANTOM
 70
64
  3
_____ _ _ _____ _ _ 
 72
65
 73
6
 40
15.33955761124886
 49
7.669778805624431
 49
-1.533955761124886
 49
1.533955761124886
 49
-1.533955761124886
 49
1.533955761124886
 49
-1.533955761124886
  0
ENDTAB
  0
TABLE
  2
LAYER
 70
5
  0
LAYER
  2
1
 70
0
 62
7
  6
CONTINUOUS
  0
LAYER
  2
2
 70
0
 62
7
  6
CONTINUOUS
  0
LAYER
  2
4
 70
0
 62
7
  6
CONTINUOUS
  0
LAYER
  2
0
 70
0
 62
7
  6
CONTINUOUS
  0
ENDTAB
  0
TABLE
  2
STYLE
 70
4
  0
STYLE
  2
STANDARD
 70
0
 40
0
 41
1
 50
0
 71
0
 42
3.5
  3
txt
  4

  0
STYLE
  2
SIMPLEX
 70
0
 40
0
 41
1
 50
0
 71
0
 42
3.5
  3
simplex
  4

  0
STYLE
  2
COMPLEX
 70
0
 40
0
 41
1
 50
0
 71
0
 42
3.5
  3
complex
  4

  0
STYLE
  2
ITALIC
 70
0
 40
0
 41
1
 50
0
 71
0
 42
3.5
  3
italic
  4

  0
ENDTAB
  0
TABLE
  2
VIEW
 70
0
  0
ENDTAB
  0
ENDSEC
  0
SECTION
  2
BLOCKS
  0
BLOCK
  8
1
  2
*D0
 70
1
 10
0
 20
0
 30
0
  0
LINE
  8
1
 62
2
 10
-78.70165302931716
 20
182.3589599336037
 30
0
 11
-78.70165302931716
 21
187.3589599336037
 31
0
  0
LINE
  8
1
 62
2
 10
-78.70165302931716
 20
182.3589599336037
 30
0
 11
-78.70165302931716
 21
175.9589599336037
 31
0
  0
LINE
  8
1
 62
2
 10
-78.70165302931716
 20
187.3589599336037
 30
0
 11
-78.70165302931716
 21
193.7589599336037
 31
0
  0
LINE
  8
1
 62
2
 10
-63.07773054787342
 20
182.3589599336037
 30
0
 11
-80.20165302931716
 21
182.3589599336037
 31
0
  0
LINE
  8
1
 62
2
 10
-63.07771009332792
 20
187.3589599336037
 30
0
 11
-80.20165302931716
 21
187.3589599336037
 31
0
  0
SOLID
  8
1
 62
2
 10
-78.70165302931716
 20
187.3589599336037
 30
0
 11
-79.11765302931715
 21
190.5589599336037
 31
0
 12
-78.28565302931716
 22
190.5589599336037
 32
0
 13
-78.28565302931716
 23
190.5589599336037
 33
0
  0
SOLID
  8
1
 62
2
 10
-78.70165302931716
 20
182.3589599336037
 30
0
 11
-78.28565302931716
 21
179.1589599336037
 31
0
 12
-79.11765302931715
 22
179.1589599336037
 32
0
 13
-79.11765302931715
 23
179.1589599336037
 33
0
  0
TEXT
  8
1
 62
2
 10
-81.90165302931716
 20
181.171789255381
 30
0
 40
3.200000000000001
  1
5
 50
90
 41
0.9
  0
TEXT
  8
1
 62
2
 10
-84.06165302931716
 20
184.6917892553811
 30
0
 40
2.240000000000001
  1
 0
 50
90
 41
0.9900000000000001
  0
TEXT
  8
1
 62
2
 10
-80.70165302931716
 20
184.6917892553811
 30
0
 40
2.240000000000001
  1
-0.011
 50
90
 41
0.9900000000000001
  0
TEXT
  8
1
 62
2
 10
-81.90165302931716
 20
175.9012010200869
 30
0
 40
3.200000000000001
  1
âË
 50
90
 41
1.35
  0
ENDBLK
  8
0
  0
BLOCK
  8
0
  2
*D1
 70
1
 10
0
 20
0
 30
0
  0
LINE
  8
0
 62
2
 10
-89.5597079055654
 20
173.8589599336038
 30
0
 11
-89.5597079055654
 21
195.8589599336037
 31
0
  0
LINE
  8
0
 62
2
 10
-41.07781009332789
 20
173.8589599336038
 30
0
 11
-90.5597079055654
 21
173.8589599336038
 31
0
  0
LINE
  8
0
 62
2
 10
-41.07771009332792
 20
195.8589599336037
 30
0
 11
-90.5597079055654
 21
195.8589599336037
 31
0
  0
SOLID
  8
0
 62
2
 10
-89.5597079055654
 20
195.8589599336037
 30
0
 11
-89.14370790556541
 21
192.6589599336037
 31
0
 12
-89.9757079055654
 22
192.6589599336037
 32
0
 13
-89.9757079055654
 23
192.6589599336037
 33
0
  0
SOLID
  8
0
 62
2
 10
-89.5597079055654
 20
173.8589599336038
 30
0
 11
-89.9757079055654
 21
177.0589599336038
 31
0
 12
-89.14370790556541
 22
177.0589599336038
 32
0
 13
-89.14370790556541
 23
177.0589599336038
 33
0
  0
TEXT
  8
0
 62
2
 10
-91.95970790556541
 20
180.1546721362569
 30
0
 40
3.2
  1
22
 50
90
 41
0.9
  0
TEXT
  8
0
 62
2
 10
-94.03970790556541
 20
186.5546721362569
 30
0
 40
1.92
  1
0
 50
90
 41
0.9
  0
TEXT
  8
0
 62
2
 10
-91.1597079055654
 20
186.5546721362569
 30
0
 40
1.92
  1
-0.05
 50
90
 41
0.9
  0
TEXT
  8
0
 62
2
 10
-91.95970790556541
 20
176.3146721362569
 30
0
 40
3.2
  1
%%c
 50
90
 41
0.9
  0
ENDBLK
  8
0
  0
BLOCK
  8
0
  2
*D2
 70
1
 10
0
 20
0
 30
0
  0
LINE
  8
0
 62
2
 10
-31.67771009332792
 20
224.334649389076
 30
0
 11
-38.07771009332792
 21
224.334649389076
 31
0
  0
LINE
  8
0
 62
2
 10
-40.07771009332792
 20
224.334649389076
 30
0
 11
-38.07771009332792
 21
224.334649389076
 31
0
  0
LINE
  8
0
 62
2
 10
-40.07771009332792
 20
224.334649389076
 30
0
 11
-49.92451561771709
 21
224.334649389076
 31
0
  0
LINE
  8
0
 62
2
 10
-40.07771009332792
 20
196.8589599336037
 30
0
 11
-40.07771009332792
 21
225.334649389076
 31
0
  0
LINE
  8
0
 62
2
 10
-38.07771009332792
 20
206.1661599336039
 30
0
 11
-38.07771009332792
 21
225.334649389076
 31
0
  0
SOLID
  8
0
 62
2
 10
-40.07771009332792
 20
224.334649389076
 30
0
 11
-43.27771009332793
 21
223.918649389076
 31
0
 12
-43.27771009332793
 22
224.750649389076
 32
0
 13
-43.27771009332793
 23
224.750649389076
 33
0
  0
SOLID
  8
0
 62
2
 10
-38.07771009332792
 20
224.334649389076
 30
0
 11
-34.87771009332792
 21
224.750649389076
 31
0
 12
-34.87771009332792
 22
223.918649389076
 32
0
 13
-34.87771009332792
 23
223.918649389076
 33
0
  0
TEXT
  8
0
 62
2
 10
-49.92451561771708
 20
225.934649389076
 30
0
 40
3.2
  1
2
 41
0.9
  0
TEXT
  8
0
 62
2
 10
-46.40451561771709
 20
226.574649389076
 30
0
 40
1.92
  1
%%p0.2
 41
0.9
  0
ENDBLK
  8
0
  0
BLOCK
  8
0
  2
*D3
 70
1
 10
0
 20
0
 30
0
  0
LINE
  8
0
 62
2
 10
-38.07771009332793
 20
236.1135783809709
 30
0
 11
-4.477710093327719
 21
236.1135783809709
 31
0
  0
LINE
  8
0
 62
2
 10
-38.07771009332793
 20
206.1661599336039
 30
0
 11
-38.07771009332793
 21
237.1135783809709
 31
0
  0
LINE
  8
0
 62
2
 10
-4.477710093327719
 20
205.8589599336037
 30
0
 11
-4.477710093327719
 21
237.1135783809709
 31
0
  0
SOLID
  8
0
 62
2
 10
-38.07771009332793
 20
236.1135783809709
 30
0
 11
-34.87771009332793
 21
236.5295783809709
 31
0
 12
-34.87771009332793
 22
235.6975783809709
 32
0
 13
-34.87771009332793
 23
235.6975783809709
 33
0
  0
SOLID
  8
0
 62
2
 10
-4.477710093327719
 20
236.1135783809709
 30
0
 11
-7.67771009332772
 21
235.6975783809709
 31
0
 12
-7.67771009332772
 22
236.5295783809709
 32
0
 13
-7.67771009332772
 23
236.5295783809709
 33
0
  0
TEXT
  8
0
 62
2
 10
-29.73261581352373
 20
237.7135783809709
 30
0
 40
3.2
  1
34
 41
0.9
  0
TEXT
  8
0
 62
2
 10
-23.33261581352373
 20
237.7135783809709
 30
0
 40
3.2
  1
MAX.
 41
0.9
  0
ENDBLK
  8
0
  0
BLOCK
  8
1
  2
*D4
 70
1
 10
0
 20
0
 30
0
  0
LINE
  8
1
 62
2
 10
-62.07771009332792
 20
236.144346591294
 30
0
 11
-38.07771009332792
 21
236.144346591294
 31
0
  0
LINE
  8
1
 62
2
 10
-62.07771009332792
 20
188.3589599336037
 30
0
 11
-62.07771009332792
 21
237.644346591294
 31
0
  0
LINE
  8
1
 62
2
 10
-38.07771009332792
 20
206.1661599336039
 30
0
 11
-38.07771009332792
 21
237.644346591294
 31
0
  0
SOLID
  8
1
 62
2
 10
-62.07771009332792
 20
236.144346591294
 30
0
 11
-58.87771009332792
 21
236.560346591294
 31
0
 12
-58.87771009332792
 22
235.728346591294
 32
0
 13
-58.87771009332792
 23
235.728346591294
 33
0
  0
SOLID
  8
1
 62
2
 10
-38.07771009332792
 20
236.144346591294
 30
0
 11
-41.27771009332793
 21
235.728346591294
 31
0
 12
-41.27771009332793
 22
236.560346591294
 32
0
 13
-41.27771009332793
 23
236.560346591294
 33
0
  0
TEXT
  8
1
 62
2
 10
-57.4860029107222
 20
238.144346591294
 30
0
 40
3.2
  1
24
 41
0.9
  0
TEXT
  8
1
 62
2
 10
-51.0860029107222
 20
238.624346591294
 30
0
 40
2.24
  1
%%p0.5
 41
0.9900000000000001
  0
ENDBLK
  8
0
  0
BLOCK
  8
1
  2
*D5
 70
1
 10
0
 20
0
 30
0
  0
LINE
  8
1
 62
2
 10
-114.5766973318547
 20
169.3589599336039
 30
0
 11
-114.5766973318547
 21
200.3589599336038
 31
0
  0
LINE
  8
1
 62
2
 10
-131.5766973318547
 20
169.3589599336039
 30
0
 11
-113.5766973318547
 21
169.3589599336039
 31
0
  0
LINE
  8
1
 62
2
 10
-131.5766973318547
 20
200.3589599336038
 30
0
 11
-113.5766973318547
 21
200.3589599336038
 31
0
  0
SOLID
  8
1
 62
2
 10
-114.5766973318547
 20
200.3589599336038
 30
0
 11
-114.1606973318547
 21
197.1589599336038
 31
0
 12
-114.9926973318547
 22
197.1589599336038
 32
0
 13
-114.9926973318547
 23
197.1589599336038
 33
0
  0
SOLID
  8
1
 62
2
 10
-114.5766973318547
 20
169.3589599336039
 30
0
 11
-114.9926973318547
 21
172.5589599336039
 31
0
 12
-114.1606973318547
 22
172.5589599336039
 32
0
 13
-114.1606973318547
 23
172.5589599336039
 33
0
  0
TEXT
  8
1
 62
2
 10
-116.5766973318547
 20
178.9336973946966
 30
0
 40
3.200000000000001
  1
31
 50
90
 41
0.9
  0
TEXT
  8
1
 62
2
 10
-117.2166973318547
 20
184.3736973946966
 30
0
 40
1.920000000000001
  1
%%p0.2
 50
90
 41
0.9
  0
ENDBLK
  8
0
  0
BLOCK
  8
0
  2
*D6
 70
1
 10
0
 20
0
 30
0
  0
LINE
  8
0
 62
2
 10
-166.0766873318548
 20
220.8589599336037
 30
0
 11
-135.0766973318548
 21
220.8589599336037
 31
0
  0
LINE
  8
0
 62
2
 10
-166.0766873318548
 20
202.8589599336037
 30
0
 11
-166.0766873318548
 21
221.8589599336037
 31
0
  0
LINE
  8
0
 62
2
 10
-135.0766973318548
 20
202.8589599336037
 30
0
 11
-135.0766973318548
 21
221.8589599336037
 31
0
  0
SOLID
  8
0
 62
2
 10
-166.0766873318548
 20
220.8589599336037
 30
0
 11
-162.8766873318548
 21
221.2749599336037
 31
0
 12
-162.8766873318548
 22
220.4429599336037
 32
0
 13
-162.8766873318548
 23
220.4429599336037
 33
0
  0
SOLID
  8
0
 62
2
 10
-135.0766973318548
 20
220.8589599336037
 30
0
 11
-138.2766973318548
 21
220.4429599336037
 31
0
 12
-138.2766973318548
 22
221.2749599336037
 32
0
 13
-138.2766973318548
 23
221.2749599336037
 33
0
  0
TEXT
  8
0
 62
2
 10
-155.7206973318548
 20
222.4589599336037
 30
0
 40
3.2
  1
31
 41
0.9
  0
TEXT
  8
0
 62
2
 10
-150.2806973318548
 20
223.0989599336037
 30
0
 40
1.92
  1
%%p0.2
 41
0.9
  0
ENDBLK
  8
0
  0
BLOCK
  8
0
  2
*D7
 70
1
 10
0
 20
0
 30
0
  0
LINE
  8
0
 62
2
 10
-171.5766985226742
 20
230.8589599336037
 30
0
 11
-129.5766973318549
 21
230.8589599336037
 31
0
  0
LINE
  8
0
 62
2
 10
-171.5766985226742
 20
201.8589611244232
 30
0
 11
-171.5766985226742
 21
231.8589599336037
 31
0
  0
LINE
  8
0
 62
2
 10
-129.5766973318549
 20
201.8589599336037
 30
0
 11
-129.5766973318549
 21
231.8589599336037
 31
0
  0
SOLID
  8
0
 62
2
 10
-171.5766985226742
 20
230.8589599336037
 30
0
 11
-168.3766985226742
 21
231.2749599336037
 31
0
 12
-168.3766985226742
 22
230.4429599336037
 32
0
 13
-168.3766985226742
 23
230.4429599336037
 33
0
  0
SOLID
  8
0
 62
2
 10
-129.5766973318549
 20
230.8589599336037
 30
0
 11
-132.7766973318549
 21
230.4429599336037
 31
0
 12
-132.7766973318549
 22
231.2749599336037
 32
0
 13
-132.7766973318549
 23
231.2749599336037
 33
0
  0
TEXT
  8
0
 62
2
 10
-152.9766979272646
 20
232.4589599336037
 30
0
 40
3.2
  1
42
 41
0.9
  0
TEXT
  8
0
 62
2
 10
-155.0566979272646
 20
232.4589599336037
 30
0
 40
3.2
  1
(
 41
0.9
  0
TEXT
  8
0
 62
2
 10
-146.5766979272646
 20
232.4589599336037
 30
0
 40
3.2
  1
)
 41
0.9
  0
ENDBLK
  8
0
  0
BLOCK
  8
1
  2
*D8
 70
1
 10
0
 20
0
 30
0
  0
LINE
  8
1
 62
2
 10
-192.408658603495
 20
163.8589599336037
 30
0
 11
-192.408658603495
 21
178.7676588359335
 31
0
  0
LINE
  8
1
 62
2
 10
-192.408658603495
 20
157.3794465019173
 30
0
 11
-192.408658603495
 21
163.8589599336037
 31
0
  0
LINE
  8
1
 62
2
 10
-192.408658603495
 20
150.9794465019173
 30
0
 11
-192.408658603495
 21
157.3794465019173
 31
0
  0
LINE
  8
1
 62
2
 10
-167.6766980854125
 20
163.8589599336037
 30
0
 11
-193.908658603495
 21
163.8589599336037
 31
0
  0
LINE
  8
1
 62
2
 10
-163.7266973318548
 20
157.3794465019173
 30
0
 11
-193.908658603495
 21
157.3794465019173
 31
0
  0
SOLID
  8
1
 62
2
 10
-192.408658603495
 20
157.3794465019173
 30
0
 11
-191.992658603495
 21
154.1794465019173
 31
0
 12
-192.824658603495
 22
154.1794465019173
 32
0
 13
-192.824658603495
 23
154.1794465019173
 33
0
  0
SOLID
  8
1
 62
2
 10
-192.408658603495
 20
163.8589599336037
 30
0
 11
-192.824658603495
 21
167.0589599336037
 31
0
 12
-191.992658603495
 22
167.0589599336037
 32
0
 13
-191.992658603495
 23
167.0589599336037
 33
0
  0
TEXT
  8
1
 62
2
 10
-194.408658603495
 20
166.2829529535805
 30
0
 40
3.2
  1
üª(6.5)
 50
90
 41
0.9
  0
ENDBLK
  8
0
  0
BLOCK
  8
1
  2
*D9
 70
1
 10
0
 20
0
 30
0
  0
LINE
  8
1
 62
2
 10
-192.408658603495
 20
103.4613818931461
 30
0
 11
-192.408658603495
 21
157.3794465019173
 31
0
  0
LINE
  8
1
 62
2
 10
-163.7266973318548
 20
157.3794465019173
 30
0
 11
-193.908658603495
 21
157.3794465019173
 31
0
  0
LINE
  8
1
 62
2
 10
-161.876697331855
 20
103.4613818931461
 30
0
 11
-193.908658603495
 21
103.4613818931461
 31
0
  0
SOLID
  8
1
 62
2
 10
-192.408658603495
 20
157.3794465019173
 30
0
 11
-191.992658603495
 21
154.1794465019173
 31
0
 12
-192.824658603495
 22
154.1794465019173
 32
0
 13
-192.824658603495
 23
154.1794465019173
 33
0
  0
SOLID
  8
1
 62
2
 10
-192.408658603495
 20
103.4613818931461
 30
0
 11
-192.824658603495
 21
106.6613818931461
 31
0
 12
-191.992658603495
 22
106.6613818931461
 32
0
 13
-191.992658603495
 23
106.6613818931461
 33
0
  0
TEXT
  8
1
 62
2
 10
-195.608658603495
 20
124.795807368312
 30
0
 40
3.2
  1
300
 50
90
 41
0.9
  0
TEXT
  8
1
 62
2
 10
-197.768658603495
 20
134.075807368312
 30
0
 40
2.24
  1
+40
 50
90
 41
0.9900000000000001
  0
TEXT
  8
1
 62
2
 10
-194.408658603495
 20
134.075807368312
 30
0
 40
2.24
  1
 0
 50
90
 41
0.9900000000000001
  0
ENDBLK
  8
0
  0
BLOCK
  8
1
  2
*D10
 70
1
 10
0
 20
0
 30
0
  0
LINE
  8
1
 62
2
 10
-183.173481882722
 20
106.9613818931461
 30
0
 11
-183.173481882722
 21
113.3613818931461
 31
0
  0
LINE
  8
1
 62
2
 10
-183.173481882722
 20
103.4613818931461
 30
0
 11
-183.173481882722
 21
97.06138189314609
 31
0
  0
LINE
  8
1
 62
2
 10
-183.173481882722
 20
103.4613818931461
 30
0
 11
-183.173481882722
 21
106.9613818931461
 31
0
  0
LINE
  8
1
 62
2
 10
-162.1966973318549
 20
106.9613818931461
 30
0
 11
-184.673481882722
 21
106.9613818931461
 31
0
  0
LINE
  8
1
 62
2
 10
-161.876697331855
 20
103.4613818931461
 30
0
 11
-184.673481882722
 21
103.4613818931461
 31
0
  0
SOLID
  8
1
 62
2
 10
-183.173481882722
 20
106.9613818931461
 30
0
 11
-183.589481882722
 21
110.1613818931461
 31
0
 12
-182.757481882722
 22
110.1613818931461
 32
0
 13
-182.757481882722
 23
110.1613818931461
 33
0
  0
SOLID
  8
1
 62
2
 10
-183.173481882722
 20
103.4613818931461
 30
0
 11
-182.757481882722
 21
100.2613818931461
 31
0
 12
-183.589481882722
 22
100.2613818931461
 32
0
 13
-183.589481882722
 23
100.2613818931461
 33
0
  0
TEXT
  8
1
 62
2
 10
-185.173481882722
 20
105.176664671026
 30
0
 40
3.2
  1
(3.5)
 50
90
 41
0.9
  0
ENDBLK
  8
0
  0
BLOCK
  8
1
  2
*D11
 70
1
 10
0
 20
0
 30
0
  0
LINE
  8
1
 62
2
 10
-104.5766973318547
 20
163.8589614084361
 30
0
 11
-104.5766973318547
 21
205.8589599336037
 31
0
  0
LINE
  8
1
 62
2
 10
-133.5766988066866
 20
163.8589614084361
 30
0
 11
-103.0766973318547
 21
163.8589614084361
 31
0
  0
LINE
  8
1
 62
2
 10
-133.5766973318548
 20
205.8589599336037
 30
0
 11
-103.0766973318547
 21
205.8589599336037
 31
0
  0
SOLID
  8
1
 62
2
 10
-104.5766973318547
 20
205.8589599336037
 30
0
 11
-104.1606973318547
 21
202.6589599336037
 31
0
 12
-104.9926973318547
 22
202.6589599336037
 32
0
 13
-104.9926973318547
 23
202.6589599336037
 33
0
  0
SOLID
  8
1
 62
2
 10
-104.5766973318547
 20
163.8589614084361
 30
0
 11
-104.9926973318547
 21
167.0589614084361
 31
0
 12
-104.1606973318547
 22
167.0589614084361
 32
0
 13
-104.1606973318547
 23
167.0589614084361
 33
0
  0
TEXT
  8
1
 62
2
 10
-106.5766973318547
 20
181.9337378083455
 30
0
 40
3.2
  1
42
 50
90
 41
0.9
  0
TEXT
  8
1
 62
2
 10
-106.5766973318547
 20
179.8537378083455
 30
0
 40
3.2
  1
(
 50
90
 41
0.9
  0
TEXT
  8
1
 62
2
 10
-106.5766973318547
 20
188.3337378083455
 30
0
 40
3.2
  1
)
 50
90
 41
0.9
  0
ENDBLK
  8
0
  0
BLOCK
  8
1
  2
*D12
 70
1
 10
0
 20
0
 30
0
  0
LINE
  8
1
 62
2
 10
-104.5766973318547
 20
170.2589614084362
 30
0
 11
-104.5766973318547
 21
163.8589614084362
 31
0
  0
LINE
  8
1
 62
2
 10
-104.5766973318547
 20
159.3089599336039
 30
0
 11
-104.5766973318547
 21
163.8589614084362
 31
0
  0
LINE
  8
1
 62
2
 10
-104.5766973318547
 20
159.3089599336039
 30
0
 11
-104.5766973318547
 21
146.0484840339716
 31
0
  0
LINE
  8
1
 62
2
 10
-137.6266973318549
 20
159.3089599336039
 30
0
 11
-103.0766973318547
 21
159.3089599336039
 31
0
  0
LINE
  8
1
 62
2
 10
-133.5766988066868
 20
163.8589614084362
 30
0
 11
-103.0766973318547
 21
163.8589614084362
 31
0
  0
SOLID
  8
1
 62
2
 10
-104.5766973318547
 20
163.8589614084362
 30
0
 11
-104.9926973318547
 21
167.0589614084362
 31
0
 12
-104.1606973318547
 22
167.0589614084362
 32
0
 13
-104.1606973318547
 23
167.0589614084362
 33
0
  0
SOLID
  8
1
 62
2
 10
-104.5766973318547
 20
159.3089599336039
 30
0
 11
-104.1606973318547
 21
156.1089599336039
 31
0
 12
-104.9926973318547
 22
156.1089599336039
 32
0
 13
-104.9926973318547
 23
156.1089599336039
 33
0
  0
TEXT
  8
1
 62
2
 10
-106.5766973318547
 20
148.1284840339716
 30
0
 40
3.2
  1
4.6
 50
90
 41
0.9
  0
TEXT
  8
1
 62
2
 10
-106.5766973318547
 20
146.0484840339716
 30
0
 40
3.2
  1
(
 50
90
 41
0.9
  0
TEXT
  8
1
 62
2
 10
-106.5766973318547
 20
155.5684840339716
 30
0
 40
3.2
  1
)
 50
90
 41
0.9
  0
ENDBLK
  8
0
  0
ENDSEC
  0
SECTION
  2
ENTITIES
  0
LINE
  8
1
 62
3
 10
-40.07774986605519
 20
187.3589599336037
 30
0
 11
-62.07771009332792
 21
187.3589599336037
 31
0
  0
LINE
  8
1
 62
2
 10
-8.82291267030881
 20
234.8612688218417
 30
0
 11
-8.82291267030881
 21
208.8612688218415
 31
0
  0
LINE
  8
1
 62
2
 10
-14.82291267030881
 20
208.8612688218415
 30
0
 11
-14.82291267030881
 21
234.8612688218417
 31
0
  0
LINE
  8
1
 62
2
 10
-14.82291267030881
 20
234.8612688218417
 30
0
 11
-8.82291267030881
 21
234.8612688218417
 31
0
  0
LINE
  8
1
 62
2
 10
-11.82291267030881
 20
210.3612688218415
 30
0
 11
-11.82291267030881
 21
212.8612688218415
 31
0
  0
LINE
  8
1
 62
2
 10
-9.32291267030881
 20
211.8612688218415
 30
0
 11
-14.32291267030881
 21
211.8612688218415
 31
0
  0
LINE
  8
1
 62
2
 10
-14.32291267030881
 20
211.8612688218415
 30
0
 11
-11.82291267030881
 21
210.3612688218415
 31
0
  0
LINE
  8
1
 62
2
 10
-14.82291267030881
 20
214.8612688218417
 30
0
 11
-8.82291267030881
 21
214.8612688218417
 31
0
  0
LINE
  8
1
 62
2
 10
-8.82291267030881
 20
208.8612688218415
 30
0
 11
-14.82291267030881
 21
208.8612688218415
 31
0
  0
LINE
  8
1
 62
2
 10
-17.96794099407246
 20
134.3587097978904
 30
0
 11
-11.06593087474447
 21
134.3587097978904
 31
0
  0
LINE
  8
1
 62
3
 10
-62.07773054787342
 20
182.3589599336037
 30
0
 11
-40.07777145696433
 21
182.3589599336037
 31
0
  0
LINE
  8
1
 62
3
 10
-37.57771009332792
 20
163.8589599336038
 30
0
 11
-16.17771009332789
 21
163.8589701842672
 31
0
  0
LINE
  8
1
 62
3
 10
-37.57771009332792
 20
205.8589599336037
 30
0
 11
-5.477710093327719
 21
205.8589599336037
 31
0
  0
LINE
  8
4
 62
7
 10
-19.57771009332792
 20
196.1681599336038
 30
0
 11
-19.57771009332792
 21
205.8589599336037
 31
0
  0
LINE
  8
4
 62
7
 10
-20.37771009332782
 20
197.4379599336038
 30
0
 11
-20.37771009332782
 21
205.8589599336037
 31
0
  0
LINE
  8
4
 62
7
 10
-21.17771009332795
 20
198.7077599336038
 30
0
 11
-21.17771009332795
 21
205.8589599336037
 31
0
  0
LINE
  8
4
 62
7
 10
-21.9777100933279
 20
199.9775599336037
 30
0
 11
-21.9777100933279
 21
205.8589599336037
 31
0
  0
LINE
  8
4
 62
7
 10
-22.7777100933278
 20
201.2473599336039
 30
0
 11
-22.7777100933278
 21
205.8589599336037
 31
0
  0
LINE
  8
4
 62
7
 10
-23.57771009332792
 20
202.5170599336038
 30
0
 11
-23.57771009332792
 21
205.8589599336037
 31
0
  0
LINE
  8
4
 62
7
 10
-17.97771009332801
 20
199.8589599336037
 30
0
 11
-17.97771009332801
 21
193.6286599336038
 31
0
  0
LINE
  8
4
 62
7
 10
-18.7777100933278
 20
199.8589599336037
 30
0
 11
-18.7777100933278
 21
194.8983599336038
 31
0
  0
LINE
  8
4
 62
7
 10
-26.8778100933278
 20
173.5496599336039
 30
0
 11
-26.8778100933278
 21
163.8588599336036
 31
0
  0
LINE
  8
4
 62
7
 10
-26.0778100933279
 20
172.2798599336039
 30
0
 11
-26.0778100933279
 21
163.8588599336036
 31
0
  0
LINE
  8
4
 62
7
 10
-25.27781009332794
 20
171.0100599336039
 30
0
 11
-25.27781009332794
 21
163.8588599336036
 31
0
  0
LINE
  8
4
 62
7
 10
-24.47781009332788
 20
169.7402599336037
 30
0
 11
-24.47781009332788
 21
163.8588599336036
 31
0
  0
LINE
  8
4
 62
7
 10
-23.67781009332792
 20
168.4705599336038
 30
0
 11
-23.67781009332792
 21
163.8588599336036
 31
0
  0
LINE
  8
4
 62
7
 10
-22.8778100933278
 20
167.2007599336038
 30
0
 11
-22.8778100933278
 21
163.8588599336036
 31
0
  0
LINE
  8
4
 62
7
 10
-27.67781009332792
 20
169.8588599336036
 30
0
 11
-27.67781009332792
 21
174.8194599336036
 31
0
  0
LINE
  8
1
 62
3
 10
-27.2777100933278
 20
169.8590599336038
 30
0
 11
-16.17771009332789
 21
169.8589599336038
 31
0
  0
LINE
  8
1
 62
3
 10
-27.2777100933278
 20
199.8589599336037
 30
0
 11
-19.17771009332789
 21
199.8589599336037
 31
0
  0
LINE
  8
1
 62
3
 10
-37.57771009332792
 20
205.8589599336037
 30
0
 11
-38.07771009332792
 21
205.1661599336039
 31
0
  0
LINE
  8
1
 62
3
 10
-19.17771009332789
 20
207.0401680771358
 30
0
 11
-7.768810093327815
 21
207.0401680771358
 31
0
  0
LINE
  8
1
 62
3
 10
-37.57771009332792
 20
163.8589599336038
 30
0
 11
-38.07771009332792
 21
164.5517599336038
 31
0
  0
LINE
  8
1
 62
3
 10
-40.07771009332792
 20
195.8589599336037
 30
0
 11
-38.07771009332792
 21
195.8589599336037
 31
0
  0
LINE
  8
1
 62
3
 10
-40.0778100933279
 20
173.8589599336038
 30
0
 11
-38.07771009332792
 21
173.8589599336038
 31
0
  0
LINE
  8
1
 62
3
 10
-40.0778100933279
 20
173.8589599336038
 30
0
 11
-40.07771009332792
 21
195.8589599336037
 31
0
  0
LINE
  8
1
 62
3
 10
-30.17767305805124
 20
199.8589599336037
 30
0
 11
-30.17767305805124
 21
205.8589599336037
 31
0
  0
LINE
  8
1
 62
3
 10
-30.1776100933278
 20
199.8589599336037
 30
0
 11
-27.2777100933278
 21
199.8589599336037
 31
0
  0
LINE
  8
1
 62
3
 10
-16.17771009332789
 20
199.8589599336037
 30
0
 11
-16.17771009332789
 21
205.8589599336037
 31
0
  0
LINE
  8
1
 62
3
 10
-19.17771009332789
 20
199.8589599336037
 30
0
 11
-16.17771009332789
 21
199.8589599336037
 31
0
  0
LINE
  8
1
 62
3
 10
-30.1776100933278
 20
199.8589599336037
 30
0
 11
-30.17771009332794
 21
169.8589599336038
 31
0
  0
LINE
  8
1
 62
3
 10
-30.17771009332794
 20
169.8589599336038
 30
0
 11
-27.2777100933278
 21
169.8590599336038
 31
0
  0
LINE
  8
1
 62
3
 10
-30.17767305805124
 20
169.8590599336038
 30
0
 11
-30.17777305805121
 21
163.8589599336038
 31
0
  0
LINE
  8
1
 62
3
 10
-16.17771009332789
 20
199.8589599336037
 30
0
 11
-16.17771009332789
 21
169.8589599336038
 31
0
  0
LINE
  8
1
 62
3
 10
-16.17771009332789
 20
169.8589599336038
 30
0
 11
-19.17771009332789
 21
169.8589599336038
 31
0
  0
LINE
  8
1
 62
3
 10
-38.07771009332792
 20
174.8589599336038
 30
0
 11
-38.07771009332792
 21
205.1661599336039
 31
0
  0
LINE
  8
1
 62
3
 10
-38.07771009332792
 20
174.8589599336038
 30
0
 11
-38.07771009332792
 21
164.5517599336038
 31
0
  0
LINE
  8
1
 62
3
 10
-4.477710093327718
 20
204.8589599336037
 30
0
 11
-4.477725093327794
 21
164.8589599336038
 31
0
  0
LINE
  8
1
 62
1
 10
-64.57771918426288
 20
184.8589599336037
 30
0
 11
-0.6156068282094993
 21
184.8589599336037
 31
0
  0
LINE
  8
1
 62
3
 10
-16.17771009332789
 20
161.8589599336038
 30
0
 11
-16.17771009332789
 21
169.8589599336038
 31
0
  0
LINE
  8
1
 62
3
 10
-16.17771009332789
 20
161.8589599336038
 30
0
 11
-5.477721595328522
 21
161.8589599336038
 31
0
  0
LINE
  8
1
 62
3
 10
-4.477721595330112
 20
162.8589616826042
 30
0
 11
-4.477725093327794
 21
164.8589599336038
 31
0
  0
LINE
  8
1
 62
3
 10
-16.17771009332789
 20
161.8589599336038
 30
0
 11
-16.17771009332789
 21
160.3089599336039
 31
0
  0
LINE
  8
1
 62
3
 10
-16.17771009332789
 20
159.3089599336039
 30
0
 11
-16.17771009332789
 21
160.3089599336039
 31
0
  0
LINE
  8
1
 62
3
 10
-16.17771009332789
 20
161.8589599336038
 30
0
 11
-16.17771009332789
 21
160.3089599336039
 31
0
  0
LINE
  8
1
 62
3
 10
-16.17771009332789
 20
160.3089599336039
 30
0
 11
-10.77771009332791
 21
160.3089599336039
 31
0
  0
LINE
  8
1
 62
3
 10
-10.77771009332791
 20
160.3089599336039
 30
0
 11
-10.7777100933278
 21
161.8589599336038
 31
0
  0
LINE
  8
1
 62
3
 10
-11.37771009332788
 20
160.3089599336039
 30
0
 11
-11.37771009332788
 21
159.3089599336039
 31
0
  0
LINE
  8
1
 62
3
 10
-11.37771009332788
 20
159.3089599336039
 30
0
 11
-16.17771009332789
 21
159.3089599336039
 31
0
  0
LINE
  8
1
 62
3
 10
-16.17771009332789
 20
159.3089599336039
 30
0
 11
-16.17771009332789
 21
160.3089599336039
 31
0
  0
LINE
  8
1
 62
3
 10
-11.9280621360894
 20
159.3089599336039
 30
0
 11
-11.9280621360894
 21
158.7089599336039
 31
0
  0
LINE
  8
1
 62
3
 10
-11.9280621360894
 20
158.7089599336039
 30
0
 11
-11.29127037814378
 21
157.358959933604
 31
0
  0
LINE
  8
1
 62
3
 10
-15.72607012097909
 20
157.358959933604
 30
0
 11
-11.29127037814378
 21
157.358959933604
 31
0
  0
LINE
  8
1
 62
3
 10
-15.29396142808729
 20
156.858959933604
 30
0
 11
-15.29396142808729
 21
157.358959933604
 31
0
  0
LINE
  8
1
 62
3
 10
-12.5648538940349
 20
156.858959933604
 30
0
 11
-12.5648538940349
 21
157.358959933604
 31
0
  0
LINE
  8
1
 62
3
 10
-15.29396142808729
 20
156.858959933604
 30
0
 11
-12.5648538940349
 21
156.858959933604
 31
0
  0
LINE
  8
1
 62
3
 10
-13.32396142808743
 20
156.858959933604
 30
0
 11
-13.32396142808743
 21
134.3587097978904
 31
0
  0
LINE
  8
1
 62
3
 10
-14.56396142808744
 20
134.3587097978904
 30
0
 11
-14.56396142808744
 21
156.858959933604
 31
0
  0
LINE
  8
1
 62
3
 10
-15.57771009332792
 20
160.3089599336039
 30
0
 11
-15.57771009332792
 21
159.3089599336039
 31
0
  0
LINE
  8
1
 62
3
 10
-15.2777100933278
 20
160.3089599336039
 30
0
 11
-15.2777100933278
 21
159.3089599336039
 31
0
  0
LINE
  8
1
 62
3
 10
-11.9280621360894
 20
158.7089599336039
 30
0
 11
-16.17771009332789
 21
158.7089599336039
 31
0
  0
LINE
  8
1
 62
3
 10
-16.17771009332789
 20
159.3089599336039
 30
0
 11
-16.17771009332789
 21
157.0089599336039
 31
0
  0
LINE
  8
1
 62
3
 10
-16.17771009332789
 20
157.0089599336039
 30
0
 11
-15.29396142808729
 21
157.0089599336039
 31
0
  0
LINE
  8
1
 62
3
 10
-15.72607012097909
 20
158.7089599336039
 30
0
 11
-15.72607012097909
 21
157.358959933604
 31
0
  0
LINE
  8
1
 62
3
 10
-62.07771009332792
 20
187.3589599336037
 30
0
 11
-62.07771009332792
 21
182.3589599336037
 31
0
  0
LINE
  8
1
 62
7
 10
-27.67781009332792
 20
169.8588599336036
 30
0
 11
-27.67781009332792
 21
163.8589646756852
 31
0
  0
LINE
  8
1
 62
7
 10
-28.47781009332792
 20
176.0892432669369
 30
0
 11
-28.47781009332792
 21
163.8589642924829
 31
0
  0
LINE
  8
1
 62
7
 10
-29.27781009332792
 20
177.3590266002702
 30
0
 11
-29.27781009332792
 21
163.8589639092805
 31
0
  0
LINE
  8
1
 62
7
 10
-18.7777100933278
 20
199.8589599336037
 30
0
 11
-18.7777100933278
 21
205.8589599336037
 31
0
  0
LINE
  8
1
 62
7
 10
-17.97771009332801
 20
199.8589599336037
 30
0
 11
-17.97771009332801
 21
205.8589599336037
 31
0
  0
LINE
  8
1
 62
7
 10
-17.17771009332801
 20
192.3588885050324
 30
0
 11
-17.17771009332801
 21
205.8589599336037
 31
0
  0
LINE
  8
1
 62
3
 10
-134.5766973318548
 20
205.8589599336037
 30
0
 11
-166.5766985226744
 21
205.8589599336037
 31
0
  0
LINE
  8
1
 62
3
 10
-139.1373869804629
 20
159.0794465019173
 30
0
 11
-138.3873869804629
 21
157.8794465019173
 31
0
  0
LINE
  8
1
 62
3
 10
-161.9766973318548
 20
159.0794465019173
 30
0
 11
-162.7266973318548
 21
157.8794465019173
 31
0
  0
LINE
  8
1
 62
3
 10
-162.7266973318548
 20
157.8794465019173
 30
0
 11
-138.3873869804629
 21
157.8794465019173
 31
0
  0
LINE
  8
1
 62
3
 10
-141.976697331855
 20
157.8794465019173
 30
0
 11
-141.976697331855
 21
157.3794465019173
 31
0
  0
LINE
  8
1
 62
3
 10
-141.976697331855
 20
157.3794465019173
 30
0
 11
-141.1766973318548
 21
157.3794465019173
 31
0
  0
LINE
  8
1
 62
3
 10
-141.1766973318548
 20
157.3794465019173
 30
0
 11
-141.1766973318548
 21
157.8794465019173
 31
0
  0
LINE
  8
1
 62
3
 10
-143.976697331855
 20
157.8794465019173
 30
0
 11
-143.976697331855
 21
157.3794465019173
 31
0
  0
LINE
  8
1
 62
3
 10
-143.976697331855
 20
157.3794465019173
 30
0
 11
-143.1766973318548
 21
157.3794465019173
 31
0
  0
LINE
  8
1
 62
3
 10
-143.1766973318548
 20
157.3794465019173
 30
0
 11
-143.1766973318548
 21
157.8794465019173
 31
0
  0
LINE
  8
1
 62
3
 10
-145.976697331855
 20
157.8794465019173
 30
0
 11
-145.976697331855
 21
157.3794465019173
 31
0
  0
LINE
  8
1
 62
3
 10
-145.976697331855
 20
157.3794465019173
 30
0
 11
-145.1766973318548
 21
157.3794465019173
 31
0
  0
LINE
  8
1
 62
3
 10
-145.1766973318548
 20
157.3794465019173
 30
0
 11
-145.1766973318548
 21
157.8794465019173
 31
0
  0
LINE
  8
1
 62
3
 10
-147.976697331855
 20
157.8794465019173
 30
0
 11
-147.976697331855
 21
157.3794465019173
 31
0
  0
LINE
  8
1
 62
3
 10
-147.976697331855
 20
157.3794465019173
 30
0
 11
-147.1766973318548
 21
157.3794465019173
 31
0
  0
LINE
  8
1
 62
3
 10
-147.1766973318548
 20
157.3794465019173
 30
0
 11
-147.1766973318548
 21
157.8794465019173
 31
0
  0
LINE
  8
1
 62
3
 10
-149.976697331855
 20
157.8794465019173
 30
0
 11
-149.976697331855
 21
157.3794465019173
 31
0
  0
LINE
  8
1
 62
3
 10
-149.976697331855
 20
157.3794465019173
 30
0
 11
-149.1766973318548
 21
157.3794465019173
 31
0
  0
LINE
  8
1
 62
3
 10
-149.1766973318548
 20
157.3794465019173
 30
0
 11
-149.1766973318548
 21
157.8794465019173
 31
0
  0
LINE
  8
1
 62
3
 10
-151.976697331855
 20
157.8794465019173
 30
0
 11
-151.976697331855
 21
157.3794465019173
 31
0
  0
LINE
  8
1
 62
3
 10
-151.976697331855
 20
157.3794465019173
 30
0
 11
-151.1766973318548
 21
157.3794465019173
 31
0
  0
LINE
  8
1
 62
3
 10
-151.1766973318548
 20
157.3794465019173
 30
0
 11
-151.1766973318548
 21
157.8794465019173
 31
0
  0
LINE
  8
1
 62
3
 10
-153.976697331855
 20
157.8794465019173
 30
0
 11
-153.976697331855
 21
157.3794465019173
 31
0
  0
LINE
  8
1
 62
3
 10
-153.976697331855
 20
157.3794465019173
 30
0
 11
-153.1766973318548
 21
157.3794465019173
 31
0
  0
LINE
  8
1
 62
3
 10
-153.1766973318548
 20
157.3794465019173
 30
0
 11
-153.1766973318548
 21
157.8794465019173
 31
0
  0
LINE
  8
1
 62
3
 10
-155.976697331855
 20
157.8794465019173
 30
0
 11
-155.976697331855
 21
157.3794465019173
 31
0
  0
LINE
  8
1
 62
3
 10
-155.976697331855
 20
157.3794465019173
 30
0
 11
-155.1766973318548
 21
157.3794465019173
 31
0
  0
LINE
  8
1
 62
3
 10
-155.1766973318548
 20
157.3794465019173
 30
0
 11
-155.1766973318548
 21
157.8794465019173
 31
0
  0
LINE
  8
1
 62
3
 10
-157.976697331855
 20
157.8794465019173
 30
0
 11
-157.976697331855
 21
157.3794465019173
 31
0
  0
LINE
  8
1
 62
3
 10
-157.976697331855
 20
157.3794465019173
 30
0
 11
-157.1766973318551
 21
157.3794465019173
 31
0
  0
LINE
  8
1
 62
3
 10
-157.1766973318551
 20
157.3794465019173
 30
0
 11
-157.1766973318551
 21
157.8794465019173
 31
0
  0
LINE
  8
1
 62
3
 10
-159.976697331855
 20
157.8794465019173
 30
0
 11
-159.976697331855
 21
157.3794465019173
 31
0
  0
LINE
  8
1
 62
3
 10
-159.976697331855
 20
157.3794465019173
 30
0
 11
-159.1766973318551
 21
157.3794465019173
 31
0
  0
LINE
  8
1
 62
3
 10
-159.1766973318551
 20
157.3794465019173
 30
0
 11
-159.1766973318551
 21
157.8794465019173
 31
0
  0
LINE
  8
1
 62
3
 10
-161.1766973318551
 20
157.3794465019173
 30
0
 11
-162.7266973318548
 21
157.3794465019173
 31
0
  0
LINE
  8
1
 62
3
 10
-162.7266973318548
 20
157.3794465019173
 30
0
 11
-162.7266973318548
 21
157.8794465019173
 31
0
  0
LINE
  8
1
 62
3
 10
-138.3873869804629
 20
157.8794465019173
 30
0
 11
-138.3873869804629
 21
157.3794465019173
 31
0
  0
LINE
  8
1
 62
3
 10
-138.3873869804629
 20
157.3794465019173
 30
0
 11
-139.976697331855
 21
157.3794465019173
 31
0
  0
LINE
  8
1
 62
3
 10
-159.1766973318551
 20
157.8794465019173
 30
0
 11
-159.1766973318551
 21
163.8589639163381
 31
0
  0
LINE
  8
1
 62
3
 10
-158.1766973318551
 20
163.8589639163381
 30
0
 11
-158.1766973318551
 21
158.0947871342405
 31
0
  0
LINE
  8
1
 62
3
 10
-158.1766973318551
 20
158.0947871342405
 30
0
 11
-142.976697331855
 21
158.0947871342405
 31
0
  0
LINE
  8
1
 62
3
 10
-142.976697331855
 20
158.0947871342405
 30
0
 11
-142.976697331855
 21
163.8589639163381
 31
0
  0
LINE
  8
1
 62
3
 10
-141.976697331855
 20
157.8794465019173
 30
0
 11
-141.976697331855
 21
163.8589639163381
 31
0
  0
LINE
  8
1
 62
3
 10
-158.1766973318551
 20
159.3089599336038
 30
0
 11
-142.976697331855
 21
159.3089599336038
 31
0
  0
LINE
  8
1
 62
3
 10
-161.1766973318551
 20
157.3794465019173
 30
0
 11
-161.1766973318551
 21
157.8794465019173
 31
0
  0
LINE
  8
1
 62
3
 10
-139.976697331855
 20
157.3794465019173
 30
0
 11
-139.976697331855
 21
157.8794465019173
 31
0
  0
LINE
  8
1
 62
3
 10
-161.1966973318549
 20
154.0029554321373
 30
0
 11
-161.1966973318549
 21
157.3794465019173
 31
0
  0
LINE
  8
1
 62
3
 10
-159.9566973318549
 20
154.0029554321373
 30
0
 11
-159.9566973318549
 21
157.3794465019173
 31
0
  0
LINE
  8
1
 62
3
 10
-157.1966973318549
 20
154.0029554321373
 30
0
 11
-157.1966973318549
 21
157.3794465019173
 31
0
  0
LINE
  8
1
 62
3
 10
-155.9566973318549
 20
154.0029554321373
 30
0
 11
-155.9566973318549
 21
157.3794465019173
 31
0
  0
LINE
  8
1
 62
3
 10
-153.1966973318549
 20
154.0029554321373
 30
0
 11
-153.1966973318549
 21
157.3794465019173
 31
0
  0
LINE
  8
1
 62
3
 10
-151.9566973318549
 20
154.0029554321373
 30
0
 11
-151.9566973318549
 21
157.3794465019173
 31
0
  0
LINE
  8
1
 62
3
 10
-149.1966973318549
 20
154.0029554321373
 30
0
 11
-149.1966973318549
 21
157.3794465019173
 31
0
  0
LINE
  8
1
 62
3
 10
-147.9566973318549
 20
154.0029554321373
 30
0
 11
-147.9566973318549
 21
157.3794465019173
 31
0
  0
LINE
  8
1
 62
3
 10
-145.1966973318549
 20
154.0029554321373
 30
0
 11
-145.1966973318549
 21
157.3794465019173
 31
0
  0
LINE
  8
1
 62
3
 10
-143.9566973318549
 20
154.0029554321373
 30
0
 11
-143.9566973318549
 21
157.3794465019173
 31
0
  0
LINE
  8
1
 62
3
 10
-141.1966973318549
 20
154.0029554321373
 30
0
 11
-141.1966973318549
 21
157.3794465019173
 31
0
  0
LINE
  8
1
 62
3
 10
-139.9566973318549
 20
154.0029554321373
 30
0
 11
-139.9566973318549
 21
157.3794465019173
 31
0
  0
LINE
  8
1
 62
3
 10
-161.1966973318549
 20
154.0029554321373
 30
0
 11
-161.1966973318549
 21
146.1291923558029
 31
0
  0
LINE
  8
1
 62
3
 10
-159.9566973318549
 20
146.1291923558029
 30
0
 11
-159.9566973318549
 21
154.0029554321373
 31
0
  0
LINE
  8
1
 62
3
 10
-157.1966973318549
 20
146.1291923558029
 30
0
 11
-157.1966973318549
 21
154.0029554321373
 31
0
  0
LINE
  8
1
 62
3
 10
-155.9566973318549
 20
146.1291923558029
 30
0
 11
-155.9566973318549
 21
154.0029554321373
 31
0
  0
LINE
  8
1
 62
3
 10
-153.1966973318549
 20
146.1291923558029
 30
0
 11
-153.1966973318549
 21
154.0029554321373
 31
0
  0
LINE
  8
1
 62
3
 10
-151.9566973318549
 20
146.1291923558029
 30
0
 11
-151.9566973318549
 21
154.0029554321373
 31
0
  0
LINE
  8
1
 62
3
 10
-149.1966973318549
 20
146.1291923558029
 30
0
 11
-149.1966973318549
 21
154.0029554321373
 31
0
  0
LINE
  8
1
 62
3
 10
-147.9566973318549
 20
146.1291923558029
 30
0
 11
-147.9566973318549
 21
154.0029554321373
 31
0
  0
LINE
  8
1
 62
3
 10
-145.1966973318549
 20
146.1291923558029
 30
0
 11
-145.1966973318549
 21
154.0029554321373
 31
0
  0
LINE
  8
1
 62
3
 10
-143.9566973318549
 20
146.1291923558029
 30
0
 11
-143.9566973318549
 21
154.0029554321373
 31
0
  0
LINE
  8
1
 62
3
 10
-141.1966973318549
 20
146.1291923558029
 30
0
 11
-141.1966973318549
 21
154.0029554321373
 31
0
  0
LINE
  8
1
 62
3
 10
-139.9566973318549
 20
146.1291923558029
 30
0
 11
-139.9566973318549
 21
154.0029554321373
 31
0
  0
LINE
  8
1
 62
3
 10
-166.576707618749
 20
163.8589708473632
 30
0
 11
-134.5766988066869
 21
163.8589614084361
 31
0
  0
LINE
  8
1
 62
3
 10
-171.5767061439169
 20
168.8589720381826
 30
0
 11
-171.5766985226742
 21
200.8589611244232
 31
0
  0
LINE
  8
1
 62
3
 10
-163.5702531720106
 20
161.8589599336037
 30
0
 11
-163.526697331855
 21
161.8589599336037
 31
0
  0
LINE
  8
2
 62
1
 10
-150.5766973318548
 20
162.8589599336037
 30
0
 11
-150.5766973318548
 21
209.8589599336037
 31
0
  0
LINE
  8
2
 62
1
 10
-137.5766973318548
 20
200.3589599336037
 30
0
 11
-132.5766973318548
 21
200.3589599336037
 31
0
  0
LINE
  8
2
 62
1
 10
-135.0766973318548
 20
197.8589599336037
 30
0
 11
-135.0766973318548
 21
202.8589599336037
 31
0
  0
LINE
  8
2
 62
1
 10
-166.0766873318548
 20
197.8589599336037
 30
0
 11
-166.0766873318548
 21
202.8589599336037
 31
0
  0
LINE
  8
2
 62
1
 10
-163.5766973318548
 20
200.3589599336037
 30
0
 11
-168.5766973318548
 21
200.3589599336037
 31
0
  0
LINE
  8
2
 62
1
 10
-163.5766973318548
 20
169.3589599336037
 30
0
 11
-168.5766973318548
 21
169.3589599336037
 31
0
  0
LINE
  8
2
 62
1
 10
-166.0767073318548
 20
171.8589599336037
 30
0
 11
-166.0767073318548
 21
166.8589599336037
 31
0
  0
LINE
  8
2
 62
1
 10
-135.0766973318548
 20
171.8589599336037
 30
0
 11
-135.0766973318548
 21
166.8589599336037
 31
0
  0
LINE
  8
2
 62
1
 10
-137.5766973318548
 20
169.3589599336037
 30
0
 11
-132.5766973318548
 21
169.3589599336037
 31
0
  0
LINE
  8
1
 62
3
 10
-129.5766973318548
 20
168.8589614084359
 30
0
 11
-129.5766973318548
 21
200.8589599336037
 31
0
  0
LINE
  8
1
 62
3
 10
-162.5766973318548
 20
206.8589599336037
 30
0
 11
-138.5766973318548
 21
206.8589599336037
 31
0
  0
LINE
  8
1
 62
3
 10
-163.2266973318548
 20
162.1589599336036
 30
0
 11
-163.2266973318548
 21
163.8589599336037
 31
0
  0
LINE
  8
1
 62
3
 10
-137.9266973318548
 20
163.8589599336037
 30
0
 11
-137.9266973318548
 21
162.1589599336036
 31
0
  0
LINE
  8
1
 62
3
 10
-137.6266973318549
 20
161.8589599336037
 30
0
 11
-137.5831429988141
 21
161.8589599336037
 31
0
  0
LINE
  8
1
 62
3
 10
-163.0766973318548
 20
160.3089599336038
 30
0
 11
-163.0766973318548
 21
163.8589599336037
 31
0
  0
LINE
  8
1
 62
3
 10
-138.0766973318548
 20
160.3089599336038
 30
0
 11
-138.0766973318548
 21
163.8589599336037
 31
0
  0
LINE
  8
1
 62
3
 10
-163.0766973318548
 20
160.3089599336038
 30
0
 11
-162.5766973318548
 21
160.3089599336038
 31
0
  0
LINE
  8
1
 62
3
 10
-162.5766973318548
 20
160.3089599336038
 30
0
 11
-162.5766973318548
 21
163.8589599336037
 31
0
  0
LINE
  8
1
 62
3
 10
-138.5766973318548
 20
163.8589599336037
 30
0
 11
-138.5766973318548
 21
160.3089599336038
 31
0
  0
LINE
  8
1
 62
3
 10
-138.5766973318548
 20
160.3089599336038
 30
0
 11
-138.0766973318548
 21
160.3089599336038
 31
0
  0
LINE
  8
1
 62
3
 10
-162.526697331855
 20
159.3089599336038
 30
0
 11
-162.526697331855
 21
163.8589599336037
 31
0
  0
LINE
  8
1
 62
3
 10
-138.6266973318549
 20
159.3089599336038
 30
0
 11
-138.6266973318549
 21
163.8589599336037
 31
0
  0
LINE
  8
1
 62
3
 10
-162.526697331855
 20
159.3089599336038
 30
0
 11
-159.1766973318551
 21
159.3089599336038
 31
0
  0
LINE
  8
1
 62
3
 10
-161.9766973318548
 20
163.8589599336037
 30
0
 11
-161.9766973318548
 21
161.2089599336037
 31
0
  0
LINE
  8
1
 62
3
 10
-161.9766973318548
 20
161.2089599336037
 30
0
 11
-160.9766973318548
 21
161.2089599336037
 31
0
  0
LINE
  8
1
 62
3
 10
-160.9766973318548
 20
161.2089599336037
 30
0
 11
-160.9766973318548
 21
163.8589599336037
 31
0
  0
LINE
  8
1
 62
3
 10
-139.1766973318548
 20
163.8589599336037
 30
0
 11
-139.1766973318548
 21
161.2089599336037
 31
0
  0
LINE
  8
1
 62
3
 10
-139.1766973318548
 20
161.2089599336037
 30
0
 11
-140.1766973318548
 21
161.2089599336037
 31
0
  0
LINE
  8
1
 62
3
 10
-140.1766973318548
 20
161.2089599336037
 30
0
 11
-140.1766973318548
 21
163.8589599336037
 31
0
  0
LINE
  8
1
 62
3
 10
-137.5831429988141
 20
161.8589599336037
 30
0
 11
-138.0766973318548
 21
161.8589599336037
 31
0
  0
LINE
  8
1
 62
3
 10
-163.0766973318548
 20
161.8589599336037
 30
0
 11
-163.5702531720106
 21
161.8589599336037
 31
0
  0
LINE
  8
1
 62
3
 10
-141.976697331855
 20
159.3089599336038
 30
0
 11
-138.6266973318549
 21
159.3089599336038
 31
0
  0
LINE
  8
1
 62
3
 10
-139.1373869804629
 20
159.0794465019173
 30
0
 11
-139.1373869804629
 21
159.3089599336038
 31
0
  0
LINE
  8
1
 62
3
 10
-161.9766973318548
 20
159.0794465019173
 30
0
 11
-161.9766973318548
 21
159.3089599336038
 31
0
  0
LINE
  8
1
 62
3
 10
-161.9766973318548
 20
161.3589599336037
 30
0
 11
-160.9766973318548
 21
161.3589599336037
 31
0
  0
LINE
  8
1
 62
3
 10
-161.9766973318548
 20
161.7589599336037
 30
0
 11
-160.9766973318548
 21
161.7589599336037
 31
0
  0
LINE
  8
1
 62
3
 10
-161.9766973318548
 20
161.9089599336036
 30
0
 11
-160.9766973318548
 21
161.9089599336036
 31
0
  0
LINE
  8
1
 62
3
 10
-140.1766973318548
 20
161.3589599336037
 30
0
 11
-139.1766973318548
 21
161.3589599336037
 31
0
  0
LINE
  8
1
 62
3
 10
-140.1766973318548
 20
161.7589599336037
 30
0
 11
-139.1766973318548
 21
161.7589599336037
 31
0
  0
LINE
  8
1
 62
3
 10
-140.1766973318548
 20
161.9089599336036
 30
0
 11
-139.1766973318548
 21
161.9089599336036
 31
0
  0
LINE
  8
2
 62
1
 10
-177.4981773318548
 20
184.8589599336037
 30
0
 11
-124.0771973318549
 21
184.8589599336037
 31
0
  0
LINE
  8
1
 62
3
 10
-161.1966973318549
 20
106.9613818931461
 30
0
 11
-159.9566973318549
 21
106.9613818931461
 31
0
  0
LINE
  8
1
 62
2
 10
-163.1966973318549
 20
129.1024471399085
 30
0
 11
-137.9566973318549
 21
129.1024471399085
 31
0
  0
LINE
  8
1
 62
2
 10
-163.1966973318549
 20
130.1024471399085
 30
0
 11
-137.9566973318549
 21
130.1024471399085
 31
0
  0
LINE
  8
1
 62
3
 10
-139.9566973318549
 20
129.1024471399085
 30
0
 11
-139.9566973318549
 21
106.9613818931461
 31
0
  0
LINE
  8
1
 62
3
 10
-141.1966973318549
 20
129.1024471399085
 30
0
 11
-141.1966973318549
 21
106.9613818931461
 31
0
  0
LINE
  8
1
 62
3
 10
-143.9566973318549
 20
129.1024471399085
 30
0
 11
-143.9566973318549
 21
106.9613818931461
 31
0
  0
LINE
  8
1
 62
3
 10
-145.1966973318549
 20
129.1024471399085
 30
0
 11
-145.1966973318549
 21
106.9613818931461
 31
0
  0
LINE
  8
1
 62
3
 10
-147.9566973318549
 20
129.1024471399085
 30
0
 11
-147.9566973318549
 21
106.9613818931461
 31
0
  0
LINE
  8
1
 62
3
 10
-149.1966973318552
 20
129.1024471399085
 30
0
 11
-149.1966973318549
 21
106.9613818931461
 31
0
  0
LINE
  8
1
 62
3
 10
-151.9566973318549
 20
129.1024471399085
 30
0
 11
-151.9566973318549
 21
106.9613818931461
 31
0
  0
LINE
  8
1
 62
3
 10
-153.1966973318549
 20
129.1024471399085
 30
0
 11
-153.1966973318549
 21
106.9613818931461
 31
0
  0
LINE
  8
1
 62
3
 10
-155.9566973318549
 20
129.1024471399085
 30
0
 11
-155.9566973318549
 21
106.9613818931461
 31
0
  0
LINE
  8
1
 62
3
 10
-157.1966973318549
 20
129.1024471399085
 30
0
 11
-157.1966973318549
 21
106.9613818931461
 31
0
  0
LINE
  8
1
 62
3
 10
-159.9566973318549
 20
129.1024471399085
 30
0
 11
-159.9566973318549
 21
106.9613818931461
 31
0
  0
LINE
  8
1
 62
3
 10
-161.1966973318549
 20
129.1024471399085
 30
0
 11
-161.1966973318549
 21
106.9613818931461
 31
0
  0
LINE
  8
1
 62
3
 10
-161.1966973318549
 20
130.1024471399085
 30
0
 11
-161.1966973318549
 21
146.1291923558029
 31
0
  0
LINE
  8
1
 62
3
 10
-159.9566973318549
 20
130.1024471399085
 30
0
 11
-159.9566973318549
 21
146.1291923558029
 31
0
  0
LINE
  8
1
 62
3
 10
-157.1966973318549
 20
130.1024471399085
 30
0
 11
-157.1966973318549
 21
146.1291923558029
 31
0
  0
LINE
  8
1
 62
3
 10
-155.9566973318549
 20
130.1024471399085
 30
0
 11
-155.9566973318549
 21
146.1291923558029
 31
0
  0
LINE
  8
1
 62
3
 10
-153.1966973318549
 20
130.1024471399085
 30
0
 11
-153.1966973318549
 21
146.1291923558029
 31
0
  0
LINE
  8
1
 62
3
 10
-151.9566973318549
 20
130.1024471399085
 30
0
 11
-151.9566973318549
 21
146.1291923558029
 31
0
  0
LINE
  8
1
 62
3
 10
-149.1966973318549
 20
130.1024471399085
 30
0
 11
-149.1966973318549
 21
146.1291923558029
 31
0
  0
LINE
  8
1
 62
3
 10
-147.9566973318549
 20
130.1024471399085
 30
0
 11
-147.9566973318549
 21
146.1291923558029
 31
0
  0
LINE
  8
1
 62
3
 10
-145.1966973318549
 20
130.1024471399085
 30
0
 11
-145.1966973318549
 21
146.1291923558029
 31
0
  0
LINE
  8
1
 62
3
 10
-143.9566973318549
 20
130.1024471399085
 30
0
 11
-143.9566973318549
 21
146.1291923558029
 31
0
  0
LINE
  8
1
 62
3
 10
-141.1966973318549
 20
130.1024471399085
 30
0
 11
-141.1966973318549
 21
146.1291923558029
 31
0
  0
LINE
  8
1
 62
3
 10
-139.9566973318549
 20
130.1024471399085
 30
0
 11
-139.9566973318549
 21
146.1291923558029
 31
0
  0
LINE
  8
1
 62
3
 10
-141.1966973318549
 20
106.9613818931461
 30
0
 11
-139.9566973318549
 21
106.9613818931461
 31
0
  0
LINE
  8
1
 62
3
 10
-145.1966973318549
 20
106.9613818931461
 30
0
 11
-143.9566973318549
 21
106.9613818931461
 31
0
  0
LINE
  8
1
 62
3
 10
-149.1966973318549
 20
106.9613818931461
 30
0
 11
-147.9566973318549
 21
106.9613818931461
 31
0
  0
LINE
  8
1
 62
3
 10
-153.1966973318549
 20
106.9613818931461
 30
0
 11
-151.9566973318549
 21
106.9613818931461
 31
0
  0
LINE
  8
1
 62
3
 10
-157.1966973318549
 20
106.9613818931461
 30
0
 11
-155.9566973318549
 21
106.9613818931461
 31
0
  0
LINE
  8
1
 62
2
 10
-140.276697331855
 20
106.9613818931461
 30
0
 11
-140.276697331855
 21
103.4613818931461
 31
0
  0
LINE
  8
1
 62
2
 10
-144.276697331855
 20
106.9613818931461
 30
0
 11
-144.276697331855
 21
103.4613818931461
 31
0
  0
LINE
  8
1
 62
2
 10
-148.276697331855
 20
106.9613818931461
 30
0
 11
-148.276697331855
 21
103.4613818931461
 31
0
  0
LINE
  8
1
 62
2
 10
-152.276697331855
 20
106.9613818931461
 30
0
 11
-152.276697331855
 21
103.4613818931461
 31
0
  0
LINE
  8
1
 62
2
 10
-156.276697331855
 20
106.9613818931461
 30
0
 11
-156.276697331855
 21
103.4613818931461
 31
0
  0
LINE
  8
1
 62
2
 10
-160.276697331855
 20
106.9613818931461
 30
0
 11
-160.276697331855
 21
103.4613818931461
 31
0
  0
LINE
  8
1
 62
2
 10
-140.5766973318549
 20
106.9613818931461
 30
0
 11
-140.5766973318549
 21
103.4613818931461
 31
0
  0
LINE
  8
1
 62
2
 10
-140.876697331855
 20
106.9613818931461
 30
0
 11
-140.876697331855
 21
103.4613818931461
 31
0
  0
LINE
  8
1
 62
2
 10
-144.5766973318549
 20
106.9613818931461
 30
0
 11
-144.5766973318549
 21
103.4613818931461
 31
0
  0
LINE
  8
1
 62
2
 10
-144.876697331855
 20
106.9613818931461
 30
0
 11
-144.876697331855
 21
103.4613818931461
 31
0
  0
LINE
  8
1
 62
2
 10
-148.5766973318549
 20
106.9613818931461
 30
0
 11
-148.5766973318549
 21
103.4613818931461
 31
0
  0
LINE
  8
1
 62
2
 10
-148.876697331855
 20
106.9613818931461
 30
0
 11
-148.876697331855
 21
103.4613818931461
 31
0
  0
LINE
  8
1
 62
2
 10
-152.5766973318549
 20
106.9613818931461
 30
0
 11
-152.5766973318549
 21
103.4613818931461
 31
0
  0
LINE
  8
1
 62
2
 10
-152.876697331855
 20
106.9613818931461
 30
0
 11
-152.876697331855
 21
103.4613818931461
 31
0
  0
LINE
  8
1
 62
2
 10
-156.5766973318549
 20
106.9613818931461
 30
0
 11
-156.5766973318549
 21
103.4613818931461
 31
0
  0
LINE
  8
1
 62
2
 10
-156.876697331855
 20
106.9613818931461
 30
0
 11
-156.876697331855
 21
103.4613818931461
 31
0
  0
LINE
  8
1
 62
2
 10
-160.5766973318549
 20
106.9613818931461
 30
0
 11
-160.5766973318549
 21
103.4613818931461
 31
0
  0
LINE
  8
1
 62
2
 10
-160.876697331855
 20
106.9613818931461
 30
0
 11
-160.876697331855
 21
103.4613818931461
 31
0
  0
LINE
  8
1
 62
2
 10
-130.1410815116228
 20
125.3792745030136
 30
0
 11
-67.34130202386587
 21
125.3792745030136
 31
0
  0
ARC
  8
1
 62
3
 10
-5.477710093327718
 20
204.8589599336037
 30
0
 40
1
 50
0
 51
90
  0
ARC
  8
1
 62
3
 10
-166.9507961660066
 20
161.0207246394862
 30
0
 40
2.851439871812212
 50
27.10454653483241
 51
84.48385698172342
  0
ARC
  8
1
 62
3
 10
-134.202600004818
 20
161.0207246394862
 30
0
 40
2.851439871812106
 50
95.51614301828283
 51
152.8954534651702
  0
CIRCLE
  8
1
 62
3
 10
-150.5766973318548
 20
184.8589599336037
 30
0
 40
12.75
  0
CIRCLE
  8
1
 62
3
 10
-150.5766973318548
 20
184.8589599336037
 30
0
 40
15
  0
CIRCLE
  8
1
 62
3
 10
-150.5766973318548
 20
184.8589599336037
 30
0
 40
11
  0
CIRCLE
  8
1
 62
3
 10
-150.5766973318548
 20
184.8589599336037
 30
0
 40
2.5
  0
CIRCLE
  8
4
 62
2
 10
-166.0766973318548
 20
200.3589599336037
 30
0
 40
1.000010000000003
  0
CIRCLE
  8
4
 62
2
 10
-135.0766973318548
 20
200.3589599336037
 30
0
 40
1
  0
CIRCLE
  8
4
 62
2
 10
-166.0767073318548
 20
169.3589599336037
 30
0
 40
1.000010000000003
  0
CIRCLE
  8
4
 62
2
 10
-135.0766973318548
 20
169.3589599336037
 30
0
 40
1
  0
CIRCLE
  8
1
 62
3
 10
-135.0766973318548
 20
200.3589599336037
 30
0
 40
1.5
  0
CIRCLE
  8
1
 62
3
 10
-166.0766973318548
 20
200.3589599336037
 30
0
 40
1.5
  0
CIRCLE
  8
1
 62
3
 10
-166.0767073318548
 20
169.3589599336037
 30
0
 40
1.5
  0
CIRCLE
  8
1
 62
3
 10
-135.0766973318548
 20
169.3589599336037
 30
0
 40
1.5
  0
CIRCLE
  8
1
 62
3
 10
-150.5766973318548
 20
184.8589599336037
 30
0
 40
4.550000000000011
  0
ARC
  8
1
 62
3
 10
-5.477721595328521
 20
162.8589599336038
 30
0
 40
1
 50
270
 51
0.0001002103398909846
  0
ARC
  8
1
 62
3
 10
-134.5766973318548
 20
200.8589599336037
 30
0
 40
5
 50
0
 51
90
  0
ARC
  8
1
 62
3
 10
-166.5766985226744
 20
200.8589599336037
 30
0
 40
5
 50
90
 51
179.9999863542138
  0
ARC
  8
1
 62
3
 10
-166.5767061439169
 20
168.858970847363
 30
0
 40
5.000000000000141
 50
179.9999863542125
 51
269.9999830996692
  0
ARC
  8
1
 62
3
 10
-134.5766973318548
 20
168.8589614084359
 30
0
 40
5.000000000000019
 50
269.9999830996692
 51
0
  0
ARC
  8
1
 62
3
 10
-163.526697331855
 20
162.1589599336036
 30
0
 40
0.2999999999998977
 50
270
 51
0
  0
ARC
  8
1
 62
3
 10
-137.6266973318549
 20
162.1589599336036
 30
0
 40
0.2999999999998977
 50
180
 51
270
  0
ARC
  8
1
 62
3
 10
-163.5702531720106
 20
162.8589599336037
 30
0
 40
0.9999999999998519
 50
212.6206895531042
 51
270
  0
ARC
  8
1
 62
3
 10
-137.5831429988141
 20
162.8589599336037
 30
0
 40
1
 50
270
 51
327.3793104468905
  0
LINE
  8
1
 62
2
 10
-163.216028189729
 20
96.52216947682921
 30
0
 11
-152.048568339687
 21
96.52216947682921
 31
0
  0
SOLID
  8
1
 62
2
 10
-155.248568339687
 20
96.10088148454955
 30
0
 11
-155.248568339687
 21
96.94345746910888
 31
0
 12
-152.048568339687
 22
96.52216947682921
 32
0
 13
-152.048568339687
 23
96.52216947682921
 33
0
  0
LINE
  8
1
 62
2
 10
12.83456231438073
 20
224.4161223877185
 30
0
 11
-4.448090442867553
 21
224.4161223877185
 31
0
  0
LINE
  8
1
 62
2
 10
-4.448090442867553
 20
224.4161223877185
 30
0
 11
-7.768810093327815
 21
207.0401680771358
 31
0
  0
SOLID
  8
1
 62
2
 10
-7.581928044353822
 20
210.2623658786698
 30
0
 11
-6.754329737629554
 21
210.1042035175871
 31
0
 12
-7.768810093327815
 22
207.0401680771358
 32
0
 13
-7.768810093327815
 23
207.0401680771358
 33
0
  0
LINE
  8
1
 62
2
 10
-88.68925657368135
 20
137.3968057331237
 30
0
 11
-125.8459838309294
 21
137.3968057331237
 31
0
  0
LINE
  8
1
 62
2
 10
-125.8459838309294
 20
137.3968057331237
 30
0
 11
-134.0822974367948
 21
168.2359421916671
 31
0
  0
SOLID
  8
1
 62
2
 10
-132.8495810405657
 20
165.2530084245668
 30
0
 11
-133.6636249023921
 21
165.035598947361
 31
0
 12
-134.0822974367948
 22
168.2359421916671
 32
0
 13
-134.0822974367948
 23
168.2359421916671
 33
0
  0
LINE
  8
1
 62
2
 10
-67.21051534306389
 20
117.6714185245356
 30
0
 11
-128.7095463524416
 21
117.6714185245356
 31
0
  0
LINE
  8
1
 62
2
 10
-128.7095463524416
 20
117.6714185245356
 30
0
 11
-139.976697331855
 21
157.8794465019173
 31
0
  0
SOLID
  8
1
 62
2
 10
-138.7075870582117
 20
154.9118139967422
 30
0
 11
-139.5189107533388
 21
154.6844637130796
 31
0
 12
-139.976697331855
 22
157.8794465019173
 32
0
 13
-139.976697331855
 23
157.8794465019173
 33
0
  0
TEXT
  8
1
 62
2
 10
-220.326713376602
 20
263.771018451397
 30
0
 40
10
  1
KH42HM2
 41
0.9
  0
TEXT
  8
1
 62
2
 10
-161.627150058239
 20
99.0496615440768
 30
0
 40
2
  1
1 3 5 7 9 11
 41
0.855
  0
TEXT
  8
1
 62
2
 10
-175.469570269234
 20
97.6591649916858
 30
0
 40
3
  1
âsâôöÈìå
 41
0.9
  0
TEXT
  8
1
 62
2
 10
-174.566936183919
 20
94.86590043867331
 30
0
 40
2
  1
PIN NO.
 41
0.63
  0
TEXT
  8
1
 62
2
 10
-16.35400458697022
 20
208.2097150189031
 30
0
 40
5
  1
(   )
 50
90
 41
0.9900000000000001
  0
TEXT
  8
1
 62
2
 10
-19.29978420408268
 20
212.4270363756433
 30
0
 40
2.5
  1
DIRECTION
 50
90
 41
0.675
  0
TEXT
  8
1
 62
2
 10
-15.54978420408268
 20
212.4270363756433
 30
0
 40
2.5
  1
OF LETTERS
 50
90
 41
0.675
  0
TEXT
  8
1
 62
2
 10
-9.82291267030881
 20
206.9080143839717
 30
0
 40
4
  1
òÂÄÜé╠î³é½
 50
90
 41
0.9
 72
1
 73
2
 11
-11.82291267030881
 21
224.9080143839717
 31
0
  0
TEXT
  8
1
 62
2
 10
-4.317394854827157
 20
225.5309072170754
 30
0
 40
4
  1
âlü|âÇâvâîü|âg
 41
0.54
  0
TEXT
  8
1
 62
2
 10
-3.619790654213531
 20
220.3936070857538
 30
0
 40
2.5
  1
(NAME PLATE)
 41
0.54
  0
TEXT
  8
1
 62
2
 10
-121.3238007019085
 20
139.9226487209956
 30
0
 40
3.5
  1
4-M3ü~0.5
 41
0.9
  0
TEXT
  8
1
 62
2
 10
-138.560849756071
 20
133.1546768682262
 30
0
 40
3.499999999999999
  1
É[é(écédéoéségüjü@éRüDéTéléhémüD
 50
0.0009745374036200501
 41
0.5400000000000003
 72
1
 73
2
 11
-107.3758795261331
 21
134.9052072900947
 31
0
  0
TEXT
  8
1
 62
2
 10
-104.4414323553067
 20
128.7093525188168
 30
0
 40
2.4
  1
PHR-11
 41
0.9
  0
TEXT
  8
1
 62
2
 10
-127.6414323553067
 20
128.7093525188168
 30
0
 40
2.4
  1
ânâEâWâôâO
 41
1.215000000000001
  0
TEXT
  8
1
 62
6
 10
-126.8414323553068
 20
126.3093525188169
 30
0
 40
1.6
  1
HOUSING
 41
0.72
  0
TEXT
  8
1
 62
6
 10
-104.3613773282156
 20
126.3093525188169
 30
0
 40
1.6
  1
(JST)
 41
0.9
  0
TEXT
  8
1
 62
2
 10
-127.1108151504128
 20
121.7258056293996
 30
0
 40
2.4
  1
âRâôâ^âNâg
 41
1.215000000000001
  0
TEXT
  8
1
 62
2
 10
-105.7925861796749
 20
121.9873789910036
 30
0
 40
2.4
  1
SPH-002T-P0.5S
 41
0.9
  0
TEXT
  8
1
 62
6
 10
-103.1842972009965
 20
119.5084451171089
 30
0
 40
1.6
  1
(JST)
 41
0.9
  0
TEXT
  8
1
 62
6
 10
-126.3260950655999
 20
119.1100720133586
 30
0
 40
1.6
  1
CONTACT
 41
0.72
  0
DIMENSION
  8
0
  6
CONTINUOUS
 62
2
  2
*D1
  3
DMST_1
 10
-89.5597079055654
 20
173.8589599336038
 30
0
 11
-93.5597079055654
 21
184.8186721362569
 31
0
 12
0
 22
0
 32
0
 70
0
  1
%%c<>
 13
-40.07771009332792
 23
195.8589599336037
 33
0
 14
-40.0778100933279
 24
173.8589599336038
 34
0
 50
90
 53
0
  0
DIMENSION
  8
0
  6
CONTINUOUS
 62
2
  2
*D2
  3
DMST_1
 10
-40.07771009332792
 20
224.334649389076
 30
0
 11
-45.74051561771709
 21
227.534649389076
 31
0
 12
0
 22
0
 32
0
 70
0
 13
-38.07771009332792
 23
205.1661599336039
 33
0
 14
-40.07771009332792
 24
195.8589599336037
 34
0
 53
0
  0
DIMENSION
  8
0
  6
CONTINUOUS
 62
2
  2
*D3
  3
DMST_2
 10
-38.07771009332793
 20
236.1135783809709
 30
0
 11
-21.53261581352373
 21
239.3135783809709
 31
0
 12
0
 22
0
 32
0
 70
0
  1
34
 13
-4.477710093327718
 23
204.8589599336037
 33
0
 14
-38.07771009332792
 24
205.1661599336039
 34
0
 53
0
  0
DIMENSION
  8
1
  6
CONTINUOUS
 62
2
  2
*D4
  3
DMST_3
 10
-62.07771009332792
 20
236.144346591294
 30
0
 11
-51.1752029107222
 21
239.744346591294
 31
0
 12
0
 22
0
 32
0
 70
0
 13
-38.07771009332792
 23
205.1661599336039
 33
0
 14
-62.07771009332792
 24
187.3589599336037
 34
0
 53
0
  0
DIMENSION
  8
1
  6
CONTINUOUS
 62
2
  2
*D5
  3
DMST_4
 10
-114.5766973318547
 20
169.3589599336039
 30
0
 11
-118.1766973318547
 21
184.0776973946966
 31
0
 12
0
 22
0
 32
0
 70
0
 13
-132.5766973318548
 23
200.3589599336037
 33
0
 14
-132.5766973318548
 24
169.3589599336037
 34
0
 50
90
 53
0
  0
DIMENSION
  8
0
  6
CONTINUOUS
 62
2
  2
*D6
  3
DMST_5
 10
-166.0766873318548
 20
220.8589599336037
 30
0
 11
-150.5766973318548
 21
224.0589599336037
 31
0
 12
0
 22
0
 32
0
 70
0
 13
-135.0766973318548
 23
202.8589599336037
 33
0
 14
-166.0766873318548
 24
202.8589599336037
 34
0
 53
0
  0
DIMENSION
  8
0
  6
CONTINUOUS
 62
2
  2
*D7
  3
DMST_6
 10
-171.5766985226742
 20
230.8589599336037
 30
0
 11
-150.5766979272646
 21
234.0589599336037
 31
0
 12
0
 22
0
 32
0
 70
0
  1
(<>
 13
-129.5766973318548
 23
200.8589599336037
 33
0
 14
-171.5766985226742
 24
200.8589611244232
 34
0
 53
0
  0
DIMENSION
  8
1
  6
CONTINUOUS
 62
2
  2
*D11
  3
DMST_7
 10
-104.5766973318547
 20
163.8589614084361
 30
0
 11
-108.1766973318547
 21
184.3337378083455
 31
0
 12
0
 22
0
 32
0
 70
0
  1
(<>
 13
-134.5766973318548
 23
205.8589599336037
 33
0
 14
-134.5766988066869
 24
163.8589614084361
 34
0
 50
90
 53
0
  0
DIMENSION
  8
1
  6
CONTINUOUS
 62
2
  2
*D12
  3
DMST_7
 10
-104.5766973318547
 20
159.3089599336039
 30
0
 11
-108.1766973318547
 21
151.0484840339716
 31
0
 12
0
 22
0
 32
0
 70
0
  1
4.6
 13
-134.5766988066869
 23
163.8589614084361
 33
0
 14
-138.6266973318549
 24
159.3089599336038
 34
0
 50
90
 53
0
  0
INSERT
  8
1
  2
*D0
 10
0
 20
0
 30
0
  0
INSERT
  8
1
  2
*D8
 10
0
 20
0
 30
0
  0
INSERT
  8
1
  2
*D9
 10
0
 20
0
 30
0
  0
INSERT
  8
1
  2
*D10
 10
0
 20
0
 30
0
  0
ENDSEC
  0
EOF
