  0
SECTION
  2
HEADER
  9
$ACADVER
  1
AC1014
  9
$ACADMAINTVER
 70
             0
  9
$DWGCODEPAGE
  3
ANSI_1252
  9
$INSBASE
 10
0.0
 20
0.0
 30
0.0
  9
$EXTMIN
 10
-283.80988212171002
 20
121.3545789860885
 30
0.0
  9
$EXTMAX
 10
-75.85443932534379
 20
216.92857024620599
 30
0.0
  9
$LIMMIN
 10
0.0
 20
0.0
  9
$LIMMAX
 10
0.0
 20
0.0
  9
$ORTHOMODE
 70
             0
  9
$REGENMODE
 70
             1
  9
$FILLMODE
 70
             1
  9
$QTEXTMODE
 70
             0
  9
$MIRRTEXT
 70
             1
  9
$DRAGMODE
 70
             2
  9
$LTSCALE
 40
1.0
  9
$OSMODE
 70
             0
  9
$ATTMODE
 70
             1
  9
$TEXTSIZE
 40
0.2
  9
$TRACEWID
 40
0.05
  9
$TEXTSTYLE
  7
STANDARD
  9
$CLAYER
  8
0
  9
$CELTYPE
  6
CONTINUOUS
  9
$CECOLOR
 62
           256
  9
$CELTSCALE
 40
1.0
  9
$DELOBJ
 70
             1
  9
$DISPSILH
 70
             0
  9
$DIMSCALE
 40
1.0
  9
$DIMASZ
 40
0.18
  9
$DIMEXO
 40
0.0625
  9
$DIMDLI
 40
0.38
  9
$DIMRND
 40
0.0
  9
$DIMDLE
 40
0.0
  9
$DIMEXE
 40
0.18
  9
$DIMTP
 40
0.0
  9
$DIMTM
 40
0.0
  9
$DIMTXT
 40
0.18
  9
$DIMCEN
 40
0.09
  9
$DIMTSZ
 40
0.0
  9
$DIMTOL
 70
             0
  9
$DIMLIM
 70
             0
  9
$DIMTIH
 70
             1
  9
$DIMTOH
 70
             1
  9
$DIMSE1
 70
             0
  9
$DIMSE2
 70
             0
  9
$DIMTAD
 70
             0
  9
$DIMZIN
 70
             0
  9
$DIMBLK
  1

  9
$DIMASO
 70
             1
  9
$DIMSHO
 70
             1
  9
$DIMPOST
  1

  9
$DIMAPOST
  1

  9
$DIMALT
 70
             0
  9
$DIMALTD
 70
             2
  9
$DIMALTF
 40
25.4
  9
$DIMLFAC
 40
1.0
  9
$DIMTOFL
 70
             0
  9
$DIMTVP
 40
0.0
  9
$DIMTIX
 70
             0
  9
$DIMSOXD
 70
             0
  9
$DIMSAH
 70
             0
  9
$DIMBLK1
  1

  9
$DIMBLK2
  1

  9
$DIMSTYLE
  2
STANDARD
  9
$DIMCLRD
 70
             0
  9
$DIMCLRE
 70
             0
  9
$DIMCLRT
 70
             0
  9
$DIMTFAC
 40
1.0
  9
$DIMGAP
 40
0.09
  9
$DIMJUST
 70
             0
  9
$DIMSD1
 70
             0
  9
$DIMSD2
 70
             0
  9
$DIMTOLJ
 70
             1
  9
$DIMTZIN
 70
             0
  9
$DIMALTZ
 70
             0
  9
$DIMALTTZ
 70
             0
  9
$DIMFIT
 70
             3
  9
$DIMUPT
 70
             0
  9
$DIMUNIT
 70
             2
  9
$DIMDEC
 70
             4
  9
$DIMTDEC
 70
             4
  9
$DIMALTU
 70
             2
  9
$DIMALTTD
 70
             2
  9
$DIMTXSTY
  7
STANDARD
  9
$DIMAUNIT
 70
             0
  9
$LUNITS
 70
             2
  9
$LUPREC
 70
             4
  9
$SKETCHINC
 40
0.1
  9
$FILLETRAD
 40
0.0
  9
$AUNITS
 70
             0
  9
$AUPREC
 70
             0
  9
$MENU
  1
acad
  9
$ELEVATION
 40
0.0
  9
$PELEVATION
 40
0.0
  9
$THICKNESS
 40
0.0
  9
$LIMCHECK
 70
             0
  9
$BLIPMODE
 70
             1
  9
$CHAMFERA
 40
0.0
  9
$CHAMFERB
 40
0.0
  9
$CHAMFERC
 40
0.0
  9
$CHAMFERD
 40
0.0
  9
$SKPOLY
 70
             0
  9
$TDCREATE
 40
0.000000000
  9
$TDUPDATE
 40
0.000000000
  9
$TDINDWG
 40
0.0000000000
  9
$TDUSRTIMER
 40
0.0000000000
  9
$USRTIMER
 70
             1
  9
$ANGBASE
 50
0.0
  9
$ANGDIR
 70
             0
  9
$PDMODE
 70
             0
  9
$PDSIZE
 40
0.0
  9
$PLINEWID
 40
0.0
  9
$COORDS
 70
             0
  9
$SPLFRAME
 70
             0
  9
$SPLINETYPE
 70
             6
  9
$SPLINESEGS
 70
             8
  9
$ATTDIA
 70
             0
  9
$ATTREQ
 70
             1
  9
$HANDLING
 70
             1
  9
$HANDSEED
  5
171
  9
$SURFTAB1
 70
             6
  9
$SURFTAB2
 70
             6
  9
$SURFTYPE
 70
             6
  9
$SURFU
 70
             6
  9
$SURFV
 70
             6
  9
$UCSNAME
  2

  9
$UCSORG
 10
0.0
 20
0.0
 30
0.0
  9
$UCSXDIR
 10
1.0
 20
0.0
 30
0.0
  9
$UCSYDIR
 10
0.0
 20
1.0
 30
0.0
  9
$PUCSNAME
  2

  9
$PUCSORG
 10
0.0
 20
0.0
 30
0.0
  9
$PUCSXDIR
 10
1.0
 20
0.0
 30
0.0
  9
$PUCSYDIR
 10
0.0
 20
1.0
 30
0.0
  9
$USERI1
 70
             0
  9
$USERI2
 70
             0
  9
$USERI3
 70
             0
  9
$USERI4
 70
             0
  9
$USERI5
 70
             0
  9
$USERR1
 40
12.01
  9
$USERR2
 40
0.0
  9
$USERR3
 40
0.0
  9
$USERR4
 40
0.0
  9
$USERR5
 40
0.0
  9
$WORLDVIEW
 70
             1
  9
$SHADEDGE
 70
             3
  9
$SHADEDIF
 70
            70
  9
$TILEMODE
 70
             1
  9
$MAXACTVP
 70
            16
  9
$PINSBASE
 10
0.0
 20
0.0
 30
0.0
  9
$PLIMCHECK
 70
             0
  9
$PEXTMIN
 10
1.00000000000000E+20
 20
1.00000000000000E+20
 30
1.00000000000000E+20
  9
$PEXTMAX
 10
-1.00000000000000E+20
 20
-1.00000000000000E+20
 30
-1.00000000000000E+20
  9
$PLIMMIN
 10
0.0
 20
0.0
  9
$PLIMMAX
 10
12.0
 20
9.0
  9
$UNITMODE
 70
             0
  9
$VISRETAIN
 70
             0
  9
$PLINEGEN
 70
             1
  9
$PSLTSCALE
 70
             0
  9
$TREEDEPTH
 70
          3020
  9
$PICKSTYLE
 70
             1
  9
$CMLSTYLE
  2
STANDARD
  9
$CMLJUST
 70
             0
  9
$CMLSCALE
 40
1.0
  9
$PROXYGRAPHICS
 70
             0
  9
$MEASUREMENT
 70
             1
  0
ENDSEC
  0
SECTION
  2
CLASSES
  0
CLASS
  1
LWPOLYLINE
  2
AcDbPolyline
  3
"AutoCAD"
 90
        0
280
             0
281
             1
  0
CLASS
  1
IMAGE
  2
AcDbRasterImage
  3
ISM
 90
      127
280
             0
281
             1
  0
CLASS
  1
OLE2FRAME
  2
AcDbOle2Frame
  3
""
 90
        0
280
             0
281
             1
  0
CLASS
  1
HATCH
  2
AcDbHatch
  3
"ACAD_SEDONA"
 90
        0
280
             0
281
             1
  0
CLASS
  1
DICTIONARYVAR
  2
AcDbDictionaryVar
  3
"AutoCAD"
 90
        0
280
             0
281
             0
  0
CLASS
  1
RASTERVARIABLES
  2
AcDbRasterVariables
  3
ISM
 90
        0
280
             0
281
             0
  0
CLASS
  1
IMAGEDEF
  2
AcDbRasterImageDef
  3
ISM
 90
        0
280
             0
281
             0
  0
CLASS
  1
IMAGEDEF_REACTOR
  2
AcDbRasterImageDefReactor
  3
ISM
 90
        1
280
             0
281
             0
  0
CLASS
  1
IDBUFFER
  2
AcDbIdBuffer
  3
"Acad"
 90
        0
280
             0
281
             0
  0
CLASS
  1
SPATIAL_FILTER
  2
AcDbSpatialFilter
  3
"Acad"
 90
        0
280
             0
281
             0
  0
CLASS
  1
XRECORD
  2
AcDbXrecord
  3
"<Built In>"
 90
        0
280
             0
281
             0
  0
CLASS
  1
SORTENTSTABLE
  2
AcDbSortentsTable
  3
"AutoCAD"
 90
        0
280
             0
281
             0
  0
CLASS
  1
LAYER_INDEX
  2
AcDbLayerIndex
  3
"Acad"
 90
        0
280
             0
281
             0
  0
CLASS
  1
SPATIAL_INDEX
  2
AcDbSpatialIndex
  3
"Acad"
 90
        0
280
             0
281
             0
  0
CLASS
  1
OBJECT_PTR
  2
CAseDLPNTableRecord
  3
"ASE-LPNTableRecord"
 90
        1
280
             0
281
             0
  0
CLASS
  1
LAYOUT
  2
AcDbLayout
  3
"AutoCAD 2000"
 90
        0
280
             0
281
             0
  0
CLASS
  1
PLOTSETTINGS
  2
AcDbPlotSettings
  3
"AutoCAD 2000"
 90
        0
280
             0
281
             0
  0
CLASS
  1
ACDBDICTIONARYWDFLT
  2
AcDbDictionaryWithDefault
  3
"AutoCAD 2000"
 90
        0
280
             0
281
             0
  0
CLASS
  1
ACDBPLACEHOLDER
  2
AcDbPlaceHolder
  3
"AutoCAD 2000"
 90
        0
280
             0
281
             0
  0
ENDSEC
  0
SECTION
  2
TABLES
  0
TABLE
  2
VPORT
  5
7
100
AcDbSymbolTable
 70
             1
  0
VPORT
  5
15
100
AcDbSymbolTableRecord
100
AcDbViewportTableRecord
  2
*ACTIVE
 70
             0
 10
0.0
 20
0.0
 11
1.0
 21
1.0
 12
-179.8321607235269
 22
169.14157461614724
 13
0.0
 23
0.0
 14
1.0
 24
1.0
 15
0.0
 25
0.0
 16
0.0
 26
0.0
 36
1.0
 17
0.0
 27
0.0
 37
0.0
 40
142.7304209053612
 41
1.60267857142857
 42
50.0
 43
0.0
 44
0.0
 50
0.0
 51
0.0
 71
             0
 72
           100
 73
             1
 74
             1
 75
             0
 76
             0
 77
             0
 78
             0
  0
ENDTAB
  0
TABLE
  2
LTYPE
  5
4
100
AcDbSymbolTable
 70
            10
  0
LTYPE
  5
11
100
AcDbSymbolTableRecord
100
AcDbLinetypeTableRecord
  2
BYBLOCK
 70
            64
  3

 72
            65
 73
             0
 40
0.0
  0
LTYPE
  5
12
100
AcDbSymbolTableRecord
100
AcDbLinetypeTableRecord
  2
BYLAYER
 70
            64
  3

 72
            65
 73
             0
 40
0.0
  0
LTYPE
  5
13
100
AcDbSymbolTableRecord
100
AcDbLinetypeTableRecord
  2
CONTINUOUS
 70
            64
  3
Solid line
 72
            65
 73
             0
 40
0.0
  0
LTYPE
  5
1D
100
AcDbSymbolTableRecord
100
AcDbLinetypeTableRecord
  2
DASHED
 70
            64
  3
Dashed
 72
            65
 73
             2
 40
15.0
 49
7.0
 74
             0
 49
-8.0
 74
             0
  0
LTYPE
  5
1E
100
AcDbSymbolTableRecord
100
AcDbLinetypeTableRecord
  2
DOTTED
 70
            64
  3
Dotted
 72
            65
 73
             2
 40
1.0
 49
0.0
 74
             0
 49
-1.0
 74
             0
  0
LTYPE
  5
1F
100
AcDbSymbolTableRecord
100
AcDbLinetypeTableRecord
  2
DOT_CENTER
 70
            64
  3
Dot_Center
 72
            65
 73
             4
 40
14.0
 49
12.0
 74
             0
 49
-1.0
 74
             0
 49
0.0
 74
             0
 49
-1.0
 74
             0
  0
LTYPE
  5
20
100
AcDbSymbolTableRecord
100
AcDbLinetypeTableRecord
  2
LONG_DASHED
 70
            64
  3
Long_Dashed
 72
            65
 73
             2
 40
15.0
 49
10.0
 74
             0
 49
-5.0
 74
             0
  0
LTYPE
  5
21
100
AcDbSymbolTableRecord
100
AcDbLinetypeTableRecord
  2
DASH_CENTER
 70
            64
  3
Dash_Center
 72
            65
 73
             4
 40
14.0
 49
11.0
 74
             0
 49
-1.0
 74
             0
 49
1.0
 74
             0
 49
-1.0
 74
             0
  0
LTYPE
  5
22
100
AcDbSymbolTableRecord
100
AcDbLinetypeTableRecord
  2
PHANTOM
 70
            64
  3
Phantom
 72
            65
 73
             6
 40
13.0
 49
10.0
 74
             0
 49
-1.0
 74
             0
 49
0.0
 74
             0
 49
-1.0
 74
             0
 49
0.0
 74
             0
 49
-1.0
 74
             0
  0
LTYPE
  5
23
100
AcDbSymbolTableRecord
100
AcDbLinetypeTableRecord
  2
CENTER_DASH_DASH
 70
            64
  3
Center_Dash_Dash
 72
            65
 73
             6
 40
14.0
 49
9.0
 74
             0
 49
-1.0
 74
             0
 49
1.0
 74
             0
 49
-1.0
 74
             0
 49
1.0
 74
             0
 49
-1.0
 74
             0
  0
ENDTAB
  0
TABLE
  2
LAYER
  5
2
100
AcDbSymbolTable
 70
             4
  0
LAYER
  5
14
100
AcDbSymbolTableRecord
100
AcDbLayerTableRecord
  2
0
 70
             0
 62
             7
  6
CONTINUOUS
  0
LAYER
  5
24
100
AcDbSymbolTableRecord
100
AcDbLayerTableRecord
  2
1
 70
             0
 62
             7
  6
CONTINUOUS
  0
LAYER
  5
25
100
AcDbSymbolTableRecord
100
AcDbLayerTableRecord
  2
2
 70
             0
 62
             7
  6
CONTINUOUS
  0
LAYER
  5
26
100
AcDbSymbolTableRecord
100
AcDbLayerTableRecord
  2
4
 70
             0
 62
             7
  6
CONTINUOUS
  0
ENDTAB
  0
TABLE
  2
STYLE
  5
3
100
AcDbSymbolTable
 70
             2
  0
STYLE
  5
17
100
AcDbSymbolTableRecord
100
AcDbTextStyleTableRecord
  2
STANDARD
 70
             0
 40
0.0
 41
1.0
 50
0.0
 71
             0
 42
0.0
  3
txt
  4

  0
STYLE
  5
DE
100
AcDbSymbolTableRecord
100
AcDbTextStyleTableRecord
  2
CONVERTER_1
 70
             0
 40
0.0
 41
0.9
 50
0.0
 71
             0
 42
0.0
  3
txt.shx
  4

  0
ENDTAB
  0
TABLE
  2
VIEW
  5
5
100
AcDbSymbolTable
 70
             0
  0
ENDTAB
  0
TABLE
  2
UCS
  5
6
100
AcDbSymbolTable
 70
             0
  0
ENDTAB
  0
TABLE
  2
APPID
  5
8
100
AcDbSymbolTable
 70
             1
  0
APPID
  5
16
100
AcDbSymbolTableRecord
100
AcDbRegAppTableRecord
  2
ACAD
 70
             0
  0
ENDTAB
  0
TABLE
  2
DIMSTYLE
  5
9
100
AcDbSymbolTable
 70
            14
  0
DIMSTYLE
105
18
100
AcDbSymbolTableRecord
100
AcDbDimStyleTableRecord
  2
STANDARD
 70
             0
  3

  4

  5

  6

  7

 40
1.0
 41
0.18
 42
0.0625
 43
0.38
 44
0.18
 45
0.0
 46
0.0
 47
0.0
 48
0.0
 71
             0
 72
             0
 73
             1
 74
             1
 75
             0
 76
             0
 77
             0
 78
             0
140
0.18
141
0.09
142
0.0
143
25.4
144
1.0
145
0.0
146
1.0
147
0.09
170
             0
171
             2
172
             0
173
             0
174
             0
175
             0
176
             0
177
             0
178
             0
270
             2
271
             4
272
             4
273
             2
274
             2
275
             0
280
             0
281
             0
282
             0
283
             1
284
             0
285
             0
286
             0
287
             3
288
             0
340
17
  0
DIMSTYLE
105
E1
100
AcDbSymbolTableRecord
100
AcDbDimStyleTableRecord
  2
ME10_DIM_0
 70
             0
  3

  4

  5

  6

  7

 40
1.0
 41
3.2
 42
1.0
 43
0.38
 44
1.5
 45
0.0
 46
0.0
 47
0.1
 48
0.1
 71
             1
 72
             0
 73
             0
 74
             0
 75
             0
 76
             0
 77
             1
 78
             8
140
3.2
141
0.09
142
0.0
143
25.4
144
1.0
145
0.0
146
0.6
147
0.625
170
             0
171
             2
172
             1
173
             1
174
             0
175
             0
176
             2
177
             2
178
             2
270
             2
271
             4
272
             1
273
             2
274
             2
275
             0
280
             0
281
             0
282
             0
283
             1
284
             0
285
             0
286
             0
287
             3
288
             0
340
DE
  0
DIMSTYLE
105
EC
100
AcDbSymbolTableRecord
100
AcDbDimStyleTableRecord
  2
ME10_DIM_1
 70
             0
  3
MAX.
  4

  5

  6

  7

 40
1.0
 41
3.2
 42
1.0
 43
0.38
 44
1.5
 45
0.0
 46
0.0
 47
0.0
 48
0.0
 71
             0
 72
             0
 73
             0
 74
             0
 75
             0
 76
             0
 77
             1
 78
             8
140
3.2
141
0.09
142
0.0
143
25.4
144
1.0
145
0.0
146
1.0
147
0.625
170
             0
171
             2
172
             1
173
             1
174
             0
175
             0
176
             2
177
             2
178
             2
270
             2
271
             4
272
             4
273
             2
274
             2
275
             0
280
             0
281
             0
282
             0
283
             1
284
             0
285
             0
286
             0
287
             3
288
             0
340
DE
  0
DIMSTYLE
105
F9
100
AcDbSymbolTableRecord
100
AcDbDimStyleTableRecord
  2
ME10_DIM_2
 70
             0
  3

  4

  5

  6

  7

 40
1.0
 41
3.2
 42
1.0
 43
0.38
 44
1.5
 45
0.0
 46
0.0
 47
0.2
 48
0.2
 71
             1
 72
             0
 73
             0
 74
             0
 75
             0
 76
             0
 77
             1
 78
             8
140
3.2
141
0.09
142
0.0
143
25.4
144
1.0
145
0.0
146
0.6
147
0.625
170
             0
171
             2
172
             1
173
             1
174
             0
175
             0
176
             2
177
             2
178
             2
270
             2
271
             4
272
             1
273
             2
274
             2
275
             0
280
             0
281
             0
282
             0
283
             1
284
             0
285
             0
286
             0
287
             3
288
             0
340
DE
  0
DIMSTYLE
105
104
100
AcDbSymbolTableRecord
100
AcDbDimStyleTableRecord
  2
ME10_DIM_3
 70
             0
  3
(<>)
  4

  5

  6

  7

 40
1.0
 41
3.2
 42
1.0
 43
0.38
 44
1.0
 45
0.0
 46
0.0
 47
0.0
 48
0.0
 71
             0
 72
             0
 73
             0
 74
             0
 75
             0
 76
             0
 77
             1
 78
             8
140
3.2
141
0.09
142
0.0
143
25.4
144
1.0
145
0.0
146
1.0
147
0.625
170
             0
171
             2
172
             1
173
             1
174
             0
175
             0
176
             2
177
             2
178
             2
270
             2
271
             2
272
             4
273
             2
274
             2
275
             0
280
             0
281
             0
282
             0
283
             1
284
             0
285
             0
286
             0
287
             3
288
             0
340
DE
  0
DIMSTYLE
105
10F
100
AcDbSymbolTableRecord
100
AcDbDimStyleTableRecord
  2
ME10_DIM_4
 70
             0
  3

  4

  5

  6

  7

 40
1.0
 41
3.2
 42
0.0
 43
0.38
 44
1.0
 45
0.0
 46
0.0
 47
0.2
 48
0.2
 71
             1
 72
             0
 73
             0
 74
             0
 75
             0
 76
             0
 77
             1
 78
             8
140
3.2
141
0.09
142
0.0
143
25.4
144
1.0
145
0.0
146
0.6
147
0.625
170
             0
171
             2
172
             1
173
             1
174
             0
175
             0
176
             2
177
             2
178
             2
270
             2
271
             2
272
             1
273
             2
274
             2
275
             0
280
             0
281
             0
282
             0
283
             1
284
             0
285
             0
286
             0
287
             3
288
             0
340
DE
  0
DIMSTYLE
105
11A
100
AcDbSymbolTableRecord
100
AcDbDimStyleTableRecord
  2
ME10_DIM_5
 70
             0
  3

  4

  5

  6

  7

 40
1.0
 41
3.2
 42
1.0
 43
0.38
 44
1.0
 45
0.0
 46
0.0
 47
0.2
 48
0.2
 71
             1
 72
             0
 73
             0
 74
             0
 75
             0
 76
             0
 77
             1
 78
             8
140
3.2
141
0.09
142
0.0
143
25.4
144
1.0
145
0.0
146
0.6
147
0.625
170
             0
171
             2
172
             1
173
             1
174
             0
175
             0
176
             2
177
             2
178
             2
270
             2
271
             4
272
             1
273
             2
274
             2
275
             0
280
             0
281
             0
282
             0
283
             1
284
             0
285
             0
286
             0
287
             3
288
             0
340
DE
  0
DIMSTYLE
105
127
100
AcDbSymbolTableRecord
100
AcDbDimStyleTableRecord
  2
ME10_DIM_6
 70
             0
  3
Î(<>)
  4

  5

  6

  7

 40
1.0
 41
3.2
 42
1.0
 43
0.38
 44
1.5
 45
0.0
 46
0.0
 47
0.0
 48
0.0
 71
             0
 72
             0
 73
             0
 74
             0
 75
             0
 76
             0
 77
             1
 78
             8
140
3.2
141
0.09
142
0.0
143
25.4
144
1.0
145
0.0
146
1.0
147
0.625
170
             0
171
             2
172
             1
173
             1
174
             0
175
             0
176
             2
177
             2
178
             2
270
             2
271
             4
272
             4
273
             2
274
             2
275
             0
280
             0
281
             0
282
             0
283
             1
284
             0
285
             0
286
             0
287
             3
288
             0
340
DE
  0
DIMSTYLE
105
134
100
AcDbSymbolTableRecord
100
AcDbDimStyleTableRecord
  2
ME10_DIM_7
 70
             0
  3
Æ<>
  4

  5

  6

  7

 40
1.0
 41
3.2
 42
1.0
 43
0.38
 44
1.5
 45
0.0
 46
0.0
 47
0.0
 48
-0.011
 71
             1
 72
             0
 73
             0
 74
             0
 75
             0
 76
             0
 77
             1
 78
             8
140
3.2
141
0.09
142
0.0
143
25.4
144
1.0
145
0.0
146
0.6
147
0.625
170
             0
171
             2
172
             1
173
             1
174
             0
175
             0
176
             2
177
             2
178
             2
270
             2
271
             4
272
             0
273
             2
274
             2
275
             0
280
             0
281
             0
282
             0
283
             1
284
             0
285
             0
286
             0
287
             3
288
             0
340
DE
  0
DIMSTYLE
105
140
100
AcDbSymbolTableRecord
100
AcDbDimStyleTableRecord
  2
ME10_DIM_8
 70
             0
  3
Æ<>
  4

  5

  6

  7

 40
1.0
 41
3.2
 42
1.0
 43
0.38
 44
1.5
 45
0.0
 46
0.0
 47
0.0
 48
-0.05
 71
             1
 72
             0
 73
             0
 74
             0
 75
             0
 76
             0
 77
             1
 78
             8
140
3.2
141
0.09
142
0.0
143
25.4
144
1.0
145
0.0
146
0.6
147
0.625
170
             0
171
             2
172
             1
173
             1
174
             0
175
             0
176
             2
177
             2
178
             2
270
             2
271
             4
272
             0
273
             2
274
             2
275
             0
280
             0
281
             0
282
             0
283
             1
284
             0
285
             0
286
             0
287
             3
288
             0
340
DE
  0
DIMSTYLE
105
14B
100
AcDbSymbolTableRecord
100
AcDbDimStyleTableRecord
  2
ME10_DIM_9
 70
             0
  3

  4

  5

  6

  7

 40
1.0
 41
3.2
 42
1.0
 43
0.38
 44
1.5
 45
0.0
 46
0.0
 47
0.2
 48
0.2
 71
             1
 72
             0
 73
             0
 74
             0
 75
             0
 76
             0
 77
             1
 78
             8
140
3.2
141
0.09
142
0.0
143
25.4
144
1.0
145
0.0
146
0.6
147
0.625
170
             0
171
             2
172
             1
173
             1
174
             0
175
             0
176
             2
177
             2
178
             2
270
             2
271
             4
272
             1
273
             2
274
             2
275
             0
280
             0
281
             0
282
             0
283
             1
284
             0
285
             0
286
             0
287
             3
288
             0
340
DE
  0
DIMSTYLE
105
156
100
AcDbSymbolTableRecord
100
AcDbDimStyleTableRecord
  2
ME10_DIM_10
 70
             0
  3

  4

  5

  6

  7

 40
1.0
 41
3.2
 42
1.0
 43
0.38
 44
1.5
 45
0.0
 46
0.0
 47
0.5
 48
0.5
 71
             1
 72
             0
 73
             0
 74
             0
 75
             0
 76
             0
 77
             1
 78
             8
140
3.2
141
0.09
142
0.0
143
25.4
144
1.0
145
0.0
146
0.6
147
0.625
170
             0
171
             2
172
             1
173
             1
174
             0
175
             0
176
             2
177
             2
178
             2
270
             2
271
             4
272
             1
273
             2
274
             2
275
             0
280
             0
281
             0
282
             0
283
             1
284
             0
285
             0
286
             0
287
             3
288
             0
340
DE
  0
DIMSTYLE
105
163
100
AcDbSymbolTableRecord
100
AcDbDimStyleTableRecord
  2
ME10_DIM_11
 70
             0
  3
(<>)
  4

  5

  6

  7

 40
1.0
 41
3.2
 42
1.0
 43
0.38
 44
1.5
 45
0.0
 46
0.0
 47
0.0
 48
0.0
 71
             0
 72
             0
 73
             0
 74
             0
 75
             0
 76
             0
 77
             1
 78
             8
140
3.2
141
0.09
142
0.0
143
25.4
144
1.0
145
0.0
146
1.0
147
0.625
170
             0
171
             2
172
             1
173
             1
174
             0
175
             0
176
             2
177
             2
178
             2
270
             2
271
             4
272
             4
273
             2
274
             2
275
             0
280
             0
281
             0
282
             0
283
             1
284
             0
285
             0
286
             0
287
             3
288
             0
340
DE
  0
DIMSTYLE
105
16E
100
AcDbSymbolTableRecord
100
AcDbDimStyleTableRecord
  2
ME10_DIM_12
 70
             0
  3
(<>)
  4

  5

  6

  7

 40
1.0
 41
3.2
 42
1.0
 43
0.38
 44
1.5
 45
0.0
 46
0.0
 47
0.0
 48
0.0
 71
             0
 72
             0
 73
             0
 74
             0
 75
             0
 76
             0
 77
             1
 78
             8
140
3.2
141
0.09
142
0.0
143
25.4
144
1.0
145
0.0
146
1.0
147
0.625
170
             0
171
             2
172
             1
173
             1
174
             0
175
             0
176
             2
177
             2
178
             2
270
             2
271
             4
272
             4
273
             2
274
             2
275
             0
280
             0
281
             0
282
             0
283
             1
284
             0
285
             0
286
             0
287
             3
288
             0
340
DE
  0
ENDTAB
  0
TABLE
  2
BLOCK_RECORD
  5
1
100
AcDbSymbolTable
 70
            13
  0
BLOCK_RECORD
  5
A
100
AcDbSymbolTableRecord
100
AcDbBlockTableRecord
  2
*MODEL_SPACE
  0
BLOCK_RECORD
  5
B
100
AcDbSymbolTableRecord
100
AcDbBlockTableRecord
  2
*PAPER_SPACE
  0
BLOCK_RECORD
  5
D5
100
AcDbSymbolTableRecord
100
AcDbBlockTableRecord
  2
*D0
  0
BLOCK_RECORD
  5
E3
100
AcDbSymbolTableRecord
100
AcDbBlockTableRecord
  2
*D1
  0
BLOCK_RECORD
  5
EE
100
AcDbSymbolTableRecord
100
AcDbBlockTableRecord
  2
*D2
  0
BLOCK_RECORD
  5
FB
100
AcDbSymbolTableRecord
100
AcDbBlockTableRecord
  2
*D3
  0
BLOCK_RECORD
  5
106
100
AcDbSymbolTableRecord
100
AcDbBlockTableRecord
  2
*D4
  0
BLOCK_RECORD
  5
111
100
AcDbSymbolTableRecord
100
AcDbBlockTableRecord
  2
*D5
  0
BLOCK_RECORD
  5
11C
100
AcDbSymbolTableRecord
100
AcDbBlockTableRecord
  2
*D6
  0
BLOCK_RECORD
  5
129
100
AcDbSymbolTableRecord
100
AcDbBlockTableRecord
  2
*D7
  0
BLOCK_RECORD
  5
136
100
AcDbSymbolTableRecord
100
AcDbBlockTableRecord
  2
*D8
  0
BLOCK_RECORD
  5
142
100
AcDbSymbolTableRecord
100
AcDbBlockTableRecord
  2
*D9
  0
BLOCK_RECORD
  5
14D
100
AcDbSymbolTableRecord
100
AcDbBlockTableRecord
  2
*D10
  0
BLOCK_RECORD
  5
158
100
AcDbSymbolTableRecord
100
AcDbBlockTableRecord
  2
*D11
  0
BLOCK_RECORD
  5
165
100
AcDbSymbolTableRecord
100
AcDbBlockTableRecord
  2
*D12
  0
ENDTAB
  0
ENDSEC
  0
SECTION
  2
BLOCKS
  0
BLOCK
  5
D
100
AcDbEntity
  8
0
100
AcDbBlockBegin
  2
*MODEL_SPACE
 70
             0
 10
0.0
 20
0.0
 30
0.0
  3
*MODEL_SPACE
  1

  0
ENDBLK
  5
E
100
AcDbEntity
  8
0
100
AcDbBlockEnd
  0
BLOCK
  5
F
100
AcDbEntity
 67
             1
  8
0
100
AcDbBlockBegin
  2
*PAPER_SPACE
 70
             0
 10
0.0
 20
0.0
 30
0.0
  3
*PAPER_SPACE
  1

  0
ENDBLK
  5
10
100
AcDbEntity
 67
             1
  8
0
100
AcDbBlockEnd
  0
BLOCK
  5
D6
100
AcDbEntity
  8
0
100
AcDbBlockBegin
  2
*D0
 70
             1
 10
0.0
 20
0.0
 30
0.0
  3
*D0
  1

  0
LINE
  5
D7
100
AcDbEntity
  8
0
  6
CONTINUOUS
 62
             2
100
AcDbLine
 10
-154.45425558753101
 20
156.82857024620603
 11
-154.45425558753101
 21
163.22857024620603
  0
LINE
  5
D8
100
AcDbEntity
  8
0
  6
CONTINUOUS
 62
             2
100
AcDbLine
 10
-154.45425558753101
 20
163.22857024620603
 11
-154.45425558753101
 21
167.72857024620603
  0
LINE
  5
D9
100
AcDbEntity
  8
0
  6
CONTINUOUS
 62
             2
100
AcDbLine
 10
-154.45425558753101
 20
167.72857024620603
 11
-154.45425558753101
 21
193.29254997569092
  0
LINE
  5
DA
100
AcDbEntity
  8
0
  6
CONTINUOUS
 62
             2
100
AcDbLine
 10
-145.45435818896982
 20
163.22857024620603
 11
-155.95425558753101
 21
163.22857024620603
  0
LINE
  5
DB
100
AcDbEntity
  8
0
  6
CONTINUOUS
 62
             2
100
AcDbLine
 10
-146.45433895238702
 20
167.72857024620603
 11
-155.95425558753101
 21
167.72857024620603
  0
SOLID
  5
DC
100
AcDbEntity
  8
0
 62
             2
100
AcDbTrace
 10
-154.87554357981068
 20
170.92857024620602
 11
-154.03296759525134
 21
170.92857024620602
 12
-154.45425558753101
 22
167.72857024620603
 13
-154.45425558753101
 23
167.72857024620603
  0
SOLID
  5
DD
100
AcDbEntity
  8
0
 62
             2
100
AcDbTrace
 10
-154.03296759525134
 20
160.02857024620604
 11
-154.87554357981068
 21
160.02857024620604
 12
-154.45425558753101
 22
163.22857024620603
 13
-154.45425558753101
 23
163.22857024620603
  0
MTEXT
  5
DF
100
AcDbEntity
  8
0
 62
             2
100
AcDbMText
 10
-156.45425558753101
 20
181.3245499756909
 30
0.0
 40
3.2
 41
0.0
 71
             7
 72
             1
  1
\C2;4.5\C2;\H1.920000;{\Fgdt;`}0.1
  7
CONVERTER_1
 11
0.0
 21
1.0
 31
0.0
  0
ENDBLK
  5
E0
100
AcDbEntity
  8
0
100
AcDbBlockEnd
  0
BLOCK
  5
E4
100
AcDbEntity
  8
0
100
AcDbBlockBegin
  2
*D1
 70
             1
 10
0.0
 20
0.0
 30
0.0
  3
*D1
  1

  0
LINE
  5
E5
100
AcDbEntity
  8
0
  6
CONTINUOUS
 62
             2
100
AcDbLine
 10
-125.45434682534369
 20
211.728570246206
 11
-77.85433932534365
 21
211.728570246206
  0
LINE
  5
E6
100
AcDbEntity
  8
0
  6
CONTINUOUS
 62
             2
100
AcDbLine
 10
-77.85433932534365
 20
186.728570246206
 11
-77.85433932534365
 21
213.228570246206
  0
LINE
  5
E7
100
AcDbEntity
  8
0
  6
CONTINUOUS
 62
             2
100
AcDbLine
 10
-125.45434682534369
 20
186.728570246206
 11
-125.45434682534369
 21
213.228570246206
  0
SOLID
  5
E8
100
AcDbEntity
  8
0
 62
             2
100
AcDbTrace
 10
-122.25434682534369
 20
212.14985823848568
 11
-122.25434682534369
 21
211.30728225392633
 12
-125.45434682534369
 22
211.728570246206
 13
-125.45434682534369
 23
211.728570246206
  0
SOLID
  5
E9
100
AcDbEntity
  8
0
 62
             2
100
AcDbTrace
 10
-81.05433932534365
 20
211.30728225392633
 11
-81.05433932534365
 21
212.14985823848568
 12
-77.85433932534365
 22
211.728570246206
 13
-77.85433932534365
 23
211.728570246206
  0
MTEXT
  5
EA
100
AcDbEntity
  8
0
 62
             2
100
AcDbMText
 10
-109.76405433375841
 20
213.728570246206
 30
0.0
 40
3.2
 41
0.0
 71
             7
 72
             1
  1
\C2;48\C2;MAX.
  7
CONVERTER_1
 11
0.99999999999706
 21
0.00000242406841
 31
0.0
  0
ENDBLK
  5
EB
100
AcDbEntity
  8
0
100
AcDbBlockEnd
  0
BLOCK
  5
EF
100
AcDbEntity
  8
0
100
AcDbBlockBegin
  2
*D2
 70
             1
 10
0.0
 20
0.0
 30
0.0
  3
*D2
  1

  0
LINE
  5
F0
100
AcDbEntity
  8
0
  6
CONTINUOUS
 62
             2
100
AcDbLine
 10
-133.8543468253437
 20
201.728570246206
 11
-127.45434682534371
 21
201.728570246206
  0
LINE
  5
F1
100
AcDbEntity
  8
0
  6
CONTINUOUS
 62
             2
100
AcDbLine
 10
-127.45434682534371
 20
201.728570246206
 11
-125.45434682534371
 21
201.728570246206
  0
LINE
  5
F2
100
AcDbEntity
  8
0
  6
CONTINUOUS
 62
             2
100
AcDbLine
 10
-125.45434682534371
 20
201.728570246206
 11
-114.024651345981
 21
201.728570246206
  0
LINE
  5
F3
100
AcDbEntity
  8
0
  6
CONTINUOUS
 62
             2
100
AcDbLine
 10
-127.45434682534371
 20
177.728570246206
 11
-127.45434682534371
 21
203.228570246206
  0
LINE
  5
F4
100
AcDbEntity
  8
0
  6
CONTINUOUS
 62
             2
100
AcDbLine
 10
-125.45434682534371
 20
186.728570246206
 11
-125.45434682534371
 21
203.228570246206
  0
SOLID
  5
F5
100
AcDbEntity
  8
0
 62
             2
100
AcDbTrace
 10
-130.65434682534371
 20
201.30728225392633
 11
-130.65434682534371
 21
202.14985823848568
 12
-127.45434682534371
 22
201.728570246206
 13
-127.45434682534371
 23
201.728570246206
  0
SOLID
  5
F6
100
AcDbEntity
  8
0
 62
             2
100
AcDbTrace
 10
-122.2543468253437
 20
202.14985823848568
 11
-122.2543468253437
 21
201.30728225392633
 12
-125.45434682534371
 22
201.728570246206
 13
-125.45434682534371
 23
201.728570246206
  0
MTEXT
  5
F7
100
AcDbEntity
  8
0
 62
             2
100
AcDbMText
 10
-122.488651345981
 20
203.728570246206
 30
0.0
 40
3.2
 41
0.0
 71
             7
 72
             1
  1
\C2;2\C2;\H1.920000;{\Fgdt;`}0.2
  7
CONVERTER_1
 11
0.99999999999706
 21
0.00000242406841
 31
0.0
  0
ENDBLK
  5
F8
100
AcDbEntity
  8
0
100
AcDbBlockEnd
  0
BLOCK
  5
FC
100
AcDbEntity
  8
0
100
AcDbBlockBegin
  2
*D3
 70
             1
 10
0.0
 20
0.0
 30
0.0
  3
*D3
  1

  0
LINE
  5
FD
100
AcDbEntity
  8
0
  6
CONTINUOUS
 62
             2
100
AcDbLine
 10
-269.25586671092526
 20
211.728570246206
 11
-227.255865520106
 21
211.728570246206
  0
LINE
  5
FE
100
AcDbEntity
  8
0
  6
CONTINUOUS
 62
             2
100
AcDbLine
 10
-269.25586671092526
 20
182.72857143702555
 11
-269.25586671092526
 21
212.728570246206
  0
LINE
  5
FF
100
AcDbEntity
  8
0
  6
CONTINUOUS
 62
             2
100
AcDbLine
 10
-227.255865520106
 20
182.728570246206
 11
-227.255865520106
 21
212.728570246206
  0
SOLID
  5
100
100
AcDbEntity
  8
0
 62
             2
100
AcDbTrace
 10
-266.05586671092527
 20
212.14985823848568
 11
-266.05586671092527
 21
211.30728225392633
 12
-269.25586671092526
 22
211.728570246206
 13
-269.25586671092526
 23
211.728570246206
  0
SOLID
  5
101
100
AcDbEntity
  8
0
 62
             2
100
AcDbTrace
 10
-230.45586552010599
 20
211.30728225392633
 11
-230.45586552010599
 21
212.14985823848568
 12
-227.255865520106
 22
211.728570246206
 13
-227.255865520106
 23
211.728570246206
  0
MTEXT
  5
102
100
AcDbEntity
  8
0
 62
             2
100
AcDbMText
 10
-253.27986611550799
 20
213.32856388545051
 30
0.0
 40
3.2
 41
0.0
 71
             7
 72
             1
  1
\C2;(\C2;42\C2;)
  7
CONVERTER_1
 11
0.99999999999706
 21
0.00000242406841
 31
0.0
  0
ENDBLK
  5
103
100
AcDbEntity
  8
0
100
AcDbBlockEnd
  0
BLOCK
  5
107
100
AcDbEntity
  8
0
100
AcDbBlockBegin
  2
*D4
 70
             1
 10
0.0
 20
0.0
 30
0.0
  3
*D4
  1

  0
LINE
  5
108
100
AcDbEntity
  8
0
  6
CONTINUOUS
 62
             2
100
AcDbLine
 10
-263.75585552010585
 20
201.728570246206
 11
-232.755865520106
 21
201.728570246206
  0
LINE
  5
109
100
AcDbEntity
  8
0
  6
CONTINUOUS
 62
             2
100
AcDbLine
 10
-232.755865520106
 20
183.728570246206
 11
-232.755865520106
 21
202.728570246206
  0
LINE
  5
10A
100
AcDbEntity
  8
0
  6
CONTINUOUS
 62
             2
100
AcDbLine
 10
-263.75585552010585
 20
183.728570246206
 11
-263.75585552010585
 21
202.728570246206
  0
SOLID
  5
10B
100
AcDbEntity
  8
0
 62
             2
100
AcDbTrace
 10
-260.55585552010587
 20
202.14985823848568
 11
-260.55585552010587
 21
201.30728225392633
 12
-263.75585552010585
 22
201.728570246206
 13
-263.75585552010585
 23
201.728570246206
  0
SOLID
  5
10C
100
AcDbEntity
  8
0
 62
             2
100
AcDbTrace
 10
-235.95586552010599
 20
201.30728225392633
 11
-235.95586552010599
 21
202.14985823848568
 12
-232.755865520106
 22
201.728570246206
 13
-232.755865520106
 23
201.728570246206
  0
MTEXT
  5
10D
100
AcDbEntity
  8
0
 62
             2
100
AcDbMText
 10
-253.44786552010601
 20
203.328570246206
 30
0.0
 40
3.2
 41
0.0
 71
             7
 72
             1
  1
\C2;31\C2;\H1.920000;{\Fgdt;`}0.2
  7
CONVERTER_1
 11
0.99999999999706
 21
0.00000242406841
 31
0.0
  0
ENDBLK
  5
10E
100
AcDbEntity
  8
0
100
AcDbBlockEnd
  0
BLOCK
  5
112
100
AcDbEntity
  8
0
100
AcDbBlockBegin
  2
*D5
 70
             1
 10
0.0
 20
0.0
 30
0.0
  3
*D5
  1

  0
LINE
  5
113
100
AcDbEntity
  8
0
  6
CONTINUOUS
 62
             2
100
AcDbLine
 10
-214.6792884909166
 20
150.22857024620609
 11
-214.6792884909166
 21
181.22857024620598
  0
LINE
  5
114
100
AcDbEntity
  8
0
  6
CONTINUOUS
 62
             2
100
AcDbLine
 10
-229.255865520106
 20
181.22857024620598
 11
-213.6792884909166
 21
181.22857024620598
  0
LINE
  5
115
100
AcDbEntity
  8
0
  6
CONTINUOUS
 62
             2
100
AcDbLine
 10
-229.255865520106
 20
150.22857024620609
 11
-213.6792884909166
 21
150.22857024620609
  0
SOLID
  5
116
100
AcDbEntity
  8
0
 62
             2
100
AcDbTrace
 10
-214.25800049863693
 20
178.02857024620599
 11
-215.10057648319628
 21
178.02857024620599
 12
-214.6792884909166
 22
181.22857024620598
 13
-214.6792884909166
 23
181.22857024620598
  0
SOLID
  5
117
100
AcDbEntity
  8
0
 62
             2
100
AcDbTrace
 10
-215.10057648319628
 20
153.42857024620608
 11
-214.25800049863693
 21
153.42857024620608
 12
-214.6792884909166
 22
150.22857024620609
 13
-214.6792884909166
 23
150.22857024620609
  0
MTEXT
  5
118
100
AcDbEntity
  8
0
 62
             2
100
AcDbMText
 10
-216.6792884909166
 20
159.9362505382654
 30
0.0
 40
3.2
 41
0.0
 71
             7
 72
             1
  1
\C2;31\C2;\H1.920000;{\Fgdt;`}0.2
  7
CONVERTER_1
 11
0.0
 21
1.0
 31
0.0
  0
ENDBLK
  5
119
100
AcDbEntity
  8
0
100
AcDbBlockEnd
  0
BLOCK
  5
11D
100
AcDbEntity
  8
0
100
AcDbBlockBegin
  2
*D6
 70
             1
 10
0.0
 20
0.0
 30
0.0
  3
*D6
  1

  0
LINE
  5
11E
100
AcDbEntity
  8
0
  6
CONTINUOUS
 62
             2
100
AcDbLine
 10
-278.60988212170997
 20
151.12858115996559
 11
-278.60988212170997
 21
144.72858115996559
  0
LINE
  5
11F
100
AcDbEntity
  8
0
  6
CONTINUOUS
 62
             2
100
AcDbLine
 10
-278.60988212170997
 20
138.22857024620617
 11
-278.60988212170997
 21
144.72858115996559
  0
LINE
  5
120
100
AcDbEntity
  8
0
  6
CONTINUOUS
 62
             2
100
AcDbLine
 10
-278.60988212170997
 20
138.22857024620617
 11
-278.60988212170997
 21
121.35457898608851
  0
LINE
  5
121
100
AcDbEntity
  8
0
  6
CONTINUOUS
 62
             2
100
AcDbLine
 10
-261.20586552010604
 20
138.22857024620617
 11
-280.10988212170997
 21
138.22857024620617
  0
LINE
  5
122
100
AcDbEntity
  8
0
  6
CONTINUOUS
 62
             2
100
AcDbLine
 10
-265.25587580700011
 20
144.72858115996559
 11
-280.10988212170997
 21
144.72858115996559
  0
SOLID
  5
123
100
AcDbEntity
  8
0
 62
             2
100
AcDbTrace
 10
-279.03117011398962
 20
147.92858115996557
 11
-278.18859412943033
 21
147.92858115996557
 12
-278.60988212170997
 22
144.72858115996559
 13
-278.60988212170997
 23
144.72858115996559
  0
SOLID
  5
124
100
AcDbEntity
  8
0
 62
             2
100
AcDbTrace
 10
-278.18859412943033
 20
135.02857024620619
 11
-279.03117011398962
 21
135.02857024620619
 12
-278.60988212170997
 22
138.22857024620617
 13
-278.60988212170997
 23
138.22857024620617
  0
MTEXT
  5
125
100
AcDbEntity
  8
0
 62
             2
100
AcDbMText
 10
-280.60988212170997
 20
119.32728486844145
 30
0.0
 40
3.2
 41
0.0
 71
             7
 72
             1
  1
\C2;Î(\C2;6.5\C2;)
  7
CONVERTER_1
 11
0.0
 21
1.0
 31
0.0
  0
ENDBLK
  5
126
100
AcDbEntity
  8
0
100
AcDbBlockEnd
  0
BLOCK
  5
12A
100
AcDbEntity
  8
0
100
AcDbBlockBegin
  2
*D7
 70
             1
 10
0.0
 20
0.0
 30
0.0
  3
*D7
  1

  0
LINE
  5
12B
100
AcDbEntity
  8
0
  6
CONTINUOUS
 62
             2
100
AcDbLine
 10
-163.45425578719554
 20
156.82857024620606
 11
-163.45425578719554
 21
163.22857024620606
  0
LINE
  5
12C
100
AcDbEntity
  8
0
  6
CONTINUOUS
 62
             2
100
AcDbLine
 10
-163.45425578719554
 20
163.22857024620606
 11
-163.45425578719554
 21
168.22857024620606
  0
LINE
  5
12D
100
AcDbEntity
  8
0
  6
CONTINUOUS
 62
             2
100
AcDbLine
 10
-163.45425578719554
 20
168.22857024620606
 11
-163.45425578719554
 21
194.76520320447301
  0
LINE
  5
12E
100
AcDbEntity
  8
0
  6
CONTINUOUS
 62
             2
100
AcDbLine
 10
-145.45435818896982
 20
163.22857024620606
 11
-164.95425578719554
 21
163.22857024620606
  0
LINE
  5
12F
100
AcDbEntity
  8
0
  6
CONTINUOUS
 62
             2
100
AcDbLine
 10
-131.45434682534372
 20
168.22857024620606
 11
-164.95425578719554
 21
168.22857024620606
  0
SOLID
  5
130
100
AcDbEntity
  8
0
 62
             2
100
AcDbTrace
 10
-163.87554377947521
 20
171.42857024620605
 11
-163.03296779491586
 21
171.42857024620605
 12
-163.45425578719554
 22
168.22857024620606
 13
-163.45425578719554
 23
168.22857024620606
  0
SOLID
  5
131
100
AcDbEntity
  8
0
 62
             2
100
AcDbTrace
 10
-163.03296779491586
 20
160.02857024620607
 11
-163.87554377947521
 21
160.02857024620607
 12
-163.45425578719554
 22
163.22857024620606
 13
-163.45425578719554
 23
163.22857024620606
  0
MTEXT
  5
132
100
AcDbEntity
  8
0
 62
             2
100
AcDbMText
 10
-166.30758912052889
 20
178.55720320447301
 30
0.0
 40
3.2
 41
0.0
 71
             7
 72
             1
  1
\C2;Æ\C2;\C2;5\C2;\H1.920000;\S 0^ -0.011;
  7
CONVERTER_1
 11
0.0
 21
1.0
 31
0.0
  0
ENDBLK
  5
133
100
AcDbEntity
  8
0
100
AcDbBlockEnd
  0
BLOCK
  5
137
100
AcDbEntity
  8
0
100
AcDbBlockBegin
  2
*D8
 70
             1
 10
0.0
 20
0.0
 30
0.0
  3
*D8
  1

  0
LINE
  5
138
100
AcDbEntity
  8
0
  6
CONTINUOUS
 62
             2
100
AcDbLine
 10
-172.45424965735253
 20
154.72857024620612
 11
-172.45424965735253
 21
176.72857024620603
  0
LINE
  5
139
100
AcDbEntity
  8
0
  6
CONTINUOUS
 62
             2
100
AcDbLine
 10
-172.45424965735253
 20
176.72857024620603
 11
-172.45424965735253
 21
197.35694277379153
  0
LINE
  5
13A
100
AcDbEntity
  8
0
  6
CONTINUOUS
 62
             2
100
AcDbLine
 10
-128.45434682534375
 20
154.72857024620612
 11
-173.95424965735253
 21
154.72857024620612
  0
LINE
  5
13B
100
AcDbEntity
  8
0
  6
CONTINUOUS
 62
             2
100
AcDbLine
 10
-128.45434682534375
 20
176.72857024620603
 11
-173.95424965735253
 21
176.72857024620603
  0
SOLID
  5
13C
100
AcDbEntity
  8
0
 62
             2
100
AcDbTrace
 10
-172.03296166507286
 20
173.52857024620604
 11
-172.87553764963221
 21
173.52857024620604
 12
-172.45424965735253
 22
176.72857024620603
 13
-172.45424965735253
 23
176.72857024620603
  0
SOLID
  5
13D
100
AcDbEntity
  8
0
 62
             2
100
AcDbTrace
 10
-172.87553764963221
 20
157.92857024620611
 11
-172.03296166507286
 21
157.92857024620611
 12
-172.45424965735253
 22
154.72857024620612
 13
-172.45424965735253
 23
154.72857024620612
  0
MTEXT
  5
13E
100
AcDbEntity
  8
0
 62
             2
100
AcDbMText
 10
-175.30758299068589
 20
178.84494277379153
 30
0.0
 40
3.2
 41
0.0
 71
             7
 72
             1
  1
\C2;Æ\C2;\C2;22\C2;\H1.920000;\S 0^ -0.05;
  7
CONVERTER_1
 11
0.0
 21
1.0
 31
0.0
  0
ENDBLK
  5
13F
100
AcDbEntity
  8
0
100
AcDbBlockEnd
  0
BLOCK
  5
143
100
AcDbEntity
  8
0
100
AcDbBlockBegin
  2
*D9
 70
             1
 10
0.0
 20
0.0
 30
0.0
  3
*D9
  1

  0
LINE
  5
144
100
AcDbEntity
  8
0
  6
CONTINUOUS
 62
             2
100
AcDbLine
 10
-145.45433895238699
 20
191.71043648384202
 11
-130.45434682534369
 21
191.71043648384202
  0
LINE
  5
145
100
AcDbEntity
  8
0
  6
CONTINUOUS
 62
             2
100
AcDbLine
 10
-145.45433895238699
 20
168.728570246206
 11
-145.45433895238699
 21
193.21043648384202
  0
LINE
  5
146
100
AcDbEntity
  8
0
  6
CONTINUOUS
 62
             2
100
AcDbLine
 10
-130.45434682534369
 20
169.228570246206
 11
-130.45434682534369
 21
193.21043648384202
  0
SOLID
  5
147
100
AcDbEntity
  8
0
 62
             2
100
AcDbTrace
 10
-142.254338952387
 20
192.13172447612169
 11
-142.254338952387
 21
191.28914849156234
 12
-145.45433895238699
 22
191.71043648384202
 13
-145.45433895238699
 23
191.71043648384202
  0
SOLID
  5
148
100
AcDbEntity
  8
0
 62
             2
100
AcDbTrace
 10
-133.65434682534368
 20
191.28914849156234
 11
-133.65434682534368
 21
192.13172447612169
 12
-130.45434682534369
 22
191.71043648384202
 13
-130.45434682534369
 23
191.71043648384202
  0
MTEXT
  5
149
100
AcDbEntity
  8
0
 62
             2
100
AcDbMText
 10
-142.628566717258
 20
193.71043648384202
 30
0.0
 40
3.2
 41
0.0
 71
             7
 72
             1
  1
\C2;15\C2;\H1.920000;{\Fgdt;`}0.2
  7
CONVERTER_1
 11
0.99999999999706
 21
0.00000242406841
 31
0.0
  0
ENDBLK
  5
14A
100
AcDbEntity
  8
0
100
AcDbBlockEnd
  0
BLOCK
  5
14E
100
AcDbEntity
  8
0
100
AcDbBlockBegin
  2
*D10
 70
             1
 10
0.0
 20
0.0
 30
0.0
  3
*D10
  1

  0
LINE
  5
14F
100
AcDbEntity
  8
0
  6
CONTINUOUS
 62
             2
100
AcDbLine
 10
-145.45433895238699
 20
211.728570246206
 11
-125.45434682534371
 21
211.728570246206
  0
LINE
  5
150
100
AcDbEntity
  8
0
  6
CONTINUOUS
 62
             2
100
AcDbLine
 10
-145.45433895238699
 20
168.728570246206
 11
-145.45433895238699
 21
213.228570246206
  0
LINE
  5
151
100
AcDbEntity
  8
0
  6
CONTINUOUS
 62
             2
100
AcDbLine
 10
-125.45434682534371
 20
186.728570246206
 11
-125.45434682534371
 21
213.228570246206
  0
SOLID
  5
152
100
AcDbEntity
  8
0
 62
             2
100
AcDbTrace
 10
-142.254338952387
 20
212.14985823848568
 11
-142.254338952387
 21
211.30728225392633
 12
-145.45433895238699
 22
211.728570246206
 13
-145.45433895238699
 23
211.728570246206
  0
SOLID
  5
153
100
AcDbEntity
  8
0
 62
             2
100
AcDbTrace
 10
-128.65434682534371
 20
211.30728225392633
 11
-128.65434682534371
 21
212.14985823848568
 12
-125.45434682534371
 22
211.728570246206
 13
-125.45434682534371
 23
211.728570246206
  0
MTEXT
  5
154
100
AcDbEntity
  8
0
 62
             2
100
AcDbMText
 10
-141.092703585224
 20
213.728570246206
 30
0.0
 40
3.2
 41
0.0
 71
             7
 72
             1
  1
\C2;20\C2;\H1.920000;{\Fgdt;`}0.5
  7
CONVERTER_1
 11
0.99999999999706
 21
0.00000242406841
 31
0.0
  0
ENDBLK
  5
155
100
AcDbEntity
  8
0
100
AcDbBlockEnd
  0
BLOCK
  5
159
100
AcDbEntity
  8
0
100
AcDbBlockBegin
  2
*D11
 70
             1
 10
0.0
 20
0.0
 30
0.0
  3
*D11
  1

  0
LINE
  5
15A
100
AcDbEntity
  8
0
  6
CONTINUOUS
 62
             2
100
AcDbLine
 10
-206.1634919059095
 20
140.17857024620608
 11
-206.1634919059095
 21
127.4032608044524
  0
LINE
  5
15B
100
AcDbEntity
  8
0
  6
CONTINUOUS
 62
             2
100
AcDbLine
 10
-206.1634919059095
 20
140.17857024620608
 11
-206.1634919059095
 21
144.72857172103838
  0
LINE
  5
15C
100
AcDbEntity
  8
0
  6
CONTINUOUS
 62
             2
100
AcDbLine
 10
-206.1634919059095
 20
151.12857172103836
 11
-206.1634919059095
 21
144.72857172103838
  0
LINE
  5
15D
100
AcDbEntity
  8
0
  6
CONTINUOUS
 62
             2
100
AcDbLine
 10
-231.25586699493789
 20
144.72857172103838
 11
-204.6634919059095
 21
144.72857172103838
  0
LINE
  5
15E
100
AcDbEntity
  8
0
  6
CONTINUOUS
 62
             2
100
AcDbLine
 10
-235.30586552010601
 20
140.17857024620608
 11
-204.6634919059095
 21
140.17857024620608
  0
SOLID
  5
15F
100
AcDbEntity
  8
0
 62
             2
100
AcDbTrace
 10
-206.58477989818917
 20
147.92857172103837
 11
-205.74220391362982
 21
147.92857172103837
 12
-206.1634919059095
 22
144.72857172103838
 13
-206.1634919059095
 23
144.72857172103838
  0
SOLID
  5
160
100
AcDbEntity
  8
0
 62
             2
100
AcDbTrace
 10
-205.74220391362982
 20
136.97857024620609
 11
-206.58477989818917
 21
136.97857024620609
 12
-206.1634919059095
 22
140.17857024620608
 13
-206.1634919059095
 23
140.17857024620608
  0
MTEXT
  5
161
100
AcDbEntity
  8
0
 62
             2
100
AcDbMText
 10
-208.1634919059095
 20
126.77926080445241
 30
0.0
 40
3.2
 41
0.0
 71
             7
 72
             1
  1
\C2;(\C2;4.6\C2;)
  7
CONVERTER_1
 11
0.0
 21
1.0
 31
0.0
  0
ENDBLK
  5
162
100
AcDbEntity
  8
0
100
AcDbBlockEnd
  0
BLOCK
  5
166
100
AcDbEntity
  8
0
100
AcDbBlockBegin
  2
*D12
 70
             1
 10
0.0
 20
0.0
 30
0.0
  3
*D12
  1

  0
LINE
  5
167
100
AcDbEntity
  8
0
  6
CONTINUOUS
 62
             2
100
AcDbLine
 10
-206.1634919059095
 20
144.72857172103841
 11
-206.1634919059095
 21
186.728570246206
  0
LINE
  5
168
100
AcDbEntity
  8
0
  6
CONTINUOUS
 62
             2
100
AcDbLine
 10
-231.255865520106
 20
186.728570246206
 11
-204.6634919059095
 21
186.728570246206
  0
LINE
  5
169
100
AcDbEntity
  8
0
  6
CONTINUOUS
 62
             2
100
AcDbLine
 10
-231.25586699493789
 20
144.72857172103841
 11
-204.6634919059095
 21
144.72857172103841
  0
SOLID
  5
16A
100
AcDbEntity
  8
0
 62
             2
100
AcDbTrace
 10
-205.74220391362982
 20
183.52857024620602
 11
-206.58477989818917
 21
183.52857024620602
 12
-206.1634919059095
 22
186.728570246206
 13
-206.1634919059095
 23
186.728570246206
  0
SOLID
  5
16B
100
AcDbEntity
  8
0
 62
             2
100
AcDbTrace
 10
-206.58477989818917
 20
147.9285717210384
 11
-205.74220391362982
 21
147.9285717210384
 12
-206.1634919059095
 22
144.72857172103841
 13
-206.1634919059095
 23
144.72857172103841
  0
MTEXT
  5
16C
100
AcDbEntity
  8
0
 62
             2
100
AcDbMText
 10
-208.1634919059095
 20
160.22590477519441
 30
0.0
 40
3.2
 41
0.0
 71
             7
 72
             1
  1
\C2;(\C2;42\C2;)
  7
CONVERTER_1
 11
0.0
 21
1.0
 31
0.0
  0
ENDBLK
  5
16D
100
AcDbEntity
  8
0
100
AcDbBlockEnd
  0
ENDSEC
  0
SECTION
  2
ENTITIES
  0
DIMENSION
  5
16F
100
AcDbEntity
  8
1
100
AcDbDimension
  2
*D12
 10
-206.1634919059095
 20
186.728570246206
 11
-209.76349190590949
 21
165.24990477519441
 31
0.0
 53
90.0
  1
<>
  3
ME10_DIM_12
100
AcDbAlignedDimension
 13
-232.25586699493789
 23
144.72857172103841
 14
-232.255865520106
 24
186.728570246206
 50
90.0
100
AcDbRotatedDimension
  0
DIMENSION
  5
164
100
AcDbEntity
  8
1
100
AcDbDimension
  2
*D11
 10
-206.1634919059095
 20
144.72857172103838
 11
-209.76349190590949
 21
132.4032608044524
 31
0.0
 53
90.0
  1
(4.6
  3
ME10_DIM_11
100
AcDbAlignedDimension
 13
-236.30586552010601
 23
140.17857024620611
 14
-232.25586699493789
 24
144.72857172103841
 50
90.0
100
AcDbRotatedDimension
  0
DIMENSION
  5
157
100
AcDbEntity
  8
1
100
AcDbDimension
  2
*D10
 10
-145.45433895238699
 20
211.728570246206
 11
-135.420703585224
 21
215.328570246206
 31
0.0
 53
0.00013888888889
  1
<>
  3
ME10_DIM_10
100
AcDbAlignedDimension
 13
-125.45434682534371
 23
185.728570246206
 14
-145.45433895238699
 24
167.728570246206
100
AcDbRotatedDimension
  0
DIMENSION
  5
14C
100
AcDbEntity
  8
1
100
AcDbDimension
  2
*D9
 10
-145.45433895238699
 20
191.71043648384202
 11
-137.43656671725799
 21
195.31043648384201
 31
0.0
 53
0.00013888888889
  1
<>
  3
ME10_DIM_9
100
AcDbAlignedDimension
 13
-130.45434682534369
 23
168.228570246206
 14
-145.45433895238699
 24
167.728570246206
100
AcDbRotatedDimension
  0
DIMENSION
  5
141
100
AcDbEntity
  8
1
100
AcDbDimension
  2
*D8
 10
-172.45424965735253
 20
176.72857024620603
 11
-176.88091632401921
 21
188.70141336202681
 31
0.0
 53
90.0
  1
<>
  3
ME10_DIM_8
100
AcDbAlignedDimension
 13
-127.45434682534371
 23
154.72857024620609
 14
-127.45434682534371
 24
176.728570246206
 50
90.0
100
AcDbRotatedDimension
  0
DIMENSION
  5
135
100
AcDbEntity
  8
1
100
AcDbDimension
  2
*D7
 10
-163.45425578719554
 20
168.22857024620606
 11
-167.88092245386221
 21
187.26167379270831
 31
0.0
 53
90.0
  1
<>
  3
ME10_DIM_7
100
AcDbAlignedDimension
 13
-144.45435818896979
 23
163.228570246206
 14
-130.45434682534369
 24
168.228570246206
 50
90.0
100
AcDbRotatedDimension
  0
DIMENSION
  5
128
100
AcDbEntity
  8
1
100
AcDbDimension
  2
*D6
 10
-278.60988212170997
 20
144.72858115996559
 11
-282.20988212171
 21
128.31693192726499
 31
0.0
 53
90.0
  1
<>
  3
ME10_DIM_6
100
AcDbAlignedDimension
 13
-260.20586552010599
 23
138.2285702462062
 14
-264.25587580700011
 24
144.72858115996559
 50
90.0
100
AcDbRotatedDimension
  0
DIMENSION
  5
11B
100
AcDbEntity
  8
1
100
AcDbDimension
  2
*D5
 10
-214.6792884909166
 20
181.22857024620598
 11
-218.2792884909166
 21
165.12825053826541
 31
0.0
 53
90.0
  1
<>
  3
ME10_DIM_5
100
AcDbAlignedDimension
 13
-230.25586552010591
 23
150.22857024620609
 14
-230.25586552010591
 24
181.228570246206
 50
90.0
100
AcDbRotatedDimension
  0
DIMENSION
  5
110
100
AcDbEntity
  8
0
100
AcDbDimension
  2
*D4
 10
-263.75585552010585
 20
201.728570246206
 11
-248.255865520106
 21
204.92857024620599
 31
0.0
 53
0.00013888888889
  1
<>
  3
ME10_DIM_4
100
AcDbAlignedDimension
 13
-232.755865520106
 23
183.728570246206
 14
-263.75585552010602
 24
183.728570246206
100
AcDbRotatedDimension
  0
DIMENSION
  5
105
100
AcDbEntity
  8
0
100
AcDbDimension
  2
*D3
 10
-269.25586671092526
 20
211.728570246206
 11
-248.25586611551569
 21
214.92857024620599
 31
0.0
 53
0.00013888888889
  1
<>
  3
ME10_DIM_3
100
AcDbAlignedDimension
 13
-227.255865520106
 23
181.728570246206
 14
-269.25586671092532
 24
181.72857143702549
100
AcDbRotatedDimension
  0
DIMENSION
  5
FA
100
AcDbEntity
  8
1
100
AcDbDimension
  2
*D2
 10
-127.45434682534371
 20
201.728570246206
 11
-118.256651345981
 21
205.328570246206
 31
0.0
 53
0.00013888888889
  1
<>
  3
ME10_DIM_2
100
AcDbAlignedDimension
 13
-125.45434682534371
 23
185.728570246206
 14
-127.45434682534371
 24
176.728570246206
100
AcDbRotatedDimension
  0
DIMENSION
  5
ED
100
AcDbEntity
  8
1
100
AcDbDimension
  2
*D1
 10
-125.45434682534369
 20
211.728570246206
 11
-101.3640543337584
 21
215.328570246206
 31
0.0
 53
0.00013888888889
  1
48
  3
ME10_DIM_1
100
AcDbAlignedDimension
 13
-77.85433932534366
 23
185.728570246206
 14
-125.45434682534371
 24
185.728570246206
100
AcDbRotatedDimension
  0
DIMENSION
  5
E2
100
AcDbEntity
  8
1
100
AcDbDimension
  2
*D0
 10
-154.45425558753101
 20
167.72857024620603
 11
-158.054255587531
 21
187.30854997569091
 31
0.0
 53
90.0
  1
<>
  3
ME10_DIM_0
100
AcDbAlignedDimension
 13
-144.45435818896979
 23
163.228570246206
 14
-145.45433895238699
 24
167.728570246206
 50
90.0
100
AcDbRotatedDimension
  0
ARC
  5
D4
100
AcDbEntity
  8
1
  6
CONTINUOUS
 62
             3
100
AcDbCircle
 10
-232.255865520106
 20
181.728570246206
 40
5.0
100
AcDbArc
 50
0.0
 51
90.0
  0
ARC
  5
D3
100
AcDbEntity
  8
1
  6
CONTINUOUS
 62
             3
100
AcDbCircle
 10
-264.25586671092537
 20
181.728570246206
 40
5.0
100
AcDbArc
 50
90.0
 51
179.9999863542138
  0
ARC
  5
D2
100
AcDbEntity
  8
1
  6
CONTINUOUS
 62
             3
100
AcDbCircle
 10
-264.2558743321681
 20
149.7285811599653
 40
5.00000000000003
100
AcDbArc
 50
179.99998635421156
 51
-90.00001690032987
  0
ARC
  5
D1
100
AcDbEntity
  8
1
  6
CONTINUOUS
 62
             3
100
AcDbCircle
 10
-232.25586552010591
 20
149.72857172103821
 40
5.00000000000002
100
AcDbArc
 50
-90.00001690032954
 51
0.0
  0
ARC
  5
D0
100
AcDbEntity
  8
1
  6
CONTINUOUS
 62
             3
100
AcDbCircle
 10
-124.45434682534371
 20
145.7285706419847
 40
1.0
100
AcDbArc
 50
180.0
 51
-89.99997732355665
  0
ARC
  5
CF
100
AcDbEntity
  8
1
  6
CONTINUOUS
 62
             3
100
AcDbCircle
 10
-124.45434682534371
 20
185.728570246206
 40
1.0
100
AcDbArc
 50
90.0
 51
180.0
  0
ARC
  5
CE
100
AcDbEntity
  8
1
  6
CONTINUOUS
 62
             3
100
AcDbCircle
 10
-78.85435082734435
 20
143.72857024620609
 40
1.0
100
AcDbArc
 50
-90.00000000000081
 51
0.00010021033663
  0
ARC
  5
CD
100
AcDbEntity
  8
1
  6
CONTINUOUS
 62
             3
100
AcDbCircle
 10
-261.20586552010599
 20
143.02857024620599
 40
0.2999999999999
100
AcDbArc
 50
-90.0
 51
0.0
  0
ARC
  5
CC
100
AcDbEntity
  8
1
  6
CONTINUOUS
 62
             3
100
AcDbCircle
 10
-235.30586552010601
 20
143.02857024620599
 40
0.29999999999998
100
AcDbArc
 50
180.0
 51
-90.0
  0
ARC
  5
CB
100
AcDbEntity
  8
1
  6
CONTINUOUS
 62
             3
100
AcDbCircle
 10
-261.24942136026181
 20
143.72857024620609
 40
0.99999999999985
100
AcDbArc
 50
-147.37931044688403
 51
-90.0
  0
ARC
  5
CA
100
AcDbEntity
  8
1
  6
CONTINUOUS
 62
             3
100
AcDbCircle
 10
-235.26231118706519
 20
143.72857024620609
 40
1.0
100
AcDbArc
 50
-90.0
 51
-32.62068955311597
  0
ARC
  5
C9
100
AcDbEntity
  8
1
  6
CONTINUOUS
 62
             3
100
AcDbCircle
 10
-239.97133437937109
 20
167.6299372725511
 40
0.4999999999995
100
AcDbArc
 50
-75.00000000001722
 51
14.56004299679298
  0
ARC
  5
C8
100
AcDbEntity
  8
1
  6
CONTINUOUS
 62
             3
100
AcDbCircle
 10
-239.97022534513809
 20
163.82508914980789
 40
0.50000000000135
100
AcDbArc
 50
-14.56004299683654
 51
75.00000000001722
  0
ARC
  5
C7
100
AcDbEntity
  8
1
  6
CONTINUOUS
 62
             3
100
AcDbCircle
 10
-246.35449849376101
 20
157.44403910547101
 40
0.50000000000036
100
AcDbArc
 50
-165.00000000004022
 51
-75.43995700320387
  0
ARC
  5
C6
100
AcDbEntity
  8
1
  6
CONTINUOUS
 62
             3
100
AcDbCircle
 10
-250.15934661650411
 20
157.4429300712369
 40
0.50000000000033
100
AcDbArc
 50
-104.56004299687712
 51
-14.99999999995894
  0
ARC
  5
C5
100
AcDbEntity
  8
1
  6
CONTINUOUS
 62
             3
100
AcDbCircle
 10
-256.54039666083992
 20
163.82720321986099
 40
0.49999999999957
100
AcDbArc
 50
105.00000000000081
 51
-165.43995700315321
  0
ARC
  5
C4
100
AcDbEntity
  8
1
  6
CONTINUOUS
 62
             3
100
AcDbCircle
 10
-256.54150569507487
 20
167.63205134260409
 40
0.49999999999935
100
AcDbArc
 50
165.43995700323168
 51
-104.99999999996294
  0
ARC
  5
C3
100
AcDbEntity
  8
1
  6
CONTINUOUS
 62
             3
100
AcDbCircle
 10
-250.1572325464511
 20
174.01310138694009
 40
0.50000000000062
100
AcDbArc
 50
15.00000000005647
 51
104.56004299674471
  0
ARC
  5
C2
100
AcDbEntity
  8
1
  6
CONTINUOUS
 62
             3
100
AcDbCircle
 10
-246.35238442370709
 20
174.014210421174
 40
0.50000000000007
100
AcDbArc
 50
75.43995700332722
 51
164.99999999992153
  0
CIRCLE
  5
C1
100
AcDbEntity
  8
4
  6
CONTINUOUS
 62
             3
100
AcDbCircle
 10
-263.755865520106
 20
181.228570246206
 40
1.00000999999997
  0
CIRCLE
  5
C0
100
AcDbEntity
  8
4
  6
CONTINUOUS
 62
             3
100
AcDbCircle
 10
-232.755865520106
 20
181.228570246206
 40
1.0
  0
CIRCLE
  5
BF
100
AcDbEntity
  8
4
  6
CONTINUOUS
 62
             3
100
AcDbCircle
 10
-263.75587552010592
 20
150.22857024620609
 40
1.00000999999992
  0
CIRCLE
  5
BE
100
AcDbEntity
  8
4
  6
CONTINUOUS
 62
             3
100
AcDbCircle
 10
-232.755865520106
 20
150.22857024620609
 40
1.0
  0
CIRCLE
  5
BD
100
AcDbEntity
  8
1
  6
CONTINUOUS
 62
             2
100
AcDbCircle
 10
-232.755865520106
 20
181.228570246206
 40
1.5
  0
CIRCLE
  5
BC
100
AcDbEntity
  8
1
  6
CONTINUOUS
 62
             2
100
AcDbCircle
 10
-263.755865520106
 20
181.228570246206
 40
1.5
  0
CIRCLE
  5
BB
100
AcDbEntity
  8
1
  6
CONTINUOUS
 62
             2
100
AcDbCircle
 10
-263.75587552010592
 20
150.22857024620609
 40
1.5
  0
CIRCLE
  5
BA
100
AcDbEntity
  8
1
  6
CONTINUOUS
 62
             2
100
AcDbCircle
 10
-232.755865520106
 20
150.22857024620609
 40
1.5
  0
CIRCLE
  5
B9
100
AcDbEntity
  8
1
  6
CONTINUOUS
 62
             3
100
AcDbCircle
 10
-248.25586552010611
 20
165.728570246206
 40
15.0
  0
CIRCLE
  5
B8
100
AcDbEntity
  8
1
  6
CONTINUOUS
 62
             3
100
AcDbCircle
 10
-248.25586552010611
 20
165.728570246206
 40
15.25191576982999
  0
CIRCLE
  5
B7
100
AcDbEntity
  8
1
  6
CONTINUOUS
 62
             3
100
AcDbCircle
 10
-248.25586552010611
 20
165.728570246206
 40
8.99972871884503
  0
CIRCLE
  5
B6
100
AcDbEntity
  8
1
  6
CONTINUOUS
 62
             3
100
AcDbCircle
 10
-248.25586552010611
 20
165.728570246206
 40
4.5
  0
CIRCLE
  5
B5
100
AcDbEntity
  8
1
  6
CONTINUOUS
 62
             3
100
AcDbCircle
 10
-248.25586552010611
 20
165.728570246206
 40
4.6999999999994
  0
CIRCLE
  5
B4
100
AcDbEntity
  8
1
  6
CONTINUOUS
 62
             3
100
AcDbCircle
 10
-248.25586552010611
 20
165.728570246206
 40
11.0
  0
CIRCLE
  5
B3
100
AcDbEntity
  8
1
  6
CONTINUOUS
 62
             3
100
AcDbCircle
 10
-248.25586552010611
 20
165.728570246206
 40
11.0
  0
CIRCLE
  5
B2
100
AcDbEntity
  8
1
  6
CONTINUOUS
 62
             3
100
AcDbCircle
 10
-248.25586552010611
 20
165.728570246206
 40
10.5
  0
CIRCLE
  5
B1
100
AcDbEntity
  8
1
  6
CONTINUOUS
 62
             3
100
AcDbCircle
 10
-248.25586552010611
 20
165.728570246206
 40
12.219615242271
  0
CIRCLE
  5
B0
100
AcDbEntity
  8
1
  6
CONTINUOUS
 62
             3
100
AcDbCircle
 10
-248.25586552010611
 20
165.728570246206
 40
11.7000000000001
  0
CIRCLE
  5
AF
100
AcDbEntity
  8
1
  6
CONTINUOUS
 62
             3
100
AcDbCircle
 10
-248.25586552010611
 20
165.728570246206
 40
2.49999999999989
  0
ARC
  5
AE
100
AcDbEntity
  8
1
  6
CONTINUOUS
 62
             3
100
AcDbCircle
 10
-78.85433932534366
 20
185.728570246206
 40
1.0
100
AcDbArc
 50
0.0
 51
89.99999999999756
  0
ARC
  5
AD
100
AcDbEntity
  8
1
  6
CONTINUOUS
 62
             3
100
AcDbCircle
 10
-264.62996435425782
 20
141.89033495208849
 40
2.8514398718123
100
AcDbArc
 50
27.10454653482958
 51
84.48385698171848
  0
ARC
  5
AC
100
AcDbEntity
  8
1
  6
CONTINUOUS
 62
             3
100
AcDbCircle
 10
-231.88176819306921
 20
141.89033495208849
 40
2.85143987181218
100
AcDbArc
 50
95.51614301828039
 51
152.89545346517016
  0
ARC
  5
AB
100
AcDbEntity
  8
1
  6
CONTINUOUS
 62
             3
100
AcDbCircle
 10
-248.25586552010611
 20
165.728570246206
 40
5.999691753028
100
AcDbArc
 50
-82.81986083958118
 51
-7.19104784555602
  0
ARC
  5
AA
100
AcDbEntity
  8
1
  6
CONTINUOUS
 62
             3
100
AcDbCircle
 10
-248.25586552010611
 20
165.728570246206
 40
5.99969175302765
100
AcDbArc
 50
-172.81986083958375
 51
-97.19104784556639
  0
ARC
  5
A9
100
AcDbEntity
  8
1
  6
CONTINUOUS
 62
             3
100
AcDbCircle
 10
-248.25586552010611
 20
165.728570246206
 40
5.99969175302686
100
AcDbArc
 50
97.18013916041693
 51
172.80895215444195
  0
ARC
  5
A8
100
AcDbEntity
  8
1
  6
CONTINUOUS
 62
             3
100
AcDbCircle
 10
-248.25586552010611
 20
165.728570246206
 40
5.99969175302678
100
AcDbArc
 50
7.18013916040854
 51
82.80895215444168
  0
ARC
  5
A7
100
AcDbEntity
  8
1
  6
CONTINUOUS
 62
             3
100
AcDbCircle
 10
-248.25586552010611
 20
165.728570246206
 40
8.99972871884506
100
AcDbArc
 50
13.01676499027872
 51
77.32542857058212
  0
ARC
  5
A6
100
AcDbEntity
  8
1
  6
CONTINUOUS
 62
             3
100
AcDbCircle
 10
-248.25586552010611
 20
165.728570246206
 40
8.99972871884503
100
AcDbArc
 50
-76.98323500972106
 51
-12.67457142941455
  0
ARC
  5
A5
100
AcDbEntity
  8
1
  6
CONTINUOUS
 62
             3
100
AcDbCircle
 10
-248.25586552010611
 20
165.728570246206
 40
8.99972871884598
100
AcDbArc
 50
-166.98323500971671
 51
-102.67457142941576
  0
ARC
  5
A4
100
AcDbEntity
  8
1
  6
CONTINUOUS
 62
             3
100
AcDbCircle
 10
-248.25586552010611
 20
165.728570246206
 40
8.99972871884496
100
AcDbArc
 50
103.01676499027683
 51
167.32542857058419
  0
ARC
  5
A3
100
AcDbEntity
  8
1
  6
CONTINUOUS
 62
             3
100
AcDbCircle
 10
-248.25586552010611
 20
165.728570246206
 40
4.69999999999922
100
AcDbArc
 50
0.0
 51
6.72022296018572
  0
ARC
  5
A2
100
AcDbEntity
  8
1
  6
CONTINUOUS
 62
             3
100
AcDbCircle
 10
-248.25586552010611
 20
165.728570246206
 40
4.69999999999938
100
AcDbArc
 50
-6.72022296018469
 51
0.0
  0
ARC
  5
A1
100
AcDbEntity
  8
1
  6
CONTINUOUS
 62
             3
100
AcDbCircle
 10
-248.25586552010611
 20
165.728570246206
 40
4.70000000000002
100
AcDbArc
 50
-90.0
 51
-83.27977703981507
  0
ARC
  5
A0
100
AcDbEntity
  8
1
  6
CONTINUOUS
 62
             3
100
AcDbCircle
 10
-248.25586552010611
 20
165.728570246206
 40
4.70000000000027
100
AcDbArc
 50
-96.72022296019424
 51
-90.0
  0
ARC
  5
9F
100
AcDbEntity
  8
1
  6
CONTINUOUS
 62
             3
100
AcDbCircle
 10
-248.25586552010611
 20
165.728570246206
 40
5.4163170886198
100
AcDbArc
 50
7.96367922423226
 51
82.02964145417381
  0
ARC
  5
9E
100
AcDbEntity
  8
1
  6
CONTINUOUS
 62
             3
100
AcDbCircle
 10
-248.25586552010611
 20
165.728570246206
 40
5.41631708861978
100
AcDbArc
 50
97.96367922423137
 51
172.03632077576759
  0
ARC
  5
9D
100
AcDbEntity
  8
1
  6
CONTINUOUS
 62
             3
100
AcDbCircle
 10
-248.25586552010611
 20
165.728570246206
 40
5.41631708861969
100
AcDbArc
 50
-172.03632077576728
 51
-97.96367922423926
  0
ARC
  5
9C
100
AcDbEntity
  8
1
  6
CONTINUOUS
 62
             3
100
AcDbCircle
 10
-248.25586552010611
 20
165.728570246206
 40
5.41631708861965
100
AcDbArc
 50
-82.03632077577906
 51
-7.96367922424179
  0
LINE
  5
9B
100
AcDbEntity
  8
1
  6
CONTINUOUS
 62
             3
100
AcDbLine
 10
-145.45433895238699
 20
167.728570246206
 11
-145.45435697103071
 21
163.49651911229131
  0
LINE
  5
9A
100
AcDbEntity
  8
1
  6
CONTINUOUS
 62
             3
100
AcDbLine
 10
-144.45435818896979
 20
163.228570246206
 11
-127.45434682534371
 21
163.228570246206
  0
LINE
  5
99
100
AcDbEntity
  8
1
  6
CONTINUOUS
 62
             3
100
AcDbLine
 10
-145.45435697103071
 20
163.49651911229131
 11
-144.45435818896979
 21
163.228570246206
  0
LINE
  5
98
100
AcDbEntity
  8
1
  6
CONTINUOUS
 62
             3
100
AcDbLine
 10
-145.45433895238699
 20
167.728570246206
 11
-144.45433773442431
 21
167.728570246206
  0
LINE
  5
97
100
AcDbEntity
  8
1
  6
CONTINUOUS
 62
             3
100
AcDbLine
 10
-130.45434682534369
 20
167.728570246206
 11
-144.45433773442431
 21
167.728570246206
  0
LINE
  5
96
100
AcDbEntity
  8
1
  6
LONG_DASHED
 62
             2
100
AcDbLine
 10
-237.05586552010629
 20
140.17857024620611
 11
-236.4058655201062
 21
138.82857024620611
  0
LINE
  5
95
100
AcDbEntity
  8
1
  6
LONG_DASHED
 62
             2
100
AcDbLine
 10
-236.4058655201062
 20
138.2285702462062
 11
-236.4058655201062
 21
138.82857024620611
  0
LINE
  5
94
100
AcDbEntity
  8
1
  6
DASHED
 62
             2
100
AcDbLine
 10
-246.9558655201061
 20
138.2285702462062
 11
-246.9558655201065
 21
129.71321194341601
  0
LINE
  5
93
100
AcDbEntity
  8
1
  6
DASHED
 62
             2
100
AcDbLine
 10
-245.6558655201062
 20
138.2285702462062
 11
-245.6558655201062
 21
129.71321194341601
  0
LINE
  5
92
100
AcDbEntity
  8
1
  6
DASHED
 62
             2
100
AcDbLine
 10
-241.6558655201062
 20
138.2285702462062
 11
-241.6558655201062
 21
129.71321194341601
  0
LINE
  5
91
100
AcDbEntity
  8
1
  6
DASHED
 62
             2
100
AcDbLine
 10
-242.9558655201061
 20
138.2285702462062
 11
-242.9558655201061
 21
129.71321194341601
  0
LINE
  5
90
100
AcDbEntity
  8
1
  6
DASHED
 62
             2
100
AcDbLine
 10
-249.6558655201062
 20
129.71321194341601
 11
-249.6558655201062
 21
138.2285702462062
  0
LINE
  5
8F
100
AcDbEntity
  8
1
  6
DASHED
 62
             2
100
AcDbLine
 10
-250.9558655201061
 20
138.2285702462062
 11
-250.9558655201061
 21
129.71321194341601
  0
LINE
  5
8E
100
AcDbEntity
  8
1
  6
DASHED
 62
             2
100
AcDbLine
 10
-254.9558655201061
 20
138.2285702462062
 11
-254.9558655201061
 21
129.71321194341601
  0
LINE
  5
8D
100
AcDbEntity
  8
1
  6
DASHED
 62
             2
100
AcDbLine
 10
-253.6558655201062
 20
129.71321194341601
 11
-253.6558655201062
 21
138.2285702462062
  0
LINE
  5
8C
100
AcDbEntity
  8
1
  6
LONG_DASHED
 62
             2
100
AcDbLine
 10
-260.20586552010599
 20
138.2285702462062
 11
-260.20586552010599
 21
138.82857024620611
  0
LINE
  5
8B
100
AcDbEntity
  8
1
  6
LONG_DASHED
 62
             2
100
AcDbLine
 10
-259.45586552010599
 20
140.17857024620611
 11
-260.20586552010599
 21
138.82857024620611
  0
LINE
  5
8A
100
AcDbEntity
  8
1
  6
LONG_DASHED
 62
             2
100
AcDbLine
 10
-236.4058655201062
 20
138.2285702462062
 11
-260.20586552010599
 21
138.2285702462062
  0
LINE
  5
89
100
AcDbEntity
  8
1
  6
CONTINUOUS
 62
             3
100
AcDbLine
 10
-264.25587580700011
 20
144.72858115996559
 11
-232.25586699493789
 21
144.72857172103841
  0
LINE
  5
88
100
AcDbEntity
  8
1
  6
CONTINUOUS
 62
             3
100
AcDbLine
 10
-125.45434682534371
 20
185.728570246206
 11
-125.45434682534371
 21
145.7285706419847
  0
LINE
  5
87
100
AcDbEntity
  8
1
  6
CONTINUOUS
 62
             3
100
AcDbLine
 10
-117.5543468253437
 20
150.72867024620601
 11
-117.5543468253437
 21
180.728570246206
  0
LINE
  5
86
100
AcDbEntity
  8
1
  6
CONTINUOUS
 62
             3
100
AcDbLine
 10
-89.55433932534372
 20
180.728570246206
 11
-89.55433932534371
 21
150.72857024620609
  0
LINE
  5
85
100
AcDbEntity
  8
1
  6
CONTINUOUS
 62
             3
100
AcDbLine
 10
-269.25587433216799
 20
149.72858235078499
 11
-269.25586671092532
 21
181.72857143702549
  0
LINE
  5
84
100
AcDbEntity
  8
1
  6
CONTINUOUS
 62
             3
100
AcDbLine
 10
-261.24942136026181
 20
142.72857024620609
 11
-261.20586552010599
 21
142.72857024620609
  0
LINE
  5
83
100
AcDbEntity
  8
1
  6
CONTINUOUS
 62
             3
100
AcDbLine
 10
-124.45434642956511
 20
144.72857064198479
 11
-89.55433932534371
 21
144.72858049686951
  0
LINE
  5
82
100
AcDbEntity
  8
1
  6
CONTINUOUS
 62
             3
100
AcDbLine
 10
-124.45434682534371
 20
186.728570246206
 11
-78.85433932534362
 21
186.728570246206
  0
LINE
  5
81
100
AcDbEntity
  8
4
  6
CONTINUOUS
 62
             2
100
AcDbLine
 10
-90.35433932534372
 20
177.03777024620601
 11
-90.35433932534372
 21
186.728570246206
  0
LINE
  5
80
100
AcDbEntity
  8
4
  6
CONTINUOUS
 62
             2
100
AcDbLine
 10
-91.15433932534371
 20
178.3075702462059
 11
-91.15433932534371
 21
186.728570246206
  0
LINE
  5
7F
100
AcDbEntity
  8
4
  6
CONTINUOUS
 62
             2
100
AcDbLine
 10
-91.95433932534371
 20
179.57737024620599
 11
-91.95433932534371
 21
186.728570246206
  0
LINE
  5
7E
100
AcDbEntity
  8
4
  6
CONTINUOUS
 62
             2
100
AcDbLine
 10
-92.75433932534382
 20
180.84717024620591
 11
-92.75433932534382
 21
186.728570246206
  0
LINE
  5
7D
100
AcDbEntity
  8
4
  6
CONTINUOUS
 62
             2
100
AcDbLine
 10
-93.55433932534372
 20
182.11697024620599
 11
-93.55433932534372
 21
186.728570246206
  0
LINE
  5
7C
100
AcDbEntity
  8
4
  6
CONTINUOUS
 62
             2
100
AcDbLine
 10
-94.35433932534372
 20
183.38667024620611
 11
-94.3543393253437
 21
186.728570246206
  0
LINE
  5
7B
100
AcDbEntity
  8
4
  6
CONTINUOUS
 62
             2
100
AcDbLine
 10
-116.75444682534371
 20
154.41927024620611
 11
-116.75444682534371
 21
144.72847024620589
  0
LINE
  5
7A
100
AcDbEntity
  8
4
  6
CONTINUOUS
 62
             2
100
AcDbLine
 10
-115.95444682534369
 20
153.14947024620611
 11
-115.95444682534369
 21
144.72847024620589
  0
LINE
  5
79
100
AcDbEntity
  8
4
  6
CONTINUOUS
 62
             2
100
AcDbLine
 10
-115.1544468253437
 20
151.8796702462061
 11
-115.1544468253437
 21
144.72847024620589
  0
LINE
  5
78
100
AcDbEntity
  8
4
  6
CONTINUOUS
 62
             2
100
AcDbLine
 10
-114.3544468253437
 20
150.60987024620599
 11
-114.3544468253437
 21
144.72847024620589
  0
LINE
  5
77
100
AcDbEntity
  8
4
  6
CONTINUOUS
 62
             2
100
AcDbLine
 10
-113.5544468253437
 20
149.3401702462059
 11
-113.5544468253437
 21
144.72847024620589
  0
LINE
  5
76
100
AcDbEntity
  8
4
  6
CONTINUOUS
 62
             2
100
AcDbLine
 10
-112.75444682534371
 20
148.07037024620601
 11
-112.75444682534371
 21
144.72847024620589
  0
LINE
  5
75
100
AcDbEntity
  8
2
  6
CONTINUOUS
 62
             1
100
AcDbLine
 10
-248.255865520106
 20
135.854967050092
 11
-248.255865520106
 21
190.728570246206
  0
LINE
  5
74
100
AcDbEntity
  8
2
  6
CONTINUOUS
 62
             1
100
AcDbLine
 10
-275.17734552010592
 20
165.728570246206
 11
-221.75636552010599
 21
165.728570246206
  0
LINE
  5
73
100
AcDbEntity
  8
2
  6
CONTINUOUS
 62
             1
100
AcDbLine
 10
-235.255865520106
 20
181.228570246206
 11
-230.25586552010591
 21
181.228570246206
  0
LINE
  5
72
100
AcDbEntity
  8
2
  6
CONTINUOUS
 62
             1
100
AcDbLine
 10
-232.755865520106
 20
178.728570246206
 11
-232.755865520106
 21
183.728570246206
  0
LINE
  5
71
100
AcDbEntity
  8
2
  6
CONTINUOUS
 62
             1
100
AcDbLine
 10
-263.75585552010602
 20
178.728570246206
 11
-263.75585552010602
 21
183.728570246206
  0
LINE
  5
70
100
AcDbEntity
  8
2
  6
CONTINUOUS
 62
             1
100
AcDbLine
 10
-261.255865520106
 20
181.228570246206
 11
-266.255865520106
 21
181.228570246206
  0
LINE
  5
6F
100
AcDbEntity
  8
2
  6
CONTINUOUS
 62
             1
100
AcDbLine
 10
-261.255865520106
 20
150.22857024620609
 11
-266.255865520106
 21
150.22857024620609
  0
LINE
  5
6E
100
AcDbEntity
  8
2
  6
CONTINUOUS
 62
             1
100
AcDbLine
 10
-263.75587552010592
 20
152.72857024620609
 11
-263.75587552010592
 21
147.72857024620609
  0
LINE
  5
6D
100
AcDbEntity
  8
2
  6
CONTINUOUS
 62
             1
100
AcDbLine
 10
-232.755865520106
 20
152.72857024620609
 11
-232.755865520106
 21
147.72857024620609
  0
LINE
  5
6C
100
AcDbEntity
  8
2
  6
CONTINUOUS
 62
             1
100
AcDbLine
 10
-235.25586552010591
 20
150.22857024620609
 11
-230.25586552010591
 21
150.22857024620609
  0
LINE
  5
6B
100
AcDbEntity
  8
1
  6
CONTINUOUS
 62
             3
100
AcDbLine
 10
-117.5543468253437
 20
150.72867024620601
 11
-89.55433932534371
 21
150.72857024620609
  0
LINE
  5
6A
100
AcDbEntity
  8
1
  6
CONTINUOUS
 62
             3
100
AcDbLine
 10
-117.5543468253437
 20
180.728570246206
 11
-89.55433932534372
 21
180.728570246206
  0
LINE
  5
69
100
AcDbEntity
  8
1
  6
CONTINUOUS
 62
             3
100
AcDbLine
 10
-125.45434682534371
 20
185.728570246206
 11
-125.45434682534371
 21
185.35956195577441
  0
LINE
  5
68
100
AcDbEntity
  8
1
  6
CONTINUOUS
 62
             3
100
AcDbLine
 10
-88.96323832009962
 20
187.90977838973811
 11
-78.8543383200995
 21
187.90977838973811
  0
LINE
  5
67
100
AcDbEntity
  8
1
  6
CONTINUOUS
 62
             3
100
AcDbLine
 10
-232.255865520106
 20
186.728570246206
 11
-264.25586671092537
 21
186.728570246206
  0
LINE
  5
66
100
AcDbEntity
  8
1
  6
CONTINUOUS
 62
             3
100
AcDbLine
 10
-227.25586552010591
 20
149.72857172103821
 11
-227.255865520106
 21
181.728570246206
  0
LINE
  5
65
100
AcDbEntity
  8
1
  6
CONTINUOUS
 62
             3
100
AcDbLine
 10
-260.255865520106
 20
187.728570246206
 11
-236.255865520106
 21
187.728570246206
  0
LINE
  5
64
100
AcDbEntity
  8
1
  6
CONTINUOUS
 62
             3
100
AcDbLine
 10
-117.5543468253437
 20
180.728570246206
 11
-117.5543468253436
 21
186.728570246206
  0
LINE
  5
63
100
AcDbEntity
  8
1
  6
CONTINUOUS
 62
             3
100
AcDbLine
 10
-89.55433932534372
 20
180.728570246206
 11
-89.55433932534371
 21
186.728570246206
  0
LINE
  5
62
100
AcDbEntity
  8
1
  6
CONTINUOUS
 62
             3
100
AcDbLine
 10
-117.5543468253437
 20
150.72867024620601
 11
-117.5544468253437
 21
144.72857024620609
  0
LINE
  5
61
100
AcDbEntity
  8
1
  6
CONTINUOUS
 62
             3
100
AcDbLine
 10
-77.85433932534366
 20
185.728570246206
 11
-77.85435432534374
 21
145.72857024620609
  0
LINE
  5
60
100
AcDbEntity
  8
1
  6
CONTINUOUS
 62
             3
100
AcDbLine
 10
-89.55433932534371
 20
142.72857024620609
 11
-89.55433932534371
 21
150.72857024620609
  0
LINE
  5
5F
100
AcDbEntity
  8
1
  6
CONTINUOUS
 62
             3
100
AcDbLine
 10
-89.55433932534371
 20
142.72857024620609
 11
-78.85435082734436
 21
142.72857024620609
  0
LINE
  5
5E
100
AcDbEntity
  8
1
  6
CONTINUOUS
 62
             3
100
AcDbLine
 10
-77.85435082734607
 20
143.72857199520641
 11
-77.85435432534374
 21
145.72857024620609
  0
LINE
  5
5D
100
AcDbEntity
  8
1
  6
CONTINUOUS
 62
             3
100
AcDbLine
 10
-89.55433932534371
 20
142.72857024620609
 11
-89.55433932534371
 21
141.17857024620611
  0
LINE
  5
5C
100
AcDbEntity
  8
1
  6
CONTINUOUS
 62
             3
100
AcDbLine
 10
-89.55433932534371
 20
141.17857024620611
 11
-84.15433932534374
 21
141.17857024620611
  0
LINE
  5
5B
100
AcDbEntity
  8
1
  6
CONTINUOUS
 62
             3
100
AcDbLine
 10
-84.15433932534374
 20
141.17857024620611
 11
-84.15433932534374
 21
142.72857024620609
  0
LINE
  5
5A
100
AcDbEntity
  8
1
  6
CONTINUOUS
 62
             3
100
AcDbLine
 10
-84.75433932534375
 20
141.17857024620611
 11
-84.75433932534375
 21
140.17857024620611
  0
LINE
  5
59
100
AcDbEntity
  8
1
  6
CONTINUOUS
 62
             3
100
AcDbLine
 10
-84.75433932534375
 20
140.17857024620611
 11
-89.55433932534371
 21
140.17857024620611
  0
LINE
  5
58
100
AcDbEntity
  8
1
  6
CONTINUOUS
 62
             3
100
AcDbLine
 10
-89.55433932534371
 20
140.17857024620611
 11
-89.55433932534371
 21
141.17857024620611
  0
LINE
  5
57
100
AcDbEntity
  8
1
  6
CONTINUOUS
 62
             3
100
AcDbLine
 10
-260.90586552010592
 20
143.02857024620599
 11
-260.90586552010592
 21
144.72857024620609
  0
LINE
  5
56
100
AcDbEntity
  8
1
  6
CONTINUOUS
 62
             3
100
AcDbLine
 10
-235.60586552010599
 20
144.72857024620609
 11
-235.60586552010599
 21
143.02857024620599
  0
LINE
  5
55
100
AcDbEntity
  8
1
  6
CONTINUOUS
 62
             3
100
AcDbLine
 10
-235.30586552010601
 20
142.72857024620609
 11
-235.26231118706519
 21
142.72857024620609
  0
LINE
  5
54
100
AcDbEntity
  8
1
  6
CONTINUOUS
 62
             3
100
AcDbLine
 10
-260.755865520106
 20
141.17857024620611
 11
-260.755865520106
 21
144.72857024620609
  0
LINE
  5
53
100
AcDbEntity
  8
1
  6
CONTINUOUS
 62
             3
100
AcDbLine
 10
-235.755865520106
 20
141.17857024620611
 11
-235.755865520106
 21
144.72857024620609
  0
LINE
  5
52
100
AcDbEntity
  8
1
  6
CONTINUOUS
 62
             3
100
AcDbLine
 10
-260.755865520106
 20
141.17857024620611
 11
-260.255865520106
 21
141.17857024620611
  0
LINE
  5
51
100
AcDbEntity
  8
1
  6
CONTINUOUS
 62
             3
100
AcDbLine
 10
-260.255865520106
 20
141.17857024620611
 11
-260.255865520106
 21
144.72857024620609
  0
LINE
  5
50
100
AcDbEntity
  8
1
  6
CONTINUOUS
 62
             3
100
AcDbLine
 10
-236.255865520106
 20
144.72857024620609
 11
-236.255865520106
 21
141.17857024620611
  0
LINE
  5
4F
100
AcDbEntity
  8
1
  6
CONTINUOUS
 62
             3
100
AcDbLine
 10
-236.255865520106
 20
141.17857024620611
 11
-235.755865520106
 21
141.17857024620611
  0
LINE
  5
4E
100
AcDbEntity
  8
1
  6
CONTINUOUS
 62
             3
100
AcDbLine
 10
-260.20586552010599
 20
140.17857024620611
 11
-260.20586552010599
 21
144.72857024620609
  0
LINE
  5
4D
100
AcDbEntity
  8
1
  6
CONTINUOUS
 62
             3
100
AcDbLine
 10
-236.30586552010601
 20
140.17857024620611
 11
-236.30586552010601
 21
144.72857024620609
  0
LINE
  5
4C
100
AcDbEntity
  8
1
  6
CONTINUOUS
 62
             3
100
AcDbLine
 10
-260.20586552010599
 20
140.17857024620611
 11
-236.30586552010601
 21
140.17857024620611
  0
LINE
  5
4B
100
AcDbEntity
  8
1
  6
CONTINUOUS
 62
             3
100
AcDbLine
 10
-257.20586552010599
 20
144.72857024620609
 11
-257.20586552010599
 21
140.17857024620611
  0
LINE
  5
4A
100
AcDbEntity
  8
1
  6
CONTINUOUS
 62
             3
100
AcDbLine
 10
-239.30586552010601
 20
144.72857024620609
 11
-239.30586552010601
 21
140.17857024620611
  0
LINE
  5
49
100
AcDbEntity
  8
1
  6
CONTINUOUS
 62
             3
100
AcDbLine
 10
-259.65586552010592
 20
144.72857024620609
 11
-259.65586552010592
 21
142.078570246206
  0
LINE
  5
48
100
AcDbEntity
  8
1
  6
CONTINUOUS
 62
             3
100
AcDbLine
 10
-259.65586552010592
 20
142.078570246206
 11
-258.65586552010592
 21
142.078570246206
  0
LINE
  5
47
100
AcDbEntity
  8
1
  6
CONTINUOUS
 62
             3
100
AcDbLine
 10
-258.65586552010592
 20
142.078570246206
 11
-258.65586552010592
 21
144.72857024620609
  0
LINE
  5
46
100
AcDbEntity
  8
1
  6
CONTINUOUS
 62
             3
100
AcDbLine
 10
-236.85586552010599
 20
144.72857024620609
 11
-236.85586552010599
 21
142.078570246206
  0
LINE
  5
45
100
AcDbEntity
  8
1
  6
CONTINUOUS
 62
             3
100
AcDbLine
 10
-236.85586552010599
 20
142.078570246206
 11
-237.85586552010599
 21
142.078570246206
  0
LINE
  5
44
100
AcDbEntity
  8
1
  6
CONTINUOUS
 62
             3
100
AcDbLine
 10
-237.85586552010599
 20
142.078570246206
 11
-237.85586552010599
 21
144.72857024620609
  0
LINE
  5
43
100
AcDbEntity
  8
1
  6
CONTINUOUS
 62
             3
100
AcDbLine
 10
-235.26231118706519
 20
142.72857024620609
 11
-235.755865520106
 21
142.72857024620609
  0
LINE
  5
42
100
AcDbEntity
  8
1
  6
CONTINUOUS
 62
             3
100
AcDbLine
 10
-260.755865520106
 20
142.72857024620609
 11
-261.24942136026181
 21
142.72857024620609
  0
LINE
  5
41
100
AcDbEntity
  8
1
  6
CONTINUOUS
 62
             3
100
AcDbLine
 10
-247.50596811367589
 20
171.68121293758
 11
-247.50483478891309
 21
170.368177216715
  0
LINE
  5
40
100
AcDbEntity
  8
1
  6
CONTINUOUS
 62
             3
100
AcDbLine
 10
-239.84768170052399
 20
167.14646409164601
 11
-242.30322282873209
 21
166.478467652635
  0
LINE
  5
3F
100
AcDbEntity
  8
1
  6
CONTINUOUS
 62
             3
100
AcDbLine
 10
-242.30322282873209
 20
164.9786728397761
 11
-239.84768170052399
 21
164.31067640076611
  0
LINE
  5
3E
100
AcDbEntity
  8
1
  6
CONTINUOUS
 62
             3
100
AcDbLine
 10
-246.83797167466611
 20
157.32038642662391
 11
-247.50596811367589
 21
159.7759275548309
  0
LINE
  5
3D
100
AcDbEntity
  8
1
  6
CONTINUOUS
 62
             3
100
AcDbLine
 10
-249.0057629265371
 20
159.7759275548309
 11
-249.67375936554711
 21
157.32038642662391
  0
LINE
  5
3C
100
AcDbEntity
  8
1
  6
CONTINUOUS
 62
             3
100
AcDbLine
 10
-256.66404933968812
 20
164.31067640076611
 11
-254.2085082114809
 21
164.9786728397761
  0
LINE
  5
3B
100
AcDbEntity
  8
1
  6
CONTINUOUS
 62
             3
100
AcDbLine
 10
-254.2085082114809
 20
166.47846765263591
 11
-256.66404933968812
 21
167.14646409164601
  0
LINE
  5
3A
100
AcDbEntity
  8
1
  6
CONTINUOUS
 62
             3
100
AcDbLine
 10
-249.67375936554711
 20
174.1367540657881
 11
-249.00576292653599
 21
171.68121293758
  0
LINE
  5
39
100
AcDbEntity
  8
1
  6
CONTINUOUS
 62
             3
100
AcDbLine
 10
-247.50596811367589
 20
171.68121293758
 11
-246.83797167466611
 21
174.1367540657881
  0
LINE
  5
38
100
AcDbEntity
  8
1
  6
CONTINUOUS
 62
             3
100
AcDbLine
 10
-249.00689625130011
 20
170.368177216715
 11
-249.00576292653599
 21
171.68121293758
  0
LINE
  5
37
100
AcDbEntity
  8
1
  6
CONTINUOUS
 62
             3
100
AcDbLine
 10
-252.8954724906171
 20
164.9775395150119
 11
-254.2085082114809
 21
164.9786728397761
  0
LINE
  5
36
100
AcDbEntity
  8
1
  6
CONTINUOUS
 62
             3
100
AcDbLine
 10
-254.2085082114809
 20
166.47846765263591
 11
-252.8954724906171
 21
166.479600977399
  0
LINE
  5
35
100
AcDbEntity
  8
1
  6
CONTINUOUS
 62
             3
100
AcDbLine
 10
-249.0057629265371
 20
159.7759275548309
 11
-249.00689625130011
 21
161.0889632756961
  0
LINE
  5
34
100
AcDbEntity
  8
1
  6
CONTINUOUS
 62
             3
100
AcDbLine
 10
-247.50483478891309
 20
161.0889632756961
 11
-247.50596811367589
 21
159.7759275548309
  0
LINE
  5
33
100
AcDbEntity
  8
1
  6
CONTINUOUS
 62
             3
100
AcDbLine
 10
-242.30322282873209
 20
164.9786728397761
 11
-243.61625854959701
 21
164.9775395150119
  0
LINE
  5
32
100
AcDbEntity
  8
1
  6
CONTINUOUS
 62
             3
100
AcDbLine
 10
-243.61625854959701
 20
166.479600977399
 11
-242.30322282873209
 21
166.478467652635
  0
LINE
  5
31
100
AcDbEntity
  8
1
  6
CONTINUOUS
 62
             3
100
AcDbLine
 10
-130.45434682534369
 20
168.228570246206
 11
-130.45434682534369
 21
167.728570246206
  0
LINE
  5
30
100
AcDbEntity
  8
1
  6
CONTINUOUS
 62
             3
100
AcDbLine
 10
-130.45434682534369
 20
168.228570246206
 11
-127.45434682534371
 21
168.228570246206
  0
LINE
  5
2F
100
AcDbEntity
  8
1
  6
CONTINUOUS
 62
             3
100
AcDbLine
 10
-249.75586552010591
 20
167.728570246206
 11
-246.75586552010631
 21
167.728570246206
  0
LINE
  5
2E
100
AcDbEntity
  8
1
  6
CONTINUOUS
 62
             3
100
AcDbLine
 10
-127.45434682534371
 20
176.728570246206
 11
-127.45434682534371
 21
176.72844225662601
  0
LINE
  5
2D
100
AcDbEntity
  8
1
  6
CONTINUOUS
 62
             3
100
AcDbLine
 10
-125.45434682534371
 20
176.728570246206
 11
-127.45434682534371
 21
176.728570246206
  0
LINE
  5
2C
100
AcDbEntity
  8
1
  6
CONTINUOUS
 62
             3
100
AcDbLine
 10
-127.45434682534371
 20
176.728570246206
 11
-127.45434682534371
 21
154.72857024620609
  0
LINE
  5
2B
100
AcDbEntity
  8
1
  6
CONTINUOUS
 62
             3
100
AcDbLine
 10
-127.45434682534371
 20
154.72857024620609
 11
-125.45434682534371
 21
154.72857024620609
  0
LINE
  5
2A
100
AcDbEntity
  8
1
  6
CONTINUOUS
 62
             1
100
AcDbLine
 10
-148.93551220972819
 20
165.728570246206
 11
-75.85443932534379
 21
165.728570246206
  0
ENDSEC
  0
SECTION
  2
OBJECTS
  0
DICTIONARY
  5
19
100
AcDbDictionary
  3
ACAD_GROUP
350
1A
  3
ACAD_MLINESTYLE
350
1B
  0
DICTIONARY
  5
1A
102
{ACAD_REACTORS
330
19
102
}
100
AcDbDictionary
  0
DICTIONARY
  5
1B
102
{ACAD_REACTORS
330
19
102
}
100
AcDbDictionary
  3
STANDARD
350
1C
  0
MLINESTYLE
  5
1C
102
{ACAD_REACTORS
330
1B
102
}
100
AcDbMlineStyle
  2
STANDARD
 70
             0
  3

 62
             0
 51
90.0
 52
90.0
 71
             2
 49
0.5
 62
           256
  6
BYLAYER
 49
-0.5
 62
           256
  6
BYLAYER
  0
ENDSEC
  0
EOF
