  0
SECTION
  2
HEADER
  9
$ACADVER
  1
AC1009
  9
$INSBASE
 10
0
 20
0
  9
$EXTMIN
 10
3150.559935949037
 20
272.013339041346
  9
$EXTMAX
 10
3537.15888362967
 20
509.634799848074
  9
$LIMMIN
 10
3150.559935949037
 20
272.013339041346
  9
$LIMMAX
 10
3537.15888362967
 20
509.634799848074
  9
$VIEWCTR
 10
10
 20
10
  9
$VIEWSIZE
 40
10
  9
$SNAPMODE
 70
0
  9
$SNAPUNIT
 10
1
 20
1
  9
$SNAPBASE
 10
0
 20
0
  9
$SNAPANG
 50
0
  9
$SNAPSTYLE
 70
0
  9
$SNAPISOPAIR
 70
0
  9
$GRIDMODE
 70
0
  9
$GRIDUNIT
 10
0
 20
0
  9
$ORTHOMODE
 70
0
  9
$REGENMODE
 70
1
  9
$FILLMODE
 70
1
  9
$QTEXTMODE
 70
0
  9
$DRAGMODE
 70
2
  9
$LTSCALE
 40
1
  9
$OSMODE
 70
0
  9
$ATTMODE
 70
1
  9
$TEXTSIZE
 40
3.5
  9
$TRACEWID
 40
0.5
  9
$TEXTSTYLE
  7
STANDARD
  9
$CLAYER
  8
0
  9
$CELTYPE
  6
BYLAYER
  9
$CECOLOR
 62
256
  9
$DIMSCALE
 40
1
  9
$DIMASZ
 40
0.18
  9
$DIMEXO
 40
0.0625
  9
$DIMDLI
 40
0.38
  9
$DIMRND
 40
0
  9
$DIMDLE
 40
0
  9
$DIMEXE
 40
0.18
  9
$DIMTP
 40
0
  9
$DIMTM
 40
0
  9
$DIMTXT
 40
0.18
  9
$DIMCEN
 40
0.09
  9
$DIMTSZ
 40
0
  9
$DIMTOL
 70
0
  9
$DIMLIM
 70
0
  9
$DIMTIH
 70
1
  9
$DIMTOH
 70
1
  9
$DIMSE1
 70
0
  9
$DIMSE2
 70
0
  9
$DIMTAD
 70
0
  9
$DIMZIN
 70
0
  9
$DIMBLK
  1

  9
$DIMASO
 70
1
  9
$DIMSHO
 70
1
  9
$DIMPOST
  1

  9
$DIMAPOST
  1

  9
$DIMALT
 70
0
  9
$DIMALTD
 70
2
  9
$DIMALTF
 40
25.4
  9
$DIMLFAC
 40
1
  9
$DIMTOFL
 70
0
  9
$DIMTVP
 40
0
  9
$DIMTIX
 70
0
  9
$DIMSOXD
 70
0
  9
$DIMSAH
 70
0
  9
$DIMBLK1
  1

  9
$DIMBLK2
  1

  9
$DIMSTYLE
  2
*UNNAMED
  9
$DIMCLRD
 70
0
  9
$DIMCLRE
 70
0
  9
$DIMCLRT
 70
0
  9
$DIMTFAC
 40
1
  9
$DIMGAP
 40
0.09
  9
$LUNITS
 70
2
  9
$LUPREC
 70
4
  9
$AXISMODE
 70
0
  9
$AXISUNIT
 10
0
 20
0
  9
$SKETCHINC
 40
0.1
  9
$FILLETRAD
 40
2
  9
$AUNITS
 70
0
  9
$AUPREC
 70
0
  9
$MENU
  1
ACAD
  9
$ELEVATION
 40
0
  9
$THICKNESS
 40
0
  9
$VIEWDIR
 10
0
 20
0
 30
1
  9
$LIMCHECK
 70
0
  9
$BLIPMODE
 70
1
  9
$CHAMFERA
 40
0
  9
$CHAMFERB
 40
0
  9
$FASTZOOM
 70
1
  9
$SKPOLY
 70
0
  9
$ANGBASE
 50
0
  9
$ANGDIR
 70
0
  9
$PDMODE
 70
0
  9
$PDSIZE
 40
0
  9
$PLINEWID
 40
0
  9
$COORDS
 70
2
  0
ENDSEC
  0
SECTION
  2
TABLES
  0
TABLE
  2
DIMSTYLE
 70
6
  0
DIMSTYLE
  2
DMST_1
 70
0
  3

  4

  5

  6

  7

 40
1
 41
3.2
 42
1
 43
7
 44
1.5
 45
0
 46
0
 47
0
 48
0
140
3.2
141
0
142
0
143
25.4
144
1
145
0
146
0.6
147
0.09
 71
1
 72
0
 73
1
 74
1
 75
0
 76
0
 77
1
 78
9
170
0
171
2
172
0
173
0
174
0
175
0
176
2
177
2
178
2
  0
DIMSTYLE
  2
DMST_2
 70
0
  3

  4

  5

  6

  7

 40
1
 41
3.2
 42
1
 43
7
 44
1
 45
0
 46
0
 47
3
 48
3
140
3.2
141
0
142
0
143
25.4
144
1
145
0
146
0.7
147
0.09
 71
1
 72
0
 73
0
 74
0
 75
0
 76
0
 77
1
 78
9
170
0
171
2
172
0
173
0
174
0
175
0
176
2
177
2
178
2
  0
DIMSTYLE
  2
DMST_3
 70
0
  3

  4

  5

  6

  7

 40
1
 41
4.800000000000001
 42
1
 43
7
 44
1.5
 45
0
 46
0
 47
0.5
 48
0.5
140
3.2
141
0
142
0
143
25.4
144
1
145
0
146
0.6
147
0.09
 71
1
 72
0
 73
1
 74
1
 75
0
 76
0
 77
1
 78
9
170
0
171
2
172
0
173
0
174
0
175
0
176
2
177
2
178
2
  0
DIMSTYLE
  2
DMST_4
 70
0
  3

  4

  5

  6

  7

 40
1
 41
3.2
 42
1
 43
7
 44
1.5
 45
0
 46
0
 47
0.5
 48
0.5
140
3.2
141
0
142
0
143
25.4
144
1
145
0
146
0.6
147
0.09
 71
1
 72
0
 73
1
 74
1
 75
0
 76
0
 77
1
 78
9
170
0
171
2
172
0
173
0
174
0
175
0
176
2
177
2
178
2
  0
DIMSTYLE
  2
DMST_5
 70
0
  3

  4

  5

  6

  7

 40
1
 41
3.2
 42
1
 43
7
 44
1.5
 45
0
 46
0
 47
1
 48
1
140
3.2
141
0
142
0
143
25.4
144
1
145
0
146
0.6
147
0.09
 71
1
 72
0
 73
1
 74
1
 75
0
 76
0
 77
1
 78
9
170
0
171
2
172
0
173
0
174
0
175
0
176
2
177
2
178
2
  0
DIMSTYLE
  2
DMST_6
 70
0
  3

  4

  5

  6

  7

 40
1
 41
3.2
 42
1
 43
7
 44
1.5
 45
0
 46
0
 47
0
 48
0
140
3.2
141
0
142
0
143
25.4
144
1
145
0
146
1
147
0.09
 71
0
 72
0
 73
1
 74
1
 75
0
 76
0
 77
1
 78
9
170
0
171
2
172
0
173
0
174
0
175
0
176
2
177
2
178
2
  0
ENDTAB
  0
TABLE
  2
LTYPE
 70
9
  0
LTYPE
  2
CONTINUOUS
 70
64
  3
Solid line
 72
65
 73
0
 40
0
  0
LTYPE
  2
BORDER
 70
64
  3
__ __ . __ __ .
 72
65
 73
6
 40
17.80389890634494
 49
5.086828258955698
 49
-2.543414129477849
 49
5.086828258955698
 49
-2.543414129477849
 49
0
 49
-2.543414129477849
  0
LTYPE
  2
CENTER
 70
64
  3
____ _ ____ _
 72
65
 73
4
 40
20.34731303582279
 49
12.71707064738925
 49
-2.543414129477849
 49
2.543414129477849
 49
-2.543414129477849
  0
LTYPE
  2
DASHDOT
 70
64
  3
__ . __ . __ .
 72
65
 73
4
 40
10.1736565179114
 49
5.086828258955698
 49
-2.543414129477849
 49
0
 49
-2.543414129477849
  0
LTYPE
  2
DASHED
 70
64
  3
__ __ __ __ __
 72
65
 73
2
 40
7.630242388433548
 49
5.086828258955698
 49
-2.543414129477849
  0
LTYPE
  2
DIVIDE
 70
64
  3
__ . . __ . . 
 72
65
 73
6
 40
12.71707064738925
 49
5.086828258955698
 49
-2.543414129477849
 49
0
 49
-2.543414129477849
 49
0
 49
-2.543414129477849
  0
LTYPE
  2
DOT
 70
64
  3
..............
 72
65
 73
4
 40
5.086828258955698
 49
0
 49
-2.543414129477849
 49
0
 49
-2.543414129477849
  0
LTYPE
  2
HIDDEN
 70
64
  3
_ _ _ _ _ _ _
 72
65
 73
2
 40
3.815121194216774
 49
2.543414129477849
 49
-1.271707064738925
  0
LTYPE
  2
PHANTOM
 70
64
  3
_____ _ _ _____ _ _ 
 72
65
 73
6
 40
25.43414129477849
 49
12.71707064738925
 49
-2.543414129477849
 49
2.543414129477849
 49
-2.543414129477849
 49
2.543414129477849
 49
-2.543414129477849
  0
ENDTAB
  0
TABLE
  2
LAYER
 70
5
  0
LAYER
  2
LAYER16
 70
0
 62
7
  6
CONTINUOUS
  0
LAYER
  2
1
 70
0
 62
7
  6
CONTINUOUS
  0
LAYER
  2
-4880_37571997535_-6589_4863227
 70
0
 62
7
  6
CONTINUOUS
  0
LAYER
  2
0
 70
0
 62
7
  6
CONTINUOUS
  0
ENDTAB
  0
TABLE
  2
STYLE
 70
4
  0
STYLE
  2
STANDARD
 70
0
 40
0
 41
1
 50
0
 71
0
 42
3.5
  3
txt
  4

  0
STYLE
  2
SIMPLEX
 70
0
 40
0
 41
1
 50
0
 71
0
 42
3.5
  3
simplex
  4

  0
STYLE
  2
COMPLEX
 70
0
 40
0
 41
1
 50
0
 71
0
 42
3.5
  3
complex
  4

  0
STYLE
  2
ITALIC
 70
0
 40
0
 41
1
 50
0
 71
0
 42
3.5
  3
italic
  4

  0
ENDTAB
  0
TABLE
  2
VIEW
 70
0
  0
ENDTAB
  0
ENDSEC
  0
SECTION
  2
BLOCKS
  0
BLOCK
  8
1
  2
*X0
 70
1
 10
0
 20
0
 30
0
  0
LINE
  8
1
 62
2
 10
3419.864671919277
 20
379.3055128171224
 30
0
 11
3419.917817337165
 21
379.3586582350094
 31
0
  0
LINE
  8
1
 62
2
 10
3419.864671919277
 20
379.0226701046478
 30
0
 11
3420.200660049639
 21
379.3586582350094
 31
0
  0
LINE
  8
1
 62
2
 10
3419.864671919277
 20
378.7398273921731
 30
0
 11
3420.483502762114
 21
379.3586582350094
 31
0
  0
LINE
  8
1
 62
2
 10
3419.864671919277
 20
378.4569846796985
 30
0
 11
3420.766345474588
 21
379.3586582350094
 31
0
  0
LINE
  8
1
 62
2
 10
3419.897188187063
 20
378.2066582350096
 30
0
 11
3421.049188187063
 21
379.3586582350094
 31
0
  0
LINE
  8
1
 62
2
 10
3420.751322413651
 20
378.7779497491235
 30
0
 11
3421.332030899538
 21
379.3586582350094
 31
0
  0
LINE
  8
1
 62
2
 10
3420.180030899537
 20
378.2066582350096
 30
0
 11
3420.253380405163
 21
378.2800077406355
 31
0
  0
LINE
  8
1
 62
2
 10
3421.008672365819
 20
378.7524569888162
 30
0
 11
3421.614873612012
 21
379.3586582350094
 31
0
  0
LINE
  8
1
 62
2
 10
3421.190554539109
 20
378.6514964496314
 30
0
 11
3421.784671919277
 21
379.2456138298
 31
0
  0
LINE
  8
1
 62
2
 10
3421.320928651934
 20
378.4990278499818
 30
0
 11
3421.784671919277
 21
378.9627711173254
 31
0
  0
LINE
  8
1
 62
2
 10
3421.39461114547
 20
378.2898676310431
 30
0
 11
3421.784671919277
 21
378.6799284048507
 31
0
  0
LINE
  8
1
 62
2
 10
3421.594244461911
 20
378.2066582350099
 30
0
 11
3421.784671919277
 21
378.3970856923761
 31
0
  0
ENDBLK
  8
0
  0
BLOCK
  8
1
  2
*X1
 70
1
 10
0
 20
0
 30
0
  0
LINE
  8
1
 62
2
 10
3383.50363469558
 20
396.6845909636031
 30
0
 11
3384.031882431748
 21
397.2128386997715
 31
0
  0
LINE
  8
1
 62
2
 10
3382.906101089293
 20
396.0870573573159
 30
0
 11
3383.434348825463
 21
396.6153050934859
 31
0
  0
LINE
  8
1
 62
2
 10
3386.360309556495
 20
396.712838699772
 30
0
 11
3386.860309556494
 21
397.2128386997715
 31
0
  0
LINE
  8
1
 62
2
 10
3382.906101089293
 20
393.2586302325697
 30
0
 11
3383.406101089293
 21
393.7586302325697
 31
0
  0
LINE
  8
1
 62
2
 10
3389.188736681241
 20
396.712838699772
 30
0
 11
3389.68873668124
 21
397.2128386997715
 31
0
  0
LINE
  8
1
 62
2
 10
3382.906101089293
 20
390.4302031078234
 30
0
 11
3383.406101089293
 21
390.9302031078234
 31
0
  0
LINE
  8
1
 62
2
 10
3392.017163805987
 20
396.712838699772
 30
0
 11
3392.517163805987
 21
397.2128386997715
 31
0
  0
LINE
  8
1
 62
2
 10
3382.906101089293
 20
387.6017759830772
 30
0
 11
3383.406101089293
 21
388.1017759830772
 31
0
  0
LINE
  8
1
 62
2
 10
3394.845590930734
 20
396.712838699772
 30
0
 11
3395.345590930733
 21
397.2128386997715
 31
0
  0
LINE
  8
1
 62
2
 10
3383.348893237428
 20
385.2161410064659
 30
0
 11
3383.845590930734
 21
385.712838699772
 31
0
  0
LINE
  8
1
 62
2
 10
3397.67401805548
 20
396.712838699772
 30
0
 11
3398.174018055479
 21
397.2128386997715
 31
0
  0
LINE
  8
1
 62
2
 10
3386.174018055479
 20
385.212838699772
 30
0
 11
3386.67401805548
 21
385.712838699772
 31
0
  0
LINE
  8
1
 62
2
 10
3400.502445180226
 20
396.712838699772
 30
0
 11
3401.002445180225
 21
397.2128386997715
 31
0
  0
LINE
  8
1
 62
2
 10
3389.002445180226
 20
385.212838699772
 30
0
 11
3389.502445180226
 21
385.712838699772
 31
0
  0
LINE
  8
1
 62
2
 10
3403.330872304972
 20
396.712838699772
 30
0
 11
3403.830872304971
 21
397.2128386997715
 31
0
  0
LINE
  8
1
 62
2
 10
3391.830872304972
 20
385.212838699772
 30
0
 11
3392.330872304972
 21
385.712838699772
 31
0
  0
LINE
  8
1
 62
2
 10
3406.159299429718
 20
396.712838699772
 30
0
 11
3406.659299429718
 21
397.2128386997715
 31
0
  0
LINE
  8
1
 62
2
 10
3394.659299429718
 20
385.212838699772
 30
0
 11
3395.159299429718
 21
385.712838699772
 31
0
  0
LINE
  8
1
 62
2
 10
3408.987726554465
 20
396.712838699772
 30
0
 11
3409.487726554464
 21
397.2128386997715
 31
0
  0
LINE
  8
1
 62
2
 10
3397.487726554464
 20
385.212838699772
 30
0
 11
3397.987726554465
 21
385.712838699772
 31
0
  0
LINE
  8
1
 62
2
 10
3411.816153679211
 20
396.712838699772
 30
0
 11
3412.31615367921
 21
397.2128386997715
 31
0
  0
LINE
  8
1
 62
2
 10
3400.31615367921
 20
385.212838699772
 30
0
 11
3400.816153679211
 21
385.712838699772
 31
0
  0
LINE
  8
1
 62
2
 10
3414.644580803956
 20
396.7128386997713
 30
0
 11
3415.144580803956
 21
397.2128386997715
 31
0
  0
LINE
  8
1
 62
2
 10
3412.656101089293
 20
394.7243589851078
 30
0
 11
3413.156101089293
 21
395.2243589851075
 31
0
  0
LINE
  8
1
 62
2
 10
3403.144580803957
 20
385.212838699772
 30
0
 11
3403.644580803957
 21
385.712838699772
 31
0
  0
LINE
  8
1
 62
2
 10
3417.473007928702
 20
396.7128386997713
 30
0
 11
3417.973007928702
 21
397.2128386997715
 31
0
  0
LINE
  8
1
 62
2
 10
3412.656101089293
 20
391.8959318603615
 30
0
 11
3413.156101089293
 21
392.3959318603613
 31
0
  0
LINE
  8
1
 62
2
 10
3405.973007928703
 20
385.212838699772
 30
0
 11
3406.473007928703
 21
385.712838699772
 31
0
  0
LINE
  8
1
 62
2
 10
3420.301435053449
 20
396.7128386997713
 30
0
 11
3420.801435053449
 21
397.2128386997715
 31
0
  0
LINE
  8
1
 62
2
 10
3412.656101089293
 20
389.0675047356153
 30
0
 11
3413.156101089293
 21
389.5675047356151
 31
0
  0
LINE
  8
1
 62
2
 10
3408.801435053449
 20
385.212838699772
 30
0
 11
3409.30143505345
 21
385.712838699772
 31
0
  0
LINE
  8
1
 62
2
 10
3423.129862178195
 20
396.7128386997713
 30
0
 11
3423.629862178195
 21
397.2128386997715
 31
0
  0
LINE
  8
1
 62
2
 10
3412.656101089293
 20
386.2390776108691
 30
0
 11
3413.156101089293
 21
386.7390776108689
 31
0
  0
LINE
  8
1
 62
2
 10
3411.629862178195
 20
385.212838699772
 30
0
 11
3412.129862178196
 21
385.712838699772
 31
0
  0
LINE
  8
1
 62
2
 10
3425.958289302941
 20
396.7128386997713
 30
0
 11
3426.458289302941
 21
397.2128386997715
 31
0
  0
LINE
  8
1
 62
2
 10
3414.458289302942
 20
385.212838699772
 30
0
 11
3414.958289302942
 21
385.7128386997717
 31
0
  0
LINE
  8
1
 62
2
 10
3428.786716427687
 20
396.7128386997713
 30
0
 11
3429.286716427687
 21
397.2128386997715
 31
0
  0
LINE
  8
1
 62
2
 10
3417.286716427688
 20
385.212838699772
 30
0
 11
3417.786716427688
 21
385.7128386997717
 31
0
  0
LINE
  8
1
 62
2
 10
3431.615143552433
 20
396.7128386997713
 30
0
 11
3432.115143552433
 21
397.2128386997715
 31
0
  0
LINE
  8
1
 62
2
 10
3420.115143552434
 20
385.212838699772
 30
0
 11
3420.615143552434
 21
385.7128386997717
 31
0
  0
LINE
  8
1
 62
2
 10
3434.44357067718
 20
396.7128386997713
 30
0
 11
3434.94357067718
 21
397.2128386997715
 31
0
  0
LINE
  8
1
 62
2
 10
3422.94357067718
 20
385.212838699772
 30
0
 11
3423.44357067718
 21
385.7128386997717
 31
0
  0
LINE
  8
1
 62
2
 10
3437.271997801926
 20
396.7128386997713
 30
0
 11
3437.771997801926
 21
397.2128386997715
 31
0
  0
LINE
  8
1
 62
2
 10
3425.771997801926
 20
385.212838699772
 30
0
 11
3426.271997801926
 21
385.7128386997717
 31
0
  0
LINE
  8
1
 62
2
 10
3440.100424926672
 20
396.7128386997713
 30
0
 11
3440.600424926672
 21
397.2128386997715
 31
0
  0
LINE
  8
1
 62
2
 10
3428.600424926673
 20
385.212838699772
 30
0
 11
3429.100424926673
 21
385.7128386997717
 31
0
  0
LINE
  8
1
 62
2
 10
3442.406101089293
 20
396.1900877376459
 30
0
 11
3442.906101089293
 21
396.6900877376461
 31
0
  0
LINE
  8
1
 62
2
 10
3431.428852051419
 20
385.212838699772
 30
0
 11
3431.928852051419
 21
385.7128386997717
 31
0
  0
LINE
  8
1
 62
2
 10
3442.406101089293
 20
393.3616606128996
 30
0
 11
3442.906101089293
 21
393.8616606128999
 31
0
  0
LINE
  8
1
 62
2
 10
3434.257279176165
 20
385.212838699772
 30
0
 11
3434.757279176165
 21
385.7128386997717
 31
0
  0
LINE
  8
1
 62
2
 10
3442.406101089293
 20
390.5332334881534
 30
0
 11
3442.906101089293
 21
391.0332334881537
 31
0
  0
LINE
  8
1
 62
2
 10
3437.085706300911
 20
385.212838699772
 30
0
 11
3437.585706300911
 21
385.7128386997717
 31
0
  0
LINE
  8
1
 62
2
 10
3442.406101089293
 20
387.7048063634072
 30
0
 11
3442.906101089293
 21
388.2048063634074
 31
0
  0
LINE
  8
1
 62
2
 10
3439.914133425657
 20
385.212838699772
 30
0
 11
3440.414133425657
 21
385.7128386997717
 31
0
  0
ENDBLK
  8
0
  0
BLOCK
  8
1
  2
*X2
 70
1
 10
0
 20
0
 30
0
  0
LINE
  8
1
 62
2
 10
3427.440482245067
 20
389.7097502676588
 30
0
 11
3428.94357067718
 21
391.2128386997717
 31
0
  0
LINE
  8
1
 62
2
 10
3428.271997801926
 20
387.7128386997717
 30
0
 11
3431.771997801926
 21
391.2128386997717
 31
0
  0
LINE
  8
1
 62
2
 10
3431.100424926673
 20
387.7128386997717
 30
0
 11
3434.600424926672
 21
391.2128386997717
 31
0
  0
LINE
  8
1
 62
2
 10
3433.928852051419
 20
387.7128386997717
 30
0
 11
3437.428852051418
 21
391.2128386997717
 31
0
  0
LINE
  8
1
 62
2
 10
3436.757279176165
 20
387.7128386997717
 30
0
 11
3439.440482245067
 21
390.3960417686742
 31
0
  0
ENDBLK
  8
0
  0
BLOCK
  8
1
  2
*D0
 70
1
 10
0
 20
0
 30
0
  0
LINE
  8
1
 62
2
 10
3178.030638673828
 20
502.834799848074
 30
0
 11
3245.43821731753
 21
502.834799848074
 31
0
  0
LINE
  8
1
 62
2
 10
3178.030638673828
 20
493.1335039388908
 30
0
 11
3178.030638673828
 21
504.334799848074
 31
0
  0
LINE
  8
1
 62
2
 10
3245.43821731753
 20
493.9335039388909
 30
0
 11
3245.43821731753
 21
504.334799848074
 31
0
  0
SOLID
  8
1
 62
2
 10
3245.43821731753
 20
502.834799848074
 30
0
 11
3242.23821731753
 21
502.418799848074
 31
0
 12
3242.23821731753
 22
503.250799848074
 32
0
 13
3242.23821731753
 23
503.250799848074
 33
0
  0
SOLID
  8
1
 62
2
 10
3178.030638673828
 20
502.834799848074
 30
0
 11
3181.230638673828
 21
503.250799848074
 31
0
 12
3181.230638673828
 22
502.418799848074
 32
0
 13
3181.230638673828
 23
502.418799848074
 33
0
  0
TEXT
  8
1
 62
2
 10
3203.278796436831
 20
505.634799848074
 30
0
 40
3.2
  1
300
 41
0.9
  0
TEXT
  8
1
 62
2
 10
3212.558796436831
 20
507.714799848074
 30
0
 40
1.92
  1
+20
 41
0.9
  0
TEXT
  8
1
 62
2
 10
3212.558796436831
 20
504.834799848074
 30
0
 40
1.92
  1
 0
 41
0.9
  0
ENDBLK
  8
0
  0
BLOCK
  8
1
  2
*D1
 70
1
 10
0
 20
0
 30
0
  0
LINE
  8
1
 62
2
 10
3168.030638673828
 20
502.8637677678019
 30
0
 11
3178.030638673828
 21
502.8637677678019
 31
0
  0
LINE
  8
1
 62
2
 10
3168.030638673828
 20
492.783503938891
 30
0
 11
3168.030638673828
 21
503.8637677678019
 31
0
  0
LINE
  8
1
 62
2
 10
3178.030638673828
 20
493.1335039388909
 30
0
 11
3178.030638673828
 21
503.8637677678019
 31
0
  0
SOLID
  8
1
 62
2
 10
3168.030638673828
 20
502.8637677678019
 30
0
 11
3171.230638673827
 21
503.2797677678019
 31
0
 12
3171.230638673827
 22
502.4477677678019
 32
0
 13
3171.230638673827
 23
502.4477677678019
 33
0
  0
SOLID
  8
1
 62
2
 10
3178.030638673828
 20
502.8637677678019
 30
0
 11
3174.830638673828
 21
502.4477677678019
 31
0
 12
3174.830638673828
 22
503.2797677678019
 32
0
 13
3174.830638673828
 23
503.2797677678019
 33
0
  0
TEXT
  8
1
 62
2
 10
3168.854638673828
 20
504.8637677678019
 30
0
 40
3.2
  1
10
 41
0.9
  0
TEXT
  8
1
 62
2
 10
3174.294638673828
 20
505.3437677678019
 30
0
 40
2.24
  1
%%p3
 41
0.9
  0
ENDBLK
  8
0
  0
BLOCK
  8
1
  2
*D2
 70
1
 10
0
 20
0
 30
0
  0
LINE
  8
1
 62
2
 10
3164.633278555109
 20
336.2897096271481
 30
0
 11
3174.633278555109
 21
336.2897096271481
 31
0
  0
LINE
  8
1
 62
2
 10
3174.633278555109
 20
326.559445798237
 30
0
 11
3174.633278555109
 21
337.2897096271481
 31
0
  0
LINE
  8
1
 62
2
 10
3164.633278555109
 20
326.209445798237
 30
0
 11
3164.633278555109
 21
337.2897096271481
 31
0
  0
SOLID
  8
1
 62
2
 10
3164.633278555109
 20
336.2897096271481
 30
0
 11
3167.833278555109
 21
336.7057096271481
 31
0
 12
3167.833278555109
 22
335.8737096271481
 32
0
 13
3167.833278555109
 23
335.8737096271481
 33
0
  0
SOLID
  8
1
 62
2
 10
3174.633278555109
 20
336.2897096271481
 30
0
 11
3171.433278555109
 21
335.8737096271481
 31
0
 12
3171.433278555109
 22
336.7057096271481
 32
0
 13
3171.433278555109
 23
336.7057096271481
 33
0
  0
TEXT
  8
1
 62
2
 10
3165.457278555109
 20
338.289709627148
 30
0
 40
3.2
  1
10
 41
0.9
  0
TEXT
  8
1
 62
2
 10
3170.897278555109
 20
338.769709627148
 30
0
 40
2.24
  1
%%p3
 41
0.9
  0
ENDBLK
  8
0
  0
BLOCK
  8
1
  2
*D3
 70
1
 10
0
 20
0
 30
0
  0
LINE
  8
1
 62
2
 10
3174.63327855511
 20
336.2607417074201
 30
0
 11
3242.040857198811
 21
336.2607417074201
 31
0
  0
LINE
  8
1
 62
2
 10
3174.63327855511
 20
326.5594457982371
 30
0
 11
3174.63327855511
 21
337.7607417074201
 31
0
  0
LINE
  8
1
 62
2
 10
3242.040857198811
 20
327.359445798237
 30
0
 11
3242.040857198811
 21
337.7607417074201
 31
0
  0
SOLID
  8
1
 62
2
 10
3242.040857198811
 20
336.2607417074201
 30
0
 11
3238.840857198812
 21
335.8447417074201
 31
0
 12
3238.840857198812
 22
336.6767417074201
 32
0
 13
3238.840857198812
 23
336.6767417074201
 33
0
  0
SOLID
  8
1
 62
2
 10
3174.63327855511
 20
336.2607417074201
 30
0
 11
3177.83327855511
 21
336.6767417074201
 31
0
 12
3177.83327855511
 22
335.8447417074201
 32
0
 13
3177.83327855511
 23
335.8447417074201
 33
0
  0
TEXT
  8
1
 62
2
 10
3199.881436318112
 20
339.0607417074201
 30
0
 40
3.2
  1
300
 41
0.9
  0
TEXT
  8
1
 62
2
 10
3209.161436318112
 20
341.1407417074201
 30
0
 40
1.92
  1
+20
 41
0.9
  0
TEXT
  8
1
 62
2
 10
3209.161436318112
 20
338.2607417074201
 30
0
 40
1.92
  1
 0
 41
0.9
  0
ENDBLK
  8
0
  0
BLOCK
  8
1
  2
*D4
 70
1
 10
0
 20
0
 30
0
  0
LINE
  8
1
 62
2
 10
3461.83236101938
 20
388.5128386997714
 30
0
 11
3461.83236101938
 21
378.9128386997714
 31
0
  0
LINE
  8
1
 62
2
 10
3461.83236101938
 20
375.4128386997716
 30
0
 11
3461.83236101938
 21
378.9128386997714
 31
0
  0
LINE
  8
1
 62
2
 10
3461.83236101938
 20
375.4128386997716
 30
0
 11
3461.83236101938
 21
354.1138232160002
 31
0
  0
LINE
  8
1
 62
2
 10
3444.406101089294
 20
375.4128386997716
 30
0
 11
3463.33236101938
 21
375.4128386997716
 31
0
  0
LINE
  8
1
 62
2
 10
3451.906101089294
 20
378.9128386997714
 30
0
 11
3463.33236101938
 21
378.9128386997714
 31
0
  0
SOLID
  8
1
 62
2
 10
3461.83236101938
 20
375.4128386997716
 30
0
 11
3462.45636101938
 21
370.6128386997715
 31
0
 12
3461.20836101938
 22
370.6128386997715
 32
0
 13
3461.20836101938
 23
370.6128386997715
 33
0
  0
SOLID
  8
1
 62
2
 10
3461.83236101938
 20
378.9128386997714
 30
0
 11
3461.20836101938
 21
383.7128386997714
 31
0
 12
3462.45636101938
 22
383.7128386997714
 32
0
 13
3462.45636101938
 23
383.7128386997714
 33
0
  0
TEXT
  8
1
 62
2
 10
3459.83236101938
 20
354.1138232160002
 30
0
 40
3.2
  1
3.5
 50
90
 41
0.9
  0
TEXT
  8
1
 62
2
 10
3459.19236101938
 20
361.7138232160002
 30
0
 40
1.92
  1
%%p0.5
 50
90
 41
0.9
  0
ENDBLK
  8
0
  0
BLOCK
  8
1
  2
*D5
 70
1
 10
0
 20
0
 30
0
  0
LINE
  8
1
 62
2
 10
3461.83236101938
 20
378.9128386997714
 30
0
 11
3461.83236101938
 21
428.9128386997714
 31
0
  0
LINE
  8
1
 62
2
 10
3451.906101089294
 20
378.9128386997714
 30
0
 11
3463.33236101938
 21
378.9128386997714
 31
0
  0
LINE
  8
1
 62
2
 10
3451.906101089294
 20
428.9128386997714
 30
0
 11
3463.33236101938
 21
428.9128386997714
 31
0
  0
SOLID
  8
1
 62
2
 10
3461.83236101938
 20
428.9128386997714
 30
0
 11
3462.45636101938
 21
424.1128386997714
 31
0
 12
3461.20836101938
 22
424.1128386997714
 32
0
 13
3461.20836101938
 23
424.1128386997714
 33
0
  0
SOLID
  8
1
 62
2
 10
3461.83236101938
 20
378.9128386997714
 30
0
 11
3461.20836101938
 21
383.7128386997715
 31
0
 12
3462.45636101938
 22
383.7128386997715
 32
0
 13
3462.45636101938
 23
383.7128386997715
 33
0
  0
TEXT
  8
1
 62
2
 10
3459.83236101938
 20
397.8175072244912
 30
0
 40
3.2
  1
50
 50
90
 41
0.9
  0
TEXT
  8
1
 62
2
 10
3459.19236101938
 20
404.2175072244912
 30
0
 40
1.92
  1
%%p0.5
 50
90
 41
0.9
  0
ENDBLK
  8
0
  0
BLOCK
  8
1
  2
*D6
 70
1
 10
0
 20
0
 30
0
  0
LINE
  8
1
 62
2
 10
3376.406101089294
 20
452.5261650315572
 30
0
 11
3356.4308081767
 21
452.5261650315572
 31
0
  0
LINE
  8
1
 62
2
 10
3376.406101089294
 20
452.5261650315572
 30
0
 11
3379.906101089294
 21
452.5261650315572
 31
0
  0
LINE
  8
1
 62
2
 10
3389.506101089294
 20
452.5261650315572
 30
0
 11
3379.906101089294
 21
452.5261650315572
 31
0
  0
LINE
  8
1
 62
2
 10
3379.906101089294
 20
434.9128386997714
 30
0
 11
3379.906101089294
 21
454.0261650315572
 31
0
  0
LINE
  8
1
 62
2
 10
3376.406101089294
 20
432.4128386997716
 30
0
 11
3376.406101089294
 21
454.0261650315572
 31
0
  0
SOLID
  8
1
 62
2
 10
3376.406101089294
 20
452.5261650315572
 30
0
 11
3371.606101089294
 21
451.9021650315572
 31
0
 12
3371.606101089294
 22
453.1501650315572
 32
0
 13
3371.606101089294
 23
453.1501650315572
 33
0
  0
SOLID
  8
1
 62
2
 10
3379.906101089294
 20
452.5261650315572
 30
0
 11
3384.706101089294
 21
453.1501650315572
 31
0
 12
3384.706101089294
 22
451.9021650315572
 32
0
 13
3384.706101089294
 23
451.9021650315572
 33
0
  0
TEXT
  8
1
 62
2
 10
3356.4308081767
 20
454.5261650315572
 30
0
 40
3.2
  1
3.5
 41
0.9
  0
TEXT
  8
1
 62
2
 10
3364.0308081767
 20
455.1661650315572
 30
0
 40
1.92
  1
%%p0.5
 41
0.9
  0
ENDBLK
  8
0
  0
BLOCK
  8
1
  2
*D7
 70
1
 10
0
 20
0
 30
0
  0
LINE
  8
1
 62
2
 10
3379.906101089294
 20
452.5012258469542
 30
0
 11
3445.906101089294
 21
452.5012258469542
 31
0
  0
LINE
  8
1
 62
2
 10
3445.906101089294
 20
434.9128386997714
 30
0
 11
3445.906101089294
 21
454.0012258469542
 31
0
  0
LINE
  8
1
 62
2
 10
3379.906101089294
 20
434.9128386997714
 30
0
 11
3379.906101089294
 21
454.0012258469542
 31
0
  0
SOLID
  8
1
 62
2
 10
3379.906101089294
 20
452.5012258469542
 30
0
 11
3383.106101089294
 21
452.9172258469542
 31
0
 12
3383.106101089294
 22
452.0852258469542
 32
0
 13
3383.106101089294
 23
452.0852258469542
 33
0
  0
SOLID
  8
1
 62
2
 10
3445.906101089294
 20
452.5012258469542
 30
0
 11
3442.706101089294
 21
452.0852258469542
 31
0
 12
3442.706101089294
 22
452.9172258469542
 32
0
 13
3442.706101089294
 23
452.9172258469542
 33
0
  0
TEXT
  8
1
 62
2
 10
3407.04775007561
 20
454.5012258469542
 30
0
 40
3.2
  1
66
 41
0.9
  0
TEXT
  8
1
 62
2
 10
3413.44775007561
 20
455.1412258469542
 30
0
 40
1.92
  1
%%p0.5
 41
0.9
  0
ENDBLK
  8
0
  0
BLOCK
  8
1
  2
*D8
 70
1
 10
0
 20
0
 30
0
  0
LINE
  8
1
 62
2
 10
3376.406101089294
 20
463.4664464367162
 30
0
 11
3449.406101089294
 21
463.4664464367162
 31
0
  0
LINE
  8
1
 62
2
 10
3449.406101089294
 20
432.4128386997716
 30
0
 11
3449.406101089294
 21
464.9664464367162
 31
0
  0
LINE
  8
1
 62
2
 10
3376.406101089294
 20
432.4128386997716
 30
0
 11
3376.406101089294
 21
464.9664464367162
 31
0
  0
SOLID
  8
1
 62
2
 10
3376.406101089294
 20
463.4664464367162
 30
0
 11
3379.606101089294
 21
463.8824464367162
 31
0
 12
3379.606101089294
 22
463.0504464367162
 32
0
 13
3379.606101089294
 23
463.0504464367162
 33
0
  0
SOLID
  8
1
 62
2
 10
3449.406101089294
 20
463.4664464367162
 30
0
 11
3446.206101089294
 21
463.0504464367162
 31
0
 12
3446.206101089294
 22
463.8824464367162
 32
0
 13
3446.206101089294
 23
463.8824464367162
 33
0
  0
TEXT
  8
1
 62
2
 10
3409.68852278338
 20
465.4664464367162
 30
0
 40
3.2
  1
73
 41
0.9
  0
TEXT
  8
1
 62
2
 10
3416.08852278338
 20
466.1064464367162
 30
0
 40
1.92
  1
%%p1
 41
0.9
  0
ENDBLK
  8
0
  0
BLOCK
  8
1
  2
*D9
 70
1
 10
0
 20
0
 30
0
  0
LINE
  8
1
 62
2
 10
3367.82964589448
 20
378.9128386997714
 30
0
 11
3367.82964589448
 21
428.9128386997714
 31
0
  0
LINE
  8
1
 62
2
 10
3373.906101089294
 20
378.9128386997714
 30
0
 11
3366.32964589448
 21
378.9128386997714
 31
0
  0
LINE
  8
1
 62
2
 10
3373.906101089294
 20
428.9128386997714
 30
0
 11
3366.32964589448
 21
428.9128386997714
 31
0
  0
SOLID
  8
1
 62
2
 10
3367.82964589448
 20
378.9128386997714
 30
0
 11
3367.41364589448
 21
382.1128386997714
 31
0
 12
3368.24564589448
 22
382.1128386997714
 32
0
 13
3368.24564589448
 23
382.1128386997714
 33
0
  0
SOLID
  8
1
 62
2
 10
3367.82964589448
 20
428.9128386997714
 30
0
 11
3368.24564589448
 21
425.7128386997714
 31
0
 12
3367.41364589448
 22
425.7128386997714
 32
0
 13
3367.41364589448
 23
425.7128386997714
 33
0
  0
TEXT
  8
1
 62
2
 10
3365.82964589448
 20
398.2760570543692
 30
0
 40
3.2
  1
50
 50
90
 41
0.9
  0
TEXT
  8
1
 62
2
 10
3365.18964589448
 20
404.6760570543692
 30
0
 40
1.92
  1
%%p0.5
 50
90
 41
0.9
  0
ENDBLK
  8
0
  0
BLOCK
  8
1
  2
*D10
 70
1
 10
0
 20
0
 30
0
  0
LINE
  8
1
 62
2
 10
3360.2635737015
 20
375.4128386997716
 30
0
 11
3360.2635737015
 21
432.4128386997716
 31
0
  0
LINE
  8
1
 62
2
 10
3376.406101089294
 20
375.4128386997716
 30
0
 11
3358.7635737015
 21
375.4128386997716
 31
0
  0
LINE
  8
1
 62
2
 10
3376.406101089294
 20
432.4128386997716
 30
0
 11
3358.7635737015
 21
432.4128386997716
 31
0
  0
SOLID
  8
1
 62
2
 10
3360.2635737015
 20
432.4128386997716
 30
0
 11
3360.6795737015
 21
429.2128386997716
 31
0
 12
3359.8475737015
 22
429.2128386997716
 32
0
 13
3359.8475737015
 23
429.2128386997716
 33
0
  0
SOLID
  8
1
 62
2
 10
3360.2635737015
 20
375.4128386997716
 30
0
 11
3359.8475737015
 21
378.6128386997715
 31
0
 12
3360.6795737015
 22
378.6128386997715
 32
0
 13
3360.6795737015
 23
378.6128386997715
 33
0
  0
TEXT
  8
1
 62
2
 10
3358.2635737015
 20
400.4758817991852
 30
0
 40
3.2
  1
57
 50
90
 41
0.9
  0
TEXT
  8
1
 62
2
 10
3357.6235737015
 20
406.8758817991852
 30
0
 40
1.92
  1
%%p1
 50
90
 41
0.9
  0
ENDBLK
  8
0
  0
BLOCK
  8
1
  2
*D11
 70
1
 10
0
 20
0
 30
0
  0
LINE
  8
1
 62
2
 10
3301.242543742674
 20
419.3128386997716
 30
0
 11
3301.242543742674
 21
425.7128386997716
 31
0
  0
LINE
  8
1
 62
2
 10
3301.242543742674
 20
425.7128386997716
 30
0
 11
3301.242543742674
 21
431.9128386997716
 31
0
  0
LINE
  8
1
 62
2
 10
3301.242543742674
 20
431.9128386997716
 30
0
 11
3301.242543742674
 21
446.7635544834623
 31
0
  0
LINE
  8
1
 62
2
 10
3306.44283210833
 20
425.7128386997716
 30
0
 11
3299.742543742674
 21
425.7128386997716
 31
0
  0
LINE
  8
1
 62
2
 10
3306.44283210833
 20
431.9128386997716
 30
0
 11
3299.742543742674
 21
431.9128386997716
 31
0
  0
SOLID
  8
1
 62
2
 10
3301.242543742674
 20
431.9128386997716
 30
0
 11
3300.826543742674
 21
435.1128386997715
 31
0
 12
3301.658543742674
 22
435.1128386997715
 32
0
 13
3301.658543742674
 23
435.1128386997715
 33
0
  0
SOLID
  8
1
 62
2
 10
3301.242543742674
 20
425.7128386997716
 30
0
 11
3301.658543742674
 21
422.5128386997716
 31
0
 12
3300.826543742674
 22
422.5128386997716
 32
0
 13
3300.826543742674
 23
422.5128386997716
 33
0
  0
TEXT
  8
1
 62
2
 10
3299.242543742674
 20
433.8675544834623
 30
0
 40
3.2
  1
6.2
 50
90
 41
0.9
  0
TEXT
  8
1
 62
2
 10
3298.602543742674
 20
441.4675544834623
 30
0
 40
1.92
  1
%%p0.5
 50
90
 41
0.9
  0
ENDBLK
  8
0
  0
BLOCK
  8
1
  2
*D12
 70
1
 10
0
 20
0
 30
0
  0
LINE
  8
1
 62
2
 10
3301.242543742674
 20
388.1128386997717
 30
0
 11
3301.242543742674
 21
425.7128386997717
 31
0
  0
LINE
  8
1
 62
2
 10
3306.44283210833
 20
388.1128386997717
 30
0
 11
3299.742543742674
 21
388.1128386997717
 31
0
  0
LINE
  8
1
 62
2
 10
3306.44283210833
 20
425.7128386997717
 30
0
 11
3299.742543742674
 21
425.7128386997717
 31
0
  0
SOLID
  8
1
 62
2
 10
3301.242543742674
 20
425.7128386997717
 30
0
 11
3301.658543742674
 21
422.5128386997717
 31
0
 12
3300.826543742674
 22
422.5128386997717
 32
0
 13
3300.826543742674
 23
422.5128386997717
 33
0
  0
SOLID
  8
1
 62
2
 10
3301.242543742674
 20
388.1128386997717
 30
0
 11
3300.826543742674
 21
391.3128386997717
 31
0
 12
3301.658543742674
 22
391.3128386997717
 32
0
 13
3301.658543742674
 23
391.3128386997717
 33
0
  0
TEXT
  8
1
 62
2
 10
3299.242543742674
 20
396.1636809630254
 30
0
 40
3.2
  1
37.6
 50
90
 41
0.9
  0
TEXT
  8
1
 62
2
 10
3298.602543742674
 20
406.6436809630254
 30
0
 40
1.92
  1
%%p0.5
 50
90
 41
0.9
  0
ENDBLK
  8
0
  0
BLOCK
  8
1
  2
*D13
 70
1
 10
0
 20
0
 30
0
  0
LINE
  8
1
 62
2
 10
3301.242543742674
 20
394.5128386997716
 30
0
 11
3301.242543742674
 21
388.1128386997716
 31
0
  0
LINE
  8
1
 62
2
 10
3301.242543742674
 20
383.1128386997717
 30
0
 11
3301.242543742674
 21
388.1128386997716
 31
0
  0
LINE
  8
1
 62
2
 10
3301.242543742674
 20
383.1128386997717
 30
0
 11
3301.242543742674
 21
365.6847035573383
 31
0
  0
LINE
  8
1
 62
2
 10
3306.44283210833
 20
383.1128386997717
 30
0
 11
3299.742543742674
 21
383.1128386997717
 31
0
  0
LINE
  8
1
 62
2
 10
3306.44283210833
 20
388.1128386997716
 30
0
 11
3299.742543742674
 21
388.1128386997716
 31
0
  0
SOLID
  8
1
 62
2
 10
3301.242543742674
 20
388.1128386997716
 30
0
 11
3300.826543742674
 21
391.3128386997716
 31
0
 12
3301.658543742674
 22
391.3128386997716
 32
0
 13
3301.658543742674
 23
391.3128386997716
 33
0
  0
SOLID
  8
1
 62
2
 10
3301.242543742674
 20
383.1128386997717
 30
0
 11
3301.658543742674
 21
379.9128386997717
 31
0
 12
3300.826543742674
 22
379.9128386997717
 32
0
 13
3300.826543742674
 23
379.9128386997717
 33
0
  0
TEXT
  8
1
 62
2
 10
3299.242543742674
 20
366.1167035573383
 30
0
 40
3.2
  1
5
 50
90
 41
0.9
  0
TEXT
  8
1
 62
2
 10
3298.602543742674
 20
369.6367035573383
 30
0
 40
1.92
  1
%%p0.5
 50
90
 41
0.9
  0
ENDBLK
  8
0
  0
BLOCK
  8
1
  2
*D14
 70
1
 10
0
 20
0
 30
0
  0
LINE
  8
1
 62
2
 10
3361.406101089293
 20
306.999793098094
 30
0
 11
3361.406101089293
 21
345.999793098094
 31
0
  0
LINE
  8
1
 62
2
 10
3375.606101089293
 20
306.999793098094
 30
0
 11
3359.906101089293
 21
306.999793098094
 31
0
  0
LINE
  8
1
 62
2
 10
3377.196101089293
 20
345.999793098094
 30
0
 11
3359.906101089293
 21
345.999793098094
 31
0
  0
SOLID
  8
1
 62
2
 10
3361.406101089293
 20
306.999793098094
 30
0
 11
3360.990101089293
 21
310.199793098094
 31
0
 12
3361.822101089293
 22
310.199793098094
 32
0
 13
3361.822101089293
 23
310.199793098094
 33
0
  0
SOLID
  8
1
 62
2
 10
3361.406101089293
 20
345.999793098094
 30
0
 11
3361.822101089293
 21
342.799793098094
 31
0
 12
3360.990101089293
 22
342.799793098094
 32
0
 13
3360.990101089293
 23
342.799793098094
 33
0
  0
TEXT
  8
1
 62
2
 10
3359.406101089293
 20
321.7153288352519
 30
0
 40
3.2
  1
39
 50
90
 41
0.9
  0
TEXT
  8
1
 62
2
 10
3358.766101089293
 20
328.1153288352519
 30
0
 40
1.92
  1
%%p1
 50
90
 41
0.9
  0
ENDBLK
  8
0
  0
BLOCK
  8
1
  2
*D15
 70
1
 10
0
 20
0
 30
0
  0
LINE
  8
1
 62
2
 10
3351.406101089293
 20
306.9997930980939
 30
0
 11
3351.406101089293
 21
348.3860853739585
 31
0
  0
LINE
  8
1
 62
2
 10
3375.606101089293
 20
306.9997930980939
 30
0
 11
3349.906101089293
 21
306.9997930980939
 31
0
  0
LINE
  8
1
 62
2
 10
3378.543601089293
 20
348.3860853739585
 30
0
 11
3349.906101089293
 21
348.3860853739585
 31
0
  0
SOLID
  8
1
 62
2
 10
3351.406101089293
 20
306.9997930980939
 30
0
 11
3350.990101089293
 21
310.1997930980939
 31
0
 12
3351.822101089293
 22
310.1997930980939
 32
0
 13
3351.822101089293
 23
310.1997930980939
 33
0
  0
SOLID
  8
1
 62
2
 10
3351.406101089293
 20
348.3860853739585
 30
0
 11
3351.822101089293
 21
345.1860853739585
 31
0
 12
3350.990101089293
 22
345.1860853739585
 32
0
 13
3350.990101089293
 23
345.1860853739585
 33
0
  0
TEXT
  8
1
 62
2
 10
3349.406101089293
 20
324.3513839367731
 30
0
 40
3.2
  1
42
 50
90
 41
0.9
  0
TEXT
  8
1
 62
2
 10
3349.406101089293
 20
322.2713839367731
 30
0
 40
3.2
  1
(
 50
90
 41
0.9
  0
TEXT
  8
1
 62
2
 10
3349.406101089293
 20
330.7513839367731
 30
0
 40
3.2
  1
)
 50
90
 41
0.9
  0
ENDBLK
  8
0
  0
BLOCK
  8
1
  2
*D16
 70
1
 10
0
 20
0
 30
0
  0
LINE
  8
1
 62
2
 10
3370.206101089293
 20
296.999793098094
 30
0
 11
3376.606101089293
 21
296.999793098094
 31
0
  0
LINE
  8
1
 62
2
 10
3376.606101089293
 20
296.999793098094
 30
0
 11
3383.206101089293
 21
296.999793098094
 31
0
  0
LINE
  8
1
 62
2
 10
3383.206101089293
 20
296.999793098094
 30
0
 11
3400.383934760537
 21
296.999793098094
 31
0
  0
LINE
  8
1
 62
2
 10
3376.606101089293
 20
305.999793098094
 30
0
 11
3376.606101089293
 21
295.499793098094
 31
0
  0
LINE
  8
1
 62
2
 10
3383.206101089293
 20
305.999793098094
 30
0
 11
3383.206101089293
 21
295.499793098094
 31
0
  0
SOLID
  8
1
 62
2
 10
3376.606101089293
 20
296.999793098094
 30
0
 11
3373.406101089293
 21
296.583793098094
 31
0
 12
3373.406101089293
 22
297.415793098094
 32
0
 13
3373.406101089293
 23
297.415793098094
 33
0
  0
SOLID
  8
1
 62
2
 10
3383.206101089293
 20
296.999793098094
 30
0
 11
3386.406101089293
 21
297.415793098094
 31
0
 12
3386.406101089293
 22
296.583793098094
 32
0
 13
3386.406101089293
 23
296.583793098094
 33
0
  0
TEXT
  8
1
 62
2
 10
3387.487934760537
 20
298.999793098094
 30
0
 40
3.2
  1
6.6
 41
0.9
  0
TEXT
  8
1
 62
2
 10
3395.087934760537
 20
299.639793098094
 30
0
 40
1.92
  1
%%p0.5
 41
0.9
  0
ENDBLK
  8
0
  0
BLOCK
  8
1
  2
*D17
 70
1
 10
0
 20
0
 30
0
  0
LINE
  8
1
 62
2
 10
3436.206101089293
 20
296.999793098094
 30
0
 11
3442.606101089293
 21
296.999793098094
 31
0
  0
LINE
  8
1
 62
2
 10
3442.606101089293
 20
296.999793098094
 30
0
 11
3449.206101089293
 21
296.999793098094
 31
0
  0
LINE
  8
1
 62
2
 10
3449.206101089293
 20
296.999793098094
 30
0
 11
3469.767498801022
 21
296.999793098094
 31
0
  0
LINE
  8
1
 62
2
 10
3442.606101089293
 20
305.999793098094
 30
0
 11
3442.606101089293
 21
295.499793098094
 31
0
  0
LINE
  8
1
 62
2
 10
3449.206101089293
 20
305.999793098094
 30
0
 11
3449.206101089293
 21
295.499793098094
 31
0
  0
SOLID
  8
1
 62
2
 10
3442.606101089293
 20
296.999793098094
 30
0
 11
3439.406101089293
 21
296.583793098094
 31
0
 12
3439.406101089293
 22
297.415793098094
 32
0
 13
3439.406101089293
 23
297.415793098094
 33
0
  0
SOLID
  8
1
 62
2
 10
3449.206101089293
 20
296.999793098094
 30
0
 11
3452.406101089293
 21
297.415793098094
 31
0
 12
3452.406101089293
 22
296.583793098094
 32
0
 13
3452.406101089293
 23
296.583793098094
 33
0
  0
TEXT
  8
1
 62
2
 10
3456.871498801022
 20
298.999793098094
 30
0
 40
3.2
  1
6.6
 41
0.9
  0
TEXT
  8
1
 62
2
 10
3464.471498801022
 20
299.639793098094
 30
0
 40
1.92
  1
%%p0.5
 41
0.9
  0
ENDBLK
  8
0
  0
BLOCK
  8
1
  2
*D18
 70
1
 10
0
 20
0
 30
0
  0
LINE
  8
1
 62
2
 10
3473.47507087629
 20
418.9128386997716
 30
0
 11
3473.47507087629
 21
432.4128386997716
 31
0
  0
LINE
  8
1
 62
2
 10
3473.47507087629
 20
432.4128386997716
 30
0
 11
3473.47507087629
 21
451.7617169985342
 31
0
  0
LINE
  8
1
 62
2
 10
3489.65888362967
 20
418.9128386997716
 30
0
 11
3471.97507087629
 21
418.9128386997716
 31
0
  0
LINE
  8
1
 62
2
 10
3481.65888362967
 20
432.4128386997716
 30
0
 11
3471.97507087629
 21
432.4128386997716
 31
0
  0
SOLID
  8
1
 62
2
 10
3473.47507087629
 20
432.4128386997716
 30
0
 11
3473.89107087629
 21
429.2128386997716
 31
0
 12
3473.05907087629
 22
429.2128386997716
 32
0
 13
3473.05907087629
 23
429.2128386997716
 33
0
  0
SOLID
  8
1
 62
2
 10
3473.47507087629
 20
418.9128386997716
 30
0
 11
3473.05907087629
 21
422.1128386997715
 31
0
 12
3473.89107087629
 22
422.1128386997715
 32
0
 13
3473.89107087629
 23
422.1128386997715
 33
0
  0
TEXT
  8
1
 62
2
 10
3471.47507087629
 20
437.2977169985342
 30
0
 40
3.2
  1
13.5
 50
90
 41
0.9
  0
TEXT
  8
1
 62
2
 10
3470.83507087629
 20
446.8177169985342
 30
0
 40
1.92
  1
%%p0.5
 50
90
 41
0.9
  0
ENDBLK
  8
0
  0
BLOCK
  8
1
  2
*D19
 70
1
 10
0
 20
0
 30
0
  0
LINE
  8
1
 62
2
 10
3473.24579596135
 20
388.9128386997716
 30
0
 11
3473.24579596135
 21
418.9128386997716
 31
0
  0
LINE
  8
1
 62
2
 10
3489.65888362967
 20
388.9128386997716
 30
0
 11
3471.74579596135
 21
388.9128386997716
 31
0
  0
LINE
  8
1
 62
2
 10
3489.65888362967
 20
418.9128386997716
 30
0
 11
3471.74579596135
 21
418.9128386997716
 31
0
  0
SOLID
  8
1
 62
2
 10
3473.24579596135
 20
418.9128386997716
 30
0
 11
3473.66179596135
 21
415.7128386997716
 31
0
 12
3472.82979596135
 22
415.7128386997716
 32
0
 13
3472.82979596135
 23
415.7128386997716
 33
0
  0
SOLID
  8
1
 62
2
 10
3473.24579596135
 20
388.9128386997716
 30
0
 11
3472.82979596135
 21
392.1128386997715
 31
0
 12
3473.66179596135
 22
392.1128386997715
 32
0
 13
3473.66179596135
 23
392.1128386997715
 33
0
  0
TEXT
  8
1
 62
2
 10
3471.24579596135
 20
397.5882323095532
 30
0
 40
3.2
  1
30
 50
90
 41
0.9
  0
TEXT
  8
1
 62
2
 10
3470.60579596135
 20
403.9882323095532
 30
0
 40
1.92
  1
%%p0.5
 50
90
 41
0.9
  0
ENDBLK
  8
0
  0
BLOCK
  8
1
  2
*D20
 70
1
 10
0
 20
0
 30
0
  0
LINE
  8
1
 62
2
 10
3473.24579596135
 20
375.4128386997716
 30
0
 11
3473.24579596135
 21
388.9128386997716
 31
0
  0
LINE
  8
1
 62
2
 10
3473.24579596135
 20
375.4128386997716
 30
0
 11
3473.24579596135
 21
357.5078472803272
 31
0
  0
LINE
  8
1
 62
2
 10
3481.65888362967
 20
375.4128386997716
 30
0
 11
3471.74579596135
 21
375.4128386997716
 31
0
  0
LINE
  8
1
 62
2
 10
3489.65888362967
 20
388.9128386997716
 30
0
 11
3471.74579596135
 21
388.9128386997716
 31
0
  0
SOLID
  8
1
 62
2
 10
3473.24579596135
 20
388.9128386997716
 30
0
 11
3473.66179596135
 21
385.7128386997716
 31
0
 12
3472.82979596135
 22
385.7128386997716
 32
0
 13
3472.82979596135
 23
385.7128386997716
 33
0
  0
SOLID
  8
1
 62
2
 10
3473.24579596135
 20
375.4128386997716
 30
0
 11
3472.82979596135
 21
378.6128386997715
 31
0
 12
3473.66179596135
 22
378.6128386997715
 32
0
 13
3473.66179596135
 23
378.6128386997715
 33
0
  0
TEXT
  8
1
 62
2
 10
3471.24579596135
 20
357.5078472803272
 30
0
 40
3.2
  1
(13.5)
 50
90
 41
0.9
  0
ENDBLK
  8
0
  0
BLOCK
  8
1
  2
*D21
 70
1
 10
0
 20
0
 30
0
  0
LINE
  8
1
 62
2
 10
3535.65888362967
 20
413.3128386997717
 30
0
 11
3535.65888362967
 21
419.7128386997716
 31
0
  0
LINE
  8
1
 62
2
 10
3535.65888362967
 20
419.7128386997716
 30
0
 11
3535.65888362967
 21
424.7128386997716
 31
0
  0
LINE
  8
1
 62
2
 10
3535.65888362967
 20
424.7128386997716
 30
0
 11
3535.65888362967
 21
438.204564778843
 31
0
  0
LINE
  8
1
 62
2
 10
3521.65888362967
 20
419.7128386997716
 30
0
 11
3537.15888362967
 21
419.7128386997716
 31
0
  0
LINE
  8
1
 62
2
 10
3521.65888362967
 20
424.7128386997716
 30
0
 11
3537.15888362967
 21
424.7128386997716
 31
0
  0
SOLID
  8
1
 62
2
 10
3535.65888362967
 20
424.7128386997716
 30
0
 11
3535.24288362967
 21
427.9128386997716
 31
0
 12
3536.07488362967
 22
427.9128386997716
 32
0
 13
3536.07488362967
 23
427.9128386997716
 33
0
  0
SOLID
  8
1
 62
2
 10
3535.65888362967
 20
419.7128386997716
 30
0
 11
3536.07488362967
 21
416.5128386997716
 31
0
 12
3535.24288362967
 22
416.5128386997716
 32
0
 13
3535.24288362967
 23
416.5128386997716
 33
0
  0
TEXT
  8
1
 62
2
 10
3533.65888362967
 20
429.308564778843
 30
0
 40
3.2
  1
5
 50
90
 41
0.9
  0
TEXT
  8
1
 62
2
 10
3533.01888362967
 20
432.828564778843
 30
0
 40
1.92
  1
%%p0.5
 50
90
 41
0.9
  0
ENDBLK
  8
0
  0
BLOCK
  8
1
  2
*D22
 70
1
 10
0
 20
0
 30
0
  0
LINE
  8
1
 62
2
 10
3535.65888362967
 20
382.1128386997717
 30
0
 11
3535.65888362967
 21
419.7128386997717
 31
0
  0
LINE
  8
1
 62
2
 10
3521.65888362967
 20
382.1128386997717
 30
0
 11
3537.15888362967
 21
382.1128386997717
 31
0
  0
LINE
  8
1
 62
2
 10
3521.65888362967
 20
419.7128386997717
 30
0
 11
3537.15888362967
 21
419.7128386997717
 31
0
  0
SOLID
  8
1
 62
2
 10
3535.65888362967
 20
419.7128386997717
 30
0
 11
3536.07488362967
 21
416.5128386997718
 31
0
 12
3535.24288362967
 22
416.5128386997718
 32
0
 13
3535.24288362967
 23
416.5128386997718
 33
0
  0
SOLID
  8
1
 62
2
 10
3535.65888362967
 20
382.1128386997717
 30
0
 11
3535.24288362967
 21
385.3128386997717
 31
0
 12
3536.07488362967
 22
385.3128386997717
 32
0
 13
3536.07488362967
 23
385.3128386997717
 33
0
  0
TEXT
  8
1
 62
2
 10
3534.38065666995
 20
388.24144484849
 30
0
 40
3.2
  1
37.6
 50
90
 41
0.9
  0
TEXT
  8
1
 62
2
 10
3533.74065666995
 20
398.72144484849
 30
0
 40
1.92
  1
%%p0.5
 50
90
 41
0.9
  0
ENDBLK
  8
0
  0
BLOCK
  8
1
  2
*D23
 70
1
 10
0
 20
0
 30
0
  0
LINE
  8
1
 62
2
 10
3535.65888362967
 20
388.5128386997717
 30
0
 11
3535.65888362967
 21
382.1128386997717
 31
0
  0
LINE
  8
1
 62
2
 10
3535.65888362967
 20
375.9128386997717
 30
0
 11
3535.65888362967
 21
382.1128386997717
 31
0
  0
LINE
  8
1
 62
2
 10
3535.65888362967
 20
375.9128386997717
 30
0
 11
3535.65888362967
 21
357.7362842425786
 31
0
  0
LINE
  8
1
 62
2
 10
3521.65888362967
 20
375.9128386997717
 30
0
 11
3537.15888362967
 21
375.9128386997717
 31
0
  0
LINE
  8
1
 62
2
 10
3521.65888362967
 20
382.1128386997717
 30
0
 11
3537.15888362967
 21
382.1128386997717
 31
0
  0
SOLID
  8
1
 62
2
 10
3535.65888362967
 20
382.1128386997717
 30
0
 11
3535.24288362967
 21
385.3128386997717
 31
0
 12
3536.07488362967
 22
385.3128386997717
 32
0
 13
3536.07488362967
 23
385.3128386997717
 33
0
  0
SOLID
  8
1
 62
2
 10
3535.65888362967
 20
375.9128386997717
 30
0
 11
3536.07488362967
 21
372.7128386997717
 31
0
 12
3535.24288362967
 22
372.7128386997717
 32
0
 13
3535.24288362967
 23
372.7128386997717
 33
0
  0
TEXT
  8
1
 62
2
 10
3533.65888362967
 20
358.0882842425786
 30
0
 40
3.2
  1
6.2
 50
90
 41
0.9
  0
TEXT
  8
1
 62
2
 10
3533.01888362967
 20
365.6882842425786
 30
0
 40
1.92
  1
%%p0.5
 50
90
 41
0.9
  0
ENDBLK
  8
0
  0
BLOCK
  8
1
  2
*D24
 70
1
 10
0
 20
0
 30
0
  0
LINE
  8
1
 62
2
 10
3495.65888362967
 20
365.4128386997716
 30
0
 11
3520.65888362967
 21
365.4128386997716
 31
0
  0
LINE
  8
1
 62
2
 10
3495.65888362967
 20
382.9128386997716
 30
0
 11
3495.65888362967
 21
363.9128386997716
 31
0
  0
LINE
  8
1
 62
2
 10
3520.65888362967
 20
374.9128386997716
 30
0
 11
3520.65888362967
 21
363.9128386997716
 31
0
  0
SOLID
  8
1
 62
2
 10
3520.65888362967
 20
365.4128386997716
 30
0
 11
3517.45888362967
 21
364.9968386997716
 31
0
 12
3517.45888362967
 22
365.8288386997716
 32
0
 13
3517.45888362967
 23
365.8288386997716
 33
0
  0
SOLID
  8
1
 62
2
 10
3495.65888362967
 20
365.4128386997716
 30
0
 11
3498.85888362967
 21
365.8288386997716
 31
0
 12
3498.85888362967
 22
364.9968386997716
 32
0
 13
3498.85888362967
 23
364.9968386997716
 33
0
  0
TEXT
  8
1
 62
2
 10
3502.883071066998
 20
367.4128386997716
 30
0
 40
3.2
  1
25
 41
0.9
  0
TEXT
  8
1
 62
2
 10
3509.283071066998
 20
368.0528386997716
 30
0
 40
1.92
  1
%%p0.5
 41
0.9
  0
ENDBLK
  8
0
  0
BLOCK
  8
1
  2
*D25
 70
1
 10
0
 20
0
 30
0
  0
LINE
  8
1
 62
2
 10
3479.272591353806
 20
365.4128386997716
 30
0
 11
3495.65888362967
 21
365.4128386997716
 31
0
  0
LINE
  8
1
 62
2
 10
3479.272591353806
 20
377.5503386997715
 30
0
 11
3479.272591353806
 21
363.9128386997716
 31
0
  0
LINE
  8
1
 62
2
 10
3495.65888362967
 20
382.9128386997716
 30
0
 11
3495.65888362967
 21
363.9128386997716
 31
0
  0
SOLID
  8
1
 62
2
 10
3495.65888362967
 20
365.4128386997716
 30
0
 11
3492.45888362967
 21
364.9968386997716
 31
0
 12
3492.45888362967
 22
365.8288386997716
 32
0
 13
3492.45888362967
 23
365.8288386997716
 33
0
  0
SOLID
  8
1
 62
2
 10
3479.272591353806
 20
365.4128386997716
 30
0
 11
3482.472591353806
 21
365.8288386997716
 31
0
 12
3482.472591353806
 22
364.9968386997716
 32
0
 13
3482.472591353806
 23
364.9968386997716
 33
0
  0
TEXT
  8
1
 62
2
 10
3484.29888362967
 20
367.4128386997716
 30
0
 40
3.2
  1
(17)
 41
0.9
  0
ENDBLK
  8
0
  0
BLOCK
  8
1
  2
*D26
 70
1
 10
0
 20
0
 30
0
  0
LINE
  8
1
 62
2
 10
3511.25888362967
 20
410.3139723966315
 30
0
 11
3517.65888362967
 21
410.3139723966315
 31
0
  0
LINE
  8
1
 62
2
 10
3517.65888362967
 20
410.3139723966315
 30
0
 11
3520.65888362967
 21
410.3139723966315
 31
0
  0
LINE
  8
1
 62
2
 10
3520.65888362967
 20
410.3139723966315
 30
0
 11
3532.075068108471
 21
410.3139723966315
 31
0
  0
LINE
  8
1
 62
2
 10
3517.65888362967
 20
418.7128386997716
 30
0
 11
3517.65888362967
 21
408.8139723966315
 31
0
  0
LINE
  8
1
 62
2
 10
3520.65888362967
 20
418.7128386997716
 30
0
 11
3520.65888362967
 21
408.8139723966315
 31
0
  0
SOLID
  8
1
 62
2
 10
3517.65888362967
 20
410.3139723966315
 30
0
 11
3514.45888362967
 21
409.8979723966315
 31
0
 12
3514.45888362967
 22
410.7299723966315
 32
0
 13
3514.45888362967
 23
410.7299723966315
 33
0
  0
SOLID
  8
1
 62
2
 10
3520.65888362967
 20
410.3139723966315
 30
0
 11
3523.85888362967
 21
410.7299723966315
 31
0
 12
3523.85888362967
 22
409.8979723966315
 32
0
 13
3523.85888362967
 23
409.8979723966315
 33
0
  0
TEXT
  8
1
 62
2
 10
3523.179068108471
 20
412.3139723966315
 30
0
 40
3.2
  1
3
 41
0.9
  0
TEXT
  8
1
 62
2
 10
3526.699068108471
 20
412.9539723966315
 30
0
 40
1.92
  1
%%p0.5
 41
0.9
  0
ENDBLK
  8
0
  0
BLOCK
  8
1
  2
*D27
 70
1
 10
0
 20
0
 30
0
  0
LINE
  8
1
 62
2
 10
3445.089840901992
 20
377.5367139573786
 30
0
 11
3436.564934971032
 21
363.1646618094672
 31
0
  0
LINE
  8
1
 62
2
 10
3436.564934971032
 20
363.1646618094672
 30
0
 11
3421.880490526588
 21
363.1646618094672
 31
0
  0
SOLID
  8
1
 62
2
 10
3445.089840901992
 20
377.5367139573786
 30
0
 11
3443.815112960411
 21
374.5722368238943
 31
0
 12
3443.099528094367
 22
374.9966921212914
 32
0
 13
3443.099528094367
 23
374.9966921212914
 33
0
  0
TEXT
  8
1
 62
2
 10
3425.646242160575
 20
365.5913284761339
 30
0
 40
3.2
  1
3.2
 41
0.9
  0
TEXT
  8
1
 62
2
 10
3421.599183337045
 20
365.5913284761339
 30
0
 40
3.2
  1
âË
 41
0.9
  0
ENDBLK
  8
0
  0
BLOCK
  8
1
  2
*D28
 70
1
 10
0
 20
0
 30
0
  0
LINE
  8
1
 62
2
 10
3379.116915180086
 20
430.3046668503372
 30
0
 11
3371.348323311517
 21
444.0055511752752
 31
0
  0
LINE
  8
1
 62
2
 10
3371.348323311517
 20
444.0055511752752
 30
0
 11
3356.663878867072
 21
444.0055511752752
 31
0
  0
SOLID
  8
1
 62
2
 10
3379.116915180086
 20
430.3046668503372
 30
0
 11
3377.176668042523
 21
432.8831348150747
 31
0
 12
3377.900418680817
 22
433.2935114878629
 32
0
 13
3377.900418680817
 23
433.2935114878629
 33
0
  0
TEXT
  8
1
 62
2
 10
3360.308323311516
 20
446.0055511752752
 30
0
 40
3.2
  1
3.2
 41
0.9
  0
TEXT
  8
1
 62
2
 10
3356.663878867072
 20
446.0055511752752
 30
0
 40
3.2
  1
âË
 41
0.9
  0
ENDBLK
  8
0
  0
BLOCK
  8
1
  2
*D29
 70
1
 10
0
 20
0
 30
0
  0
LINE
  8
1
 62
2
 10
3496.150593244236
 20
420.3299560749185
 30
0
 11
3504.329864513703
 21
443.9027866412434
 31
0
  0
LINE
  8
1
 62
2
 10
3504.329864513703
 20
443.9027866412434
 30
0
 11
3530.089864513703
 21
443.9027866412434
 31
0
  0
SOLID
  8
1
 62
2
 10
3496.150593244236
 20
420.3299560749185
 30
0
 11
3496.806559869936
 21
423.4895072750049
 31
0
 12
3497.592587640685
 22
423.2167723421255
 32
0
 13
3497.592587640685
 23
423.2167723421255
 33
0
  0
TEXT
  8
1
 62
2
 10
3509.529864513703
 20
445.9027866412434
 30
0
 40
3.2
  1
2-M3X0.5
 41
0.9
  0
ENDBLK
  8
0
  0
ENDSEC
  0
SECTION
  2
ENTITIES
  0
INSERT
  8
1
  2
*X0
 10
0
 20
0
 30
0
  0
INSERT
  8
1
  2
*X1
 10
0
 20
0
 30
0
  0
INSERT
  8
1
  2
*X2
 10
0
 20
0
 30
0
  0
SOLID
  8
1
 62
2
 10
3412.024038456963
 20
381.1555867600897
 30
0
 11
3412.024038456963
 21
380.2555867600896
 31
0
 12
3411.124038456963
 22
381.1555867600897
 32
0
 13
3411.124038456963
 23
380.2555867600896
 33
0
  0
SOLID
  8
1
 62
2
 10
3413.167038456964
 20
381.1555867600897
 30
0
 11
3413.167038456964
 21
380.2555867600896
 31
0
 12
3412.267038456963
 22
381.1555867600897
 32
0
 13
3412.267038456963
 23
380.2555867600896
 33
0
  0
SOLID
  8
1
 62
2
 10
3414.310038456964
 20
381.1555867600897
 30
0
 11
3414.310038456964
 21
380.2555867600896
 31
0
 12
3413.410038456963
 22
381.1555867600897
 32
0
 13
3413.410038456963
 23
380.2555867600896
 33
0
  0
SOLID
  8
1
 62
2
 10
3415.453038456964
 20
381.1555867600897
 30
0
 11
3415.453038456964
 21
380.2555867600896
 31
0
 12
3414.553038456963
 22
381.1555867600897
 32
0
 13
3414.553038456963
 23
380.2555867600896
 33
0
  0
POINT
  8
1
 62
4
  6
DIVIDE
 10
3424.358762807458
 20
379.5995835887023
 30
0
  0
POINT
  8
1
 62
4
  6
DIVIDE
 10
3424.358761807457
 20
379.5995835887023
 30
0
  0
POINT
  8
1
 62
4
  6
DIVIDE
 10
3426.858762807458
 20
379.5995835887023
 30
0
  0
POINT
  8
1
 62
4
  6
DIVIDE
 10
3426.858761807457
 20
379.5995835887023
 30
0
  0
POINT
  8
1
 62
4
  6
DIVIDE
 10
3436.858761807457
 20
379.5995835887023
 30
0
  0
POINT
  8
1
 62
4
  6
DIVIDE
 10
3434.358761807457
 20
379.5995835887023
 30
0
  0
POINT
  8
1
 62
4
  6
DIVIDE
 10
3429.358762807458
 20
379.5995835887023
 30
0
  0
POINT
  8
1
 62
4
  6
DIVIDE
 10
3434.358761807457
 20
379.5995835887023
 30
0
  0
POINT
  8
1
 62
4
  6
DIVIDE
 10
3429.358761807457
 20
379.5995835887023
 30
0
  0
POINT
  8
1
 62
4
  6
DIVIDE
 10
3431.858761807457
 20
379.5995835887023
 30
0
  0
POINT
  8
1
 62
4
  6
DIVIDE
 10
3431.858761807457
 20
379.5995835887023
 30
0
  0
POINT
  8
1
 62
4
  6
DIVIDE
 10
3431.854123831288
 20
379.5995835887016
 30
0
  0
POINT
  8
1
 62
4
  6
DIVIDE
 10
3431.854123831288
 20
379.5995835887016
 30
0
  0
POINT
  8
1
 62
4
  6
DIVIDE
 10
3429.354123831288
 20
379.5995835887016
 30
0
  0
POINT
  8
1
 62
4
  6
DIVIDE
 10
3434.354123831288
 20
379.5995835887016
 30
0
  0
POINT
  8
1
 62
4
  6
DIVIDE
 10
3429.354124831288
 20
379.5995835887016
 30
0
  0
POINT
  8
1
 62
4
  6
DIVIDE
 10
3434.354123831288
 20
379.5995835887016
 30
0
  0
POINT
  8
1
 62
4
  6
DIVIDE
 10
3436.854123831288
 20
379.5995835887016
 30
0
  0
POINT
  8
1
 62
4
  6
DIVIDE
 10
3426.854123831288
 20
379.5995835887016
 30
0
  0
POINT
  8
1
 62
4
  6
DIVIDE
 10
3426.854124831288
 20
379.5995835887016
 30
0
  0
POINT
  8
1
 62
4
  6
DIVIDE
 10
3424.354123831288
 20
379.5995835887016
 30
0
  0
POINT
  8
1
 62
4
  6
DIVIDE
 10
3424.354124831288
 20
379.5995835887016
 30
0
  0
LINE
  8
1
 62
2
 10
3280.301383149255
 20
474.067250645976
 30
0
 11
3310.040846104547
 21
474.067250645976
 31
0
  0
LINE
  8
1
 62
2
 10
3310.040846104547
 20
509.067250645976
 30
0
 11
3310.040846104547
 21
459.067250645976
 31
0
  0
LINE
  8
1
 62
2
 10
3296.315333496279
 20
509.067250645976
 30
0
 11
3296.315333496279
 21
459.067250645976
 31
0
  0
LINE
  8
1
 62
2
 10
3280.301383149255
 20
509.067250645976
 30
0
 11
3293.929067554546
 21
509.067250645976
 31
0
  0
LINE
  8
1
 62
2
 10
3280.301383149255
 20
504.067250645976
 30
0
 11
3310.040846104547
 21
504.067250645976
 31
0
  0
LINE
  8
1
 62
2
 10
3280.301383149255
 20
499.067250645976
 30
0
 11
3310.040846104547
 21
499.067250645976
 31
0
  0
LINE
  8
1
 62
2
 10
3280.301383149255
 20
494.067250645976
 30
0
 11
3310.040846104547
 21
494.067250645976
 31
0
  0
LINE
  8
1
 62
2
 10
3280.301383149255
 20
489.067250645976
 30
0
 11
3310.040846104547
 21
489.067250645976
 31
0
  0
LINE
  8
1
 62
2
 10
3280.301383149255
 20
484.067250645976
 30
0
 11
3310.040846104547
 21
484.067250645976
 31
0
  0
LINE
  8
1
 62
2
 10
3280.301383149255
 20
479.067250645976
 30
0
 11
3310.040846104547
 21
479.067250645976
 31
0
  0
LINE
  8
1
 62
2
 10
3293.929067554546
 20
509.067250645976
 30
0
 11
3310.040846104547
 21
509.067250645976
 31
0
  0
LINE
  8
1
 62
2
 10
3267.033741045173
 20
473.4335039388909
 30
0
 11
3267.033741045173
 21
474.4335039388909
 31
0
  0
LINE
  8
1
 62
2
 10
3267.033741045173
 20
474.4335039388909
 30
0
 11
3268.033741045173
 21
474.4335039388909
 31
0
  0
LINE
  8
1
 62
2
 10
3268.033741045173
 20
474.4335039388909
 30
0
 11
3268.033741045173
 21
473.4335039388909
 31
0
  0
LINE
  8
1
 62
2
 10
3268.033741045173
 20
473.4335039388909
 30
0
 11
3267.033741045173
 21
473.4335039388909
 31
0
  0
LINE
  8
1
 62
2
 10
3268.533741045173
 20
474.9335039388909
 30
0
 11
3268.533741045173
 21
472.9335039388909
 31
0
  0
LINE
  8
1
 62
2
 10
3268.533741045173
 20
472.9335039388909
 30
0
 11
3266.533741045173
 21
472.9335039388909
 31
0
  0
LINE
  8
1
 62
2
 10
3266.533741045173
 20
472.9335039388909
 30
0
 11
3266.533741045173
 21
474.9335039388909
 31
0
  0
LINE
  8
1
 62
2
 10
3266.533741045173
 20
474.9335039388909
 30
0
 11
3268.533741045173
 21
474.9335039388909
 31
0
  0
LINE
  8
1
 62
2
 10
3268.533741045173
 20
474.9335039388909
 30
0
 11
3268.033741045173
 21
474.4335039388909
 31
0
  0
LINE
  8
1
 62
2
 10
3268.033741045173
 20
473.4335039388909
 30
0
 11
3268.533741045173
 21
472.9335039388909
 31
0
  0
LINE
  8
1
 62
2
 10
3267.033741045173
 20
473.4335039388909
 30
0
 11
3266.533741045173
 21
472.9335039388909
 31
0
  0
LINE
  8
1
 62
2
 10
3267.033741045173
 20
474.4335039388909
 30
0
 11
3266.533741045173
 21
474.9335039388909
 31
0
  0
LINE
  8
1
 62
2
 10
3267.033741045173
 20
475.9335039388909
 30
0
 11
3267.033741045173
 21
476.9335039388909
 31
0
  0
LINE
  8
1
 62
2
 10
3267.033741045173
 20
476.9335039388909
 30
0
 11
3268.033741045173
 21
476.9335039388909
 31
0
  0
LINE
  8
1
 62
2
 10
3268.033741045173
 20
476.9335039388909
 30
0
 11
3268.033741045173
 21
475.9335039388909
 31
0
  0
LINE
  8
1
 62
2
 10
3268.033741045173
 20
475.9335039388909
 30
0
 11
3267.033741045173
 21
475.9335039388909
 31
0
  0
LINE
  8
1
 62
2
 10
3268.533741045173
 20
477.4335039388909
 30
0
 11
3268.533741045173
 21
475.4335039388909
 31
0
  0
LINE
  8
1
 62
2
 10
3268.533741045173
 20
475.4335039388909
 30
0
 11
3266.533741045173
 21
475.4335039388909
 31
0
  0
LINE
  8
1
 62
2
 10
3266.533741045173
 20
475.4335039388909
 30
0
 11
3266.533741045173
 21
477.4335039388909
 31
0
  0
LINE
  8
1
 62
2
 10
3266.533741045173
 20
477.4335039388909
 30
0
 11
3268.533741045173
 21
477.4335039388909
 31
0
  0
LINE
  8
1
 62
2
 10
3268.533741045173
 20
477.4335039388909
 30
0
 11
3268.033741045173
 21
476.9335039388909
 31
0
  0
LINE
  8
1
 62
2
 10
3268.033741045173
 20
475.9335039388909
 30
0
 11
3268.533741045173
 21
475.4335039388909
 31
0
  0
LINE
  8
1
 62
2
 10
3267.033741045173
 20
475.9335039388909
 30
0
 11
3266.533741045173
 21
475.4335039388909
 31
0
  0
LINE
  8
1
 62
2
 10
3267.033741045173
 20
476.9335039388909
 30
0
 11
3266.533741045173
 21
477.4335039388909
 31
0
  0
LINE
  8
1
 62
2
 10
3267.033741045173
 20
478.4335039388909
 30
0
 11
3267.033741045173
 21
479.4335039388909
 31
0
  0
LINE
  8
1
 62
2
 10
3267.033741045173
 20
479.4335039388909
 30
0
 11
3268.033741045173
 21
479.4335039388909
 31
0
  0
LINE
  8
1
 62
2
 10
3268.033741045173
 20
479.4335039388909
 30
0
 11
3268.033741045173
 21
478.4335039388909
 31
0
  0
LINE
  8
1
 62
2
 10
3268.033741045173
 20
478.4335039388909
 30
0
 11
3267.033741045173
 21
478.4335039388909
 31
0
  0
LINE
  8
1
 62
2
 10
3268.533741045173
 20
479.9335039388909
 30
0
 11
3268.533741045173
 21
477.9335039388909
 31
0
  0
LINE
  8
1
 62
2
 10
3268.533741045173
 20
477.9335039388909
 30
0
 11
3266.533741045173
 21
477.9335039388909
 31
0
  0
LINE
  8
1
 62
2
 10
3266.533741045173
 20
477.9335039388909
 30
0
 11
3266.533741045173
 21
479.9335039388909
 31
0
  0
LINE
  8
1
 62
2
 10
3266.533741045173
 20
479.9335039388909
 30
0
 11
3268.533741045173
 21
479.9335039388909
 31
0
  0
LINE
  8
1
 62
2
 10
3268.533741045173
 20
479.9335039388909
 30
0
 11
3268.033741045173
 21
479.4335039388909
 31
0
  0
LINE
  8
1
 62
2
 10
3268.033741045173
 20
478.4335039388909
 30
0
 11
3268.533741045173
 21
477.9335039388909
 31
0
  0
LINE
  8
1
 62
2
 10
3267.033741045173
 20
478.4335039388909
 30
0
 11
3266.533741045173
 21
477.9335039388909
 31
0
  0
LINE
  8
1
 62
2
 10
3267.033741045173
 20
479.4335039388909
 30
0
 11
3266.533741045173
 21
479.9335039388909
 31
0
  0
LINE
  8
1
 62
2
 10
3264.772845917778
 20
472.9335039388909
 30
0
 11
3264.772845917778
 21
469.9335039388909
 31
0
  0
LINE
  8
1
 62
2
 10
3264.772845917778
 20
492.9335039388909
 30
0
 11
3264.772845917778
 21
489.9335039388909
 31
0
  0
LINE
  8
1
 62
2
 10
3265.572845917778
 20
469.9335039388909
 30
0
 11
3264.772845917778
 21
469.9335039388909
 31
0
  0
LINE
  8
1
 62
2
 10
3265.572845917778
 20
472.9335039388909
 30
0
 11
3264.772845917778
 21
472.9335039388909
 31
0
  0
LINE
  8
1
 62
2
 10
3265.572845917778
 20
489.9335039388909
 30
0
 11
3264.772845917778
 21
489.9335039388909
 31
0
  0
LINE
  8
1
 62
2
 10
3265.572845917778
 20
492.9335039388909
 30
0
 11
3264.772845917778
 21
492.9335039388909
 31
0
  0
LINE
  8
1
 62
2
 10
3215.35734318827
 20
470.7335039388905
 30
0
 11
3178.030638673828
 21
470.7335039388905
 31
0
  0
LINE
  8
1
 62
2
 10
3215.356797371108
 20
472.1335039388905
 30
0
 11
3178.030638673828
 21
472.1335039388905
 31
0
  0
LINE
  8
1
 62
2
 10
3215.37337901969
 20
473.2335039388904
 30
0
 11
3178.030638673828
 21
473.2335039388906
 31
0
  0
LINE
  8
1
 62
2
 10
3215.433304059663
 20
474.6335039388905
 30
0
 11
3178.030638673828
 21
474.6335039388905
 31
0
  0
LINE
  8
1
 62
2
 10
3215.549018084153
 20
475.7335039388909
 30
0
 11
3178.030638673828
 21
475.7335039388909
 31
0
  0
LINE
  8
1
 62
2
 10
3215.884971751234
 20
477.1335039388905
 30
0
 11
3178.030638673828
 21
477.1335039388907
 31
0
  0
LINE
  8
1
 62
2
 10
3178.030638673828
 20
472.1335039388905
 30
0
 11
3178.030638673828
 21
470.7335039388905
 31
0
  0
LINE
  8
1
 62
2
 10
3178.030638673828
 20
471.7835039388905
 30
0
 11
3168.030638673828
 21
471.7835039388905
 31
0
  0
LINE
  8
1
 62
2
 10
3168.030638673828
 20
471.7835039388905
 30
0
 11
3168.030638673828
 21
471.0835039388907
 31
0
  0
LINE
  8
1
 62
2
 10
3168.030638673828
 20
471.0835039388907
 30
0
 11
3178.030638673828
 21
471.0835039388907
 31
0
  0
LINE
  8
1
 62
2
 10
3245.43821731753
 20
472.1335039388905
 30
0
 11
3217.322174118711
 21
472.1335039388905
 31
0
  0
LINE
  8
1
 62
2
 10
3245.43821731753
 20
470.7335039388905
 30
0
 11
3217.271914710693
 21
470.7335039388905
 31
0
  0
LINE
  8
1
 62
3
 10
3245.43821731753
 20
470.8458478356258
 30
0
 11
3245.43821731753
 21
471.9609774132075
 31
0
  0
LINE
  8
1
 62
3
 10
3245.43821731753
 20
470.8458478356258
 30
0
 11
3245.43821731753
 21
471.9609774132075
 31
0
  0
LINE
  8
1
 62
2
 10
3178.030638673828
 20
474.6335039388905
 30
0
 11
3178.030638673828
 21
473.2335039388906
 31
0
  0
LINE
  8
1
 62
2
 10
3178.030638673828
 20
474.2835039388906
 30
0
 11
3168.030638673828
 21
474.2835039388906
 31
0
  0
LINE
  8
1
 62
2
 10
3168.030638673828
 20
474.2835039388906
 30
0
 11
3168.030638673828
 21
473.5835039388908
 31
0
  0
LINE
  8
1
 62
2
 10
3168.030638673828
 20
473.5835039388908
 30
0
 11
3178.030638673828
 21
473.5835039388908
 31
0
  0
LINE
  8
1
 62
2
 10
3245.43821731753
 20
474.6335039388905
 30
0
 11
3217.460006727794
 21
474.6335039388904
 31
0
  0
LINE
  8
1
 62
2
 10
3245.43821731753
 20
473.2335039388906
 30
0
 11
3217.372489558693
 21
473.2335039388907
 31
0
  0
LINE
  8
1
 62
3
 10
3245.43821731753
 20
473.3458478356259
 30
0
 11
3245.43821731753
 21
474.4609774132077
 31
0
  0
LINE
  8
1
 62
3
 10
3245.43821731753
 20
473.3458478356259
 30
0
 11
3245.43821731753
 21
474.4609774132077
 31
0
  0
LINE
  8
1
 62
2
 10
3178.030638673828
 20
477.1335039388907
 30
0
 11
3178.030638673828
 21
475.7335039388909
 31
0
  0
LINE
  8
1
 62
2
 10
3178.030638673828
 20
476.7835039388906
 30
0
 11
3168.030638673828
 21
476.7835039388906
 31
0
  0
LINE
  8
1
 62
2
 10
3168.030638673828
 20
476.7835039388906
 30
0
 11
3168.030638673828
 21
476.0835039388908
 31
0
  0
LINE
  8
1
 62
2
 10
3168.030638673828
 20
476.0835039388908
 30
0
 11
3178.030638673828
 21
476.0835039388908
 31
0
  0
LINE
  8
1
 62
2
 10
3245.43821731753
 20
477.1335039388907
 30
0
 11
3217.870778946619
 21
477.1335039388907
 31
0
  0
LINE
  8
1
 62
2
 10
3245.43821731753
 20
475.7335039388909
 30
0
 11
3217.566892480914
 21
475.7335039388908
 31
0
  0
LINE
  8
1
 62
3
 10
3245.43821731753
 20
475.8458478356262
 30
0
 11
3245.43821731753
 21
476.9609774132077
 31
0
  0
LINE
  8
1
 62
3
 10
3245.43821731753
 20
475.8458478356262
 30
0
 11
3245.43821731753
 21
476.9609774132077
 31
0
  0
LINE
  8
1
 62
3
 10
3264.122845917778
 20
484.8835039388908
 30
0
 11
3264.122845917778
 21
486.8835039388908
 31
0
  0
LINE
  8
1
 62
3
 10
3265.572845917778
 20
484.8835039388908
 30
0
 11
3264.122845917778
 21
484.8835039388908
 31
0
  0
LINE
  8
1
 62
3
 10
3265.572845917778
 20
486.8835039388908
 30
0
 11
3264.122845917778
 21
486.8835039388908
 31
0
  0
LINE
  8
1
 62
3
 10
3264.122845917778
 20
475.983503938891
 30
0
 11
3264.122845917778
 21
477.9835039388909
 31
0
  0
LINE
  8
1
 62
3
 10
3265.572845917778
 20
477.9835039388909
 30
0
 11
3264.122845917778
 21
477.9835039388909
 31
0
  0
LINE
  8
1
 62
3
 10
3265.572845917778
 20
475.9835039388909
 30
0
 11
3264.122845917778
 21
475.983503938891
 31
0
  0
LINE
  8
1
 62
3
 10
3266.072845917778
 20
469.9335039388909
 30
0
 11
3266.072845917778
 21
492.9335039388909
 31
0
  0
LINE
  8
1
 62
3
 10
3266.072845917778
 20
492.9335039388909
 30
0
 11
3270.572845917778
 21
492.9335039388909
 31
0
  0
LINE
  8
1
 62
3
 10
3270.572845917778
 20
492.9335039388909
 30
0
 11
3270.572845917778
 21
469.9335039388909
 31
0
  0
LINE
  8
1
 62
3
 10
3270.572845917778
 20
469.9335039388909
 30
0
 11
3266.072845917778
 21
469.9335039388909
 31
0
  0
LINE
  8
1
 62
3
 10
3266.072845917778
 20
469.9335039388909
 30
0
 11
3265.572845917778
 21
469.9335039388909
 31
0
  0
LINE
  8
1
 62
3
 10
3265.572845917778
 20
469.9335039388909
 30
0
 11
3265.572845917778
 21
492.9335039388909
 31
0
  0
LINE
  8
1
 62
2
 10
3267.033741045173
 20
470.9335039388909
 30
0
 11
3267.033741045173
 21
471.9335039388909
 31
0
  0
LINE
  8
1
 62
2
 10
3267.033741045173
 20
471.9335039388909
 30
0
 11
3268.033741045173
 21
471.9335039388909
 31
0
  0
LINE
  8
1
 62
2
 10
3268.033741045173
 20
471.9335039388909
 30
0
 11
3268.033741045173
 21
470.9335039388909
 31
0
  0
LINE
  8
1
 62
2
 10
3268.033741045173
 20
470.9335039388909
 30
0
 11
3267.033741045173
 21
470.9335039388909
 31
0
  0
LINE
  8
1
 62
2
 10
3268.533741045173
 20
472.4335039388909
 30
0
 11
3268.533741045173
 21
470.4335039388909
 31
0
  0
LINE
  8
1
 62
2
 10
3268.533741045173
 20
470.4335039388909
 30
0
 11
3266.533741045173
 21
470.4335039388909
 31
0
  0
LINE
  8
1
 62
2
 10
3266.533741045173
 20
470.4335039388909
 30
0
 11
3266.533741045173
 21
472.4335039388909
 31
0
  0
LINE
  8
1
 62
2
 10
3266.533741045173
 20
472.4335039388909
 30
0
 11
3268.533741045173
 21
472.4335039388909
 31
0
  0
LINE
  8
1
 62
2
 10
3268.533741045173
 20
472.4335039388909
 30
0
 11
3268.033741045173
 21
471.9335039388909
 31
0
  0
LINE
  8
1
 62
2
 10
3268.033741045173
 20
470.9335039388909
 30
0
 11
3268.533741045173
 21
470.4335039388909
 31
0
  0
LINE
  8
1
 62
2
 10
3267.033741045173
 20
470.9335039388909
 30
0
 11
3266.533741045173
 21
470.4335039388909
 31
0
  0
LINE
  8
1
 62
2
 10
3267.033741045173
 20
471.9335039388909
 30
0
 11
3266.533741045173
 21
472.4335039388909
 31
0
  0
LINE
  8
1
 62
2
 10
3267.033741045173
 20
480.9335039388909
 30
0
 11
3267.033741045173
 21
481.9335039388909
 31
0
  0
LINE
  8
1
 62
2
 10
3267.033741045173
 20
481.9335039388909
 30
0
 11
3268.033741045173
 21
481.9335039388909
 31
0
  0
LINE
  8
1
 62
2
 10
3268.033741045173
 20
481.9335039388909
 30
0
 11
3268.033741045173
 21
480.9335039388909
 31
0
  0
LINE
  8
1
 62
2
 10
3268.033741045173
 20
480.9335039388909
 30
0
 11
3267.033741045173
 21
480.9335039388909
 31
0
  0
LINE
  8
1
 62
2
 10
3268.533741045173
 20
482.4335039388909
 30
0
 11
3268.533741045173
 21
480.4335039388909
 31
0
  0
LINE
  8
1
 62
2
 10
3268.533741045173
 20
480.4335039388909
 30
0
 11
3266.533741045173
 21
480.4335039388909
 31
0
  0
LINE
  8
1
 62
2
 10
3266.533741045173
 20
480.4335039388909
 30
0
 11
3266.533741045173
 21
482.4335039388909
 31
0
  0
LINE
  8
1
 62
2
 10
3266.533741045173
 20
482.4335039388909
 30
0
 11
3268.533741045173
 21
482.4335039388909
 31
0
  0
LINE
  8
1
 62
2
 10
3268.533741045173
 20
482.4335039388909
 30
0
 11
3268.033741045173
 21
481.9335039388909
 31
0
  0
LINE
  8
1
 62
2
 10
3268.033741045173
 20
480.9335039388909
 30
0
 11
3268.533741045173
 21
480.4335039388909
 31
0
  0
LINE
  8
1
 62
2
 10
3267.033741045173
 20
480.9335039388909
 30
0
 11
3266.533741045173
 21
480.4335039388909
 31
0
  0
LINE
  8
1
 62
2
 10
3267.033741045173
 20
481.9335039388909
 30
0
 11
3266.533741045173
 21
482.4335039388909
 31
0
  0
LINE
  8
1
 62
2
 10
3267.033741045173
 20
483.4335039388909
 30
0
 11
3267.033741045173
 21
484.4335039388909
 31
0
  0
LINE
  8
1
 62
2
 10
3267.033741045173
 20
484.4335039388909
 30
0
 11
3268.033741045173
 21
484.4335039388909
 31
0
  0
LINE
  8
1
 62
2
 10
3268.033741045173
 20
484.4335039388909
 30
0
 11
3268.033741045173
 21
483.4335039388909
 31
0
  0
LINE
  8
1
 62
2
 10
3268.033741045173
 20
483.4335039388909
 30
0
 11
3267.033741045173
 21
483.4335039388909
 31
0
  0
LINE
  8
1
 62
2
 10
3268.533741045173
 20
484.9335039388909
 30
0
 11
3268.533741045173
 21
482.9335039388909
 31
0
  0
LINE
  8
1
 62
2
 10
3268.533741045173
 20
482.9335039388909
 30
0
 11
3266.533741045173
 21
482.9335039388909
 31
0
  0
LINE
  8
1
 62
2
 10
3266.533741045173
 20
482.9335039388909
 30
0
 11
3266.533741045173
 21
484.9335039388909
 31
0
  0
LINE
  8
1
 62
2
 10
3266.533741045173
 20
484.9335039388909
 30
0
 11
3268.533741045173
 21
484.9335039388909
 31
0
  0
LINE
  8
1
 62
2
 10
3268.533741045173
 20
484.9335039388909
 30
0
 11
3268.033741045173
 21
484.4335039388909
 31
0
  0
LINE
  8
1
 62
2
 10
3268.033741045173
 20
483.4335039388909
 30
0
 11
3268.533741045173
 21
482.9335039388909
 31
0
  0
LINE
  8
1
 62
2
 10
3267.033741045173
 20
483.4335039388909
 30
0
 11
3266.533741045173
 21
482.9335039388909
 31
0
  0
LINE
  8
1
 62
2
 10
3267.033741045173
 20
484.4335039388909
 30
0
 11
3266.533741045173
 21
484.9335039388909
 31
0
  0
LINE
  8
1
 62
2
 10
3267.033741045173
 20
485.9335039388909
 30
0
 11
3267.033741045173
 21
486.9335039388909
 31
0
  0
LINE
  8
1
 62
2
 10
3267.033741045173
 20
486.9335039388909
 30
0
 11
3268.033741045173
 21
486.9335039388909
 31
0
  0
LINE
  8
1
 62
2
 10
3268.033741045173
 20
486.9335039388909
 30
0
 11
3268.033741045173
 21
485.9335039388909
 31
0
  0
LINE
  8
1
 62
2
 10
3268.033741045173
 20
485.9335039388909
 30
0
 11
3267.033741045173
 21
485.9335039388909
 31
0
  0
LINE
  8
1
 62
2
 10
3268.533741045173
 20
487.4335039388909
 30
0
 11
3268.533741045173
 21
485.4335039388909
 31
0
  0
LINE
  8
1
 62
2
 10
3268.533741045173
 20
485.4335039388909
 30
0
 11
3266.533741045173
 21
485.4335039388909
 31
0
  0
LINE
  8
1
 62
2
 10
3266.533741045173
 20
485.4335039388909
 30
0
 11
3266.533741045173
 21
487.4335039388909
 31
0
  0
LINE
  8
1
 62
2
 10
3266.533741045173
 20
487.4335039388909
 30
0
 11
3268.533741045173
 21
487.4335039388909
 31
0
  0
LINE
  8
1
 62
2
 10
3268.533741045173
 20
487.4335039388909
 30
0
 11
3268.033741045173
 21
486.9335039388909
 31
0
  0
LINE
  8
1
 62
2
 10
3268.033741045173
 20
485.9335039388909
 30
0
 11
3268.533741045173
 21
485.4335039388909
 31
0
  0
LINE
  8
1
 62
2
 10
3267.033741045173
 20
485.9335039388909
 30
0
 11
3266.533741045173
 21
485.4335039388909
 31
0
  0
LINE
  8
1
 62
2
 10
3267.033741045173
 20
486.9335039388909
 30
0
 11
3266.533741045173
 21
487.4335039388909
 31
0
  0
LINE
  8
1
 62
2
 10
3267.033741045173
 20
488.4335039388909
 30
0
 11
3267.033741045173
 21
489.4335039388909
 31
0
  0
LINE
  8
1
 62
2
 10
3267.033741045173
 20
489.4335039388909
 30
0
 11
3268.033741045173
 21
489.4335039388909
 31
0
  0
LINE
  8
1
 62
2
 10
3268.033741045173
 20
489.4335039388909
 30
0
 11
3268.033741045173
 21
488.4335039388909
 31
0
  0
LINE
  8
1
 62
2
 10
3268.033741045173
 20
488.4335039388909
 30
0
 11
3267.033741045173
 21
488.4335039388909
 31
0
  0
LINE
  8
1
 62
2
 10
3268.533741045173
 20
489.9335039388909
 30
0
 11
3268.533741045173
 21
487.9335039388909
 31
0
  0
LINE
  8
1
 62
2
 10
3268.533741045173
 20
487.9335039388909
 30
0
 11
3266.533741045173
 21
487.9335039388909
 31
0
  0
LINE
  8
1
 62
2
 10
3266.533741045173
 20
487.9335039388909
 30
0
 11
3266.533741045173
 21
489.9335039388909
 31
0
  0
LINE
  8
1
 62
2
 10
3266.533741045173
 20
489.9335039388909
 30
0
 11
3268.533741045173
 21
489.9335039388909
 31
0
  0
LINE
  8
1
 62
2
 10
3268.533741045173
 20
489.9335039388909
 30
0
 11
3268.033741045173
 21
489.4335039388909
 31
0
  0
LINE
  8
1
 62
2
 10
3268.033741045173
 20
488.4335039388909
 30
0
 11
3268.533741045173
 21
487.9335039388909
 31
0
  0
LINE
  8
1
 62
2
 10
3267.033741045173
 20
488.4335039388909
 30
0
 11
3266.533741045173
 21
487.9335039388909
 31
0
  0
LINE
  8
1
 62
2
 10
3267.033741045173
 20
489.4335039388909
 30
0
 11
3266.533741045173
 21
489.9335039388909
 31
0
  0
LINE
  8
1
 62
2
 10
3267.033741045173
 20
490.9335039388909
 30
0
 11
3267.033741045173
 21
491.9335039388909
 31
0
  0
LINE
  8
1
 62
2
 10
3267.033741045173
 20
491.9335039388909
 30
0
 11
3268.033741045173
 21
491.9335039388909
 31
0
  0
LINE
  8
1
 62
2
 10
3268.033741045173
 20
491.9335039388909
 30
0
 11
3268.033741045173
 21
490.9335039388909
 31
0
  0
LINE
  8
1
 62
2
 10
3268.033741045173
 20
490.9335039388909
 30
0
 11
3267.033741045173
 21
490.9335039388909
 31
0
  0
LINE
  8
1
 62
2
 10
3268.533741045173
 20
492.4335039388909
 30
0
 11
3268.533741045173
 21
490.4335039388909
 31
0
  0
LINE
  8
1
 62
2
 10
3268.533741045173
 20
490.4335039388909
 30
0
 11
3266.533741045173
 21
490.4335039388909
 31
0
  0
LINE
  8
1
 62
2
 10
3266.533741045173
 20
490.4335039388909
 30
0
 11
3266.533741045173
 21
492.4335039388909
 31
0
  0
LINE
  8
1
 62
2
 10
3266.533741045173
 20
492.4335039388909
 30
0
 11
3268.533741045173
 21
492.4335039388909
 31
0
  0
LINE
  8
1
 62
2
 10
3268.533741045173
 20
492.4335039388909
 30
0
 11
3268.033741045173
 21
491.9335039388909
 31
0
  0
LINE
  8
1
 62
2
 10
3268.033741045173
 20
490.9335039388909
 30
0
 11
3268.533741045173
 21
490.4335039388909
 31
0
  0
LINE
  8
1
 62
2
 10
3267.033741045173
 20
490.9335039388909
 30
0
 11
3266.533741045173
 21
490.4335039388909
 31
0
  0
LINE
  8
1
 62
2
 10
3267.033741045173
 20
491.9335039388909
 30
0
 11
3266.533741045173
 21
492.4335039388909
 31
0
  0
LINE
  8
1
 62
2
 10
3245.43821731753
 20
490.7335039388909
 30
0
 11
3219.751286704648
 21
490.7335039388909
 31
0
  0
LINE
  8
1
 62
2
 10
3245.43821731753
 20
492.1335039388908
 30
0
 11
3219.270062549697
 21
492.1335039388908
 31
0
  0
LINE
  8
1
 62
2
 10
3178.030638673828
 20
492.1335039388908
 30
0
 11
3178.030638673828
 21
490.7335039388909
 31
0
  0
LINE
  8
1
 62
2
 10
3178.030638673828
 20
491.7835039388909
 30
0
 11
3168.030638673828
 21
491.7835039388909
 31
0
  0
LINE
  8
1
 62
2
 10
3168.030638673828
 20
491.7835039388909
 30
0
 11
3168.030638673828
 21
491.083503938891
 31
0
  0
LINE
  8
1
 62
2
 10
3168.030638673828
 20
491.083503938891
 30
0
 11
3178.030638673828
 21
491.083503938891
 31
0
  0
LINE
  8
1
 62
2
 10
3178.030638673828
 20
489.6335039388908
 30
0
 11
3178.030638673828
 21
488.233503938891
 31
0
  0
LINE
  8
1
 62
2
 10
3178.030638673828
 20
489.2835039388909
 30
0
 11
3168.030638673828
 21
489.2835039388909
 31
0
  0
LINE
  8
1
 62
2
 10
3168.030638673828
 20
489.2835039388909
 30
0
 11
3168.030638673828
 21
488.583503938891
 31
0
  0
LINE
  8
1
 62
2
 10
3168.030638673828
 20
488.583503938891
 30
0
 11
3178.030638673828
 21
488.583503938891
 31
0
  0
LINE
  8
1
 62
2
 10
3178.030638673828
 20
487.1335039388908
 30
0
 11
3178.030638673828
 21
485.733503938891
 31
0
  0
LINE
  8
1
 62
2
 10
3178.030638673828
 20
486.7835039388908
 30
0
 11
3168.030638673828
 21
486.7835039388908
 31
0
  0
LINE
  8
1
 62
2
 10
3168.030638673828
 20
486.7835039388908
 30
0
 11
3168.030638673828
 21
486.083503938891
 31
0
  0
LINE
  8
1
 62
2
 10
3168.030638673828
 20
486.083503938891
 30
0
 11
3178.030638673828
 21
486.083503938891
 31
0
  0
LINE
  8
1
 62
2
 10
3178.030638673828
 20
484.6335039388908
 30
0
 11
3178.030638673828
 21
483.233503938891
 31
0
  0
LINE
  8
1
 62
2
 10
3178.030638673828
 20
484.2835039388908
 30
0
 11
3168.030638673828
 21
484.2835039388908
 31
0
  0
LINE
  8
1
 62
2
 10
3168.030638673828
 20
484.2835039388908
 30
0
 11
3168.030638673828
 21
483.583503938891
 31
0
  0
LINE
  8
1
 62
2
 10
3168.030638673828
 20
483.583503938891
 30
0
 11
3178.030638673828
 21
483.583503938891
 31
0
  0
LINE
  8
1
 62
2
 10
3178.030638673828
 20
482.1335039388908
 30
0
 11
3178.030638673828
 21
480.733503938891
 31
0
  0
LINE
  8
1
 62
2
 10
3178.030638673828
 20
481.7835039388908
 30
0
 11
3168.030638673828
 21
481.7835039388908
 31
0
  0
LINE
  8
1
 62
2
 10
3168.030638673828
 20
481.7835039388908
 30
0
 11
3168.030638673828
 21
481.083503938891
 31
0
  0
LINE
  8
1
 62
2
 10
3168.030638673828
 20
481.083503938891
 30
0
 11
3178.030638673828
 21
481.083503938891
 31
0
  0
LINE
  8
1
 62
2
 10
3178.030638673828
 20
479.6335039388907
 30
0
 11
3178.030638673828
 21
478.233503938891
 31
0
  0
LINE
  8
1
 62
2
 10
3178.030638673828
 20
479.2835039388908
 30
0
 11
3168.030638673828
 21
479.2835039388908
 31
0
  0
LINE
  8
1
 62
2
 10
3168.030638673828
 20
479.2835039388908
 30
0
 11
3168.030638673828
 21
478.583503938891
 31
0
  0
LINE
  8
1
 62
2
 10
3168.030638673828
 20
478.583503938891
 30
0
 11
3178.030638673828
 21
478.583503938891
 31
0
  0
LINE
  8
1
 62
2
 10
3245.43821731753
 20
489.6335039388908
 30
0
 11
3220.071973187605
 21
489.6335039388908
 31
0
  0
LINE
  8
1
 62
2
 10
3245.43821731753
 20
487.1335039388908
 30
0
 11
3220.523915453777
 21
487.1335039388908
 31
0
  0
LINE
  8
1
 62
2
 10
3245.43821731753
 20
484.6335039388908
 30
0
 11
3220.439966915838
 21
484.6335039388908
 31
0
  0
LINE
  8
1
 62
2
 10
3245.43821731753
 20
482.1335039388908
 30
0
 11
3219.735818236321
 21
482.1335039388908
 31
0
  0
LINE
  8
1
 62
2
 10
3245.43821731753
 20
479.6335039388907
 30
0
 11
3218.737651661858
 21
479.6335039388907
 31
0
  0
LINE
  8
1
 62
2
 10
3245.43821731753
 20
488.233503938891
 30
0
 11
3220.380064999093
 21
488.233503938891
 31
0
  0
LINE
  8
1
 62
2
 10
3245.43821731753
 20
485.733503938891
 30
0
 11
3220.554881093618
 21
485.733503938891
 31
0
  0
LINE
  8
1
 62
2
 10
3245.43821731753
 20
483.233503938891
 30
0
 11
3220.107260074329
 21
483.233503938891
 31
0
  0
LINE
  8
1
 62
2
 10
3245.43821731753
 20
480.733503938891
 30
0
 11
3219.185404275117
 21
480.733503938891
 31
0
  0
LINE
  8
1
 62
2
 10
3245.43821731753
 20
478.233503938891
 30
0
 11
3218.212923619115
 21
478.233503938891
 31
0
  0
LINE
  8
1
 62
2
 10
3217.270062549697
 20
492.1335039388908
 30
0
 11
3178.030638673828
 21
492.1335039388908
 31
0
  0
LINE
  8
1
 62
2
 10
3217.751286704648
 20
490.7335039388909
 30
0
 11
3178.030638673828
 21
490.7335039388909
 31
0
  0
LINE
  8
1
 62
2
 10
3218.071973187605
 20
489.6335039388908
 30
0
 11
3178.030638673828
 21
489.6335039388908
 31
0
  0
LINE
  8
1
 62
2
 10
3218.380064999093
 20
488.233503938891
 30
0
 11
3178.030638673828
 21
488.233503938891
 31
0
  0
LINE
  8
1
 62
2
 10
3218.523915453777
 20
487.1335039388908
 30
0
 11
3178.030638673828
 21
487.1335039388908
 31
0
  0
LINE
  8
1
 62
2
 10
3218.554881093618
 20
485.733503938891
 30
0
 11
3178.030638673828
 21
485.733503938891
 31
0
  0
LINE
  8
1
 62
2
 10
3218.439966915838
 20
484.6335039388908
 30
0
 11
3178.030638673828
 21
484.6335039388908
 31
0
  0
LINE
  8
1
 62
2
 10
3218.107260074329
 20
483.233503938891
 30
0
 11
3178.030638673828
 21
483.233503938891
 31
0
  0
LINE
  8
1
 62
2
 10
3217.735818236321
 20
482.1335039388908
 30
0
 11
3178.030638673828
 21
482.1335039388908
 31
0
  0
LINE
  8
1
 62
2
 10
3217.18540427512
 20
480.733503938891
 30
0
 11
3178.030638673828
 21
480.733503938891
 31
0
  0
LINE
  8
1
 62
2
 10
3216.737651661933
 20
479.6335039388907
 30
0
 11
3178.030638673828
 21
479.6335039388907
 31
0
  0
LINE
  8
1
 62
2
 10
3216.212923619116
 20
478.233503938891
 30
0
 11
3178.030638673828
 21
478.233503938891
 31
0
  0
LINE
  8
1
 62
2
 10
3280.301383149255
 20
509.067250645976
 30
0
 11
3280.301383149255
 21
459.067250645976
 31
0
  0
LINE
  8
1
 62
3
 10
3266.072845917778
 20
492.9335039388909
 30
0
 11
3265.572845917778
 21
492.9335039388909
 31
0
  0
LINE
  8
1
 62
3
 10
3245.43821731753
 20
469.9335039388909
 30
0
 11
3245.43821731753
 21
478.3458478356263
 31
0
  0
LINE
  8
1
 62
3
 10
3245.43821731753
 20
469.9335039388909
 30
0
 11
3245.43821731753
 21
478.3458478356263
 31
0
  0
LINE
  8
1
 62
3
 10
3245.43821731753
 20
478.3458478356263
 30
0
 11
3245.43821731753
 21
479.460977413208
 31
0
  0
LINE
  8
1
 62
3
 10
3245.43821731753
 20
478.3458478356263
 30
0
 11
3245.43821731753
 21
479.460977413208
 31
0
  0
LINE
  8
1
 62
3
 10
3245.43821731753
 20
479.460977413208
 30
0
 11
3245.43821731753
 21
492.9335039388909
 31
0
  0
LINE
  8
1
 62
3
 10
3245.43821731753
 20
479.460977413208
 30
0
 11
3245.43821731753
 21
490.4335039388909
 31
0
  0
LINE
  8
1
 62
3
 10
3245.43821731753
 20
489.4335039388909
 30
0
 11
3245.43821731753
 21
488.4335039388909
 31
0
  0
LINE
  8
1
 62
3
 10
3245.43821731753
 20
492.9335039388909
 30
0
 11
3245.43821731753
 21
487.3835039388908
 31
0
  0
LINE
  8
1
 62
3
 10
3245.43821731753
 20
469.9335039388909
 30
0
 11
3245.43821731753
 21
492.9335039388909
 31
0
  0
LINE
  8
1
 62
3
 10
3245.43821731753
 20
469.9335039388909
 30
0
 11
3245.43821731753
 21
490.4335039388909
 31
0
  0
LINE
  8
1
 62
3
 10
3245.43821731753
 20
492.9335039388909
 30
0
 11
3245.43821731753
 21
487.3835039388908
 31
0
  0
LINE
  8
1
 62
3
 10
3248.593552646491
 20
486.8835039388908
 30
0
 11
3248.032834417991
 21
486.8835039388908
 31
0
  0
LINE
  8
1
 62
3
 10
3248.593552646491
 20
484.8835039388908
 30
0
 11
3253.33821731753
 21
484.8835039388908
 31
0
  0
LINE
  8
1
 62
3
 10
3248.593552646491
 20
484.8835039388908
 30
0
 11
3248.593552646491
 21
486.8835039388908
 31
0
  0
LINE
  8
1
 62
3
 10
3248.593552646491
 20
477.9835039388909
 30
0
 11
3248.032834417991
 21
477.9835039388909
 31
0
  0
LINE
  8
1
 62
3
 10
3248.593552646491
 20
475.9835039388909
 30
0
 11
3253.33821731753
 21
475.9835039388909
 31
0
  0
LINE
  8
1
 62
3
 10
3248.593552646491
 20
475.9835039388909
 30
0
 11
3248.593552646491
 21
477.9835039388909
 31
0
  0
LINE
  8
1
 62
3
 10
3249.93927639489
 20
492.9335039388909
 30
0
 11
3249.49070181209
 21
492.9335039388909
 31
0
  0
LINE
  8
1
 62
3
 10
3249.93927639489
 20
489.9335039388909
 30
0
 11
3249.49070181209
 21
489.9335039388909
 31
0
  0
LINE
  8
1
 62
3
 10
3249.93927639489
 20
489.9335039388909
 30
0
 11
3249.93927639489
 21
492.9335039388909
 31
0
  0
LINE
  8
1
 62
3
 10
3251.210237712823
 20
489.9335039388909
 30
0
 11
3249.93927639489
 21
489.9335039388909
 31
0
  0
LINE
  8
1
 62
3
 10
3251.210237712823
 20
492.9335039388909
 30
0
 11
3249.93927639489
 21
492.9335039388909
 31
0
  0
LINE
  8
1
 62
3
 10
3251.210237712823
 20
492.9335039388909
 30
0
 11
3251.210237712823
 21
489.9335039388909
 31
0
  0
LINE
  8
1
 62
3
 10
3249.93927639489
 20
472.9335039388909
 30
0
 11
3249.49070181209
 21
472.9335039388909
 31
0
  0
LINE
  8
1
 62
3
 10
3249.93927639489
 20
469.9335039388909
 30
0
 11
3251.210237712823
 21
469.9335039388909
 31
0
  0
LINE
  8
1
 62
3
 10
3249.93927639489
 20
469.9335039388909
 30
0
 11
3249.93927639489
 21
472.9335039388909
 31
0
  0
LINE
  8
1
 62
3
 10
3251.210237712823
 20
469.9335039388909
 30
0
 11
3252.219530524123
 21
469.9335039388909
 31
0
  0
LINE
  8
1
 62
3
 10
3251.210237712823
 20
472.9335039388909
 30
0
 11
3249.93927639489
 21
472.9335039388909
 31
0
  0
LINE
  8
1
 62
3
 10
3251.210237712823
 20
472.9335039388909
 30
0
 11
3251.210237712823
 21
469.9335039388909
 31
0
  0
LINE
  8
1
 62
3
 10
3249.49070181209
 20
492.9335039388909
 30
0
 11
3245.43821731753
 21
492.9335039388909
 31
0
  0
LINE
  8
1
 62
3
 10
3249.49070181209
 20
489.9335039388909
 30
0
 11
3249.49070181209
 21
492.9335039388909
 31
0
  0
LINE
  8
1
 62
3
 10
3252.219530524123
 20
489.9335039388909
 30
0
 11
3251.210237712823
 21
489.9335039388909
 31
0
  0
LINE
  8
1
 62
3
 10
3252.219530524123
 20
492.9335039388909
 30
0
 11
3251.210237712823
 21
492.9335039388909
 31
0
  0
LINE
  8
1
 62
3
 10
3252.219530524123
 20
492.9335039388909
 30
0
 11
3252.219530524123
 21
489.9335039388909
 31
0
  0
LINE
  8
1
 62
3
 10
3249.49070181209
 20
469.9335039388909
 30
0
 11
3249.93927639489
 21
469.9335039388909
 31
0
  0
LINE
  8
1
 62
3
 10
3249.49070181209
 20
472.9335039388909
 30
0
 11
3249.49070181209
 21
469.9335039388909
 31
0
  0
LINE
  8
1
 62
3
 10
3252.219530524123
 20
472.9335039388909
 30
0
 11
3251.210237712823
 21
472.9335039388909
 31
0
  0
LINE
  8
1
 62
3
 10
3252.219530524123
 20
469.9335039388909
 30
0
 11
3253.33821731753
 21
469.9335039388909
 31
0
  0
LINE
  8
1
 62
3
 10
3252.219530524123
 20
469.9335039388909
 30
0
 11
3252.219530524123
 21
472.9335039388909
 31
0
  0
LINE
  8
1
 62
3
 10
3253.33821731753
 20
475.9835039388909
 30
0
 11
3253.33821731753
 21
477.9835039388909
 31
0
  0
LINE
  8
1
 62
3
 10
3248.032834417991
 20
475.9835039388909
 30
0
 11
3248.593552646491
 21
475.9835039388909
 31
0
  0
LINE
  8
1
 62
3
 10
3248.032834417991
 20
477.9835039388909
 30
0
 11
3248.032834417991
 21
475.9835039388909
 31
0
  0
LINE
  8
1
 62
3
 10
3253.33821731753
 20
477.9835039388909
 30
0
 11
3248.593552646491
 21
477.9835039388909
 31
0
  0
LINE
  8
1
 62
3
 10
3253.33821731753
 20
477.9835039388909
 30
0
 11
3253.33821731753
 21
484.8835039388908
 31
0
  0
LINE
  8
1
 62
3
 10
3253.33821731753
 20
484.8835039388908
 30
0
 11
3253.33821731753
 21
477.9835039388909
 31
0
  0
LINE
  8
1
 62
3
 10
3253.33821731753
 20
484.8835039388908
 30
0
 11
3253.33821731753
 21
486.8835039388908
 31
0
  0
LINE
  8
1
 62
3
 10
3248.032834417991
 20
484.8835039388908
 30
0
 11
3248.593552646491
 21
484.8835039388908
 31
0
  0
LINE
  8
1
 62
3
 10
3248.032834417991
 20
486.8835039388908
 30
0
 11
3248.032834417991
 21
484.8835039388908
 31
0
  0
LINE
  8
1
 62
3
 10
3253.33821731753
 20
486.8835039388908
 30
0
 11
3253.33821731753
 21
492.9335039388909
 31
0
  0
LINE
  8
1
 62
3
 10
3253.33821731753
 20
486.8835039388908
 30
0
 11
3248.593552646491
 21
486.8835039388908
 31
0
  0
LINE
  8
1
 62
3
 10
3253.33821731753
 20
492.9335039388909
 30
0
 11
3252.219530524123
 21
492.9335039388909
 31
0
  0
LINE
  8
1
 62
3
 10
3253.33821731753
 20
469.9335039388909
 30
0
 11
3253.33821731753
 21
475.9835039388909
 31
0
  0
LINE
  8
1
 62
3
 10
3245.43821731753
 20
469.9335039388909
 30
0
 11
3249.49070181209
 21
469.9335039388909
 31
0
  0
LINE
  8
1
 62
3
 10
3245.43821731753
 20
492.9335039388909
 30
0
 11
3245.43821731753
 21
469.9335039388909
 31
0
  0
LINE
  8
1
 62
3
 10
3188.096830961069
 20
450.2028882469517
 30
0
 11
3188.096830961069
 21
440.2028882469517
 31
0
  0
LINE
  8
1
 62
2
 10
3223.096830961069
 20
450.2028882469517
 30
0
 11
3223.096830961069
 21
440.2028882469517
 31
0
  0
LINE
  8
1
 62
2
 10
3258.096830961069
 20
450.2028882469517
 30
0
 11
3258.096830961069
 21
440.2028882469517
 31
0
  0
LINE
  8
1
 62
3
 10
3153.096830961069
 20
450.2028882469517
 30
0
 11
3153.096830961069
 21
440.2028882469517
 31
0
  0
LINE
  8
1
 62
2
 10
3153.096830961069
 20
445.2028882469517
 30
0
 11
3279.977762174771
 21
445.2028882469517
 31
0
  0
LINE
  8
1
 62
3
 10
3153.096830961069
 20
440.2028882469517
 30
0
 11
3279.977762174771
 21
440.2028882469517
 31
0
  0
LINE
  8
1
 62
3
 10
3153.096830961069
 20
450.2028882469517
 30
0
 11
3258.096830961069
 21
450.2028882469517
 31
0
  0
LINE
  8
1
 62
3
 10
3258.096830961069
 20
450.2028882469517
 30
0
 11
3279.977762174771
 21
450.2028882469517
 31
0
  0
LINE
  8
1
 62
3
 10
3242.040857198811
 20
326.359445798237
 30
0
 11
3242.040857198811
 21
310.859445798237
 31
0
  0
LINE
  8
1
 62
3
 10
3242.040857198811
 20
310.859445798237
 30
0
 11
3246.093341693372
 21
310.8594457982369
 31
0
  0
LINE
  8
1
 62
3
 10
3249.940857198812
 20
326.359445798237
 30
0
 11
3248.822170405404
 21
326.359445798237
 31
0
  0
LINE
  8
1
 62
3
 10
3249.940857198812
 20
320.859445798237
 30
0
 11
3245.196192527772
 21
320.859445798237
 31
0
  0
LINE
  8
1
 62
3
 10
3249.940857198812
 20
312.8094457982371
 30
0
 11
3249.940857198812
 21
326.359445798237
 31
0
  0
LINE
  8
1
 62
3
 10
3244.635474299272
 20
320.859445798237
 30
0
 11
3244.635474299272
 21
316.359445798237
 31
0
  0
LINE
  8
1
 62
3
 10
3244.635474299272
 20
316.359445798237
 30
0
 11
3245.196192527772
 21
316.359445798237
 31
0
  0
LINE
  8
1
 62
3
 10
3249.940857198812
 20
313.3094457982368
 30
0
 11
3249.940857198812
 21
312.8094457982371
 31
0
  0
LINE
  8
1
 62
3
 10
3249.940857198812
 20
313.3094457982368
 30
0
 11
3249.940857198812
 21
310.8594457982374
 31
0
  0
LINE
  8
1
 62
3
 10
3249.940857198812
 20
310.8594457982374
 30
0
 11
3249.940857198812
 21
313.3094457982368
 31
0
  0
LINE
  8
1
 62
3
 10
3248.822170405404
 20
310.8594457982369
 30
0
 11
3248.822170405404
 21
313.8594457982369
 31
0
  0
LINE
  8
1
 62
3
 10
3248.822170405404
 20
310.8594457982369
 30
0
 11
3249.940857198812
 21
310.8594457982374
 31
0
  0
LINE
  8
1
 62
3
 10
3248.822170405404
 20
313.8594457982369
 30
0
 11
3247.812877594104
 21
313.8594457982369
 31
0
  0
LINE
  8
1
 62
3
 10
3246.093341693372
 20
313.8594457982369
 30
0
 11
3246.093341693372
 21
310.8594457982369
 31
0
  0
LINE
  8
1
 62
3
 10
3246.093341693372
 20
310.8594457982369
 30
0
 11
3246.541916276171
 21
310.8594457982369
 31
0
  0
LINE
  8
1
 62
3
 10
3248.822170405404
 20
326.359445798237
 30
0
 11
3248.822170405404
 21
323.359445798237
 31
0
  0
LINE
  8
1
 62
3
 10
3248.822170405404
 20
326.359445798237
 30
0
 11
3247.812877594104
 21
326.359445798237
 31
0
  0
LINE
  8
1
 62
3
 10
3248.822170405404
 20
323.359445798237
 30
0
 11
3247.812877594104
 21
323.359445798237
 31
0
  0
LINE
  8
1
 62
3
 10
3246.093341693372
 20
323.359445798237
 30
0
 11
3246.093341693372
 21
326.359445798237
 31
0
  0
LINE
  8
1
 62
3
 10
3246.093341693372
 20
326.359445798237
 30
0
 11
3242.040857198811
 21
326.359445798237
 31
0
  0
LINE
  8
1
 62
3
 10
3247.812877594104
 20
313.8594457982369
 30
0
 11
3247.812877594104
 21
310.8594457982369
 31
0
  0
LINE
  8
1
 62
3
 10
3247.812877594104
 20
313.8594457982369
 30
0
 11
3246.541916276171
 21
313.8594457982369
 31
0
  0
LINE
  8
1
 62
3
 10
3247.812877594104
 20
310.8594457982369
 30
0
 11
3248.822170405404
 21
310.8594457982369
 31
0
  0
LINE
  8
1
 62
3
 10
3246.541916276171
 20
310.8594457982369
 30
0
 11
3246.541916276171
 21
313.8594457982369
 31
0
  0
LINE
  8
1
 62
3
 10
3246.541916276171
 20
310.8594457982369
 30
0
 11
3247.812877594104
 21
310.8594457982369
 31
0
  0
LINE
  8
1
 62
3
 10
3246.541916276171
 20
313.8594457982369
 30
0
 11
3246.093341693372
 21
313.8594457982369
 31
0
  0
LINE
  8
1
 62
3
 10
3247.812877594104
 20
326.359445798237
 30
0
 11
3247.812877594104
 21
323.359445798237
 31
0
  0
LINE
  8
1
 62
3
 10
3247.812877594104
 20
326.359445798237
 30
0
 11
3246.541916276171
 21
326.359445798237
 31
0
  0
LINE
  8
1
 62
3
 10
3247.812877594104
 20
323.359445798237
 30
0
 11
3246.541916276171
 21
323.359445798237
 31
0
  0
LINE
  8
1
 62
3
 10
3246.541916276171
 20
323.359445798237
 30
0
 11
3246.541916276171
 21
326.359445798237
 31
0
  0
LINE
  8
1
 62
3
 10
3246.541916276171
 20
323.359445798237
 30
0
 11
3246.093341693372
 21
323.359445798237
 31
0
  0
LINE
  8
1
 62
3
 10
3246.541916276171
 20
326.359445798237
 30
0
 11
3246.093341693372
 21
326.359445798237
 31
0
  0
LINE
  8
1
 62
3
 10
3245.196192527772
 20
316.359445798237
 30
0
 11
3245.196192527772
 21
320.859445798237
 31
0
  0
LINE
  8
1
 62
3
 10
3245.196192527772
 20
320.859445798237
 30
0
 11
3244.635474299272
 21
320.859445798237
 31
0
  0
LINE
  8
1
 62
3
 10
3242.040857198811
 20
326.359445798237
 30
0
 11
3242.040857198811
 21
320.8094457982371
 31
0
  0
LINE
  8
1
 62
3
 10
3242.040857198811
 20
310.859445798237
 30
0
 11
3242.040857198811
 21
323.859445798237
 31
0
  0
LINE
  8
1
 62
3
 10
3242.040857198811
 20
310.859445798237
 30
0
 11
3242.040857198811
 21
326.359445798237
 31
0
  0
LINE
  8
1
 62
3
 10
3242.040857198811
 20
326.359445798237
 30
0
 11
3242.040857198811
 21
320.8094457982371
 31
0
  0
LINE
  8
1
 62
3
 10
3242.040857198811
 20
322.859445798237
 30
0
 11
3242.040857198811
 21
321.859445798237
 31
0
  0
LINE
  8
1
 62
3
 10
3242.040857198811
 20
310.859445798237
 30
0
 11
3242.040857198811
 21
311.2217896949725
 31
0
  0
LINE
  8
1
 62
3
 10
3242.040857198811
 20
310.859445798237
 30
0
 11
3242.040857198811
 21
311.2217896949725
 31
0
  0
LINE
  8
1
 62
3
 10
3262.67548579906
 20
326.359445798237
 30
0
 11
3262.17548579906
 21
326.359445798237
 31
0
  0
LINE
  8
1
 62
2
 10
3214.709899955611
 20
316.6594457982371
 30
0
 11
3174.633278555109
 21
316.6594457982371
 31
0
  0
LINE
  8
1
 62
2
 10
3215.042606797119
 20
318.0594457982371
 30
0
 11
3174.633278555109
 21
318.0594457982371
 31
0
  0
LINE
  8
1
 62
2
 10
3215.157520974899
 20
319.1594457982371
 30
0
 11
3174.633278555109
 21
319.1594457982371
 31
0
  0
LINE
  8
1
 62
2
 10
3215.126555335059
 20
320.5594457982371
 30
0
 11
3174.633278555109
 21
320.5594457982371
 31
0
  0
LINE
  8
1
 62
2
 10
3214.982704880374
 20
321.6594457982371
 30
0
 11
3174.633278555109
 21
321.6594457982371
 31
0
  0
LINE
  8
1
 62
2
 10
3214.674613068887
 20
323.0594457982371
 30
0
 11
3174.633278555109
 21
323.0594457982371
 31
0
  0
LINE
  8
1
 62
2
 10
3214.353926585929
 20
324.159445798237
 30
0
 11
3174.633278555109
 21
324.159445798237
 31
0
  0
LINE
  8
1
 62
2
 10
3213.872702430978
 20
325.5594457982371
 30
0
 11
3174.633278555109
 21
325.5594457982371
 31
0
  0
LINE
  8
1
 62
2
 10
3242.040857198811
 20
316.6594457982371
 30
0
 11
3216.700974156512
 21
316.6594457982371
 31
0
  0
LINE
  8
1
 62
2
 10
3242.040857198811
 20
319.1594457982371
 30
0
 11
3217.157520974899
 21
319.1594457982371
 31
0
  0
LINE
  8
1
 62
2
 10
3242.040857198811
 20
321.6594457982371
 30
0
 11
3216.982704880374
 21
321.6594457982371
 31
0
  0
LINE
  8
1
 62
2
 10
3242.040857198811
 20
318.0594457982371
 30
0
 11
3217.042606797119
 21
318.0594457982371
 31
0
  0
LINE
  8
1
 62
2
 10
3242.040857198811
 20
320.5594457982371
 30
0
 11
3217.126555335058
 21
320.5594457982371
 31
0
  0
LINE
  8
1
 62
2
 10
3242.040857198811
 20
323.0594457982371
 30
0
 11
3216.674613068887
 21
323.0594457982371
 31
0
  0
LINE
  8
1
 62
2
 10
3164.633278555109
 20
317.0094457982371
 30
0
 11
3174.633278555109
 21
317.0094457982371
 31
0
  0
LINE
  8
1
 62
2
 10
3164.633278555109
 20
317.709445798237
 30
0
 11
3164.633278555109
 21
317.0094457982371
 31
0
  0
LINE
  8
1
 62
2
 10
3174.633278555109
 20
317.709445798237
 30
0
 11
3164.633278555109
 21
317.709445798237
 31
0
  0
LINE
  8
1
 62
2
 10
3174.633278555109
 20
318.0594457982371
 30
0
 11
3174.633278555109
 21
316.6594457982371
 31
0
  0
LINE
  8
1
 62
2
 10
3164.633278555109
 20
319.5094457982371
 30
0
 11
3174.633278555109
 21
319.5094457982371
 31
0
  0
LINE
  8
1
 62
2
 10
3164.633278555109
 20
320.209445798237
 30
0
 11
3164.633278555109
 21
319.5094457982371
 31
0
  0
LINE
  8
1
 62
2
 10
3174.633278555109
 20
320.209445798237
 30
0
 11
3164.633278555109
 21
320.209445798237
 31
0
  0
LINE
  8
1
 62
2
 10
3174.633278555109
 20
320.5594457982371
 30
0
 11
3174.633278555109
 21
319.1594457982371
 31
0
  0
LINE
  8
1
 62
2
 10
3164.633278555109
 20
322.0094457982371
 30
0
 11
3174.633278555109
 21
322.0094457982371
 31
0
  0
LINE
  8
1
 62
2
 10
3164.633278555109
 20
322.7094457982371
 30
0
 11
3164.633278555109
 21
322.0094457982371
 31
0
  0
LINE
  8
1
 62
2
 10
3174.633278555109
 20
322.7094457982371
 30
0
 11
3164.633278555109
 21
322.7094457982371
 31
0
  0
LINE
  8
1
 62
2
 10
3174.633278555109
 20
323.0594457982371
 30
0
 11
3174.633278555109
 21
321.6594457982371
 31
0
  0
LINE
  8
1
 62
2
 10
3164.633278555109
 20
324.5094457982371
 30
0
 11
3174.633278555109
 21
324.5094457982371
 31
0
  0
LINE
  8
1
 62
2
 10
3164.633278555109
 20
325.2094457982371
 30
0
 11
3164.633278555109
 21
324.5094457982371
 31
0
  0
LINE
  8
1
 62
2
 10
3174.633278555109
 20
325.2094457982371
 30
0
 11
3164.633278555109
 21
325.2094457982371
 31
0
  0
LINE
  8
1
 62
2
 10
3174.633278555109
 20
325.5594457982371
 30
0
 11
3174.633278555109
 21
324.159445798237
 31
0
  0
LINE
  8
1
 62
2
 10
3242.040857198811
 20
325.5594457982371
 30
0
 11
3215.872702430978
 21
325.5594457982371
 31
0
  0
LINE
  8
1
 62
2
 10
3242.040857198811
 20
324.159445798237
 30
0
 11
3216.353926585929
 21
324.159445798237
 31
0
  0
LINE
  8
1
 62
2
 10
3263.636380926454
 20
325.3594457982371
 30
0
 11
3263.136380926454
 21
325.8594457982371
 31
0
  0
LINE
  8
1
 62
2
 10
3263.636380926454
 20
324.3594457982371
 30
0
 11
3263.136380926454
 21
323.8594457982371
 31
0
  0
LINE
  8
1
 62
2
 10
3264.636380926454
 20
324.3594457982371
 30
0
 11
3265.136380926454
 21
323.8594457982371
 31
0
  0
LINE
  8
1
 62
2
 10
3265.136380926454
 20
325.8594457982371
 30
0
 11
3264.636380926454
 21
325.3594457982371
 31
0
  0
LINE
  8
1
 62
2
 10
3263.136380926454
 20
325.8594457982371
 30
0
 11
3265.136380926454
 21
325.8594457982371
 31
0
  0
LINE
  8
1
 62
2
 10
3263.136380926454
 20
323.8594457982371
 30
0
 11
3263.136380926454
 21
325.8594457982371
 31
0
  0
LINE
  8
1
 62
2
 10
3265.136380926454
 20
323.8594457982371
 30
0
 11
3263.136380926454
 21
323.8594457982371
 31
0
  0
LINE
  8
1
 62
2
 10
3265.136380926454
 20
325.8594457982371
 30
0
 11
3265.136380926454
 21
323.8594457982371
 31
0
  0
LINE
  8
1
 62
2
 10
3264.636380926454
 20
324.3594457982371
 30
0
 11
3263.636380926454
 21
324.3594457982371
 31
0
  0
LINE
  8
1
 62
2
 10
3264.636380926454
 20
325.3594457982371
 30
0
 11
3264.636380926454
 21
324.3594457982371
 31
0
  0
LINE
  8
1
 62
2
 10
3263.636380926454
 20
325.3594457982371
 30
0
 11
3264.636380926454
 21
325.3594457982371
 31
0
  0
LINE
  8
1
 62
2
 10
3263.636380926454
 20
324.3594457982371
 30
0
 11
3263.636380926454
 21
325.3594457982371
 31
0
  0
LINE
  8
1
 62
2
 10
3263.636380926454
 20
322.8594457982371
 30
0
 11
3263.136380926454
 21
323.3594457982371
 31
0
  0
LINE
  8
1
 62
2
 10
3263.636380926454
 20
321.859445798237
 30
0
 11
3263.136380926454
 21
321.359445798237
 31
0
  0
LINE
  8
1
 62
2
 10
3264.636380926454
 20
321.859445798237
 30
0
 11
3265.136380926454
 21
321.359445798237
 31
0
  0
LINE
  8
1
 62
2
 10
3265.136380926454
 20
323.3594457982371
 30
0
 11
3264.636380926454
 21
322.8594457982371
 31
0
  0
LINE
  8
1
 62
2
 10
3263.136380926454
 20
323.3594457982371
 30
0
 11
3265.136380926454
 21
323.3594457982371
 31
0
  0
LINE
  8
1
 62
2
 10
3263.136380926454
 20
321.359445798237
 30
0
 11
3263.136380926454
 21
323.3594457982371
 31
0
  0
LINE
  8
1
 62
2
 10
3265.136380926454
 20
321.359445798237
 30
0
 11
3263.136380926454
 21
321.359445798237
 31
0
  0
LINE
  8
1
 62
2
 10
3265.136380926454
 20
323.3594457982371
 30
0
 11
3265.136380926454
 21
321.359445798237
 31
0
  0
LINE
  8
1
 62
2
 10
3264.636380926454
 20
321.859445798237
 30
0
 11
3263.636380926454
 21
321.859445798237
 31
0
  0
LINE
  8
1
 62
2
 10
3264.636380926454
 20
322.8594457982371
 30
0
 11
3264.636380926454
 21
321.859445798237
 31
0
  0
LINE
  8
1
 62
2
 10
3263.636380926454
 20
322.8594457982371
 30
0
 11
3264.636380926454
 21
322.8594457982371
 31
0
  0
LINE
  8
1
 62
2
 10
3263.636380926454
 20
321.859445798237
 30
0
 11
3263.636380926454
 21
322.8594457982371
 31
0
  0
LINE
  8
1
 62
2
 10
3263.636380926454
 20
320.359445798237
 30
0
 11
3263.136380926454
 21
320.859445798237
 31
0
  0
LINE
  8
1
 62
2
 10
3263.636380926454
 20
319.359445798237
 30
0
 11
3263.136380926454
 21
318.859445798237
 31
0
  0
LINE
  8
1
 62
2
 10
3264.636380926454
 20
319.359445798237
 30
0
 11
3265.136380926454
 21
318.859445798237
 31
0
  0
LINE
  8
1
 62
2
 10
3265.136380926454
 20
320.859445798237
 30
0
 11
3264.636380926454
 21
320.359445798237
 31
0
  0
LINE
  8
1
 62
2
 10
3263.136380926454
 20
320.859445798237
 30
0
 11
3265.136380926454
 21
320.859445798237
 31
0
  0
LINE
  8
1
 62
2
 10
3263.136380926454
 20
318.859445798237
 30
0
 11
3263.136380926454
 21
320.859445798237
 31
0
  0
LINE
  8
1
 62
2
 10
3265.136380926454
 20
318.859445798237
 30
0
 11
3263.136380926454
 21
318.859445798237
 31
0
  0
LINE
  8
1
 62
2
 10
3265.136380926454
 20
320.859445798237
 30
0
 11
3265.136380926454
 21
318.859445798237
 31
0
  0
LINE
  8
1
 62
2
 10
3264.636380926454
 20
319.359445798237
 30
0
 11
3263.636380926454
 21
319.359445798237
 31
0
  0
LINE
  8
1
 62
2
 10
3264.636380926454
 20
320.359445798237
 30
0
 11
3264.636380926454
 21
319.359445798237
 31
0
  0
LINE
  8
1
 62
2
 10
3263.636380926454
 20
320.359445798237
 30
0
 11
3264.636380926454
 21
320.359445798237
 31
0
  0
LINE
  8
1
 62
2
 10
3263.636380926454
 20
319.359445798237
 30
0
 11
3263.636380926454
 21
320.359445798237
 31
0
  0
LINE
  8
1
 62
2
 10
3263.636380926454
 20
312.859445798237
 30
0
 11
3263.136380926454
 21
313.359445798237
 31
0
  0
LINE
  8
1
 62
2
 10
3263.636380926454
 20
311.859445798237
 30
0
 11
3263.136380926454
 21
311.359445798237
 31
0
  0
LINE
  8
1
 62
2
 10
3264.636380926454
 20
311.859445798237
 30
0
 11
3265.136380926454
 21
311.359445798237
 31
0
  0
LINE
  8
1
 62
2
 10
3265.136380926454
 20
313.359445798237
 30
0
 11
3264.636380926454
 21
312.859445798237
 31
0
  0
LINE
  8
1
 62
2
 10
3263.136380926454
 20
313.359445798237
 30
0
 11
3265.136380926454
 21
313.359445798237
 31
0
  0
LINE
  8
1
 62
2
 10
3263.136380926454
 20
311.359445798237
 30
0
 11
3263.136380926454
 21
313.359445798237
 31
0
  0
LINE
  8
1
 62
2
 10
3265.136380926454
 20
311.359445798237
 30
0
 11
3263.136380926454
 21
311.359445798237
 31
0
  0
LINE
  8
1
 62
2
 10
3265.136380926454
 20
313.359445798237
 30
0
 11
3265.136380926454
 21
311.359445798237
 31
0
  0
LINE
  8
1
 62
2
 10
3264.636380926454
 20
311.859445798237
 30
0
 11
3263.636380926454
 21
311.859445798237
 31
0
  0
LINE
  8
1
 62
2
 10
3264.636380926454
 20
312.859445798237
 30
0
 11
3264.636380926454
 21
311.859445798237
 31
0
  0
LINE
  8
1
 62
2
 10
3263.636380926454
 20
312.859445798237
 30
0
 11
3264.636380926454
 21
312.859445798237
 31
0
  0
LINE
  8
1
 62
2
 10
3263.636380926454
 20
311.859445798237
 30
0
 11
3263.636380926454
 21
312.859445798237
 31
0
  0
LINE
  8
1
 62
3
 10
3262.17548579906
 20
310.859445798237
 30
0
 11
3262.17548579906
 21
326.359445798237
 31
0
  0
LINE
  8
1
 62
3
 10
3262.67548579906
 20
310.859445798237
 30
0
 11
3262.17548579906
 21
310.859445798237
 31
0
  0
LINE
  8
1
 62
3
 10
3267.17548579906
 20
310.859445798237
 30
0
 11
3262.67548579906
 21
310.859445798237
 31
0
  0
LINE
  8
1
 62
3
 10
3267.17548579906
 20
326.359445798237
 30
0
 11
3267.17548579906
 21
310.859445798237
 31
0
  0
LINE
  8
1
 62
3
 10
3262.67548579906
 20
326.359445798237
 30
0
 11
3267.17548579906
 21
326.359445798237
 31
0
  0
LINE
  8
1
 62
3
 10
3262.67548579906
 20
310.859445798237
 30
0
 11
3262.67548579906
 21
326.359445798237
 31
0
  0
LINE
  8
1
 62
3
 10
3262.17548579906
 20
320.859445798237
 30
0
 11
3260.725485799059
 21
320.859445798237
 31
0
  0
LINE
  8
1
 62
3
 10
3262.17548579906
 20
316.359445798237
 30
0
 11
3260.725485799059
 21
316.359445798237
 31
0
  0
LINE
  8
1
 62
3
 10
3260.725485799059
 20
316.359445798237
 30
0
 11
3260.725485799059
 21
320.859445798237
 31
0
  0
LINE
  8
1
 62
3
 10
3242.040857198811
 20
319.2717896949721
 30
0
 11
3242.040857198811
 21
320.3869192725538
 31
0
  0
LINE
  8
1
 62
3
 10
3242.040857198811
 20
319.2717896949721
 30
0
 11
3242.040857198811
 21
320.3869192725538
 31
0
  0
LINE
  8
1
 62
3
 10
3242.040857198811
 20
316.771789694972
 30
0
 11
3242.040857198811
 21
317.8869192725537
 31
0
  0
LINE
  8
1
 62
3
 10
3242.040857198811
 20
316.771789694972
 30
0
 11
3242.040857198811
 21
317.8869192725537
 31
0
  0
LINE
  8
1
 62
2
 10
3262.17548579906
 20
326.359445798237
 30
0
 11
3261.375485799059
 21
326.359445798237
 31
0
  0
LINE
  8
1
 62
2
 10
3262.17548579906
 20
323.359445798237
 30
0
 11
3261.375485799059
 21
323.359445798237
 31
0
  0
LINE
  8
1
 62
2
 10
3262.17548579906
 20
316.359445798237
 30
0
 11
3261.375485799059
 21
316.359445798237
 31
0
  0
LINE
  8
1
 62
2
 10
3262.17548579906
 20
310.859445798237
 30
0
 11
3261.375485799059
 21
310.859445798237
 31
0
  0
LINE
  8
1
 62
2
 10
3261.375485799059
 20
326.359445798237
 30
0
 11
3261.375485799059
 21
323.359445798237
 31
0
  0
LINE
  8
1
 62
2
 10
3261.375485799059
 20
310.859445798237
 30
0
 11
3261.375485799059
 21
313.859445798237
 31
0
  0
LINE
  8
1
 62
2
 10
3261.375485799059
 20
313.859445798237
 30
0
 11
3262.17548579906
 21
313.859445798237
 31
0
  0
LINE
  8
1
 62
2
 10
3263.636380926454
 20
317.859445798237
 30
0
 11
3263.136380926454
 21
318.359445798237
 31
0
  0
LINE
  8
1
 62
2
 10
3263.636380926454
 20
316.859445798237
 30
0
 11
3263.136380926454
 21
316.359445798237
 31
0
  0
LINE
  8
1
 62
2
 10
3264.636380926454
 20
316.859445798237
 30
0
 11
3265.136380926454
 21
316.359445798237
 31
0
  0
LINE
  8
1
 62
2
 10
3265.136380926454
 20
318.359445798237
 30
0
 11
3264.636380926454
 21
317.859445798237
 31
0
  0
LINE
  8
1
 62
2
 10
3263.136380926454
 20
318.359445798237
 30
0
 11
3265.136380926454
 21
318.359445798237
 31
0
  0
LINE
  8
1
 62
2
 10
3263.136380926454
 20
316.359445798237
 30
0
 11
3263.136380926454
 21
318.359445798237
 31
0
  0
LINE
  8
1
 62
2
 10
3265.136380926454
 20
316.359445798237
 30
0
 11
3263.136380926454
 21
316.359445798237
 31
0
  0
LINE
  8
1
 62
2
 10
3265.136380926454
 20
318.359445798237
 30
0
 11
3265.136380926454
 21
316.359445798237
 31
0
  0
LINE
  8
1
 62
2
 10
3264.636380926454
 20
316.859445798237
 30
0
 11
3263.636380926454
 21
316.859445798237
 31
0
  0
LINE
  8
1
 62
2
 10
3264.636380926454
 20
317.859445798237
 30
0
 11
3264.636380926454
 21
316.859445798237
 31
0
  0
LINE
  8
1
 62
2
 10
3263.636380926454
 20
317.859445798237
 30
0
 11
3264.636380926454
 21
317.859445798237
 31
0
  0
LINE
  8
1
 62
2
 10
3263.636380926454
 20
316.859445798237
 30
0
 11
3263.636380926454
 21
317.859445798237
 31
0
  0
LINE
  8
1
 62
2
 10
3263.636380926454
 20
315.359445798237
 30
0
 11
3263.136380926454
 21
315.859445798237
 31
0
  0
LINE
  8
1
 62
2
 10
3263.636380926454
 20
314.359445798237
 30
0
 11
3263.136380926454
 21
313.859445798237
 31
0
  0
LINE
  8
1
 62
2
 10
3264.636380926454
 20
314.359445798237
 30
0
 11
3265.136380926454
 21
313.859445798237
 31
0
  0
LINE
  8
1
 62
2
 10
3265.136380926454
 20
315.859445798237
 30
0
 11
3264.636380926454
 21
315.359445798237
 31
0
  0
LINE
  8
1
 62
2
 10
3263.136380926454
 20
315.859445798237
 30
0
 11
3265.136380926454
 21
315.859445798237
 31
0
  0
LINE
  8
1
 62
2
 10
3263.136380926454
 20
313.859445798237
 30
0
 11
3263.136380926454
 21
315.859445798237
 31
0
  0
LINE
  8
1
 62
2
 10
3265.136380926454
 20
313.859445798237
 30
0
 11
3263.136380926454
 21
313.859445798237
 31
0
  0
LINE
  8
1
 62
2
 10
3265.136380926454
 20
315.859445798237
 30
0
 11
3265.136380926454
 21
313.859445798237
 31
0
  0
LINE
  8
1
 62
2
 10
3264.636380926454
 20
314.359445798237
 30
0
 11
3263.636380926454
 21
314.359445798237
 31
0
  0
LINE
  8
1
 62
2
 10
3264.636380926454
 20
315.359445798237
 30
0
 11
3264.636380926454
 21
314.359445798237
 31
0
  0
LINE
  8
1
 62
2
 10
3263.636380926454
 20
315.359445798237
 30
0
 11
3264.636380926454
 21
315.359445798237
 31
0
  0
LINE
  8
1
 62
2
 10
3263.636380926454
 20
314.359445798237
 30
0
 11
3263.636380926454
 21
315.359445798237
 31
0
  0
LINE
  8
1
 62
3
 10
3245.196192527772
 20
316.359445798237
 30
0
 11
3249.940857198812
 21
316.359445798237
 31
0
  0
LINE
  8
1
 62
2
 10
3242.040857198811
 20
315.5594457982371
 30
0
 11
3216.381824567201
 21
315.5594457982371
 31
0
  0
LINE
  8
1
 62
2
 10
3242.040857198811
 20
314.1594457982371
 30
0
 11
3215.965489438421
 21
314.1594457982371
 31
0
  0
LINE
  8
1
 62
2
 10
3242.040857198811
 20
313.0594457982371
 30
0
 11
3215.63522043252
 21
313.0594457982371
 31
0
  0
LINE
  8
1
 62
2
 10
3242.040857198811
 20
311.6594457982371
 30
0
 11
3215.211407786353
 21
311.6594457982371
 31
0
  0
LINE
  8
1
 62
2
 10
3214.400691422156
 20
315.5594457982371
 30
0
 11
3174.633278555109
 21
315.5594457982371
 31
0
  0
LINE
  8
1
 62
2
 10
3213.996593978681
 20
314.1594457982371
 30
0
 11
3174.633278555109
 21
314.1594457982371
 31
0
  0
LINE
  8
1
 62
2
 10
3213.666756617062
 20
313.0594457982369
 30
0
 11
3174.633278555109
 21
313.0594457982371
 31
0
  0
LINE
  8
1
 62
2
 10
3213.231334402025
 20
311.6594457982371
 30
0
 11
3174.633278555109
 21
311.6594457982371
 31
0
  0
LINE
  8
1
 62
2
 10
3164.633278555109
 20
314.5094457982371
 30
0
 11
3174.633278555109
 21
314.5094457982371
 31
0
  0
LINE
  8
1
 62
2
 10
3164.633278555109
 20
315.209445798237
 30
0
 11
3164.633278555109
 21
314.5094457982371
 31
0
  0
LINE
  8
1
 62
2
 10
3174.633278555109
 20
315.209445798237
 30
0
 11
3164.633278555109
 21
315.209445798237
 31
0
  0
LINE
  8
1
 62
2
 10
3174.633278555109
 20
315.5594457982371
 30
0
 11
3174.633278555109
 21
314.1594457982371
 31
0
  0
LINE
  8
1
 62
2
 10
3164.633278555109
 20
312.0094457982371
 30
0
 11
3174.633278555109
 21
312.0094457982371
 31
0
  0
LINE
  8
1
 62
2
 10
3164.633278555109
 20
312.709445798237
 30
0
 11
3164.633278555109
 21
312.0094457982371
 31
0
  0
LINE
  8
1
 62
2
 10
3174.633278555109
 20
312.709445798237
 30
0
 11
3164.633278555109
 21
312.709445798237
 31
0
  0
LINE
  8
1
 62
2
 10
3174.633278555109
 20
313.0594457982371
 30
0
 11
3174.633278555109
 21
311.6594457982371
 31
0
  0
LINE
  8
1
 62
3
 10
3185.559935949037
 20
298.8762267532891
 30
0
 11
3185.559935949037
 21
288.8762267532891
 31
0
  0
LINE
  8
1
 62
2
 10
3220.559935949037
 20
298.8762267532891
 30
0
 11
3220.559935949037
 21
288.8762267532891
 31
0
  0
LINE
  8
1
 62
2
 10
3255.559935949037
 20
298.8762267532891
 30
0
 11
3255.559935949037
 21
288.8762267532891
 31
0
  0
LINE
  8
1
 62
3
 10
3150.559935949037
 20
298.8762267532891
 30
0
 11
3150.559935949037
 21
288.8762267532891
 31
0
  0
LINE
  8
1
 62
2
 10
3150.559935949037
 20
293.8762267532891
 30
0
 11
3277.44086716274
 21
293.8762267532891
 31
0
  0
LINE
  8
1
 62
3
 10
3150.559935949037
 20
288.8762267532891
 30
0
 11
3277.44086716274
 21
288.8762267532891
 31
0
  0
LINE
  8
1
 62
3
 10
3150.559935949037
 20
298.8762267532891
 30
0
 11
3255.559935949037
 21
298.8762267532891
 31
0
  0
LINE
  8
1
 62
3
 10
3255.559935949037
 20
298.8762267532891
 30
0
 11
3277.44086716274
 21
298.8762267532891
 31
0
  0
LINE
  8
1
 62
3
 10
3277.44086716274
 20
298.8762267532891
 30
0
 11
3277.44086716274
 21
288.8762267532891
 31
0
  0
LINE
  8
1
 62
2
 10
3280.301383149255
 20
464.067250645976
 30
0
 11
3310.040846104547
 21
464.067250645976
 31
0
  0
LINE
  8
1
 62
2
 10
3280.301383149255
 20
469.067250645976
 30
0
 11
3310.040846104547
 21
469.067250645976
 31
0
  0
LINE
  8
1
 62
2
 10
3280.301383149255
 20
459.067250645976
 30
0
 11
3310.040846104547
 21
459.067250645976
 31
0
  0
LINE
  8
1
 62
3
 10
3279.977762174771
 20
450.2028882469517
 30
0
 11
3279.977762174771
 21
440.2028882469517
 31
0
  0
LINE
  8
1
 62
2
 10
3293.929067554547
 20
341.401776173696
 30
0
 11
3310.040846104548
 21
341.401776173696
 31
0
  0
LINE
  8
1
 62
2
 10
3280.301383149255
 20
341.401776173696
 30
0
 11
3280.301383149255
 21
306.401776173696
 31
0
  0
LINE
  8
1
 62
2
 10
3280.301383149255
 20
306.401776173696
 30
0
 11
3310.040846104548
 21
306.401776173696
 31
0
  0
LINE
  8
1
 62
2
 10
3280.301383149255
 20
311.401776173696
 30
0
 11
3310.040846104548
 21
311.401776173696
 31
0
  0
LINE
  8
1
 62
2
 10
3280.301383149255
 20
326.401776173696
 30
0
 11
3310.040846104548
 21
326.401776173696
 31
0
  0
LINE
  8
1
 62
2
 10
3280.301383149255
 20
331.401776173696
 30
0
 11
3310.040846104548
 21
331.401776173696
 31
0
  0
LINE
  8
1
 62
2
 10
3280.301383149255
 20
336.401776173696
 30
0
 11
3310.040846104548
 21
336.401776173696
 31
0
  0
LINE
  8
1
 62
2
 10
3280.301383149255
 20
341.401776173696
 30
0
 11
3293.929067554547
 21
341.401776173696
 31
0
  0
LINE
  8
1
 62
2
 10
3296.31533349628
 20
341.401776173696
 30
0
 11
3296.31533349628
 21
306.401776173696
 31
0
  0
LINE
  8
1
 62
2
 10
3310.040846104548
 20
341.401776173696
 30
0
 11
3310.040846104548
 21
306.401776173696
 31
0
  0
LINE
  8
1
 62
2
 10
3280.301383149255
 20
316.401776173696
 30
0
 11
3310.040846104548
 21
316.401776173696
 31
0
  0
LINE
  8
1
 62
2
 10
3280.301383149255
 20
321.401776173696
 30
0
 11
3310.040846104548
 21
321.401776173696
 31
0
  0
LINE
  8
1
 62
1
  6
CENTER
 10
3342.502117932314
 20
378.9128386997714
 30
0
 11
3351.44283210833
 21
378.9128386997714
 31
0
  0
LINE
  8
1
 62
3
 10
3421.906101089293
 20
400.6128386997717
 30
0
 11
3443.106101089293
 21
400.6128386997717
 31
0
  0
LINE
  8
1
 62
3
 10
3421.906101089293
 20
402.6128386997717
 30
0
 11
3443.106101089293
 21
402.6128386997717
 31
0
  0
LINE
  8
1
 62
3
 10
3419.406101089293
 20
404.6128386997717
 30
0
 11
3443.106101089293
 21
404.6128386997717
 31
0
  0
LINE
  8
1
 62
3
 10
3419.406101089293
 20
406.6128386997717
 30
0
 11
3443.106101089293
 21
406.6128386997717
 31
0
  0
LINE
  8
1
 62
3
 10
3416.906101089293
 20
408.6128386997717
 30
0
 11
3443.106101089293
 21
408.6128386997717
 31
0
  0
LINE
  8
1
 62
3
 10
3416.906101089293
 20
410.6128386997717
 30
0
 11
3443.106101089293
 21
410.6128386997717
 31
0
  0
LINE
  8
1
 62
3
 10
3414.406101089293
 20
412.6128386997717
 30
0
 11
3443.106101089293
 21
412.6128386997717
 31
0
  0
LINE
  8
1
 62
3
 10
3414.406101089293
 20
414.6128386997717
 30
0
 11
3443.106101089293
 21
414.6128386997717
 31
0
  0
LINE
  8
1
 62
3
 10
3411.906101089293
 20
416.6128386997717
 30
0
 11
3443.106101089293
 21
416.6128386997717
 31
0
  0
LINE
  8
1
 62
3
 10
3411.906101089293
 20
418.6128386997717
 30
0
 11
3443.106101089293
 21
418.6128386997717
 31
0
  0
LINE
  8
1
 62
2
 10
3376.706101089293
 20
376.7128386997717
 30
0
 11
3376.706101089293
 21
431.1128386997716
 31
0
  0
LINE
  8
1
 62
2
 10
3377.706101089293
 20
375.7128386997717
 30
0
 11
3382.106101089293
 21
375.7128386997717
 31
0
  0
LINE
  8
1
 62
2
 10
3449.106101089293
 20
431.1128386997715
 30
0
 11
3449.106101089293
 21
376.7128386997717
 31
0
  0
LINE
  8
1
 62
2
 10
3384.106101089293
 20
384.2128386997717
 30
0
 11
3441.706101089293
 21
384.2128386997717
 31
0
  0
LINE
  8
1
 62
2
 10
3443.706101089293
 20
375.7128386997717
 30
0
 11
3448.106101089293
 21
375.7128386997717
 31
0
  0
LINE
  8
1
 62
2
 10
3442.706101089293
 20
383.2128386997717
 30
0
 11
3442.706101089293
 21
376.7128386997717
 31
0
  0
LINE
  8
1
 62
2
 10
3383.106101089293
 20
383.2128386997717
 30
0
 11
3383.106101089293
 21
376.7128386997717
 31
0
  0
LINE
  8
1
 62
2
 10
3442.706101089293
 20
431.1128386997715
 30
0
 11
3442.706101089293
 21
424.6128386997717
 31
0
  0
LINE
  8
1
 62
2
 10
3441.706101089293
 20
423.6128386997717
 30
0
 11
3384.106101089293
 21
423.6128386997717
 31
0
  0
LINE
  8
1
 62
2
 10
3383.106101089293
 20
431.1128386997715
 30
0
 11
3383.106101089293
 21
424.6128386997717
 31
0
  0
LINE
  8
1
 62
2
 10
3448.106101089293
 20
432.1128386997715
 30
0
 11
3443.706101089293
 21
432.1128386997717
 31
0
  0
LINE
  8
1
 62
2
 10
3382.106101089293
 20
432.1128386997717
 30
0
 11
3377.706101089293
 21
432.1128386997717
 31
0
  0
LINE
  8
1
 62
3
 10
3382.706101089293
 20
402.6128386997717
 30
0
 11
3413.906101089293
 21
402.6128386997717
 31
0
  0
LINE
  8
1
 62
3
 10
3382.706101089293
 20
400.6128386997717
 30
0
 11
3413.906101089293
 21
400.6128386997717
 31
0
  0
LINE
  8
1
 62
3
 10
3382.706101089293
 20
406.6128386997717
 30
0
 11
3411.406101089293
 21
406.6128386997717
 31
0
  0
LINE
  8
1
 62
3
 10
3382.706101089293
 20
404.6128386997717
 30
0
 11
3411.406101089293
 21
404.6128386997717
 31
0
  0
LINE
  8
1
 62
3
 10
3382.706101089293
 20
406.6128386997717
 30
0
 11
3411.406101089293
 21
406.6128386997717
 31
0
  0
LINE
  8
1
 62
3
 10
3382.706101089293
 20
404.6128386997717
 30
0
 11
3411.406101089293
 21
404.6128386997717
 31
0
  0
LINE
  8
1
 62
3
 10
3382.706101089293
 20
410.6128386997717
 30
0
 11
3408.906101089293
 21
410.6128386997717
 31
0
  0
LINE
  8
1
 62
3
 10
3382.706101089293
 20
408.6128386997717
 30
0
 11
3408.906101089293
 21
408.6128386997717
 31
0
  0
LINE
  8
1
 62
3
 10
3382.706101089293
 20
414.6128386997717
 30
0
 11
3406.406101089293
 21
414.6128386997717
 31
0
  0
LINE
  8
1
 62
3
 10
3382.706101089293
 20
412.6128386997717
 30
0
 11
3406.406101089293
 21
412.6128386997717
 31
0
  0
LINE
  8
1
 62
3
 10
3382.706101089293
 20
418.6128386997717
 30
0
 11
3403.906101089293
 21
418.6128386997717
 31
0
  0
LINE
  8
1
 62
3
 10
3382.706101089293
 20
416.6128386997717
 30
0
 11
3403.906101089293
 21
416.6128386997717
 31
0
  0
LINE
  8
1
 62
3
 10
3382.906101089293
 20
396.7128386997716
 30
0
 11
3382.906101089293
 21
385.7128386997717
 31
0
  0
LINE
  8
1
 62
3
 10
3442.906101089293
 20
396.7128386997716
 30
0
 11
3442.906101089293
 21
385.7128386997717
 31
0
  0
LINE
  8
1
 62
2
 10
3439.440482245067
 20
388.0128386997717
 30
0
 11
3439.440482245067
 21
390.9128386997718
 31
0
  0
LINE
  8
1
 62
2
 10
3427.740482245068
 20
387.7128386997717
 30
0
 11
3439.140482245067
 21
387.7128386997717
 31
0
  0
LINE
  8
1
 62
2
 10
3427.440482245067
 20
390.9128386997718
 30
0
 11
3427.440482245067
 21
388.0128386997717
 31
0
  0
LINE
  8
1
 62
2
 10
3439.140482245067
 20
391.2128386997717
 30
0
 11
3427.740482245068
 21
391.2128386997717
 31
0
  0
LINE
  8
1
 62
2
 10
3413.156101089293
 20
396.7128386997716
 30
0
 11
3442.206101089293
 21
396.7128386997716
 31
0
  0
LINE
  8
1
 62
2
 10
3412.656101089293
 20
396.7128386997716
 30
0
 11
3412.656101089293
 21
385.7128386997717
 31
0
  0
LINE
  8
1
 62
2
 10
3383.606101089293
 20
396.7128386997716
 30
0
 11
3412.656101089293
 21
396.7128386997716
 31
0
  0
LINE
  8
1
 62
2
 10
3413.156101089293
 20
385.7128386997717
 30
0
 11
3413.156101089293
 21
396.7128386997716
 31
0
  0
LINE
  8
1
 62
2
 10
3442.206101089293
 20
385.7128386997717
 30
0
 11
3413.156101089293
 21
385.7128386997717
 31
0
  0
LINE
  8
1
 62
3
 10
3442.406101089293
 20
385.2128386997718
 30
0
 11
3383.406101089293
 21
385.2128386997716
 31
0
  0
LINE
  8
1
 62
3
 10
3383.406101089293
 20
397.2128386997716
 30
0
 11
3442.406101089293
 21
397.2128386997716
 31
0
  0
LINE
  8
1
 62
2
 10
3411.764967799354
 20
395.0505347292078
 30
0
 11
3411.237954282322
 21
395.0505347292078
 31
0
  0
LINE
  8
1
 62
2
 10
3385.925232180566
 20
393.1605241614762
 30
0
 11
3387.52873918762
 21
392.4214715665978
 31
0
  0
LINE
  8
1
 62
2
 10
3384.888625403647
 20
390.7055516431842
 30
0
 11
3384.207217329831
 21
390.0886298127775
 31
0
  0
LINE
  8
1
 62
2
 10
3386.940741400239
 20
393.8872228368657
 30
0
 11
3387.840872273042
 21
394.3106981362575
 31
0
  0
LINE
  8
1
 62
2
 10
3384.897383635739
 20
391.9450579099023
 30
0
 11
3386.259214105266
 21
391.4130884611406
 31
0
  0
LINE
  8
1
 62
2
 10
3409.570545393968
 20
391.3306569145411
 30
0
 11
3410.514994115119
 21
389.2505347114754
 31
0
  0
LINE
  8
1
 62
2
 10
3410.365742174332
 20
392.9184416899118
 30
0
 11
3411.764967799354
 21
395.0505347292078
 31
0
  0
LINE
  8
1
 62
2
 10
3410.1151467855
 20
393.4703711071707
 30
0
 11
3411.237954282322
 21
395.0505347292078
 31
0
  0
LINE
  8
1
 62
2
 10
3410.365742174332
 20
392.9184416899118
 30
0
 11
3412.031101089293
 21
389.2505347114754
 31
0
  0
LINE
  8
1
 62
2
 10
3410.514994115119
 20
389.2505347114754
 30
0
 11
3412.031101089293
 21
389.2505347114754
 31
0
  0
LINE
  8
1
 62
2
 10
3407.670334364971
 20
389.2505347114754
 30
0
 11
3408.197347882003
 21
389.2505347114754
 31
0
  0
LINE
  8
1
 62
2
 10
3407.670334364971
 20
389.2505347114754
 30
0
 11
3409.319950005136
 21
391.8825863318002
 31
0
  0
LINE
  8
1
 62
2
 10
3409.397696863643
 20
395.0505347292078
 30
0
 11
3410.1151467855
 21
393.4703711071707
 31
0
  0
LINE
  8
1
 62
2
 10
3407.881589889469
 20
395.0505347292078
 30
0
 11
3409.397696863643
 21
395.0505347292078
 31
0
  0
LINE
  8
1
 62
2
 10
3408.197347882003
 20
389.2505347114754
 30
0
 11
3409.570545393968
 21
391.3306569145411
 31
0
  0
LINE
  8
1
 62
2
 10
3407.881589889469
 20
395.0505347292078
 30
0
 11
3409.319950005136
 21
391.8825863318002
 31
0
  0
LINE
  8
1
 62
2
 10
3407.116833026687
 20
394.3247901763341
 30
0
 11
3407.116833026687
 21
395.0505347292078
 31
0
  0
LINE
  8
1
 62
2
 10
3404.82258580384
 20
394.3247901763341
 30
0
 11
3407.116833026687
 21
394.3247901763341
 31
0
  0
LINE
  8
1
 62
2
 10
3404.82258580384
 20
392.5022365549705
 30
0
 11
3404.82258580384
 21
394.3247901763341
 31
0
  0
LINE
  8
1
 62
2
 10
3407.116833026687
 20
392.5022365549705
 30
0
 11
3404.82258580384
 21
392.5022365549705
 31
0
  0
LINE
  8
1
 62
2
 10
3407.116833026687
 20
391.9430551298479
 30
0
 11
3407.116833026687
 21
392.5022365549705
 31
0
  0
LINE
  8
1
 62
2
 10
3404.82258580384
 20
391.9430551298479
 30
0
 11
3407.116833026687
 21
391.9430551298479
 31
0
  0
LINE
  8
1
 62
2
 10
3404.82258580384
 20
389.9758426655227
 30
0
 11
3404.82258580384
 21
391.9430551298479
 31
0
  0
LINE
  8
1
 62
2
 10
3407.116833026687
 20
389.9758426655227
 30
0
 11
3404.82258580384
 21
389.9758426655227
 31
0
  0
LINE
  8
1
 62
2
 10
3407.116833026687
 20
389.2505347114754
 30
0
 11
3407.116833026687
 21
389.9758426655227
 31
0
  0
LINE
  8
1
 62
2
 10
3403.331161810677
 20
389.2505347114754
 30
0
 11
3407.116833026687
 21
389.2505347114754
 31
0
  0
LINE
  8
1
 62
2
 10
3403.331161810677
 20
395.0505347292078
 30
0
 11
3403.331161810677
 21
389.2505347114754
 31
0
  0
LINE
  8
1
 62
2
 10
3407.116833026687
 20
395.0505347292078
 30
0
 11
3403.331161810677
 21
395.0505347292078
 31
0
  0
LINE
  8
1
 62
2
 10
3398.000337502378
 20
395.0505347292078
 30
0
 11
3399.516444476552
 21
395.0505347292078
 31
0
  0
LINE
  8
1
 62
2
 10
3401.168554668982
 20
391.7784860353988
 30
0
 11
3399.516444476552
 21
395.0505347292078
 31
0
  0
LINE
  8
1
 62
2
 10
3402.437469237907
 20
395.0505347292078
 30
0
 11
3401.168554668982
 21
391.7784860353988
 31
0
  0
LINE
  8
1
 62
2
 10
3402.964482754939
 20
395.0505347292078
 30
0
 11
3402.437469237907
 21
395.0505347292078
 31
0
  0
LINE
  8
1
 62
2
 10
3400.722573053732
 20
389.2505347114754
 30
0
 11
3402.964482754939
 21
395.0505347292078
 31
0
  0
LINE
  8
1
 62
2
 10
3400.633741728028
 20
389.2505347114754
 30
0
 11
3400.722573053732
 21
389.2505347114754
 31
0
  0
LINE
  8
1
 62
2
 10
3398.000337502378
 20
395.0505347292078
 30
0
 11
3400.633741728028
 21
389.2505347114754
 31
0
  0
LINE
  8
1
 62
2
 10
3397.898150267592
 20
389.2505347114755
 30
0
 11
3396.145388528843
 21
389.2505347114755
 31
0
  0
LINE
  8
1
 62
2
 10
3396.727516824365
 20
392.0129024182795
 30
0
 11
3397.898150267592
 21
389.2505347114755
 31
0
  0
LINE
  8
1
 62
2
 10
3395.11316411157
 20
391.8601982413379
 30
0
 11
3396.145388528843
 21
389.2505347114755
 31
0
  0
LINE
  8
1
 62
2
 10
3394.819678312698
 20
392.4193796664615
 30
0
 11
3394.819678312698
 21
394.3247901763341
 31
0
  0
LINE
  8
1
 62
2
 10
3395.685544141324
 20
392.4193796664615
 30
0
 11
3394.819678312698
 21
392.4193796664615
 31
0
  0
LINE
  8
1
 62
2
 10
3394.819678312698
 20
394.3247901763341
 30
0
 11
3395.685544141324
 21
394.3247901763341
 31
0
  0
LINE
  8
1
 62
2
 10
3396.311102305861
 20
395.0505347292078
 30
0
 11
3394.819678312698
 21
395.0505347292078
 31
0
  0
LINE
  8
1
 62
2
 10
3393.411111208044
 20
395.0505347292078
 30
0
 11
3394.819678312698
 21
395.0505347292078
 31
0
  0
LINE
  8
1
 62
2
 10
3394.819678312698
 20
391.8601982413379
 30
0
 11
3395.11316411157
 21
391.8601982413379
 31
0
  0
LINE
  8
1
 62
2
 10
3394.819678312698
 20
389.2505347114754
 30
0
 11
3394.819678312698
 21
391.8601982413379
 31
0
  0
LINE
  8
1
 62
2
 10
3393.411111208044
 20
389.2505347114754
 30
0
 11
3394.819678312698
 21
389.2505347114754
 31
0
  0
LINE
  8
1
 62
2
 10
3393.411111208044
 20
395.0505347292078
 30
0
 11
3393.411111208044
 21
389.2505347114754
 31
0
  0
LINE
  8
1
 62
2
 10
3392.649865737919
 20
394.3247901763341
 30
0
 11
3392.649865737919
 21
395.0505347292078
 31
0
  0
LINE
  8
1
 62
2
 10
3390.355618515071
 20
394.3247901763341
 30
0
 11
3392.649865737919
 21
394.3247901763341
 31
0
  0
LINE
  8
1
 62
2
 10
3390.355618515071
 20
392.5022365549705
 30
0
 11
3390.355618515071
 21
394.3247901763341
 31
0
  0
LINE
  8
1
 62
2
 10
3392.649865737919
 20
392.5022365549705
 30
0
 11
3390.355618515071
 21
392.5022365549705
 31
0
  0
LINE
  8
1
 62
2
 10
3392.649865737919
 20
391.9430551298479
 30
0
 11
3392.649865737919
 21
392.5022365549705
 31
0
  0
LINE
  8
1
 62
2
 10
3390.355618515071
 20
391.9430551298479
 30
0
 11
3392.649865737919
 21
391.9430551298479
 31
0
  0
LINE
  8
1
 62
2
 10
3390.355618515071
 20
389.9758426655227
 30
0
 11
3390.355618515071
 21
391.9430551298479
 31
0
  0
LINE
  8
1
 62
2
 10
3392.649865737919
 20
389.9758426655227
 30
0
 11
3390.355618515071
 21
389.9758426655227
 31
0
  0
LINE
  8
1
 62
2
 10
3392.649865737919
 20
389.2505347114755
 30
0
 11
3392.649865737919
 21
389.9758426655227
 31
0
  0
LINE
  8
1
 62
2
 10
3388.864194521909
 20
389.2505347114754
 30
0
 11
3392.649865737919
 21
389.2505347114755
 31
0
  0
LINE
  8
1
 62
2
 10
3388.864194521909
 20
395.0505347292076
 30
0
 11
3388.864194521909
 21
389.2505347114754
 31
0
  0
LINE
  8
1
 62
2
 10
3392.649865737919
 20
395.0505347292078
 30
0
 11
3388.864194521909
 21
395.0505347292076
 31
0
  0
LINE
  8
1
 62
2
 10
3442.406101089293
 20
396.5128386997717
 30
0
 11
3442.406101089293
 21
385.9128386997718
 31
0
  0
LINE
  8
1
 62
2
 10
3383.606101089293
 20
385.7128386997717
 30
0
 11
3412.656101089293
 21
385.7128386997717
 31
0
  0
LINE
  8
1
 62
2
 10
3383.406101089293
 20
385.9128386997718
 30
0
 11
3383.406101089293
 21
396.5128386997717
 31
0
  0
LINE
  8
1
 62
2
 10
3424.038761807457
 20
321.9587736154507
 30
0
 11
3424.678761807457
 21
321.9587736154507
 31
0
  0
LINE
  8
1
 62
2
 10
3424.678761807457
 20
321.9587736154507
 30
0
 11
3424.678761807457
 21
317.6997930980941
 31
0
  0
LINE
  8
1
 62
2
 10
3424.038761807457
 20
321.9587736154507
 30
0
 11
3424.038761807457
 21
317.6997930980941
 31
0
  0
LINE
  8
1
 62
2
 10
3424.038761807457
 20
312.4997930980939
 30
0
 11
3424.678761807457
 21
312.4997930980939
 31
0
  0
LINE
  8
1
 62
2
 10
3424.678761807457
 20
312.4997930980939
 30
0
 11
3424.678761807457
 21
312.9997930980939
 31
0
  0
LINE
  8
1
 62
2
 10
3424.678761807457
 20
312.9997930980939
 30
0
 11
3424.038761807457
 21
312.9997930980939
 31
0
  0
LINE
  8
1
 62
2
 10
3424.038761807457
 20
312.9997930980939
 30
0
 11
3424.038761807457
 21
312.4997930980939
 31
0
  0
LINE
  8
1
 62
2
 10
3424.678761807457
 20
312.9997930980939
 30
0
 11
3425.158761807458
 21
313.9997930980939
 31
0
  0
LINE
  8
1
 62
2
 10
3424.038761807457
 20
312.9997930980939
 30
0
 11
3423.558761807457
 21
313.9997930980939
 31
0
  0
LINE
  8
1
 62
2
 10
3426.538761807457
 20
321.9587736154507
 30
0
 11
3427.178761807457
 21
321.9587736154507
 31
0
  0
LINE
  8
1
 62
2
 10
3427.178761807457
 20
321.9587736154507
 30
0
 11
3427.178761807457
 21
317.6997930980941
 31
0
  0
LINE
  8
1
 62
2
 10
3426.538761807457
 20
321.9587736154507
 30
0
 11
3426.538761807457
 21
317.6997930980941
 31
0
  0
LINE
  8
1
 62
2
 10
3426.538761807457
 20
312.4997930980939
 30
0
 11
3427.178761807457
 21
312.4997930980939
 31
0
  0
LINE
  8
1
 62
2
 10
3427.178761807457
 20
312.4997930980939
 30
0
 11
3427.178761807457
 21
312.9997930980939
 31
0
  0
LINE
  8
1
 62
2
 10
3427.178761807457
 20
312.9997930980939
 30
0
 11
3426.538761807457
 21
312.9997930980939
 31
0
  0
LINE
  8
1
 62
2
 10
3426.538761807457
 20
312.9997930980939
 30
0
 11
3426.538761807457
 21
312.4997930980939
 31
0
  0
LINE
  8
1
 62
2
 10
3427.178761807457
 20
312.9997930980939
 30
0
 11
3427.658761807458
 21
313.9997930980939
 31
0
  0
LINE
  8
1
 62
2
 10
3426.538761807457
 20
312.9997930980939
 30
0
 11
3426.058761807457
 21
313.9997930980939
 31
0
  0
LINE
  8
1
 62
2
 10
3424.038761807457
 20
379.9195835887025
 30
0
 11
3424.038761807457
 21
379.2795835887024
 31
0
  0
LINE
  8
1
 62
2
 10
3424.678761807457
 20
379.9195835887025
 30
0
 11
3424.678761807457
 21
379.2795835887024
 31
0
  0
LINE
  8
1
 62
2
 10
3424.038761807457
 20
379.9195835887025
 30
0
 11
3424.678761807457
 21
379.9195835887025
 31
0
  0
LINE
  8
1
 62
2
 10
3424.038761807457
 20
379.2795835887024
 30
0
 11
3424.678761807457
 21
379.2795835887024
 31
0
  0
LINE
  8
1
 62
2
 10
3426.538761807457
 20
379.9195835887025
 30
0
 11
3426.538761807457
 21
379.2795835887024
 31
0
  0
LINE
  8
1
 62
2
 10
3427.178761807457
 20
379.9195835887025
 30
0
 11
3427.178761807457
 21
379.2795835887024
 31
0
  0
LINE
  8
1
 62
2
 10
3426.538761807457
 20
379.9195835887025
 30
0
 11
3427.178761807457
 21
379.9195835887025
 31
0
  0
LINE
  8
1
 62
2
 10
3426.538761807457
 20
379.2795835887024
 30
0
 11
3427.178761807457
 21
379.2795835887024
 31
0
  0
LINE
  8
1
 62
2
 10
3386.886101089293
 20
379.9628386997716
 30
0
 11
3387.526101089294
 21
379.9628386997716
 31
0
  0
LINE
  8
1
 62
2
 10
3389.386101089293
 20
379.9628386997716
 30
0
 11
3390.026101089294
 21
379.9628386997716
 31
0
  0
LINE
  8
1
 62
2
 10
3391.886101089293
 20
379.9628386997716
 30
0
 11
3392.526101089294
 21
379.9628386997716
 31
0
  0
LINE
  8
1
 62
2
 10
3394.386101089293
 20
379.9628386997716
 30
0
 11
3395.026101089294
 21
379.9628386997716
 31
0
  0
LINE
  8
1
 62
2
 10
3396.886101089293
 20
379.9628386997716
 30
0
 11
3397.526101089294
 21
379.9628386997716
 31
0
  0
LINE
  8
1
 62
2
 10
3399.386101089293
 20
379.9628386997716
 30
0
 11
3400.026101089294
 21
379.9628386997716
 31
0
  0
LINE
  8
1
 62
2
 10
3401.886101089293
 20
379.9628386997716
 30
0
 11
3402.526101089294
 21
379.9628386997716
 31
0
  0
LINE
  8
1
 62
2
 10
3404.386101089293
 20
379.9628386997716
 30
0
 11
3405.026101089294
 21
379.9628386997716
 31
0
  0
LINE
  8
1
 62
2
 10
3406.886101089293
 20
379.9628386997716
 30
0
 11
3407.526101089294
 21
379.9628386997716
 31
0
  0
LINE
  8
1
 62
2
 10
3407.526101089294
 20
379.3228386997715
 30
0
 11
3406.886101089293
 21
379.3228386997715
 31
0
  0
LINE
  8
1
 62
2
 10
3405.026101089294
 20
379.3228386997715
 30
0
 11
3404.386101089293
 21
379.3228386997715
 31
0
  0
LINE
  8
1
 62
2
 10
3402.526101089294
 20
379.3228386997715
 30
0
 11
3401.886101089293
 21
379.3228386997715
 31
0
  0
LINE
  8
1
 62
2
 10
3400.026101089294
 20
379.3228386997715
 30
0
 11
3399.386101089293
 21
379.3228386997715
 31
0
  0
LINE
  8
1
 62
2
 10
3397.526101089294
 20
379.3228386997715
 30
0
 11
3396.886101089293
 21
379.3228386997715
 31
0
  0
LINE
  8
1
 62
2
 10
3395.026101089294
 20
379.3228386997715
 30
0
 11
3394.386101089293
 21
379.3228386997715
 31
0
  0
LINE
  8
1
 62
2
 10
3392.526101089294
 20
379.3228386997715
 30
0
 11
3391.886101089293
 21
379.3228386997715
 31
0
  0
LINE
  8
1
 62
2
 10
3390.026101089294
 20
379.3228386997715
 30
0
 11
3389.386101089293
 21
379.3228386997715
 31
0
  0
LINE
  8
1
 62
2
 10
3387.526101089294
 20
379.3228386997715
 30
0
 11
3386.886101089293
 21
379.3228386997715
 31
0
  0
LINE
  8
1
 62
2
 10
3386.886101089293
 20
379.9628386997716
 30
0
 11
3386.886101089293
 21
379.3228386997715
 31
0
  0
LINE
  8
1
 62
2
 10
3387.526101089294
 20
379.9628386997716
 30
0
 11
3387.526101089294
 21
379.3228386997715
 31
0
  0
LINE
  8
1
 62
2
 10
3389.386101089293
 20
379.9628386997716
 30
0
 11
3389.386101089293
 21
379.3228386997715
 31
0
  0
LINE
  8
1
 62
2
 10
3390.026101089294
 20
379.9628386997716
 30
0
 11
3390.026101089294
 21
379.3228386997715
 31
0
  0
LINE
  8
1
 62
2
 10
3391.886101089293
 20
379.9628386997716
 30
0
 11
3391.886101089293
 21
379.3228386997715
 31
0
  0
LINE
  8
1
 62
2
 10
3392.526101089294
 20
379.9628386997716
 30
0
 11
3392.526101089294
 21
379.3228386997715
 31
0
  0
LINE
  8
1
 62
2
 10
3394.386101089293
 20
379.9628386997716
 30
0
 11
3394.386101089293
 21
379.3228386997715
 31
0
  0
LINE
  8
1
 62
2
 10
3396.886101089293
 20
379.9628386997716
 30
0
 11
3396.886101089293
 21
379.3228386997715
 31
0
  0
LINE
  8
1
 62
2
 10
3397.526101089294
 20
379.9628386997716
 30
0
 11
3397.526101089294
 21
379.3228386997715
 31
0
  0
LINE
  8
1
 62
2
 10
3399.386101089293
 20
379.9628386997716
 30
0
 11
3399.386101089293
 21
379.3228386997715
 31
0
  0
LINE
  8
1
 62
2
 10
3400.026101089294
 20
379.9628386997716
 30
0
 11
3400.026101089294
 21
379.3228386997715
 31
0
  0
LINE
  8
1
 62
2
 10
3401.886101089293
 20
379.9628386997716
 30
0
 11
3401.886101089293
 21
379.3228386997715
 31
0
  0
LINE
  8
1
 62
2
 10
3402.526101089294
 20
379.9628386997716
 30
0
 11
3402.526101089294
 21
379.3228386997715
 31
0
  0
LINE
  8
1
 62
2
 10
3404.386101089293
 20
379.9628386997716
 30
0
 11
3404.386101089293
 21
379.3228386997715
 31
0
  0
LINE
  8
1
 62
2
 10
3406.886101089293
 20
379.9628386997716
 30
0
 11
3406.886101089293
 21
379.3228386997715
 31
0
  0
LINE
  8
1
 62
2
 10
3407.526101089294
 20
379.9628386997716
 30
0
 11
3407.526101089294
 21
379.3228386997715
 31
0
  0
LINE
  8
1
 62
2
 10
3405.026101089294
 20
379.9628386997716
 30
0
 11
3405.026101089294
 21
379.3228386997715
 31
0
  0
LINE
  8
1
 62
2
 10
3395.026101089294
 20
379.9628386997716
 30
0
 11
3395.026101089294
 21
379.3228386997715
 31
0
  0
LINE
  8
1
 62
2
 10
3386.886101089293
 20
379.9628386997716
 30
0
 11
3387.526101089294
 21
379.3228386997715
 31
0
  0
LINE
  8
1
 62
2
 10
3386.886101089293
 20
379.3228386997715
 30
0
 11
3387.526101089294
 21
379.9628386997716
 31
0
  0
LINE
  8
1
 62
2
 10
3389.386101089293
 20
379.3228386997715
 30
0
 11
3390.026101089294
 21
379.9628386997716
 31
0
  0
LINE
  8
1
 62
2
 10
3389.386101089293
 20
379.9628386997716
 30
0
 11
3390.026101089294
 21
379.3228386997715
 31
0
  0
LINE
  8
1
 62
2
 10
3391.886101089293
 20
379.9628386997716
 30
0
 11
3392.526101089294
 21
379.3228386997715
 31
0
  0
LINE
  8
1
 62
2
 10
3391.886101089293
 20
379.3228386997715
 30
0
 11
3392.526101089294
 21
379.9628386997716
 31
0
  0
LINE
  8
1
 62
2
 10
3394.386101089293
 20
379.9628386997716
 30
0
 11
3395.026101089294
 21
379.3228386997715
 31
0
  0
LINE
  8
1
 62
2
 10
3394.386101089293
 20
379.3228386997715
 30
0
 11
3395.026101089294
 21
379.9628386997716
 31
0
  0
LINE
  8
1
 62
2
 10
3396.886101089293
 20
379.9628386997716
 30
0
 11
3397.526101089294
 21
379.3228386997715
 31
0
  0
LINE
  8
1
 62
2
 10
3396.886101089293
 20
379.3228386997715
 30
0
 11
3397.526101089294
 21
379.9628386997716
 31
0
  0
LINE
  8
1
 62
2
 10
3399.386101089293
 20
379.9628386997716
 30
0
 11
3400.026101089294
 21
379.3228386997715
 31
0
  0
LINE
  8
1
 62
2
 10
3400.026101089294
 20
379.9628386997716
 30
0
 11
3399.386101089293
 21
379.3228386997715
 31
0
  0
LINE
  8
1
 62
2
 10
3401.886101089293
 20
379.9628386997716
 30
0
 11
3402.526101089294
 21
379.3228386997715
 31
0
  0
LINE
  8
1
 62
2
 10
3401.886101089293
 20
379.3228386997715
 30
0
 11
3402.526101089294
 21
379.9628386997716
 31
0
  0
LINE
  8
1
 62
2
 10
3404.386101089293
 20
379.9628386997716
 30
0
 11
3405.026101089294
 21
379.3228386997715
 31
0
  0
LINE
  8
1
 62
2
 10
3405.026101089294
 20
379.9628386997716
 30
0
 11
3404.386101089293
 21
379.3228386997715
 31
0
  0
LINE
  8
1
 62
2
 10
3406.886101089293
 20
379.9628386997716
 30
0
 11
3407.526101089294
 21
379.3228386997715
 31
0
  0
LINE
  8
1
 62
2
 10
3406.886101089293
 20
379.3228386997715
 30
0
 11
3407.526101089294
 21
379.9628386997716
 31
0
  0
LINE
  8
1
 62
2
 10
3408.706101089293
 20
382.6428386997717
 30
0
 11
3408.706101089293
 21
376.6428386997717
 31
0
  0
LINE
  8
1
 62
2
 10
3385.706101089293
 20
382.6428386997717
 30
0
 11
3385.706101089293
 21
376.6428386997717
 31
0
  0
LINE
  8
1
 62
2
 10
3385.706101089293
 20
381.6428386997717
 30
0
 11
3408.706101089293
 21
381.6428386997717
 31
0
  0
LINE
  8
1
 62
2
 10
3385.706101089293
 20
382.6428386997717
 30
0
 11
3408.706101089293
 21
382.6428386997717
 31
0
  0
LINE
  8
1
 62
2
 10
3385.706101089293
 20
376.6428386997717
 30
0
 11
3408.706101089293
 21
376.6428386997717
 31
0
  0
LINE
  8
1
 62
2
 10
3419.156101089294
 20
317.099793098094
 30
0
 11
3420.656101089294
 21
317.099793098094
 31
0
  0
LINE
  8
1
 62
2
 10
3420.656101089294
 20
316.1997930980939
 30
0
 11
3420.656101089294
 21
317.099793098094
 31
0
  0
LINE
  8
1
 62
2
 10
3419.156101089294
 20
316.1997930980939
 30
0
 11
3419.156101089294
 21
317.099793098094
 31
0
  0
LINE
  8
1
 62
2
 10
3419.156101089294
 20
316.1997930980939
 30
0
 11
3420.656101089294
 21
316.1997930980939
 31
0
  0
LINE
  8
1
 62
2
 10
3420.656101089294
 20
315.599793098094
 30
0
 11
3420.656101089294
 21
316.1997930980939
 31
0
  0
LINE
  8
1
 62
2
 10
3419.156101089294
 20
315.599793098094
 30
0
 11
3419.156101089294
 21
316.1997930980939
 31
0
  0
LINE
  8
1
 62
2
 10
3419.056101089294
 20
315.599793098094
 30
0
 11
3420.756101089294
 21
315.599793098094
 31
0
  0
LINE
  8
1
 62
2
 10
3408.706101089293
 20
315.599793098094
 30
0
 11
3408.706101089293
 21
322.6997930980939
 31
0
  0
LINE
  8
1
 62
2
 10
3385.706101089293
 20
315.599793098094
 30
0
 11
3385.706101089293
 21
322.6997930980939
 31
0
  0
LINE
  8
1
 62
2
 10
3385.706101089293
 20
322.6997930980939
 30
0
 11
3408.706101089293
 21
322.6997930980939
 31
0
  0
LINE
  8
1
 62
2
 10
3385.706101089293
 20
315.599793098094
 30
0
 11
3408.706101089293
 21
315.599793098094
 31
0
  0
LINE
  8
1
 62
2
 10
3385.706101089293
 20
317.6997930980939
 30
0
 11
3408.706101089293
 21
317.6997930980939
 31
0
  0
LINE
  8
1
 62
2
 10
3407.526101089294
 20
317.6997930980939
 30
0
 11
3407.526101089294
 21
321.599793098094
 31
0
  0
LINE
  8
1
 62
2
 10
3406.886101089293
 20
317.6997930980939
 30
0
 11
3406.886101089293
 21
321.599793098094
 31
0
  0
LINE
  8
1
 62
2
 10
3406.886101089293
 20
321.599793098094
 30
0
 11
3407.526101089294
 21
321.599793098094
 31
0
  0
LINE
  8
1
 62
2
 10
3405.026101089294
 20
317.6997930980939
 30
0
 11
3405.026101089294
 21
321.599793098094
 31
0
  0
LINE
  8
1
 62
2
 10
3404.386101089293
 20
317.6997930980939
 30
0
 11
3404.386101089293
 21
321.599793098094
 31
0
  0
LINE
  8
1
 62
2
 10
3404.386101089293
 20
321.599793098094
 30
0
 11
3405.026101089294
 21
321.599793098094
 31
0
  0
LINE
  8
1
 62
2
 10
3402.526101089294
 20
317.6997930980939
 30
0
 11
3402.526101089294
 21
321.599793098094
 31
0
  0
LINE
  8
1
 62
2
 10
3401.886101089293
 20
317.6997930980939
 30
0
 11
3401.886101089293
 21
321.599793098094
 31
0
  0
LINE
  8
1
 62
2
 10
3401.886101089293
 20
321.599793098094
 30
0
 11
3402.526101089294
 21
321.599793098094
 31
0
  0
LINE
  8
1
 62
2
 10
3400.026101089294
 20
317.6997930980939
 30
0
 11
3400.026101089294
 21
321.599793098094
 31
0
  0
LINE
  8
1
 62
2
 10
3399.386101089293
 20
317.6997930980939
 30
0
 11
3399.386101089293
 21
321.599793098094
 31
0
  0
LINE
  8
1
 62
2
 10
3399.386101089293
 20
321.599793098094
 30
0
 11
3400.026101089294
 21
321.599793098094
 31
0
  0
LINE
  8
1
 62
2
 10
3397.526101089294
 20
317.6997930980939
 30
0
 11
3397.526101089294
 21
321.599793098094
 31
0
  0
LINE
  8
1
 62
2
 10
3396.886101089293
 20
317.6997930980939
 30
0
 11
3396.886101089293
 21
321.599793098094
 31
0
  0
LINE
  8
1
 62
2
 10
3396.886101089293
 20
321.599793098094
 30
0
 11
3397.526101089294
 21
321.599793098094
 31
0
  0
LINE
  8
1
 62
2
 10
3395.026101089294
 20
317.6997930980939
 30
0
 11
3395.026101089294
 21
321.599793098094
 31
0
  0
LINE
  8
1
 62
2
 10
3394.386101089293
 20
317.6997930980939
 30
0
 11
3394.386101089293
 21
321.599793098094
 31
0
  0
LINE
  8
1
 62
2
 10
3394.386101089293
 20
321.599793098094
 30
0
 11
3395.026101089294
 21
321.599793098094
 31
0
  0
LINE
  8
1
 62
2
 10
3392.526101089294
 20
317.6997930980939
 30
0
 11
3392.526101089294
 21
321.599793098094
 31
0
  0
LINE
  8
1
 62
2
 10
3391.886101089293
 20
317.6997930980939
 30
0
 11
3391.886101089293
 21
321.599793098094
 31
0
  0
LINE
  8
1
 62
2
 10
3391.886101089293
 20
321.599793098094
 30
0
 11
3392.526101089294
 21
321.599793098094
 31
0
  0
LINE
  8
1
 62
2
 10
3390.026101089294
 20
317.6997930980939
 30
0
 11
3390.026101089294
 21
321.599793098094
 31
0
  0
LINE
  8
1
 62
2
 10
3389.386101089293
 20
317.6997930980939
 30
0
 11
3389.386101089293
 21
321.599793098094
 31
0
  0
LINE
  8
1
 62
2
 10
3389.386101089293
 20
321.599793098094
 30
0
 11
3390.026101089294
 21
321.599793098094
 31
0
  0
LINE
  8
1
 62
2
 10
3387.526101089294
 20
317.6997930980939
 30
0
 11
3387.526101089294
 21
321.599793098094
 31
0
  0
LINE
  8
1
 62
2
 10
3386.886101089293
 20
317.6997930980939
 30
0
 11
3386.886101089293
 21
321.599793098094
 31
0
  0
LINE
  8
1
 62
2
 10
3386.886101089293
 20
321.599793098094
 30
0
 11
3387.526101089294
 21
321.599793098094
 31
0
  0
LINE
  8
1
 62
2
 10
3406.886101089293
 20
312.9997930980939
 30
0
 11
3406.406101089294
 21
313.9997930980939
 31
0
  0
LINE
  8
1
 62
2
 10
3407.526101089294
 20
312.9997930980939
 30
0
 11
3408.006101089294
 21
313.9997930980939
 31
0
  0
LINE
  8
1
 62
2
 10
3406.886101089293
 20
312.9997930980939
 30
0
 11
3406.886101089293
 21
312.4997930980939
 31
0
  0
LINE
  8
1
 62
2
 10
3407.526101089294
 20
312.9997930980939
 30
0
 11
3406.886101089293
 21
312.9997930980939
 31
0
  0
LINE
  8
1
 62
2
 10
3407.526101089294
 20
312.4997930980939
 30
0
 11
3407.526101089294
 21
312.9997930980939
 31
0
  0
LINE
  8
1
 62
2
 10
3406.886101089293
 20
312.4997930980939
 30
0
 11
3407.526101089294
 21
312.4997930980939
 31
0
  0
LINE
  8
1
 62
2
 10
3404.386101089293
 20
312.9997930980939
 30
0
 11
3403.906101089294
 21
313.9997930980939
 31
0
  0
LINE
  8
1
 62
2
 10
3405.026101089294
 20
312.9997930980939
 30
0
 11
3405.506101089294
 21
313.9997930980939
 31
0
  0
LINE
  8
1
 62
2
 10
3404.386101089293
 20
312.9997930980939
 30
0
 11
3404.386101089293
 21
312.4997930980939
 31
0
  0
LINE
  8
1
 62
2
 10
3405.026101089294
 20
312.9997930980939
 30
0
 11
3404.386101089293
 21
312.9997930980939
 31
0
  0
LINE
  8
1
 62
2
 10
3405.026101089294
 20
312.4997930980939
 30
0
 11
3405.026101089294
 21
312.9997930980939
 31
0
  0
LINE
  8
1
 62
2
 10
3404.386101089293
 20
312.4997930980939
 30
0
 11
3405.026101089294
 21
312.4997930980939
 31
0
  0
LINE
  8
1
 62
2
 10
3401.886101089293
 20
312.9997930980939
 30
0
 11
3401.406101089294
 21
313.9997930980939
 31
0
  0
LINE
  8
1
 62
2
 10
3402.526101089294
 20
312.9997930980939
 30
0
 11
3403.006101089294
 21
313.9997930980939
 31
0
  0
LINE
  8
1
 62
2
 10
3401.886101089293
 20
312.9997930980939
 30
0
 11
3401.886101089293
 21
312.4997930980939
 31
0
  0
LINE
  8
1
 62
2
 10
3402.526101089294
 20
312.9997930980939
 30
0
 11
3401.886101089293
 21
312.9997930980939
 31
0
  0
LINE
  8
1
 62
2
 10
3402.526101089294
 20
312.4997930980939
 30
0
 11
3402.526101089294
 21
312.9997930980939
 31
0
  0
LINE
  8
1
 62
2
 10
3401.886101089293
 20
312.4997930980939
 30
0
 11
3402.526101089294
 21
312.4997930980939
 31
0
  0
LINE
  8
1
 62
2
 10
3399.386101089293
 20
312.9997930980939
 30
0
 11
3398.906101089294
 21
313.9997930980939
 31
0
  0
LINE
  8
1
 62
2
 10
3400.026101089294
 20
312.9997930980939
 30
0
 11
3400.506101089294
 21
313.9997930980939
 31
0
  0
LINE
  8
1
 62
2
 10
3399.386101089293
 20
312.9997930980939
 30
0
 11
3399.386101089293
 21
312.4997930980939
 31
0
  0
LINE
  8
1
 62
2
 10
3400.026101089294
 20
312.9997930980939
 30
0
 11
3399.386101089293
 21
312.9997930980939
 31
0
  0
LINE
  8
1
 62
2
 10
3400.026101089294
 20
312.4997930980939
 30
0
 11
3400.026101089294
 21
312.9997930980939
 31
0
  0
LINE
  8
1
 62
2
 10
3399.386101089293
 20
312.4997930980939
 30
0
 11
3400.026101089294
 21
312.4997930980939
 31
0
  0
LINE
  8
1
 62
2
 10
3396.886101089293
 20
312.9997930980939
 30
0
 11
3396.406101089294
 21
313.9997930980939
 31
0
  0
LINE
  8
1
 62
2
 10
3397.526101089294
 20
312.9997930980939
 30
0
 11
3398.006101089294
 21
313.9997930980939
 31
0
  0
LINE
  8
1
 62
2
 10
3396.886101089293
 20
312.9997930980939
 30
0
 11
3396.886101089293
 21
312.4997930980939
 31
0
  0
LINE
  8
1
 62
2
 10
3397.526101089294
 20
312.9997930980939
 30
0
 11
3396.886101089293
 21
312.9997930980939
 31
0
  0
LINE
  8
1
 62
2
 10
3397.526101089294
 20
312.4997930980939
 30
0
 11
3397.526101089294
 21
312.9997930980939
 31
0
  0
LINE
  8
1
 62
2
 10
3396.886101089293
 20
312.4997930980939
 30
0
 11
3397.526101089294
 21
312.4997930980939
 31
0
  0
LINE
  8
1
 62
2
 10
3394.386101089293
 20
312.9997930980939
 30
0
 11
3393.906101089294
 21
313.9997930980939
 31
0
  0
LINE
  8
1
 62
2
 10
3395.026101089294
 20
312.9997930980939
 30
0
 11
3395.506101089294
 21
313.9997930980939
 31
0
  0
LINE
  8
1
 62
2
 10
3394.386101089293
 20
312.9997930980939
 30
0
 11
3394.386101089293
 21
312.4997930980939
 31
0
  0
LINE
  8
1
 62
2
 10
3395.026101089294
 20
312.9997930980939
 30
0
 11
3394.386101089293
 21
312.9997930980939
 31
0
  0
LINE
  8
1
 62
2
 10
3395.026101089294
 20
312.4997930980939
 30
0
 11
3395.026101089294
 21
312.9997930980939
 31
0
  0
LINE
  8
1
 62
2
 10
3394.386101089293
 20
312.4997930980939
 30
0
 11
3395.026101089294
 21
312.4997930980939
 31
0
  0
LINE
  8
1
 62
2
 10
3391.886101089293
 20
312.9997930980939
 30
0
 11
3391.406101089294
 21
313.9997930980939
 31
0
  0
LINE
  8
1
 62
2
 10
3392.526101089294
 20
312.9997930980939
 30
0
 11
3393.006101089294
 21
313.9997930980939
 31
0
  0
LINE
  8
1
 62
2
 10
3391.886101089293
 20
312.9997930980939
 30
0
 11
3391.886101089293
 21
312.4997930980939
 31
0
  0
LINE
  8
1
 62
2
 10
3392.526101089294
 20
312.9997930980939
 30
0
 11
3391.886101089293
 21
312.9997930980939
 31
0
  0
LINE
  8
1
 62
2
 10
3392.526101089294
 20
312.4997930980939
 30
0
 11
3392.526101089294
 21
312.9997930980939
 31
0
  0
LINE
  8
1
 62
2
 10
3391.886101089293
 20
312.4997930980939
 30
0
 11
3392.526101089294
 21
312.4997930980939
 31
0
  0
LINE
  8
1
 62
2
 10
3389.386101089293
 20
312.9997930980939
 30
0
 11
3388.906101089294
 21
313.9997930980939
 31
0
  0
LINE
  8
1
 62
2
 10
3390.026101089294
 20
312.9997930980939
 30
0
 11
3390.506101089294
 21
313.9997930980939
 31
0
  0
LINE
  8
1
 62
2
 10
3389.386101089293
 20
312.9997930980939
 30
0
 11
3389.386101089293
 21
312.4997930980939
 31
0
  0
LINE
  8
1
 62
2
 10
3390.026101089294
 20
312.9997930980939
 30
0
 11
3389.386101089293
 21
312.9997930980939
 31
0
  0
LINE
  8
1
 62
2
 10
3390.026101089294
 20
312.4997930980939
 30
0
 11
3390.026101089294
 21
312.9997930980939
 31
0
  0
LINE
  8
1
 62
2
 10
3389.386101089293
 20
312.4997930980939
 30
0
 11
3390.026101089294
 21
312.4997930980939
 31
0
  0
LINE
  8
1
 62
2
 10
3386.886101089293
 20
312.9997930980939
 30
0
 11
3386.406101089294
 21
313.9997930980939
 31
0
  0
LINE
  8
1
 62
2
 10
3387.526101089294
 20
312.9997930980939
 30
0
 11
3388.006101089294
 21
313.9997930980939
 31
0
  0
LINE
  8
1
 62
2
 10
3386.886101089293
 20
312.9997930980939
 30
0
 11
3386.886101089293
 21
312.4997930980939
 31
0
  0
LINE
  8
1
 62
2
 10
3387.526101089294
 20
312.9997930980939
 30
0
 11
3386.886101089293
 21
312.9997930980939
 31
0
  0
LINE
  8
1
 62
2
 10
3387.526101089294
 20
312.4997930980939
 30
0
 11
3387.526101089294
 21
312.9997930980939
 31
0
  0
LINE
  8
1
 62
2
 10
3386.886101089293
 20
312.4997930980939
 30
0
 11
3387.526101089294
 21
312.4997930980939
 31
0
  0
LINE
  8
1
 62
3
 10
3307.44283210833
 20
375.8128386997717
 30
0
 11
3307.44283210833
 21
382.0128386997716
 31
0
  0
LINE
  8
1
 62
3
 10
3307.44283210833
 20
382.0128386997716
 30
0
 11
3312.44283210833
 21
382.0128386997716
 31
0
  0
LINE
  8
1
 62
3
 10
3316.24283210833
 20
375.8128386997717
 30
0
 11
3319.44283210833
 21
375.8128386997717
 31
0
  0
LINE
  8
1
 62
3
 10
3307.44283210833
 20
375.8128386997717
 30
0
 11
3314.242832108331
 21
375.8128386997717
 31
0
  0
LINE
  8
1
 62
3
 10
3307.44283210833
 20
383.1128386997717
 30
0
 11
3307.44283210833
 21
388.1128386997716
 31
0
  0
LINE
  8
1
 62
3
 10
3307.44283210833
 20
388.1128386997716
 30
0
 11
3310.44283210833
 21
388.1128386997716
 31
0
  0
LINE
  8
1
 62
3
 10
3312.44283210833
 20
383.1128386997717
 30
0
 11
3307.44283210833
 21
383.1128386997717
 31
0
  0
LINE
  8
1
 62
3
 10
3312.44283210833
 20
383.1128386997717
 30
0
 11
3312.44283210833
 21
375.9128386997714
 31
0
  0
LINE
  8
1
 62
3
 10
3312.44283210833
 20
375.9128386997714
 30
0
 11
3314.242832108331
 21
375.9128386997714
 31
0
  0
LINE
  8
1
 62
3
 10
3310.44283210833
 20
388.1128386997716
 30
0
 11
3310.44283210833
 21
425.7128386997717
 31
0
  0
LINE
  8
1
 62
3
 10
3314.44283210833
 20
423.9128386997714
 30
0
 11
3316.042832108331
 21
423.9128386997714
 31
0
  0
LINE
  8
1
 62
3
 10
3307.44283210833
 20
425.7128386997717
 30
0
 11
3310.44283210833
 21
425.7128386997717
 31
0
  0
LINE
  8
1
 62
3
 10
3319.44283210833
 20
431.9128386997716
 30
0
 11
3307.44283210833
 21
431.9128386997716
 31
0
  0
LINE
  8
1
 62
3
 10
3307.44283210833
 20
431.9128386997716
 30
0
 11
3307.44283210833
 21
425.7128386997717
 31
0
  0
LINE
  8
1
 62
3
 10
3314.44283210833
 20
375.9128386997714
 30
0
 11
3314.44283210833
 21
423.9128386997714
 31
0
  0
LINE
  8
1
 62
3
 10
3314.44283210833
 20
375.9128386997714
 30
0
 11
3314.44283210833
 21
375.9042431820752
 31
0
  0
LINE
  8
1
 62
3
 10
3319.44283210833
 20
382.6128386997717
 30
0
 11
3316.042832108331
 21
382.6128386997717
 31
0
  0
LINE
  8
1
 62
3
 10
3319.44283210833
 20
375.9128386997714
 30
0
 11
3319.44283210833
 21
382.6128386997717
 31
0
  0
LINE
  8
1
 62
3
 10
3316.042832108331
 20
382.6128386997717
 30
0
 11
3316.042832108331
 21
375.9128386997714
 31
0
  0
LINE
  8
1
 62
3
 10
3316.24283210833
 20
375.9128386997714
 30
0
 11
3319.44283210833
 21
375.9128386997714
 31
0
  0
LINE
  8
1
 62
3
 10
3314.44283210833
 20
423.9128386997714
 30
0
 11
3314.44283210833
 21
425.7128386997717
 31
0
  0
LINE
  8
1
 62
3
 10
3314.44283210833
 20
425.7128386997717
 30
0
 11
3319.44283210833
 21
425.7128386997717
 31
0
  0
LINE
  8
1
 62
3
 10
3319.44283210833
 20
425.7128386997717
 30
0
 11
3319.44283210833
 21
431.9128386997716
 31
0
  0
LINE
  8
1
 62
3
 10
3314.242832108331
 20
375.9128386997714
 30
0
 11
3314.242832108331
 21
375.7042431820754
 31
0
  0
LINE
  8
1
 62
3
 10
3316.042832108331
 20
376.1128386997717
 30
0
 11
3316.042832108331
 21
423.9128386997714
 31
0
  0
LINE
  8
1
 62
3
 10
3316.042832108331
 20
376.1128386997717
 30
0
 11
3314.44283210833
 21
376.1128386997717
 31
0
  0
LINE
  8
1
 62
3
 10
3316.042832108331
 20
423.9128386997714
 30
0
 11
3319.44283210833
 21
423.9128386997716
 31
0
  0
LINE
  8
1
 62
3
 10
3316.24283210833
 20
375.9128386997714
 30
0
 11
3316.24283210833
 21
375.7042431820754
 31
0
  0
LINE
  8
1
 62
3
 10
3316.042832108331
 20
375.9128386997714
 30
0
 11
3316.042832108331
 21
375.9042431820752
 31
0
  0
LINE
  8
1
 62
3
 10
3314.39283210833
 20
375.5542431820753
 30
0
 11
3316.09283210833
 21
375.5542431820753
 31
0
  0
LINE
  8
1
 62
3
 10
3315.89283210833
 20
375.7542431820753
 30
0
 11
3314.59283210833
 21
375.7542431820753
 31
0
  0
LINE
  8
1
 62
3
 10
3346.44283210833
 20
376.1128386997715
 30
0
 11
3347.941549846254
 21
376.1128386997715
 31
0
  0
LINE
  8
1
 62
3
 10
3346.44283210833
 20
377.2028386997716
 30
0
 11
3346.44283210833
 21
376.1128386997715
 31
0
  0
LINE
  8
1
 62
3
 10
3347.941549846254
 20
381.7128386997716
 30
0
 11
3346.44283210833
 21
381.7128386997716
 31
0
  0
LINE
  8
1
 62
3
 10
3348.654124384195
 20
378.5503386997715
 30
0
 11
3348.829124384195
 21
378.5503386997715
 31
0
  0
LINE
  8
1
 62
3
 10
3348.654124384195
 20
379.2753386997716
 30
0
 11
3348.654124384195
 21
378.5503386997715
 31
0
  0
LINE
  8
1
 62
3
 10
3348.829124384195
 20
379.2753386997716
 30
0
 11
3348.654124384195
 21
379.2753386997716
 31
0
  0
LINE
  8
1
 62
3
 10
3346.44283210833
 20
381.7128386997716
 30
0
 11
3346.44283210833
 21
380.6228386997715
 31
0
  0
LINE
  8
1
 62
3
 10
3346.44283210833
 20
380.6228386997715
 30
0
 11
3346.44283210833
 21
377.2028386997716
 31
0
  0
LINE
  8
1
 62
3
 10
3346.44283210833
 20
426.1128386997715
 30
0
 11
3347.941549846254
 21
426.1128386997715
 31
0
  0
LINE
  8
1
 62
3
 10
3346.44283210833
 20
427.2028386997716
 30
0
 11
3346.44283210833
 21
426.1128386997715
 31
0
  0
LINE
  8
1
 62
3
 10
3347.941549846254
 20
431.7128386997717
 30
0
 11
3346.44283210833
 21
431.7128386997717
 31
0
  0
LINE
  8
1
 62
3
 10
3348.654124384195
 20
428.5503386997715
 30
0
 11
3348.829124384195
 21
428.5503386997715
 31
0
  0
LINE
  8
1
 62
3
 10
3348.654124384195
 20
429.2753386997717
 30
0
 11
3348.654124384195
 21
428.5503386997715
 31
0
  0
LINE
  8
1
 62
3
 10
3348.829124384195
 20
429.2753386997717
 30
0
 11
3348.654124384195
 21
429.2753386997717
 31
0
  0
LINE
  8
1
 62
3
 10
3346.44283210833
 20
431.7128386997717
 30
0
 11
3346.44283210833
 21
430.6228386997715
 31
0
  0
LINE
  8
1
 62
3
 10
3346.44283210833
 20
430.6228386997715
 30
0
 11
3346.44283210833
 21
427.2028386997716
 31
0
  0
LINE
  8
1
 62
3
 10
3310.944114370407
 20
376.1128386997715
 30
0
 11
3312.44283210833
 21
376.1128386997715
 31
0
  0
LINE
  8
1
 62
3
 10
3312.44283210833
 20
376.1128386997715
 30
0
 11
3312.44283210833
 21
377.2028386997716
 31
0
  0
LINE
  8
1
 62
3
 10
3312.44283210833
 20
381.7128386997716
 30
0
 11
3310.944114370407
 21
381.7128386997716
 31
0
  0
LINE
  8
1
 62
3
 10
3310.056539832466
 20
378.5503386997715
 30
0
 11
3310.231539832466
 21
378.5503386997715
 31
0
  0
LINE
  8
1
 62
3
 10
3310.231539832466
 20
378.5503386997715
 30
0
 11
3310.231539832466
 21
379.2753386997716
 31
0
  0
LINE
  8
1
 62
3
 10
3310.231539832466
 20
379.2753386997716
 30
0
 11
3310.056539832466
 21
379.2753386997716
 31
0
  0
LINE
  8
1
 62
3
 10
3312.44283210833
 20
380.6228386997717
 30
0
 11
3312.44283210833
 21
381.7128386997716
 31
0
  0
LINE
  8
1
 62
3
 10
3312.44283210833
 20
377.2028386997716
 30
0
 11
3312.44283210833
 21
380.6228386997717
 31
0
  0
LINE
  8
1
 62
3
 10
3319.44283210833
 20
375.4128386997716
 30
0
 11
3345.44283210833
 21
375.4128386997716
 31
0
  0
LINE
  8
1
 62
3
 10
3319.44283210833
 20
432.4128386997716
 30
0
 11
3345.44283210833
 21
432.4128386997716
 31
0
  0
LINE
  8
1
 62
3
 10
3319.44283210833
 20
375.4128386997716
 30
0
 11
3319.44283210833
 21
432.4128386997716
 31
0
  0
LINE
  8
1
 62
3
 10
3345.44283210833
 20
375.4128386997716
 30
0
 11
3345.44283210833
 21
432.4128386997716
 31
0
  0
LINE
  8
1
 62
3
 10
3345.44283210833
 20
375.7128386997716
 30
0
 11
3346.44283210833
 21
375.7128386997716
 31
0
  0
LINE
  8
1
 62
3
 10
3345.44283210833
 20
432.1128386997715
 30
0
 11
3346.44283210833
 21
432.1128386997715
 31
0
  0
LINE
  8
1
 62
3
 10
3345.44283210833
 20
375.7128386997716
 30
0
 11
3345.44283210833
 21
432.1128386997715
 31
0
  0
LINE
  8
1
 62
3
 10
3346.44283210833
 20
375.7128386997716
 30
0
 11
3346.44283210833
 21
432.1128386997715
 31
0
  0
LINE
  8
1
 62
3
 10
3520.65888362967
 20
432.0128386997716
 30
0
 11
3520.65888362967
 21
425.8128386997717
 31
0
  0
LINE
  8
1
 62
3
 10
3520.65888362967
 20
425.8128386997717
 30
0
 11
3515.65888362967
 21
425.8128386997717
 31
0
  0
LINE
  8
1
 62
3
 10
3511.85888362967
 20
432.0128386997716
 30
0
 11
3508.65888362967
 21
432.0128386997716
 31
0
  0
LINE
  8
1
 62
3
 10
3520.65888362967
 20
432.0128386997716
 30
0
 11
3513.85888362967
 21
432.0128386997716
 31
0
  0
LINE
  8
1
 62
3
 10
3381.159093296844
 20
378.1831055102992
 30
0
 11
3380.548053925692
 21
378.7941448814516
 31
0
  0
LINE
  8
1
 62
3
 10
3381.159093296844
 20
379.6425718892441
 30
0
 11
3380.548053925692
 21
379.0315325180917
 31
0
  0
LINE
  8
1
 62
3
 10
3379.176367899821
 20
377.6598464922211
 30
0
 11
3379.787407270974
 21
378.2708858633738
 31
0
  0
LINE
  8
1
 62
3
 10
3380.030929857433
 20
378.2647509135539
 30
0
 11
3380.635834278766
 21
377.6598464922211
 31
0
  0
LINE
  8
1
 62
3
 10
3380.024794907613
 20
378.2708858633738
 30
0
 11
3380.030929857433
 21
378.2647509135539
 31
0
  0
LINE
  8
1
 62
3
 10
3378.653108881743
 20
379.6425718892441
 30
0
 11
3379.264148252896
 21
379.0315325180917
 31
0
  0
LINE
  8
1
 62
3
 10
3378.653108881743
 20
378.1831055102992
 30
0
 11
3379.264148252896
 21
378.7941448814516
 31
0
  0
LINE
  8
1
 62
3
 10
3380.635834278766
 20
380.1658309073221
 30
0
 11
3380.024794907613
 21
379.5547915361695
 31
0
  0
LINE
  8
1
 62
3
 10
3379.176367899821
 20
380.1658309073221
 30
0
 11
3379.787407270974
 21
379.5547915361695
 31
0
  0
LINE
  8
1
 62
3
 10
3447.159093296844
 20
428.1831055102992
 30
0
 11
3446.548053925691
 21
428.7941448814516
 31
0
  0
LINE
  8
1
 62
3
 10
3447.159093296844
 20
429.6425718892441
 30
0
 11
3446.548053925691
 21
429.0315325180917
 31
0
  0
LINE
  8
1
 62
3
 10
3445.176367899821
 20
427.6598464922211
 30
0
 11
3445.787407270974
 21
428.2708858633738
 31
0
  0
LINE
  8
1
 62
3
 10
3446.030929857433
 20
428.2647509135539
 30
0
 11
3446.635834278766
 21
427.6598464922211
 31
0
  0
LINE
  8
1
 62
3
 10
3446.024794907613
 20
428.2708858633738
 30
0
 11
3446.030929857433
 21
428.2647509135539
 31
0
  0
LINE
  8
1
 62
3
 10
3444.653108881743
 20
429.6425718892441
 30
0
 11
3445.264148252896
 21
429.0315325180917
 31
0
  0
LINE
  8
1
 62
3
 10
3444.653108881743
 20
428.1831055102992
 30
0
 11
3445.264148252896
 21
428.7941448814516
 31
0
  0
LINE
  8
1
 62
3
 10
3446.635834278766
 20
430.1658309073221
 30
0
 11
3446.024794907613
 21
429.5547915361695
 31
0
  0
LINE
  8
1
 62
3
 10
3445.176367899821
 20
430.1658309073221
 30
0
 11
3445.787407270974
 21
429.5547915361695
 31
0
  0
LINE
  8
1
 62
3
 10
3520.65888362967
 20
424.7128386997717
 30
0
 11
3520.65888362967
 21
419.7128386997717
 31
0
  0
LINE
  8
1
 62
3
 10
3520.65888362967
 20
419.7128386997717
 30
0
 11
3517.65888362967
 21
419.7128386997717
 31
0
  0
LINE
  8
1
 62
3
 10
3515.65888362967
 20
424.7128386997717
 30
0
 11
3520.65888362967
 21
424.7128386997717
 31
0
  0
LINE
  8
1
 62
3
 10
3515.65888362967
 20
424.7128386997717
 30
0
 11
3515.65888362967
 21
431.9128386997716
 31
0
  0
LINE
  8
1
 62
3
 10
3515.65888362967
 20
431.9128386997716
 30
0
 11
3513.85888362967
 21
431.9128386997716
 31
0
  0
LINE
  8
1
 62
3
 10
3517.65888362967
 20
419.7128386997717
 30
0
 11
3517.65888362967
 21
382.1128386997717
 31
0
  0
LINE
  8
1
 62
3
 10
3513.65888362967
 20
383.9128386997716
 30
0
 11
3512.05888362967
 21
383.9128386997716
 31
0
  0
LINE
  8
1
 62
3
 10
3520.65888362967
 20
382.1128386997717
 30
0
 11
3517.65888362967
 21
382.1128386997717
 31
0
  0
LINE
  8
1
 62
3
 10
3508.65888362967
 20
375.9128386997716
 30
0
 11
3520.65888362967
 21
375.9128386997716
 31
0
  0
LINE
  8
1
 62
3
 10
3520.65888362967
 20
375.9128386997716
 30
0
 11
3520.65888362967
 21
382.1128386997717
 31
0
  0
LINE
  8
1
 62
3
 10
3513.65888362967
 20
431.9128386997716
 30
0
 11
3513.65888362967
 21
383.9128386997716
 31
0
  0
LINE
  8
1
 62
3
 10
3513.65888362967
 20
431.9128386997716
 30
0
 11
3513.65888362967
 21
431.921434217468
 31
0
  0
LINE
  8
1
 62
3
 10
3508.65888362967
 20
425.2128386997718
 30
0
 11
3512.05888362967
 21
425.2128386997718
 31
0
  0
LINE
  8
1
 62
3
 10
3508.65888362967
 20
431.9128386997716
 30
0
 11
3508.65888362967
 21
425.2128386997718
 31
0
  0
LINE
  8
1
 62
3
 10
3512.05888362967
 20
425.2128386997718
 30
0
 11
3512.05888362967
 21
431.9128386997716
 31
0
  0
LINE
  8
1
 62
3
 10
3511.85888362967
 20
431.9128386997719
 30
0
 11
3508.65888362967
 21
431.9128386997716
 31
0
  0
LINE
  8
1
 62
3
 10
3513.65888362967
 20
383.9128386997716
 30
0
 11
3513.65888362967
 21
382.1128386997717
 31
0
  0
LINE
  8
1
 62
3
 10
3513.65888362967
 20
382.1128386997717
 30
0
 11
3508.65888362967
 21
382.1128386997717
 31
0
  0
LINE
  8
1
 62
3
 10
3508.65888362967
 20
382.1128386997717
 30
0
 11
3508.65888362967
 21
375.9128386997716
 31
0
  0
LINE
  8
1
 62
3
 10
3513.85888362967
 20
431.9128386997716
 30
0
 11
3513.85888362967
 21
432.1214342174681
 31
0
  0
LINE
  8
1
 62
3
 10
3512.05888362967
 20
431.7128386997716
 30
0
 11
3512.05888362967
 21
383.9128386997716
 31
0
  0
LINE
  8
1
 62
3
 10
3512.05888362967
 20
431.7128386997716
 30
0
 11
3513.65888362967
 21
431.7128386997716
 31
0
  0
LINE
  8
1
 62
3
 10
3512.05888362967
 20
383.9128386997716
 30
0
 11
3508.65888362967
 21
383.9128386997716
 31
0
  0
LINE
  8
1
 62
3
 10
3511.85888362967
 20
431.9128386997719
 30
0
 11
3511.85888362967
 21
432.1214342174681
 31
0
  0
LINE
  8
1
 62
3
 10
3512.05888362967
 20
431.9128386997716
 30
0
 11
3512.05888362967
 21
431.921434217468
 31
0
  0
LINE
  8
1
 62
3
 10
3513.70888362967
 20
432.2714342174681
 30
0
 11
3512.00888362967
 21
432.2714342174681
 31
0
  0
LINE
  8
1
 62
3
 10
3512.20888362967
 20
432.071434217468
 30
0
 11
3513.50888362967
 21
432.071434217468
 31
0
  0
LINE
  8
1
 62
3
 10
3449.206101089293
 20
318.9997930980939
 30
0
 11
3449.206101089293
 21
306.9997930980939
 31
0
  0
LINE
  8
1
 62
3
 10
3442.606101089293
 20
318.9997930980939
 30
0
 11
3442.606101089293
 21
306.9997930980939
 31
0
  0
LINE
  8
1
 62
3
 10
3442.606101089293
 20
318.9997930980939
 30
0
 11
3449.206101089293
 21
318.9997930980939
 31
0
  0
LINE
  8
1
 62
3
 10
3442.606101089293
 20
306.9997930980939
 30
0
 11
3449.206101089293
 21
306.9997930980939
 31
0
  0
LINE
  8
1
 62
3
 10
3376.606101089293
 20
311.9997930980939
 30
0
 11
3376.606101089293
 21
306.9997930980939
 31
0
  0
LINE
  8
1
 62
3
 10
3383.206101089293
 20
311.9997930980939
 30
0
 11
3383.206101089293
 21
306.9997930980939
 31
0
  0
LINE
  8
1
 62
3
 10
3376.606101089293
 20
313.9997930980939
 30
0
 11
3376.606101089293
 21
311.9997930980939
 31
0
  0
LINE
  8
1
 62
3
 10
3383.206101089293
 20
313.9997930980939
 30
0
 11
3383.206101089293
 21
311.9997930980939
 31
0
  0
LINE
  8
1
 62
3
 10
3376.606101089293
 20
313.9997930980939
 30
0
 11
3377.906101089294
 21
313.9997930980939
 31
0
  0
LINE
  8
1
 62
3
 10
3376.606101089293
 20
311.9997930980939
 30
0
 11
3383.206101089293
 21
311.9997930980939
 31
0
  0
LINE
  8
1
 62
3
 10
3376.606101089293
 20
306.9997930980939
 30
0
 11
3383.206101089293
 21
306.9997930980939
 31
0
  0
LINE
  8
1
 62
3
 10
3376.606101089293
 20
318.9997930980939
 30
0
 11
3383.206101089293
 21
318.9997930980939
 31
0
  0
LINE
  8
1
 62
3
 10
3381.906101089294
 20
315.599793098094
 30
0
 11
3381.906101089294
 21
313.9997930980939
 31
0
  0
LINE
  8
1
 62
3
 10
3377.906101089294
 20
315.599793098094
 30
0
 11
3377.906101089294
 21
313.9997930980939
 31
0
  0
LINE
  8
1
 62
3
 10
3381.906101089294
 20
313.9997930980939
 30
0
 11
3383.206101089293
 21
313.9997930980939
 31
0
  0
LINE
  8
1
 62
3
 10
3381.906101089294
 20
315.599793098094
 30
0
 11
3383.206101089293
 21
315.599793098094
 31
0
  0
LINE
  8
1
 62
3
 10
3377.906101089294
 20
315.599793098094
 30
0
 11
3376.606101089293
 21
315.599793098094
 31
0
  0
LINE
  8
1
 62
3
 10
3383.206101089293
 20
318.9997930980939
 30
0
 11
3383.206101089293
 21
315.599793098094
 31
0
  0
LINE
  8
1
 62
3
 10
3376.606101089293
 20
318.9997930980939
 30
0
 11
3376.606101089293
 21
315.599793098094
 31
0
  0
LINE
  8
1
 62
3
 10
3383.360249364408
 20
431.7128386997714
 30
0
 11
3442.452161887876
 21
431.7128386997716
 31
0
  0
LINE
  8
1
 62
3
 10
3383.806101089293
 20
376.1128386997715
 30
0
 11
3442.406101089294
 21
376.1128386997715
 31
0
  0
LINE
  8
1
 62
3
 10
3383.36004029071
 20
376.1128386997715
 30
0
 11
3383.806101089293
 21
376.1128386997715
 31
0
  0
LINE
  8
1
 62
3
 10
3376.806101089293
 20
315.599793098094
 30
0
 11
3376.806101089293
 21
313.9997930980939
 31
0
  0
LINE
  8
1
 62
3
 10
3383.206101089293
 20
313.9997930980939
 30
0
 11
3442.606101089293
 21
313.9997930980939
 31
0
  0
LINE
  8
1
 62
3
 10
3382.706101089294
 20
310.5010753601703
 30
0
 11
3382.706101089294
 21
311.9997930980939
 31
0
  0
LINE
  8
1
 62
3
 10
3382.706101089294
 20
311.9997930980939
 30
0
 11
3381.616101089293
 21
311.9997930980939
 31
0
  0
LINE
  8
1
 62
3
 10
3377.106101089293
 20
311.9997930980939
 30
0
 11
3377.106101089293
 21
310.5010753601703
 31
0
  0
LINE
  8
1
 62
3
 10
3380.268601089294
 20
309.6135008222294
 30
0
 11
3380.268601089294
 21
309.7885008222295
 31
0
  0
LINE
  8
1
 62
3
 10
3380.268601089294
 20
309.7885008222295
 30
0
 11
3379.543601089293
 21
309.7885008222295
 31
0
  0
LINE
  8
1
 62
3
 10
3379.543601089293
 20
309.7885008222295
 30
0
 11
3379.543601089293
 21
309.6135008222294
 31
0
  0
LINE
  8
1
 62
3
 10
3378.196101089294
 20
311.9997930980939
 30
0
 11
3377.106101089293
 21
311.9997930980939
 31
0
  0
LINE
  8
1
 62
3
 10
3381.616101089293
 20
311.9997930980939
 30
0
 11
3378.196101089294
 21
311.9997930980939
 31
0
  0
LINE
  8
1
 62
3
 10
3377.106101089293
 20
347.4985108360175
 30
0
 11
3377.106101089293
 21
345.9997930980939
 31
0
  0
LINE
  8
1
 62
3
 10
3377.106101089293
 20
345.9997930980939
 30
0
 11
3378.196101089293
 21
345.9997930980939
 31
0
  0
LINE
  8
1
 62
3
 10
3382.706101089293
 20
345.9997930980939
 30
0
 11
3382.706101089293
 21
347.4985108360175
 31
0
  0
LINE
  8
1
 62
3
 10
3379.543601089293
 20
348.3860853739585
 30
0
 11
3379.543601089293
 21
348.2110853739585
 31
0
  0
LINE
  8
1
 62
3
 10
3379.543601089293
 20
348.2110853739585
 30
0
 11
3380.268601089293
 21
348.2110853739585
 31
0
  0
LINE
  8
1
 62
3
 10
3380.268601089293
 20
348.2110853739585
 30
0
 11
3380.268601089293
 21
348.3860853739585
 31
0
  0
LINE
  8
1
 62
3
 10
3381.616101089293
 20
345.9997930980939
 30
0
 11
3382.706101089293
 21
345.9997930980939
 31
0
  0
LINE
  8
1
 62
3
 10
3378.196101089293
 20
345.9997930980939
 30
0
 11
3381.616101089293
 21
345.9997930980939
 31
0
  0
LINE
  8
1
 62
3
 10
3443.106101089293
 20
347.4985108360175
 30
0
 11
3443.106101089293
 21
345.9997930980939
 31
0
  0
LINE
  8
1
 62
3
 10
3443.106101089293
 20
345.9997930980939
 30
0
 11
3444.196101089293
 21
345.9997930980939
 31
0
  0
LINE
  8
1
 62
3
 10
3448.706101089293
 20
345.9997930980939
 30
0
 11
3448.706101089293
 21
347.4985108360175
 31
0
  0
LINE
  8
1
 62
3
 10
3445.543601089293
 20
348.3860853739585
 30
0
 11
3445.543601089293
 21
348.2110853739585
 31
0
  0
LINE
  8
1
 62
3
 10
3445.543601089293
 20
348.2110853739585
 30
0
 11
3446.268601089293
 21
348.2110853739585
 31
0
  0
LINE
  8
1
 62
3
 10
3446.268601089293
 20
348.2110853739585
 30
0
 11
3446.268601089293
 21
348.3860853739585
 31
0
  0
LINE
  8
1
 62
3
 10
3447.616101089293
 20
345.9997930980939
 30
0
 11
3448.706101089293
 21
345.9997930980939
 31
0
  0
LINE
  8
1
 62
3
 10
3444.196101089293
 20
345.9997930980939
 30
0
 11
3447.616101089293
 21
345.9997930980939
 31
0
  0
LINE
  8
1
 62
3
 10
3480.160165891747
 20
376.1128386997715
 30
0
 11
3481.65888362967
 21
376.1128386997715
 31
0
  0
LINE
  8
1
 62
3
 10
3481.65888362967
 20
376.1128386997715
 30
0
 11
3481.65888362967
 21
377.2028386997716
 31
0
  0
LINE
  8
1
 62
3
 10
3481.65888362967
 20
381.7128386997716
 30
0
 11
3480.160165891747
 21
381.7128386997716
 31
0
  0
LINE
  8
1
 62
3
 10
3479.272591353806
 20
378.5503386997715
 30
0
 11
3479.447591353806
 21
378.5503386997715
 31
0
  0
LINE
  8
1
 62
3
 10
3479.447591353806
 20
378.5503386997715
 30
0
 11
3479.447591353806
 21
379.2753386997716
 31
0
  0
LINE
  8
1
 62
3
 10
3479.447591353806
 20
379.2753386997716
 30
0
 11
3479.272591353806
 21
379.2753386997716
 31
0
  0
LINE
  8
1
 62
3
 10
3481.65888362967
 20
380.6228386997715
 30
0
 11
3481.65888362967
 21
381.7128386997716
 31
0
  0
LINE
  8
1
 62
3
 10
3481.65888362967
 20
377.2028386997716
 30
0
 11
3481.65888362967
 21
380.6228386997715
 31
0
  0
LINE
  8
1
 62
3
 10
3480.160165891747
 20
426.1128386997715
 30
0
 11
3481.65888362967
 21
426.1128386997715
 31
0
  0
LINE
  8
1
 62
3
 10
3481.65888362967
 20
426.1128386997715
 30
0
 11
3481.65888362967
 21
427.2028386997716
 31
0
  0
LINE
  8
1
 62
3
 10
3481.65888362967
 20
431.7128386997717
 30
0
 11
3480.160165891747
 21
431.7128386997717
 31
0
  0
LINE
  8
1
 62
3
 10
3479.272591353806
 20
428.5503386997715
 30
0
 11
3479.447591353806
 21
428.5503386997715
 31
0
  0
LINE
  8
1
 62
3
 10
3479.447591353806
 20
428.5503386997715
 30
0
 11
3479.447591353806
 21
429.2753386997717
 31
0
  0
LINE
  8
1
 62
3
 10
3479.447591353806
 20
429.2753386997717
 30
0
 11
3479.272591353806
 21
429.2753386997717
 31
0
  0
LINE
  8
1
 62
3
 10
3481.65888362967
 20
430.6228386997715
 30
0
 11
3481.65888362967
 21
431.7128386997717
 31
0
  0
LINE
  8
1
 62
3
 10
3481.65888362967
 20
427.2028386997716
 30
0
 11
3481.65888362967
 21
430.6228386997715
 31
0
  0
LINE
  8
1
 62
3
 10
3517.157601367594
 20
431.7128386997718
 30
0
 11
3515.65888362967
 21
431.7128386997718
 31
0
  0
LINE
  8
1
 62
3
 10
3515.65888362967
 20
431.7128386997718
 30
0
 11
3515.65888362967
 21
430.6228386997716
 31
0
  0
LINE
  8
1
 62
3
 10
3515.65888362967
 20
426.1128386997716
 30
0
 11
3517.157601367594
 21
426.1128386997716
 31
0
  0
LINE
  8
1
 62
3
 10
3518.045175905535
 20
429.2753386997718
 30
0
 11
3517.870175905535
 21
429.2753386997718
 31
0
  0
LINE
  8
1
 62
3
 10
3517.870175905535
 20
429.2753386997718
 30
0
 11
3517.870175905535
 21
428.5503386997716
 31
0
  0
LINE
  8
1
 62
3
 10
3517.870175905535
 20
428.5503386997716
 30
0
 11
3518.045175905535
 21
428.5503386997716
 31
0
  0
LINE
  8
1
 62
3
 10
3515.65888362967
 20
427.2028386997716
 30
0
 11
3515.65888362967
 21
426.1128386997716
 31
0
  0
LINE
  8
1
 62
3
 10
3515.65888362967
 20
430.6228386997716
 30
0
 11
3515.65888362967
 21
427.2028386997716
 31
0
  0
LINE
  8
1
 62
2
 10
3429.038761807457
 20
321.9587736154507
 30
0
 11
3429.678761807457
 21
321.9587736154507
 31
0
  0
LINE
  8
1
 62
2
 10
3429.678761807457
 20
321.9587736154507
 30
0
 11
3429.678761807457
 21
317.6997930980941
 31
0
  0
LINE
  8
1
 62
2
 10
3429.038761807457
 20
321.9587736154507
 30
0
 11
3429.038761807457
 21
317.6997930980941
 31
0
  0
LINE
  8
1
 62
2
 10
3431.538761807457
 20
321.9587736154507
 30
0
 11
3432.178761807457
 21
321.9587736154507
 31
0
  0
LINE
  8
1
 62
2
 10
3432.178761807457
 20
321.9587736154507
 30
0
 11
3432.178761807457
 21
317.6997930980941
 31
0
  0
LINE
  8
1
 62
2
 10
3431.538761807457
 20
321.9587736154507
 30
0
 11
3431.538761807457
 21
317.6997930980941
 31
0
  0
LINE
  8
1
 62
2
 10
3434.038761807457
 20
321.9587736154507
 30
0
 11
3434.678761807457
 21
321.9587736154507
 31
0
  0
LINE
  8
1
 62
2
 10
3434.678761807457
 20
321.9587736154507
 30
0
 11
3434.678761807457
 21
317.6997930980941
 31
0
  0
LINE
  8
1
 62
2
 10
3434.038761807457
 20
321.9587736154507
 30
0
 11
3434.038761807457
 21
317.6997930980941
 31
0
  0
LINE
  8
1
 62
2
 10
3436.538761807457
 20
321.9587736154507
 30
0
 11
3437.178761807457
 21
321.9587736154507
 31
0
  0
LINE
  8
1
 62
2
 10
3437.178761807457
 20
321.9587736154507
 30
0
 11
3437.178761807457
 21
317.6997930980941
 31
0
  0
LINE
  8
1
 62
2
 10
3436.538761807457
 20
321.9587736154507
 30
0
 11
3436.538761807457
 21
317.6997930980941
 31
0
  0
LINE
  8
1
 62
2
 10
3438.362390578649
 20
315.599793098094
 30
0
 11
3422.858763807458
 21
315.599793098094
 31
0
  0
LINE
  8
1
 62
2
 10
3422.858763807458
 20
317.6997930980941
 30
0
 11
3438.362390578649
 21
317.6997930980941
 31
0
  0
LINE
  8
1
 62
2
 10
3438.362390578649
 20
322.6997930980941
 30
0
 11
3422.858763807458
 21
322.6997930980941
 31
0
  0
LINE
  8
1
 62
2
 10
3438.362390578649
 20
322.6997930980941
 30
0
 11
3438.362390578649
 21
315.599793098094
 31
0
  0
LINE
  8
1
 62
2
 10
3422.858763807458
 20
322.6997930980941
 30
0
 11
3422.858763807458
 21
315.599793098094
 31
0
  0
LINE
  8
1
 62
7
 10
3390.366102089293
 20
428.4128386997714
 30
0
 11
3388.166102089294
 21
428.4128386997714
 31
0
  0
LINE
  8
1
 62
7
 10
3390.216102089293
 20
426.3878386997716
 30
0
 11
3388.166102089294
 21
426.3878386997716
 31
0
  0
LINE
  8
1
 62
7
 10
3396.116102089293
 20
426.3878386997716
 30
0
 11
3398.166102089294
 21
426.3878386997716
 31
0
  0
LINE
  8
1
 62
7
 10
3409.625177907515
 20
428.9128386997714
 30
0
 11
3407.149857341997
 21
428.9128386997714
 31
0
  0
LINE
  8
1
 62
7
 10
3434.025177907515
 20
428.9128386997714
 30
0
 11
3411.574536776478
 21
428.9128386997714
 31
0
  0
LINE
  8
1
 62
7
 10
3432.199857341996
 20
428.1115564376953
 30
0
 11
3432.199857341996
 21
426.6128386997716
 31
0
  0
LINE
  8
1
 62
7
 10
3432.199857341996
 20
426.6128386997716
 30
0
 11
3433.289857341996
 21
426.6128386997716
 31
0
  0
LINE
  8
1
 62
7
 10
3437.799857341996
 20
426.6128386997716
 30
0
 11
3437.799857341996
 21
428.1115564376953
 31
0
  0
LINE
  8
1
 62
7
 10
3434.637357341996
 20
428.9991309756361
 30
0
 11
3434.637357341996
 21
428.8241309756362
 31
0
  0
LINE
  8
1
 62
7
 10
3434.637357341996
 20
428.8241309756362
 30
0
 11
3435.362357341996
 21
428.8241309756362
 31
0
  0
LINE
  8
1
 62
7
 10
3435.362357341996
 20
428.8241309756362
 30
0
 11
3435.362357341996
 21
428.9991309756361
 31
0
  0
LINE
  8
1
 62
7
 10
3436.709857341997
 20
426.6128386997716
 30
0
 11
3437.799857341996
 21
426.6128386997716
 31
0
  0
LINE
  8
1
 62
7
 10
3433.289857341996
 20
426.6128386997716
 30
0
 11
3436.709857341997
 21
426.6128386997716
 31
0
  0
LINE
  8
1
 62
7
 10
3437.949857341996
 20
425.9128386997716
 30
0
 11
3437.949857341996
 21
426.6128386997716
 31
0
  0
LINE
  8
1
 62
7
 10
3437.949857341996
 20
426.6128386997716
 30
0
 11
3432.049857341996
 21
426.6128386997716
 31
0
  0
LINE
  8
1
 62
7
 10
3432.049857341996
 20
426.6128386997716
 30
0
 11
3432.049857341996
 21
425.9128386997716
 31
0
  0
LINE
  8
1
 62
7
 10
3432.049857341996
 20
425.9128386997716
 30
0
 11
3437.949857341996
 21
425.9128386997716
 31
0
  0
LINE
  8
1
 62
7
 10
3407.799857341996
 20
428.1115564376953
 30
0
 11
3407.799857341996
 21
426.6128386997716
 31
0
  0
LINE
  8
1
 62
7
 10
3407.799857341996
 20
426.6128386997716
 30
0
 11
3408.889857341997
 21
426.6128386997716
 31
0
  0
LINE
  8
1
 62
7
 10
3413.399857341997
 20
426.6128386997716
 30
0
 11
3413.399857341997
 21
428.1115564376953
 31
0
  0
LINE
  8
1
 62
7
 10
3410.237357341996
 20
428.9991309756361
 30
0
 11
3410.237357341996
 21
428.8241309756362
 31
0
  0
LINE
  8
1
 62
7
 10
3410.237357341996
 20
428.8241309756362
 30
0
 11
3410.962357341997
 21
428.8241309756362
 31
0
  0
LINE
  8
1
 62
7
 10
3410.962357341997
 20
428.8241309756362
 30
0
 11
3410.962357341997
 21
428.9991309756361
 31
0
  0
LINE
  8
1
 62
7
 10
3412.309857341996
 20
426.6128386997716
 30
0
 11
3413.399857341997
 21
426.6128386997716
 31
0
  0
LINE
  8
1
 62
7
 10
3408.889857341997
 20
426.6128386997716
 30
0
 11
3412.309857341996
 21
426.6128386997716
 31
0
  0
LINE
  8
1
 62
7
 10
3413.549857341996
 20
425.9128386997716
 30
0
 11
3413.549857341996
 21
426.6128386997716
 31
0
  0
LINE
  8
1
 62
7
 10
3413.549857341996
 20
426.6128386997716
 30
0
 11
3407.649857341997
 21
426.6128386997716
 31
0
  0
LINE
  8
1
 62
7
 10
3407.649857341997
 20
426.6128386997716
 30
0
 11
3407.649857341997
 21
425.9128386997716
 31
0
  0
LINE
  8
1
 62
7
 10
3407.649857341997
 20
425.9128386997716
 30
0
 11
3413.549857341996
 21
425.9128386997716
 31
0
  0
LINE
  8
1
 62
7
 10
3390.366102089293
 20
428.5865564376953
 30
0
 11
3390.366102089293
 21
427.0878386997717
 31
0
  0
LINE
  8
1
 62
7
 10
3390.366102089293
 20
427.0878386997717
 30
0
 11
3391.456102089293
 21
427.0878386997717
 31
0
  0
LINE
  8
1
 62
7
 10
3395.966102089293
 20
427.0878386997717
 30
0
 11
3395.966102089293
 21
428.5865564376953
 31
0
  0
LINE
  8
1
 62
7
 10
3392.803602089293
 20
429.474130975636
 30
0
 11
3392.803602089293
 21
429.2991309756361
 31
0
  0
LINE
  8
1
 62
7
 10
3392.803602089293
 20
429.2991309756361
 30
0
 11
3393.528602089293
 21
429.2991309756361
 31
0
  0
LINE
  8
1
 62
7
 10
3393.528602089293
 20
429.2991309756361
 30
0
 11
3393.528602089293
 21
429.474130975636
 31
0
  0
LINE
  8
1
 62
7
 10
3394.876102089293
 20
427.0878386997717
 30
0
 11
3395.966102089293
 21
427.0878386997717
 31
0
  0
LINE
  8
1
 62
7
 10
3391.456102089293
 20
427.0878386997717
 30
0
 11
3394.876102089293
 21
427.0878386997717
 31
0
  0
LINE
  8
1
 62
7
 10
3396.116102089293
 20
426.3878386997716
 30
0
 11
3396.116102089293
 21
427.0878386997717
 31
0
  0
LINE
  8
1
 62
7
 10
3396.116102089293
 20
427.0878386997717
 30
0
 11
3390.216102089293
 21
427.0878386997717
 31
0
  0
LINE
  8
1
 62
7
 10
3390.216102089293
 20
427.0878386997717
 30
0
 11
3390.216102089293
 21
426.3878386997716
 31
0
  0
LINE
  8
1
 62
7
 10
3390.216102089293
 20
426.3878386997716
 30
0
 11
3396.116102089293
 21
426.3878386997716
 31
0
  0
LINE
  8
1
 62
7
 10
3398.166102089294
 20
428.4128386997714
 30
0
 11
3395.966102089293
 21
428.4128386997714
 31
0
  0
LINE
  8
1
 62
7
 10
3398.166102089294
 20
423.9128386997716
 30
0
 11
3398.166102089294
 21
428.4128386997714
 31
0
  0
LINE
  8
1
 62
7
 10
3388.166102089294
 20
423.9128386997716
 30
0
 11
3388.166102089294
 21
428.4128386997714
 31
0
  0
LINE
  8
1
 62
7
 10
3388.166102089294
 20
423.9128386997716
 30
0
 11
3398.166102089294
 21
423.9128386997716
 31
0
  0
LINE
  8
1
 62
7
 10
3414.599857341996
 20
425.9128386997716
 30
0
 11
3430.999857341996
 21
425.9128386997716
 31
0
  0
LINE
  8
1
 62
7
 10
3407.149857341997
 20
425.9128386997716
 30
0
 11
3414.599857341996
 21
425.9128386997716
 31
0
  0
LINE
  8
1
 62
7
 10
3414.599857341996
 20
425.9128386997716
 30
0
 11
3414.599857341996
 21
428.9128386997714
 31
0
  0
LINE
  8
1
 62
7
 10
3430.999857341996
 20
425.9128386997716
 30
0
 11
3438.449857341996
 21
425.9128386997716
 31
0
  0
LINE
  8
1
 62
7
 10
3430.999857341996
 20
428.9128386997714
 30
0
 11
3430.999857341996
 21
425.9128386997716
 31
0
  0
LINE
  8
1
 62
7
 10
3407.149857341997
 20
423.9128386997716
 30
0
 11
3407.149857341997
 21
428.9128386997714
 31
0
  0
LINE
  8
1
 62
7
 10
3438.449857341996
 20
428.9128386997714
 30
0
 11
3435.974536776477
 21
428.9128386997714
 31
0
  0
LINE
  8
1
 62
7
 10
3438.449857341996
 20
423.9128386997716
 30
0
 11
3438.449857341996
 21
428.9128386997714
 31
0
  0
LINE
  8
1
 62
7
 10
3407.149857341997
 20
423.9128386997716
 30
0
 11
3438.449857341996
 21
423.9128386997716
 31
0
  0
LINE
  8
1
 62
3
 10
3376.406101089293
 20
344.9997930980939
 30
0
 11
3376.406101089293
 21
318.9997930980939
 31
0
  0
LINE
  8
1
 62
3
 10
3383.406101089293
 20
344.9997930980939
 30
0
 11
3383.406101089293
 21
318.9997930980939
 31
0
  0
LINE
  8
1
 62
3
 10
3442.406101089293
 20
344.9997930980939
 30
0
 11
3442.406101089293
 21
318.9997930980939
 31
0
  0
LINE
  8
1
 62
3
 10
3449.406101089293
 20
344.9997930980939
 30
0
 11
3449.406101089293
 21
318.9997930980939
 31
0
  0
LINE
  8
1
 62
3
 10
3376.406101089293
 20
318.9997930980939
 30
0
 11
3385.706101089293
 21
318.9997930980939
 31
0
  0
LINE
  8
1
 62
3
 10
3376.406101089293
 20
344.9997930980939
 30
0
 11
3449.406101089293
 21
344.9997930980939
 31
0
  0
LINE
  8
1
 62
3
 10
3482.65888362967
 20
375.4128386997716
 30
0
 11
3508.65888362967
 21
375.4128386997716
 31
0
  0
LINE
  8
1
 62
3
 10
3482.65888362967
 20
432.4128386997716
 30
0
 11
3508.65888362967
 21
432.4128386997716
 31
0
  0
LINE
  8
1
 62
3
 10
3508.65888362967
 20
432.4128386997716
 30
0
 11
3508.65888362967
 21
375.4128386997716
 31
0
  0
LINE
  8
1
 62
3
 10
3482.65888362967
 20
432.4128386997716
 30
0
 11
3482.65888362967
 21
375.4128386997716
 31
0
  0
LINE
  8
1
 62
2
 10
3383.406101089294
 20
380.0128386997713
 30
0
 11
3383.406101089294
 21
382.9128386997716
 31
0
  0
LINE
  8
1
 62
2
 10
3383.406101089294
 20
377.8128386997715
 30
0
 11
3383.406101089294
 21
376.4128386997716
 31
0
  0
LINE
  8
1
 62
2
 10
3442.406101089294
 20
427.8128386997715
 30
0
 11
3442.406101089294
 21
424.9128386997716
 31
0
  0
LINE
  8
1
 62
2
 10
3442.406101089294
 20
430.0128386997716
 30
0
 11
3442.406101089294
 21
431.4128386997716
 31
0
  0
LINE
  8
1
 62
2
 10
3449.406101089294
 20
431.4128386997716
 30
0
 11
3449.406101089294
 21
376.4128386997716
 31
0
  0
LINE
  8
1
 62
2
 10
3376.406101089294
 20
376.4128386997716
 30
0
 11
3376.406101089294
 21
431.4128386997716
 31
0
  0
LINE
  8
1
 62
2
 10
3448.406101089294
 20
375.4128386997716
 30
0
 11
3443.406101089294
 21
375.4128386997716
 31
0
  0
LINE
  8
1
 62
2
 10
3441.406101089294
 20
383.9128386997716
 30
0
 11
3384.406101089294
 21
383.9128386997716
 31
0
  0
LINE
  8
1
 62
2
 10
3442.406101089294
 20
382.9128386997716
 30
0
 11
3442.406101089294
 21
380.0128386997713
 31
0
  0
LINE
  8
1
 62
2
 10
3442.406101089294
 20
376.4128386997716
 30
0
 11
3442.406101089294
 21
377.8128386997715
 31
0
  0
LINE
  8
1
 62
2
 10
3443.406101089294
 20
432.4128386997716
 30
0
 11
3448.406101089294
 21
432.4128386997716
 31
0
  0
LINE
  8
1
 62
2
 10
3383.406101089294
 20
424.9128386997716
 30
0
 11
3383.406101089294
 21
427.8128386997715
 31
0
  0
LINE
  8
1
 62
2
 10
3377.406101089294
 20
432.4128386997716
 30
0
 11
3382.406101089294
 21
432.4128386997716
 31
0
  0
LINE
  8
1
 62
2
 10
3383.406101089294
 20
431.4128386997716
 30
0
 11
3383.406101089294
 21
430.0128386997713
 31
0
  0
LINE
  8
1
 62
2
 10
3384.406101089294
 20
423.9128386997716
 30
0
 11
3441.406101089294
 21
423.9128386997716
 31
0
  0
LINE
  8
1
 62
2
 10
3382.406101089294
 20
375.4128386997716
 30
0
 11
3377.406101089294
 21
375.4128386997716
 31
0
  0
LINE
  8
1
 62
3
 10
3481.65888362967
 20
375.7128386997716
 30
0
 11
3482.65888362967
 21
375.7128386997716
 31
0
  0
LINE
  8
1
 62
3
 10
3481.65888362967
 20
432.1128386997715
 30
0
 11
3482.65888362967
 21
432.1128386997715
 31
0
  0
LINE
  8
1
 62
3
 10
3482.65888362967
 20
432.1128386997715
 30
0
 11
3482.65888362967
 21
375.7128386997716
 31
0
  0
LINE
  8
1
 62
3
 10
3481.65888362967
 20
432.1128386997715
 30
0
 11
3481.65888362967
 21
375.7128386997716
 31
0
  0
LINE
  8
1
 62
3
 10
3383.106101089293
 20
345.9997930980939
 30
0
 11
3383.106101089293
 21
344.9997930980939
 31
0
  0
LINE
  8
1
 62
3
 10
3442.706101089293
 20
345.9997930980939
 30
0
 11
3442.706101089293
 21
344.9997930980939
 31
0
  0
LINE
  8
1
 62
3
 10
3449.106101089293
 20
344.9997930980939
 30
0
 11
3376.706101089293
 21
344.9997930980939
 31
0
  0
LINE
  8
1
 62
3
 10
3449.106101089293
 20
345.9997930980939
 30
0
 11
3449.106101089293
 21
344.9997930980939
 31
0
  0
LINE
  8
1
 62
3
 10
3376.706101089293
 20
345.9997930980939
 30
0
 11
3449.106101089293
 21
345.9997930980939
 31
0
  0
LINE
  8
1
 62
3
 10
3376.706101089293
 20
344.9997930980939
 30
0
 11
3376.706101089293
 21
345.9997930980939
 31
0
  0
LINE
  8
1
 62
2
 10
3429.038761807457
 20
312.4997930980939
 30
0
 11
3429.678761807457
 21
312.4997930980939
 31
0
  0
LINE
  8
1
 62
2
 10
3429.678761807457
 20
312.4997930980939
 30
0
 11
3429.678761807457
 21
312.9997930980939
 31
0
  0
LINE
  8
1
 62
2
 10
3429.678761807457
 20
312.9997930980939
 30
0
 11
3429.038761807457
 21
312.9997930980939
 31
0
  0
LINE
  8
1
 62
2
 10
3429.038761807457
 20
312.9997930980939
 30
0
 11
3429.038761807457
 21
312.4997930980939
 31
0
  0
LINE
  8
1
 62
2
 10
3429.678761807457
 20
312.9997930980939
 30
0
 11
3430.158761807458
 21
313.9997930980939
 31
0
  0
LINE
  8
1
 62
2
 10
3429.038761807457
 20
312.9997930980939
 30
0
 11
3428.558761807457
 21
313.9997930980939
 31
0
  0
LINE
  8
1
 62
2
 10
3431.538761807457
 20
312.4997930980939
 30
0
 11
3432.178761807457
 21
312.4997930980939
 31
0
  0
LINE
  8
1
 62
2
 10
3432.178761807457
 20
312.4997930980939
 30
0
 11
3432.178761807457
 21
312.9997930980939
 31
0
  0
LINE
  8
1
 62
2
 10
3432.178761807457
 20
312.9997930980939
 30
0
 11
3431.538761807457
 21
312.9997930980939
 31
0
  0
LINE
  8
1
 62
2
 10
3431.538761807457
 20
312.9997930980939
 30
0
 11
3431.538761807457
 21
312.4997930980939
 31
0
  0
LINE
  8
1
 62
2
 10
3432.178761807457
 20
312.9997930980939
 30
0
 11
3432.658761807458
 21
313.9997930980939
 31
0
  0
LINE
  8
1
 62
2
 10
3431.538761807457
 20
312.9997930980939
 30
0
 11
3431.058761807457
 21
313.9997930980939
 31
0
  0
LINE
  8
1
 62
2
 10
3434.038761807457
 20
312.4997930980939
 30
0
 11
3434.678761807457
 21
312.4997930980939
 31
0
  0
LINE
  8
1
 62
2
 10
3434.678761807457
 20
312.4997930980939
 30
0
 11
3434.678761807457
 21
312.9997930980939
 31
0
  0
LINE
  8
1
 62
2
 10
3434.678761807457
 20
312.9997930980939
 30
0
 11
3434.038761807457
 21
312.9997930980939
 31
0
  0
LINE
  8
1
 62
2
 10
3434.038761807457
 20
312.9997930980939
 30
0
 11
3434.038761807457
 21
312.4997930980939
 31
0
  0
LINE
  8
1
 62
2
 10
3434.678761807457
 20
312.9997930980939
 30
0
 11
3435.158761807458
 21
313.9997930980939
 31
0
  0
LINE
  8
1
 62
2
 10
3434.038761807457
 20
312.9997930980939
 30
0
 11
3433.558761807457
 21
313.9997930980939
 31
0
  0
LINE
  8
1
 62
2
 10
3436.538761807457
 20
312.4997930980939
 30
0
 11
3437.178761807457
 21
312.4997930980939
 31
0
  0
LINE
  8
1
 62
2
 10
3437.178761807457
 20
312.4997930980939
 30
0
 11
3437.178761807457
 21
312.9997930980939
 31
0
  0
LINE
  8
1
 62
2
 10
3437.178761807457
 20
312.9997930980939
 30
0
 11
3436.538761807457
 21
312.9997930980939
 31
0
  0
LINE
  8
1
 62
2
 10
3436.538761807457
 20
312.9997930980939
 30
0
 11
3436.538761807457
 21
312.4997930980939
 31
0
  0
LINE
  8
1
 62
2
 10
3437.178761807457
 20
312.9997930980939
 30
0
 11
3437.658761807458
 21
313.9997930980939
 31
0
  0
LINE
  8
1
 62
2
 10
3436.538761807457
 20
312.9997930980939
 30
0
 11
3436.058761807457
 21
313.9997930980939
 31
0
  0
LINE
  8
1
 62
3
 10
3442.406101089293
 20
318.9997930980939
 30
0
 11
3449.406101089293
 21
318.9997930980939
 31
0
  0
LINE
  8
1
 62
3
 10
3438.362390578649
 20
318.9997930980939
 30
0
 11
3442.406101089293
 21
318.9997930980939
 31
0
  0
LINE
  8
1
 62
1
  6
CENTER
 10
3374.906101089294
 20
428.9128386997714
 30
0
 11
3384.906101089294
 21
428.9128386997714
 31
0
  0
LINE
  8
1
 62
1
  6
CENTER
 10
3379.906101089294
 20
433.9128386997714
 30
0
 11
3379.906101089294
 21
423.9128386997714
 31
0
  0
LINE
  8
1
 62
1
  6
CENTER
 10
3445.906101089294
 20
433.9128386997714
 30
0
 11
3445.906101089294
 21
423.9128386997714
 31
0
  0
LINE
  8
1
 62
1
  6
CENTER
 10
3445.906101089294
 20
383.9128386997714
 30
0
 11
3445.906101089294
 21
373.9128386997714
 31
0
  0
LINE
  8
1
 62
1
  6
CENTER
 10
3379.906101089294
 20
373.9128386997714
 30
0
 11
3379.906101089294
 21
383.9128386997714
 31
0
  0
LINE
  8
1
 62
1
  6
CENTER
 10
3440.906101089294
 20
428.9128386997714
 30
0
 11
3450.906101089294
 21
428.9128386997714
 31
0
  0
LINE
  8
1
 62
1
  6
CENTER
 10
3440.906101089294
 20
378.9128386997714
 30
0
 11
3450.906101089294
 21
378.9128386997714
 31
0
  0
LINE
  8
1
 62
1
  6
CENTER
 10
3374.906101089294
 20
378.9128386997714
 30
0
 11
3384.906101089294
 21
378.9128386997714
 31
0
  0
LINE
  8
1
 62
1
  6
CENTER
 10
3305.44283210833
 20
428.9128386997714
 30
0
 11
3321.44283210833
 21
428.9128386997714
 31
0
  0
LINE
  8
1
 62
1
  6
CENTER
 10
3341.44283210833
 20
428.9128386997714
 30
0
 11
3351.44283210833
 21
428.9128386997714
 31
0
  0
LINE
  8
1
 62
1
  6
CENTER
 10
3305.44283210833
 20
403.9128386997714
 30
0
 11
3351.44283210833
 21
403.9128386997714
 31
0
  0
LINE
  8
1
 62
1
  6
CENTER
 10
3305.44283210833
 20
378.9128386997714
 30
0
 11
3317.697254018014
 21
378.9128386997714
 31
0
  0
LINE
  8
1
 62
1
  6
CENTER
 10
3371.406101089294
 20
403.9128386997714
 30
0
 11
3454.406101089294
 21
403.9128386997714
 31
0
  0
LINE
  8
1
 62
1
  6
CENTER
 10
3412.906101089294
 20
436.7128386997716
 30
0
 11
3412.906101089294
 21
371.1128386997715
 31
0
  0
LINE
  8
1
 62
1
  6
CENTER
 10
3379.906101089293
 20
350.9997930980939
 30
0
 11
3379.906101089293
 21
340.9997930980939
 31
0
  0
LINE
  8
1
 62
1
  6
CENTER
 10
3412.906101089294
 20
350.9997930980939
 30
0
 11
3412.906101089294
 21
304.9997930980939
 31
0
  0
LINE
  8
1
 62
1
  6
CENTER
 10
3445.906101089293
 20
350.9997930980939
 30
0
 11
3445.906101089293
 21
340.9997930980939
 31
0
  0
LINE
  8
1
 62
1
  6
CENTER
 10
3445.906101089293
 20
320.9997930980939
 30
0
 11
3445.906101089293
 21
304.9997930980939
 31
0
  0
LINE
  8
1
 62
1
  6
CENTER
 10
3379.906101089293
 20
320.9997930980939
 30
0
 11
3379.906101089293
 21
304.9997930980939
 31
0
  0
LINE
  8
1
 62
1
  6
CENTER
 10
3495.65888362967
 20
423.9128386997716
 30
0
 11
3495.65888362967
 21
413.9128386997716
 31
0
  0
LINE
  8
1
 62
1
  6
CENTER
 10
3495.65888362967
 20
393.9128386997716
 30
0
 11
3495.65888362967
 21
383.9128386997716
 31
0
  0
LINE
  8
1
 62
1
  6
CENTER
 10
3490.65888362967
 20
418.9128386997716
 30
0
 11
3500.65888362967
 21
418.9128386997716
 31
0
  0
LINE
  8
1
 62
1
  6
CENTER
 10
3490.65888362967
 20
388.9128386997716
 30
0
 11
3500.65888362967
 21
388.9128386997716
 31
0
  0
LINE
  8
1
 62
1
  6
CENTER
 10
3477.65888362967
 20
428.9128386997714
 30
0
 11
3487.65888362967
 21
428.9128386997714
 31
0
  0
LINE
  8
1
 62
1
  6
CENTER
 10
3477.65888362967
 20
378.9128386997714
 30
0
 11
3487.65888362967
 21
378.9128386997714
 31
0
  0
LINE
  8
1
 62
1
  6
CENTER
 10
3506.65888362967
 20
428.9128386997714
 30
0
 11
3522.65888362967
 21
428.9128386997714
 31
0
  0
LINE
  8
1
 62
1
  6
CENTER
 10
3477.65888362967
 20
403.9128386997714
 30
0
 11
3522.65888362967
 21
403.9128386997714
 31
0
  0
LINE
  8
1
 62
1
  6
CENTER
 10
3506.65888362967
 20
378.9128386997714
 30
0
 11
3522.65888362967
 21
378.9128386997714
 31
0
  0
LINE
  8
1
 62
2
 10
3422.858763807458
 20
382.6695825887024
 30
0
 11
3438.358761807457
 21
382.6695825887024
 31
0
  0
LINE
  8
1
 62
2
 10
3422.858763807458
 20
376.6695825887024
 30
0
 11
3438.358761807457
 21
376.6695825887024
 31
0
  0
LINE
  8
1
 62
2
 10
3438.358761807457
 20
382.6695825887024
 30
0
 11
3438.358761807457
 21
376.6695825887024
 31
0
  0
LINE
  8
1
 62
2
 10
3422.858763807458
 20
382.6695825887024
 30
0
 11
3422.858763807458
 21
376.6695825887024
 31
0
  0
LINE
  8
1
 62
2
 10
3438.358761807457
 20
381.6695825887024
 30
0
 11
3422.858763807458
 21
381.6695825887024
 31
0
  0
LINE
  8
1
 62
2
 10
3436.538761807457
 20
379.9195835887025
 30
0
 11
3436.538761807457
 21
379.2795835887024
 31
0
  0
LINE
  8
1
 62
2
 10
3437.178761807457
 20
379.9195835887025
 30
0
 11
3437.178761807457
 21
379.2795835887024
 31
0
  0
LINE
  8
1
 62
2
 10
3436.538761807457
 20
379.9195835887025
 30
0
 11
3437.178761807457
 21
379.9195835887025
 31
0
  0
LINE
  8
1
 62
2
 10
3436.538761807457
 20
379.2795835887024
 30
0
 11
3437.178761807457
 21
379.2795835887024
 31
0
  0
LINE
  8
1
 62
2
 10
3434.038761807457
 20
379.9195835887025
 30
0
 11
3434.038761807457
 21
379.2795835887024
 31
0
  0
LINE
  8
1
 62
2
 10
3434.678761807457
 20
379.9195835887025
 30
0
 11
3434.678761807457
 21
379.2795835887024
 31
0
  0
LINE
  8
1
 62
2
 10
3434.038761807457
 20
379.9195835887025
 30
0
 11
3434.678761807457
 21
379.9195835887025
 31
0
  0
LINE
  8
1
 62
2
 10
3434.038761807457
 20
379.2795835887024
 30
0
 11
3434.678761807457
 21
379.2795835887024
 31
0
  0
LINE
  8
1
 62
2
 10
3429.038761807457
 20
379.9195835887025
 30
0
 11
3429.038761807457
 21
379.2795835887024
 31
0
  0
LINE
  8
1
 62
2
 10
3429.678761807457
 20
379.9195835887025
 30
0
 11
3429.678761807457
 21
379.2795835887024
 31
0
  0
LINE
  8
1
 62
2
 10
3429.038761807457
 20
379.9195835887025
 30
0
 11
3429.678761807457
 21
379.9195835887025
 31
0
  0
LINE
  8
1
 62
2
 10
3429.038761807457
 20
379.2795835887024
 30
0
 11
3429.678761807457
 21
379.2795835887024
 31
0
  0
LINE
  8
1
 62
2
 10
3431.538761807457
 20
379.9195835887025
 30
0
 11
3431.538761807457
 21
379.2795835887024
 31
0
  0
LINE
  8
1
 62
2
 10
3432.178761807457
 20
379.9195835887025
 30
0
 11
3432.178761807457
 21
379.2795835887024
 31
0
  0
LINE
  8
1
 62
2
 10
3431.538761807457
 20
379.9195835887025
 30
0
 11
3432.178761807457
 21
379.9195835887025
 31
0
  0
LINE
  8
1
 62
2
 10
3431.538761807457
 20
379.2795835887024
 30
0
 11
3432.178761807457
 21
379.2795835887024
 31
0
  0
LINE
  8
1
 62
2
 10
3416.511101089293
 20
315.599793098094
 30
0
 11
3416.511101089293
 21
318.0512066460145
 31
0
  0
LINE
  8
1
 62
2
 10
3410.301101089294
 20
315.599793098094
 30
0
 11
3416.511101089293
 21
315.599793098094
 31
0
  0
LINE
  8
1
 62
3
 10
3383.206101089293
 20
315.599793098094
 30
0
 11
3442.606101089293
 21
315.599793098094
 31
0
  0
LINE
  8
1
 62
3
 10
3408.706101089293
 20
318.9997930980939
 30
0
 11
3422.858763807458
 21
318.9997930980939
 31
0
  0
LINE
  8
1
 62
2
 10
3410.301101089294
 20
318.0512066460145
 30
0
 11
3416.511101089293
 21
318.0512066460145
 31
0
  0
LINE
  8
1
 62
2
 10
3410.301101089294
 20
318.0512066460145
 30
0
 11
3410.301101089294
 21
315.599793098094
 31
0
  0
LINE
  8
1
 62
3
 10
3410.301101089294
 20
315.599793098094
 30
0
 11
3416.511101089293
 21
315.599793098094
 31
0
  0
LINE
  8
1
 62
7
 10
3411.124038456963
 20
381.1555867600897
 30
0
 11
3411.124038456963
 21
380.2555867600896
 31
0
  0
LINE
  8
1
 62
7
 10
3411.124038456963
 20
380.2555867600896
 30
0
 11
3411.124038456963
 21
379.8055867600898
 31
0
  0
LINE
  8
1
 62
7
 10
3412.024038456963
 20
381.1555867600897
 30
0
 11
3412.024038456963
 21
380.2555867600896
 31
0
  0
LINE
  8
1
 62
7
 10
3412.024038456963
 20
380.2555867600896
 30
0
 11
3412.024038456963
 21
379.8055867600898
 31
0
  0
LINE
  8
1
 62
7
 10
3412.024038456963
 20
380.2555867600896
 30
0
 11
3411.124038456963
 21
380.2555867600896
 31
0
  0
LINE
  8
1
 62
7
 10
3412.024038456963
 20
381.1555867600897
 30
0
 11
3411.124038456963
 21
381.1555867600897
 31
0
  0
LINE
  8
1
 62
7
 10
3411.124038456963
 20
382.6855867600896
 30
0
 11
3411.124038456963
 21
381.1555867600897
 31
0
  0
LINE
  8
1
 62
7
 10
3412.024038456963
 20
382.6855867600896
 30
0
 11
3412.024038456963
 21
381.1555867600897
 31
0
  0
LINE
  8
1
 62
7
 10
3412.024038456963
 20
382.6855867600896
 30
0
 11
3411.124038456963
 21
382.6855867600896
 31
0
  0
LINE
  8
1
 62
7
 10
3412.024038456963
 20
379.8055867600898
 30
0
 11
3411.124038456963
 21
379.8055867600898
 31
0
  0
LINE
  8
1
 62
7
 10
3412.267038456963
 20
381.1555867600897
 30
0
 11
3412.267038456963
 21
380.2555867600896
 31
0
  0
LINE
  8
1
 62
7
 10
3412.267038456963
 20
380.2555867600896
 30
0
 11
3412.267038456963
 21
379.8055867600898
 31
0
  0
LINE
  8
1
 62
7
 10
3413.167038456964
 20
381.1555867600897
 30
0
 11
3413.167038456964
 21
380.2555867600896
 31
0
  0
LINE
  8
1
 62
7
 10
3413.167038456964
 20
380.2555867600896
 30
0
 11
3413.167038456964
 21
379.8055867600898
 31
0
  0
LINE
  8
1
 62
7
 10
3413.167038456964
 20
380.2555867600896
 30
0
 11
3412.267038456963
 21
380.2555867600896
 31
0
  0
LINE
  8
1
 62
7
 10
3413.167038456964
 20
381.1555867600897
 30
0
 11
3412.267038456963
 21
381.1555867600897
 31
0
  0
LINE
  8
1
 62
7
 10
3412.267038456963
 20
382.6855867600896
 30
0
 11
3412.267038456963
 21
381.1555867600897
 31
0
  0
LINE
  8
1
 62
7
 10
3413.167038456964
 20
382.6855867600896
 30
0
 11
3413.167038456964
 21
381.1555867600897
 31
0
  0
LINE
  8
1
 62
7
 10
3413.167038456964
 20
382.6855867600896
 30
0
 11
3412.267038456963
 21
382.6855867600896
 31
0
  0
LINE
  8
1
 62
7
 10
3413.167038456964
 20
379.8055867600898
 30
0
 11
3412.267038456963
 21
379.8055867600898
 31
0
  0
LINE
  8
1
 62
7
 10
3413.410038456963
 20
381.1555867600897
 30
0
 11
3413.410038456963
 21
380.2555867600896
 31
0
  0
LINE
  8
1
 62
7
 10
3413.410038456963
 20
380.2555867600896
 30
0
 11
3413.410038456963
 21
379.8055867600898
 31
0
  0
LINE
  8
1
 62
7
 10
3414.310038456964
 20
381.1555867600897
 30
0
 11
3414.310038456964
 21
380.2555867600896
 31
0
  0
LINE
  8
1
 62
7
 10
3414.310038456964
 20
380.2555867600896
 30
0
 11
3414.310038456964
 21
379.8055867600898
 31
0
  0
LINE
  8
1
 62
7
 10
3414.310038456964
 20
380.2555867600896
 30
0
 11
3413.410038456963
 21
380.2555867600896
 31
0
  0
LINE
  8
1
 62
7
 10
3414.310038456964
 20
381.1555867600897
 30
0
 11
3413.410038456963
 21
381.1555867600897
 31
0
  0
LINE
  8
1
 62
7
 10
3413.410038456963
 20
382.6855867600896
 30
0
 11
3413.410038456963
 21
381.1555867600897
 31
0
  0
LINE
  8
1
 62
7
 10
3414.310038456964
 20
382.6855867600896
 30
0
 11
3414.310038456964
 21
381.1555867600897
 31
0
  0
LINE
  8
1
 62
7
 10
3414.310038456964
 20
382.6855867600896
 30
0
 11
3413.410038456963
 21
382.6855867600896
 31
0
  0
LINE
  8
1
 62
7
 10
3414.310038456964
 20
379.8055867600898
 30
0
 11
3413.410038456963
 21
379.8055867600898
 31
0
  0
LINE
  8
1
 62
7
 10
3414.553038456963
 20
381.1555867600897
 30
0
 11
3414.553038456963
 21
380.2555867600896
 31
0
  0
LINE
  8
1
 62
7
 10
3414.553038456963
 20
380.2555867600896
 30
0
 11
3414.553038456963
 21
379.8055867600898
 31
0
  0
LINE
  8
1
 62
7
 10
3415.453038456964
 20
381.1555867600897
 30
0
 11
3415.453038456964
 21
380.2555867600896
 31
0
  0
LINE
  8
1
 62
7
 10
3415.453038456964
 20
380.2555867600896
 30
0
 11
3415.453038456964
 21
379.8055867600898
 31
0
  0
LINE
  8
1
 62
7
 10
3415.453038456964
 20
380.2555867600896
 30
0
 11
3414.553038456963
 21
380.2555867600896
 31
0
  0
LINE
  8
1
 62
7
 10
3415.453038456964
 20
381.1555867600897
 30
0
 11
3414.553038456963
 21
381.1555867600897
 31
0
  0
LINE
  8
1
 62
7
 10
3414.553038456963
 20
382.6855867600896
 30
0
 11
3414.553038456963
 21
381.1555867600897
 31
0
  0
LINE
  8
1
 62
7
 10
3415.453038456964
 20
382.6855867600896
 30
0
 11
3415.453038456964
 21
381.1555867600897
 31
0
  0
LINE
  8
1
 62
7
 10
3415.453038456964
 20
382.6855867600896
 30
0
 11
3414.553038456963
 21
382.6855867600896
 31
0
  0
LINE
  8
1
 62
7
 10
3415.453038456964
 20
379.8055867600898
 30
0
 11
3414.553038456963
 21
379.8055867600898
 31
0
  0
LINE
  8
1
 62
7
 10
3411.776538456963
 20
383.8555867600897
 30
0
 11
3411.371538456964
 21
383.8555867600897
 31
0
  0
LINE
  8
1
 62
7
 10
3411.371538456964
 20
383.6755867600897
 30
0
 11
3411.371538456964
 21
383.8555867600897
 31
0
  0
LINE
  8
1
 62
7
 10
3411.776538456963
 20
383.6755867600897
 30
0
 11
3411.776538456963
 21
383.8555867600897
 31
0
  0
LINE
  8
1
 62
7
 10
3412.919538456963
 20
383.8555867600897
 30
0
 11
3412.514538456964
 21
383.8555867600897
 31
0
  0
LINE
  8
1
 62
7
 10
3412.514538456964
 20
383.6755867600897
 30
0
 11
3412.514538456964
 21
383.8555867600897
 31
0
  0
LINE
  8
1
 62
7
 10
3412.919538456963
 20
383.6755867600897
 30
0
 11
3412.919538456963
 21
383.8555867600897
 31
0
  0
LINE
  8
1
 62
7
 10
3414.062538456963
 20
383.8555867600897
 30
0
 11
3413.657538456964
 21
383.8555867600897
 31
0
  0
LINE
  8
1
 62
7
 10
3413.657538456964
 20
383.6755867600897
 30
0
 11
3413.657538456964
 21
383.8555867600897
 31
0
  0
LINE
  8
1
 62
7
 10
3414.062538456963
 20
383.6755867600897
 30
0
 11
3414.062538456963
 21
383.8555867600897
 31
0
  0
LINE
  8
1
 62
7
 10
3415.205538456963
 20
383.8555867600897
 30
0
 11
3414.800538456964
 21
383.8555867600897
 31
0
  0
LINE
  8
1
 62
7
 10
3414.800538456964
 20
383.6755867600897
 30
0
 11
3414.800538456964
 21
383.8555867600897
 31
0
  0
LINE
  8
1
 62
7
 10
3415.205538456963
 20
383.6755867600897
 30
0
 11
3415.205538456963
 21
383.8555867600897
 31
0
  0
LINE
  8
1
 62
7
 10
3411.776538456963
 20
378.6355867600897
 30
0
 11
3411.371538456964
 21
378.6355867600897
 31
0
  0
LINE
  8
1
 62
7
 10
3411.371538456964
 20
378.8155867600898
 30
0
 11
3411.371538456964
 21
378.6355867600897
 31
0
  0
LINE
  8
1
 62
7
 10
3411.776538456963
 20
378.8155867600898
 30
0
 11
3411.776538456963
 21
378.6355867600897
 31
0
  0
LINE
  8
1
 62
7
 10
3412.919538456963
 20
378.6355867600897
 30
0
 11
3412.514538456964
 21
378.6355867600897
 31
0
  0
LINE
  8
1
 62
7
 10
3412.514538456964
 20
378.8155867600898
 30
0
 11
3412.514538456964
 21
378.6355867600897
 31
0
  0
LINE
  8
1
 62
7
 10
3412.919538456963
 20
378.8155867600898
 30
0
 11
3412.919538456963
 21
378.6355867600897
 31
0
  0
LINE
  8
1
 62
7
 10
3414.062538456963
 20
378.6355867600897
 30
0
 11
3413.657538456964
 21
378.6355867600897
 31
0
  0
LINE
  8
1
 62
7
 10
3413.657538456964
 20
378.8155867600898
 30
0
 11
3413.657538456964
 21
378.6355867600897
 31
0
  0
LINE
  8
1
 62
7
 10
3414.062538456963
 20
378.8155867600898
 30
0
 11
3414.062538456963
 21
378.6355867600897
 31
0
  0
LINE
  8
1
 62
7
 10
3415.205538456963
 20
378.6355867600897
 30
0
 11
3414.800538456964
 21
378.6355867600897
 31
0
  0
LINE
  8
1
 62
7
 10
3414.800538456964
 20
378.8155867600898
 30
0
 11
3414.800538456964
 21
378.6355867600897
 31
0
  0
LINE
  8
1
 62
7
 10
3415.205538456963
 20
378.8155867600898
 30
0
 11
3415.205538456963
 21
378.6355867600897
 31
0
  0
LINE
  8
1
 62
7
 10
3410.494038456964
 20
383.6755867600897
 30
0
 11
3410.494038456964
 21
378.8155867600898
 31
0
  0
LINE
  8
1
 62
7
 10
3416.083038456963
 20
383.6755867600897
 30
0
 11
3416.083038456963
 21
378.8155867600898
 31
0
  0
LINE
  8
1
 62
7
 10
3416.083038456963
 20
378.8155867600898
 30
0
 11
3410.494038456964
 21
378.8155867600898
 31
0
  0
LINE
  8
1
 62
7
 10
3416.083038456963
 20
383.6755867600897
 30
0
 11
3410.494038456964
 21
383.6755867600897
 31
0
  0
LINE
  8
1
 62
7
 10
3419.864671919277
 20
382.0466582350096
 30
0
 11
3420.248671919277
 21
382.0466582350096
 31
0
  0
LINE
  8
1
 62
7
 10
3421.784671919277
 20
382.0466582350096
 30
0
 11
3421.400671919277
 21
382.0466582350096
 31
0
  0
LINE
  8
1
 62
2
 10
3419.864671919277
 20
380.8946582350096
 30
0
 11
3421.784671919277
 21
380.8946582350096
 31
0
  0
LINE
  8
1
 62
2
 10
3419.864671919277
 20
379.3586582350095
 30
0
 11
3421.784671919277
 21
379.3586582350095
 31
0
  0
LINE
  8
1
 62
7
 10
3420.248671919277
 20
378.2066582350097
 30
0
 11
3419.864671919277
 21
378.2066582350097
 31
0
  0
LINE
  8
1
 62
7
 10
3421.400671919277
 20
378.2066582350097
 30
0
 11
3421.784671919277
 21
378.2066582350097
 31
0
  0
LINE
  8
1
 62
7
 10
3419.864671919277
 20
382.0466582350096
 30
0
 11
3419.864671919277
 21
379.3586582350095
 31
0
  0
LINE
  8
1
 62
7
 10
3421.784671919277
 20
382.0466582350096
 30
0
 11
3421.784671919277
 21
379.3586582350095
 31
0
  0
LINE
  8
1
 62
7
 10
3421.784671919277
 20
379.3586582350095
 30
0
 11
3421.784671919277
 21
378.2066582350097
 31
0
  0
LINE
  8
1
 62
7
 10
3419.864671919277
 20
379.3586582350095
 30
0
 11
3419.864671919277
 21
378.2066582350097
 31
0
  0
LINE
  8
1
 62
7
 10
3416.978064628924
 20
380.3920888996257
 30
0
 11
3418.696814628924
 21
380.3920888996257
 31
0
  0
LINE
  8
1
 62
7
 10
3416.978064628924
 20
378.6579855542855
 30
0
 11
3418.696814628924
 21
378.6579855542855
 31
0
  0
LINE
  8
1
 62
7
 10
3416.978064628924
 20
380.922965780231
 30
0
 11
3416.978064628924
 21
378.172965780231
 31
0
  0
LINE
  8
1
 62
7
 10
3418.696814628924
 20
380.922965780231
 30
0
 11
3418.696814628924
 21
378.172965780231
 31
0
  0
LINE
  8
1
 62
7
 10
3418.696814628924
 20
380.922965780231
 30
0
 11
3416.978064628924
 21
380.922965780231
 31
0
  0
LINE
  8
1
 62
7
 10
3416.978064628924
 20
378.172965780231
 30
0
 11
3418.696814628924
 21
378.172965780231
 31
0
  0
LINE
  8
1
 62
2
 10
3431.534123831288
 20
379.2795835887017
 30
0
 11
3432.174123831287
 21
379.2795835887017
 31
0
  0
LINE
  8
1
 62
2
 10
3431.534123831288
 20
379.9195835887016
 30
0
 11
3432.174123831287
 21
379.9195835887016
 31
0
  0
LINE
  8
1
 62
2
 10
3432.174123831287
 20
379.9195835887016
 30
0
 11
3432.174123831287
 21
379.2795835887017
 31
0
  0
LINE
  8
1
 62
2
 10
3431.534123831288
 20
379.9195835887016
 30
0
 11
3431.534123831288
 21
379.2795835887017
 31
0
  0
LINE
  8
1
 62
2
 10
3429.034123831288
 20
379.2795835887017
 30
0
 11
3429.674123831287
 21
379.2795835887017
 31
0
  0
LINE
  8
1
 62
2
 10
3429.034123831288
 20
379.9195835887016
 30
0
 11
3429.674123831287
 21
379.9195835887016
 31
0
  0
LINE
  8
1
 62
2
 10
3429.674123831287
 20
379.9195835887016
 30
0
 11
3429.674123831287
 21
379.2795835887017
 31
0
  0
LINE
  8
1
 62
2
 10
3429.034123831288
 20
379.9195835887016
 30
0
 11
3429.034123831288
 21
379.2795835887017
 31
0
  0
LINE
  8
1
 62
2
 10
3434.034123831288
 20
379.2795835887017
 30
0
 11
3434.674123831287
 21
379.2795835887017
 31
0
  0
LINE
  8
1
 62
2
 10
3434.034123831288
 20
379.9195835887016
 30
0
 11
3434.674123831287
 21
379.9195835887016
 31
0
  0
LINE
  8
1
 62
2
 10
3434.674123831287
 20
379.9195835887016
 30
0
 11
3434.674123831287
 21
379.2795835887017
 31
0
  0
LINE
  8
1
 62
2
 10
3434.034123831288
 20
379.9195835887016
 30
0
 11
3434.034123831288
 21
379.2795835887017
 31
0
  0
LINE
  8
1
 62
2
 10
3436.534123831288
 20
379.2795835887017
 30
0
 11
3437.174123831287
 21
379.2795835887017
 31
0
  0
LINE
  8
1
 62
2
 10
3436.534123831288
 20
379.9195835887016
 30
0
 11
3437.174123831287
 21
379.9195835887016
 31
0
  0
LINE
  8
1
 62
2
 10
3437.174123831287
 20
379.9195835887016
 30
0
 11
3437.174123831287
 21
379.2795835887017
 31
0
  0
LINE
  8
1
 62
2
 10
3436.534123831288
 20
379.9195835887016
 30
0
 11
3436.534123831288
 21
379.2795835887017
 31
0
  0
LINE
  8
1
 62
2
 10
3438.354123831288
 20
381.6695825887017
 30
0
 11
3422.854125831288
 21
381.6695825887017
 31
0
  0
LINE
  8
1
 62
2
 10
3422.854125831288
 20
382.6695825887017
 30
0
 11
3422.854125831288
 21
376.6695825887017
 31
0
  0
LINE
  8
1
 62
2
 10
3438.354123831288
 20
382.6695825887017
 30
0
 11
3438.354123831288
 21
376.6695825887017
 31
0
  0
LINE
  8
1
 62
2
 10
3422.854125831288
 20
376.6695825887017
 30
0
 11
3438.354123831288
 21
376.6695825887017
 31
0
  0
LINE
  8
1
 62
2
 10
3422.854125831288
 20
382.6695825887017
 30
0
 11
3438.354123831288
 21
382.6695825887017
 31
0
  0
LINE
  8
1
 62
2
 10
3384.401463113124
 20
423.9128386997716
 30
0
 11
3441.401463113124
 21
423.9128386997716
 31
0
  0
LINE
  8
1
 62
2
 10
3441.401463113124
 20
383.9128386997716
 30
0
 11
3384.401463113124
 21
383.9128386997716
 31
0
  0
LINE
  8
1
 62
2
 10
3449.401463113124
 20
431.4128386997716
 30
0
 11
3449.401463113124
 21
376.4128386997716
 31
0
  0
LINE
  8
1
 62
2
 10
3383.401463113124
 20
380.0128386997706
 30
0
 11
3383.401463113124
 21
382.9128386997716
 31
0
  0
LINE
  8
1
 62
7
 10
3407.145219365827
 20
423.9128386997716
 30
0
 11
3438.445219365827
 21
423.9128386997716
 31
0
  0
LINE
  8
1
 62
7
 10
3438.445219365827
 20
423.9128386997716
 30
0
 11
3438.445219365827
 21
428.9128386997705
 31
0
  0
LINE
  8
1
 62
7
 10
3438.445219365827
 20
428.9128386997705
 30
0
 11
3435.969898800308
 21
428.9128386997705
 31
0
  0
LINE
  8
1
 62
7
 10
3407.145219365827
 20
423.9128386997716
 30
0
 11
3407.145219365827
 21
428.9128386997705
 31
0
  0
LINE
  8
1
 62
7
 10
3430.995219365827
 20
428.9128386997705
 30
0
 11
3430.995219365827
 21
425.9128386997716
 31
0
  0
LINE
  8
1
 62
7
 10
3430.995219365827
 20
425.9128386997716
 30
0
 11
3438.445219365827
 21
425.9128386997716
 31
0
  0
LINE
  8
1
 62
7
 10
3414.595219365826
 20
425.9128386997716
 30
0
 11
3414.595219365826
 21
428.9128386997705
 31
0
  0
LINE
  8
1
 62
7
 10
3407.145219365827
 20
425.9128386997716
 30
0
 11
3414.595219365826
 21
425.9128386997716
 31
0
  0
LINE
  8
1
 62
7
 10
3414.595219365826
 20
425.9128386997716
 30
0
 11
3430.995219365827
 21
425.9128386997716
 31
0
  0
LINE
  8
1
 62
7
 10
3388.161464113124
 20
423.9128386997716
 30
0
 11
3398.161464113124
 21
423.9128386997716
 31
0
  0
LINE
  8
1
 62
7
 10
3388.161464113124
 20
423.9128386997716
 30
0
 11
3388.161464113124
 21
428.4128386997705
 31
0
  0
LINE
  8
1
 62
7
 10
3398.161464113124
 20
423.9128386997716
 30
0
 11
3398.161464113124
 21
428.4128386997705
 31
0
  0
LINE
  8
1
 62
7
 10
3398.161464113124
 20
428.4128386997705
 30
0
 11
3395.961464113123
 21
428.4128386997705
 31
0
  0
LINE
  8
1
 62
7
 10
3390.211464113123
 20
426.3878386997706
 30
0
 11
3396.111464113124
 21
426.3878386997706
 31
0
  0
LINE
  8
1
 62
7
 10
3390.211464113123
 20
427.0878386997716
 30
0
 11
3390.211464113123
 21
426.3878386997706
 31
0
  0
LINE
  8
1
 62
7
 10
3396.111464113124
 20
427.0878386997716
 30
0
 11
3390.211464113123
 21
427.0878386997716
 31
0
  0
LINE
  8
1
 62
7
 10
3396.111464113124
 20
426.3878386997706
 30
0
 11
3396.111464113124
 21
427.0878386997716
 31
0
  0
LINE
  8
1
 62
7
 10
3391.451464113124
 20
427.0878386997716
 30
0
 11
3394.871464113124
 21
427.0878386997716
 31
0
  0
LINE
  8
1
 62
7
 10
3394.871464113124
 20
427.0878386997716
 30
0
 11
3395.961464113123
 21
427.0878386997716
 31
0
  0
LINE
  8
1
 62
7
 10
3393.523964113123
 20
429.2991309756356
 30
0
 11
3393.523964113123
 21
429.4741309756356
 31
0
  0
LINE
  8
1
 62
7
 10
3392.798964113124
 20
429.2991309756356
 30
0
 11
3393.523964113123
 21
429.2991309756356
 31
0
  0
LINE
  8
1
 62
7
 10
3392.798964113124
 20
429.4741309756356
 30
0
 11
3392.798964113124
 21
429.2991309756356
 31
0
  0
LINE
  8
1
 62
7
 10
3395.961464113123
 20
427.0878386997716
 30
0
 11
3395.961464113123
 21
428.5865564376946
 31
0
  0
LINE
  8
1
 62
7
 10
3390.361464113124
 20
427.0878386997716
 30
0
 11
3391.451464113124
 21
427.0878386997716
 31
0
  0
LINE
  8
1
 62
7
 10
3390.361464113124
 20
428.5865564376946
 30
0
 11
3390.361464113124
 21
427.0878386997716
 31
0
  0
LINE
  8
1
 62
7
 10
3407.645219365827
 20
425.9128386997716
 30
0
 11
3413.545219365827
 21
425.9128386997716
 31
0
  0
LINE
  8
1
 62
7
 10
3407.645219365827
 20
426.6128386997705
 30
0
 11
3407.645219365827
 21
425.9128386997716
 31
0
  0
LINE
  8
1
 62
7
 10
3413.545219365827
 20
426.6128386997705
 30
0
 11
3407.645219365827
 21
426.6128386997705
 31
0
  0
LINE
  8
1
 62
7
 10
3413.545219365827
 20
425.9128386997716
 30
0
 11
3413.545219365827
 21
426.6128386997705
 31
0
  0
LINE
  8
1
 62
7
 10
3408.885219365828
 20
426.6128386997705
 30
0
 11
3412.305219365826
 21
426.6128386997705
 31
0
  0
LINE
  8
1
 62
7
 10
3412.305219365826
 20
426.6128386997705
 30
0
 11
3413.395219365827
 21
426.6128386997705
 31
0
  0
LINE
  8
1
 62
7
 10
3410.957719365827
 20
428.8241309756357
 30
0
 11
3410.957719365827
 21
428.9991309756357
 31
0
  0
LINE
  8
1
 62
7
 10
3410.232719365827
 20
428.8241309756357
 30
0
 11
3410.957719365827
 21
428.8241309756357
 31
0
  0
LINE
  8
1
 62
7
 10
3410.232719365827
 20
428.9991309756357
 30
0
 11
3410.232719365827
 21
428.8241309756357
 31
0
  0
LINE
  8
1
 62
7
 10
3413.395219365827
 20
426.6128386997705
 30
0
 11
3413.395219365827
 21
428.1115564376947
 31
0
  0
LINE
  8
1
 62
7
 10
3407.795219365827
 20
426.6128386997705
 30
0
 11
3408.885219365828
 21
426.6128386997705
 31
0
  0
LINE
  8
1
 62
7
 10
3407.795219365827
 20
428.1115564376947
 30
0
 11
3407.795219365827
 21
426.6128386997705
 31
0
  0
LINE
  8
1
 62
7
 10
3432.045219365827
 20
425.9128386997716
 30
0
 11
3437.945219365827
 21
425.9128386997716
 31
0
  0
LINE
  8
1
 62
7
 10
3432.045219365827
 20
426.6128386997705
 30
0
 11
3432.045219365827
 21
425.9128386997716
 31
0
  0
LINE
  8
1
 62
7
 10
3437.945219365827
 20
426.6128386997705
 30
0
 11
3432.045219365827
 21
426.6128386997705
 31
0
  0
LINE
  8
1
 62
7
 10
3437.945219365827
 20
425.9128386997716
 30
0
 11
3437.945219365827
 21
426.6128386997705
 31
0
  0
LINE
  8
1
 62
7
 10
3433.285219365827
 20
426.6128386997705
 30
0
 11
3436.705219365828
 21
426.6128386997705
 31
0
  0
LINE
  8
1
 62
7
 10
3436.705219365828
 20
426.6128386997705
 30
0
 11
3437.795219365827
 21
426.6128386997705
 31
0
  0
LINE
  8
1
 62
7
 10
3435.357719365827
 20
428.8241309756357
 30
0
 11
3435.357719365827
 21
428.9991309756357
 31
0
  0
LINE
  8
1
 62
7
 10
3434.632719365827
 20
428.8241309756357
 30
0
 11
3435.357719365827
 21
428.8241309756357
 31
0
  0
LINE
  8
1
 62
7
 10
3434.632719365827
 20
428.9991309756357
 30
0
 11
3434.632719365827
 21
428.8241309756357
 31
0
  0
LINE
  8
1
 62
7
 10
3437.795219365827
 20
426.6128386997705
 30
0
 11
3437.795219365827
 21
428.1115564376947
 31
0
  0
LINE
  8
1
 62
7
 10
3432.195219365827
 20
426.6128386997705
 30
0
 11
3433.285219365827
 21
426.6128386997705
 31
0
  0
LINE
  8
1
 62
7
 10
3432.195219365827
 20
428.1115564376947
 30
0
 11
3432.195219365827
 21
426.6128386997705
 31
0
  0
LINE
  8
1
 62
7
 10
3434.020539931346
 20
428.9128386997705
 30
0
 11
3411.569898800309
 21
428.9128386997705
 31
0
  0
LINE
  8
1
 62
7
 10
3409.620539931345
 20
428.9128386997705
 30
0
 11
3407.145219365827
 21
428.9128386997705
 31
0
  0
LINE
  8
1
 62
7
 10
3396.111464113124
 20
426.3878386997706
 30
0
 11
3398.161464113124
 21
426.3878386997706
 31
0
  0
LINE
  8
1
 62
7
 10
3390.211464113123
 20
426.3878386997706
 30
0
 11
3388.161464113124
 21
426.3878386997706
 31
0
  0
LINE
  8
1
 62
7
 10
3390.361464113124
 20
428.4128386997705
 30
0
 11
3388.161464113124
 21
428.4128386997705
 31
0
  0
LINE
  8
1
 62
3
 10
3383.355402314541
 20
376.1128386997705
 30
0
 11
3383.801463113124
 21
376.1128386997705
 31
0
  0
LINE
  8
1
 62
2
 10
3383.801463113124
 20
376.1128386997705
 30
0
 11
3442.401463113124
 21
376.1128386997705
 31
0
  0
LINE
  8
1
 62
2
 10
3383.355611388239
 20
431.7128386997707
 30
0
 11
3442.447523911707
 21
431.7128386997707
 31
0
  0
LINE
  8
1
 62
2
 10
3385.701463113124
 20
376.6428386997717
 30
0
 11
3408.701463113124
 21
376.6428386997717
 31
0
  0
LINE
  8
1
 62
2
 10
3385.701463113124
 20
382.6428386997717
 30
0
 11
3408.701463113124
 21
382.6428386997717
 31
0
  0
LINE
  8
1
 62
2
 10
3385.701463113124
 20
381.6428386997717
 30
0
 11
3408.701463113124
 21
381.6428386997717
 31
0
  0
LINE
  8
1
 62
2
 10
3385.701463113124
 20
382.6428386997717
 30
0
 11
3385.701463113124
 21
376.6428386997717
 31
0
  0
LINE
  8
1
 62
2
 10
3408.701463113124
 20
382.6428386997717
 30
0
 11
3408.701463113124
 21
376.6428386997717
 31
0
  0
LINE
  8
1
 62
2
 10
3406.881463113123
 20
379.3228386997706
 30
0
 11
3407.521463113124
 21
379.9628386997707
 31
0
  0
LINE
  8
1
 62
2
 10
3406.881463113123
 20
379.9628386997707
 30
0
 11
3407.521463113124
 21
379.3228386997706
 31
0
  0
LINE
  8
1
 62
2
 10
3405.021463113124
 20
379.9628386997707
 30
0
 11
3404.381463113123
 21
379.3228386997706
 31
0
  0
LINE
  8
1
 62
2
 10
3404.381463113123
 20
379.9628386997707
 30
0
 11
3405.021463113124
 21
379.3228386997706
 31
0
  0
LINE
  8
1
 62
2
 10
3401.881463113123
 20
379.3228386997706
 30
0
 11
3402.521463113124
 21
379.9628386997707
 31
0
  0
LINE
  8
1
 62
2
 10
3401.881463113123
 20
379.9628386997707
 30
0
 11
3402.521463113124
 21
379.3228386997706
 31
0
  0
LINE
  8
1
 62
2
 10
3400.021463113124
 20
379.9628386997707
 30
0
 11
3399.381463113123
 21
379.3228386997706
 31
0
  0
LINE
  8
1
 62
2
 10
3399.381463113123
 20
379.9628386997707
 30
0
 11
3400.021463113124
 21
379.3228386997706
 31
0
  0
LINE
  8
1
 62
2
 10
3396.881463113123
 20
379.3228386997706
 30
0
 11
3397.521463113124
 21
379.9628386997707
 31
0
  0
LINE
  8
1
 62
2
 10
3396.881463113123
 20
379.9628386997707
 30
0
 11
3397.521463113124
 21
379.3228386997706
 31
0
  0
LINE
  8
1
 62
2
 10
3394.381463113123
 20
379.3228386997706
 30
0
 11
3395.021463113124
 21
379.9628386997707
 31
0
  0
LINE
  8
1
 62
2
 10
3394.381463113123
 20
379.9628386997707
 30
0
 11
3395.021463113124
 21
379.3228386997706
 31
0
  0
LINE
  8
1
 62
2
 10
3391.881463113123
 20
379.3228386997706
 30
0
 11
3392.521463113124
 21
379.9628386997707
 31
0
  0
LINE
  8
1
 62
2
 10
3391.881463113123
 20
379.9628386997707
 30
0
 11
3392.521463113124
 21
379.3228386997706
 31
0
  0
LINE
  8
1
 62
2
 10
3389.381463113123
 20
379.9628386997707
 30
0
 11
3390.021463113124
 21
379.3228386997706
 31
0
  0
LINE
  8
1
 62
2
 10
3389.381463113123
 20
379.3228386997706
 30
0
 11
3390.021463113124
 21
379.9628386997707
 31
0
  0
LINE
  8
1
 62
2
 10
3386.881463113123
 20
379.3228386997706
 30
0
 11
3387.521463113124
 21
379.9628386997707
 31
0
  0
LINE
  8
1
 62
2
 10
3386.881463113123
 20
379.9628386997707
 30
0
 11
3387.521463113124
 21
379.3228386997706
 31
0
  0
LINE
  8
1
 62
2
 10
3395.021463113124
 20
379.9628386997707
 30
0
 11
3395.021463113124
 21
379.3228386997706
 31
0
  0
LINE
  8
1
 62
2
 10
3405.021463113124
 20
379.9628386997707
 30
0
 11
3405.021463113124
 21
379.3228386997706
 31
0
  0
LINE
  8
1
 62
2
 10
3407.521463113124
 20
379.9628386997707
 30
0
 11
3407.521463113124
 21
379.3228386997706
 31
0
  0
LINE
  8
1
 62
2
 10
3406.881463113123
 20
379.9628386997707
 30
0
 11
3406.881463113123
 21
379.3228386997706
 31
0
  0
LINE
  8
1
 62
2
 10
3404.381463113123
 20
379.9628386997707
 30
0
 11
3404.381463113123
 21
379.3228386997706
 31
0
  0
LINE
  8
1
 62
2
 10
3402.521463113124
 20
379.9628386997707
 30
0
 11
3402.521463113124
 21
379.3228386997706
 31
0
  0
LINE
  8
1
 62
2
 10
3401.881463113123
 20
379.9628386997707
 30
0
 11
3401.881463113123
 21
379.3228386997706
 31
0
  0
LINE
  8
1
 62
2
 10
3400.021463113124
 20
379.9628386997707
 30
0
 11
3400.021463113124
 21
379.3228386997706
 31
0
  0
LINE
  8
1
 62
2
 10
3399.381463113123
 20
379.9628386997707
 30
0
 11
3399.381463113123
 21
379.3228386997706
 31
0
  0
LINE
  8
1
 62
2
 10
3397.521463113124
 20
379.9628386997707
 30
0
 11
3397.521463113124
 21
379.3228386997706
 31
0
  0
LINE
  8
1
 62
2
 10
3396.881463113123
 20
379.9628386997707
 30
0
 11
3396.881463113123
 21
379.3228386997706
 31
0
  0
LINE
  8
1
 62
2
 10
3394.381463113123
 20
379.9628386997707
 30
0
 11
3394.381463113123
 21
379.3228386997706
 31
0
  0
LINE
  8
1
 62
2
 10
3392.521463113124
 20
379.9628386997707
 30
0
 11
3392.521463113124
 21
379.3228386997706
 31
0
  0
LINE
  8
1
 62
2
 10
3391.881463113123
 20
379.9628386997707
 30
0
 11
3391.881463113123
 21
379.3228386997706
 31
0
  0
LINE
  8
1
 62
2
 10
3390.021463113124
 20
379.9628386997707
 30
0
 11
3390.021463113124
 21
379.3228386997706
 31
0
  0
LINE
  8
1
 62
2
 10
3389.381463113123
 20
379.9628386997707
 30
0
 11
3389.381463113123
 21
379.3228386997706
 31
0
  0
LINE
  8
1
 62
2
 10
3387.521463113124
 20
379.9628386997707
 30
0
 11
3387.521463113124
 21
379.3228386997706
 31
0
  0
LINE
  8
1
 62
2
 10
3386.881463113123
 20
379.9628386997707
 30
0
 11
3386.881463113123
 21
379.3228386997706
 31
0
  0
LINE
  8
1
 62
2
 10
3387.521463113124
 20
379.3228386997706
 30
0
 11
3386.881463113123
 21
379.3228386997706
 31
0
  0
LINE
  8
1
 62
2
 10
3390.021463113124
 20
379.3228386997706
 30
0
 11
3389.381463113123
 21
379.3228386997706
 31
0
  0
LINE
  8
1
 62
2
 10
3392.521463113124
 20
379.3228386997706
 30
0
 11
3391.881463113123
 21
379.3228386997706
 31
0
  0
LINE
  8
1
 62
2
 10
3395.021463113124
 20
379.3228386997706
 30
0
 11
3394.381463113123
 21
379.3228386997706
 31
0
  0
LINE
  8
1
 62
2
 10
3397.521463113124
 20
379.3228386997706
 30
0
 11
3396.881463113123
 21
379.3228386997706
 31
0
  0
LINE
  8
1
 62
2
 10
3400.021463113124
 20
379.3228386997706
 30
0
 11
3399.381463113123
 21
379.3228386997706
 31
0
  0
LINE
  8
1
 62
2
 10
3402.521463113124
 20
379.3228386997706
 30
0
 11
3401.881463113123
 21
379.3228386997706
 31
0
  0
LINE
  8
1
 62
2
 10
3405.021463113124
 20
379.3228386997706
 30
0
 11
3404.381463113123
 21
379.3228386997706
 31
0
  0
LINE
  8
1
 62
2
 10
3407.521463113124
 20
379.3228386997706
 30
0
 11
3406.881463113123
 21
379.3228386997706
 31
0
  0
LINE
  8
1
 62
2
 10
3406.881463113123
 20
379.9628386997707
 30
0
 11
3407.521463113124
 21
379.9628386997707
 31
0
  0
LINE
  8
1
 62
2
 10
3404.381463113123
 20
379.9628386997707
 30
0
 11
3405.021463113124
 21
379.9628386997707
 31
0
  0
LINE
  8
1
 62
2
 10
3401.881463113123
 20
379.9628386997707
 30
0
 11
3402.521463113124
 21
379.9628386997707
 31
0
  0
LINE
  8
1
 62
2
 10
3399.381463113123
 20
379.9628386997707
 30
0
 11
3400.021463113124
 21
379.9628386997707
 31
0
  0
LINE
  8
1
 62
2
 10
3396.881463113123
 20
379.9628386997707
 30
0
 11
3397.521463113124
 21
379.9628386997707
 31
0
  0
LINE
  8
1
 62
2
 10
3394.381463113123
 20
379.9628386997707
 30
0
 11
3395.021463113124
 21
379.9628386997707
 31
0
  0
LINE
  8
1
 62
2
 10
3391.881463113123
 20
379.9628386997707
 30
0
 11
3392.521463113124
 21
379.9628386997707
 31
0
  0
LINE
  8
1
 62
2
 10
3389.381463113123
 20
379.9628386997707
 30
0
 11
3390.021463113124
 21
379.9628386997707
 31
0
  0
LINE
  8
1
 62
2
 10
3386.881463113123
 20
379.9628386997707
 30
0
 11
3387.521463113124
 21
379.9628386997707
 31
0
  0
LINE
  8
1
 62
2
 10
3426.534123831288
 20
379.2795835887017
 30
0
 11
3427.174123831287
 21
379.2795835887017
 31
0
  0
LINE
  8
1
 62
2
 10
3426.534123831288
 20
379.9195835887016
 30
0
 11
3427.174123831287
 21
379.9195835887016
 31
0
  0
LINE
  8
1
 62
2
 10
3427.174123831287
 20
379.9195835887016
 30
0
 11
3427.174123831287
 21
379.2795835887017
 31
0
  0
LINE
  8
1
 62
2
 10
3426.534123831288
 20
379.9195835887016
 30
0
 11
3426.534123831288
 21
379.2795835887017
 31
0
  0
LINE
  8
1
 62
2
 10
3424.034123831288
 20
379.2795835887017
 30
0
 11
3424.674123831287
 21
379.2795835887017
 31
0
  0
LINE
  8
1
 62
2
 10
3424.034123831288
 20
379.9195835887016
 30
0
 11
3424.674123831287
 21
379.9195835887016
 31
0
  0
LINE
  8
1
 62
2
 10
3424.674123831287
 20
379.9195835887016
 30
0
 11
3424.674123831287
 21
379.2795835887017
 31
0
  0
LINE
  8
1
 62
2
 10
3424.034123831288
 20
379.9195835887016
 30
0
 11
3424.034123831288
 21
379.2795835887017
 31
0
  0
LINE
  8
1
 62
2
 10
3441.701463113124
 20
423.6128386997717
 30
0
 11
3384.101463113123
 21
423.6128386997717
 31
0
  0
LINE
  8
1
 62
2
 10
3383.101463113123
 20
383.2128386997716
 30
0
 11
3383.101463113123
 21
376.7128386997716
 31
0
  0
LINE
  8
1
 62
2
 10
3384.101463113123
 20
384.2128386997716
 30
0
 11
3441.701463113124
 21
384.2128386997716
 31
0
  0
LINE
  8
1
 62
2
 10
3449.101463113123
 20
431.1128386997705
 30
0
 11
3449.101463113123
 21
376.7128386997716
 31
0
  0
ARC
  8
1
 62
2
 10
3386.050590557027
 20
391.8352776954609
 30
0
 40
3.278021670666472
 50
78.76987389933342
 51
101.23012610069
  0
ARC
  8
1
 62
2
 10
3386.237231767801
 20
393.0805460031685
 30
0
 40
2.021122742584644
 50
37.4918021342351
 51
77.08435358757228
  0
ARC
  8
1
 62
2
 10
3387.195836536885
 20
393.3572558057317
 30
0
 40
3.514933595248913
 50
228.9739207528851
 51
245.3658485484314
  0
ARC
  8
1
 62
2
 10
3385.918337263174
 20
390.8200344185026
 30
0
 40
0.6840395595015384
 50
254.0820754217106
 51
60.1104820981013
  0
ARC
  8
1
 62
2
 10
3386.151820110107
 20
393.2922625693974
 30
0
 40
0.9881166539884078
 50
37.02155366941251
 51
78.75628078736419
  0
ARC
  8
1
 62
2
 10
3385.955232424063
 20
391.3942342495739
 30
0
 40
2.181779025255577
 50
216.7563052697661
 51
277.6480825424247
  0
ARC
  8
1
 62
2
 10
3386.18437748552
 20
393.6921108656581
 30
0
 40
0.5913888003185414
 50
74.29211887376715
 51
244.0110462533857
  0
ARC
  8
1
 62
2
 10
3386.287300525193
 20
391.0679875538683
 30
0
 40
1.836597104779153
 50
268.6990129510425
 51
47.47242068587345
  0
ARC
  8
1
 62
2
 10
3385.831234631316
 20
393.3856583278332
 30
0
 40
1.716801457968214
 50
104.1275487593594
 51
237.0471861042959
  0
ARC
  8
1
 62
2
 10
3395.382299287539
 20
393.3720849213983
 30
0
 40
0.9998023525334252
 50
287.6562057202103
 51
72.34379427977197
  0
ARC
  8
1
 62
2
 10
3396.120892974252
 20
393.4771015444696
 30
0
 40
1.584888506066496
 50
292.5044325750843
 51
83.10707041605426
  0
ARC
  8
1
 62
3
 10
3344.042832108331
 20
378.9128386997716
 30
0
 40
4.799999999999591
 50
4.331148730789277
 51
17.58277600842676
  0
ARC
  8
1
 62
3
 10
3344.042832108331
 20
378.9128386997716
 30
0
 40
4.799999999999685
 50
324.3146652873434
 51
342.417223991572
  0
ARC
  8
1
 62
3
 10
3344.042832108331
 20
378.9128386997716
 30
0
 40
4.799999999999265
 50
342.417223991572
 51
355.6688512692093
  0
ARC
  8
1
 62
3
 10
3344.042832108331
 20
378.9128386997716
 30
0
 40
4.799999999999231
 50
17.58277600842676
 51
35.6853347126555
  0
ARC
  8
1
 62
3
 10
3344.042832108331
 20
428.9128386997716
 30
0
 40
4.799999999999596
 50
4.331148730789954
 51
17.58277600842676
  0
ARC
  8
1
 62
3
 10
3344.042832108331
 20
428.9128386997716
 30
0
 40
4.799999999999685
 50
324.3146652873434
 51
342.4172239915726
  0
ARC
  8
1
 62
3
 10
3344.042832108331
 20
428.9128386997716
 30
0
 40
4.799999999999248
 50
342.4172239915726
 51
355.6688512692093
  0
ARC
  8
1
 62
3
 10
3344.042832108331
 20
428.9128386997716
 30
0
 40
4.799999999999231
 50
17.58277600842676
 51
35.68533471265604
  0
ARC
  8
1
 62
3
 10
3314.84283210833
 20
378.9128386997716
 30
0
 40
4.799999999999231
 50
162.4172239915733
 51
175.6688512692107
  0
ARC
  8
1
 62
3
 10
3314.84283210833
 20
378.9128386997716
 30
0
 40
4.799999999999265
 50
197.5827760084281
 51
215.6853347126566
  0
ARC
  8
1
 62
3
 10
3314.84283210833
 20
378.9128386997716
 30
0
 40
4.7999999999996
 50
184.3311487307906
 51
197.5827760084281
  0
ARC
  8
1
 62
3
 10
3314.84283210833
 20
378.9128386997716
 30
0
 40
4.799999999999618
 50
144.3146652873445
 51
162.4172239915733
  0
ARC
  8
1
 62
3
 10
3379.906101089294
 20
378.9128386997716
 30
0
 40
0.6349999999998857
 50
352.5415509436966
 51
7.458449056308459
  0
ARC
  8
1
 62
3
 10
3379.906101089294
 20
378.9128386997716
 30
0
 40
1.449999999999733
 50
300.216198285234
 51
329.7838017147325
  0
ARC
  8
1
 62
3
 10
3379.906101089294
 20
378.9128386997716
 30
0
 40
0.6349999999999816
 50
262.5415509436305
 51
277.4584490562474
  0
ARC
  8
1
 62
3
 10
3379.906101089294
 20
378.9128386997716
 30
0
 40
1.450000000000748
 50
210.2161982852314
 51
239.7838017147195
  0
ARC
  8
1
 62
3
 10
3379.906101089294
 20
378.9128386997716
 30
0
 40
0.6350000000012458
 50
172.5415509437075
 51
187.4584490562874
  0
ARC
  8
1
 62
3
 10
3379.906101089294
 20
378.9128386997716
 30
0
 40
1.450000000000419
 50
120.2161982852805
 51
149.7838017147667
  0
ARC
  8
1
 62
3
 10
3379.906101089294
 20
378.9128386997716
 30
0
 40
0.6350000000000863
 50
82.54155094375591
 51
97.45844905636615
  0
ARC
  8
1
 62
3
 10
3379.906101089294
 20
378.9128386997716
 30
0
 40
1.449999999999205
 50
30.21619828526951
 51
59.78380171476606
  0
ARC
  8
1
 62
3
 10
3445.906101089293
 20
428.9128386997716
 30
0
 40
0.6350000000012384
 50
352.5415509437125
 51
7.45844905629248
  0
ARC
  8
1
 62
3
 10
3445.906101089293
 20
428.9128386997716
 30
0
 40
1.450000000000419
 50
300.2161982852805
 51
329.7838017147596
  0
ARC
  8
1
 62
3
 10
3445.906101089293
 20
428.9128386997716
 30
0
 40
0.6349999999998044
 50
262.5415509437526
 51
277.4584490563695
  0
ARC
  8
1
 62
3
 10
3445.906101089293
 20
428.9128386997716
 30
0
 40
1.449999999999569
 50
210.2161982852585
 51
239.783801714766
  0
ARC
  8
1
 62
3
 10
3445.906101089293
 20
428.9128386997716
 30
0
 40
0.6349999999998931
 50
172.5415509436915
 51
187.4584490563034
  0
ARC
  8
1
 62
3
 10
3445.906101089293
 20
428.9128386997716
 30
0
 40
1.449999999999733
 50
120.216198285234
 51
149.7838017147395
  0
ARC
  8
1
 62
3
 10
3445.906101089293
 20
428.9128386997716
 30
0
 40
0.6350000000002635
 50
82.54155094363385
 51
97.45844905624409
  0
ARC
  8
1
 62
3
 10
3445.906101089293
 20
428.9128386997716
 30
0
 40
1.450000000000383
 50
30.21619828524237
 51
59.78380171471946
  0
ARC
  8
1
 62
3
 10
3379.906101089294
 20
314.3997930980939
 30
0
 40
4.800000000000001
 50
252.4172239915712
 51
265.6688512691982
  0
ARC
  8
1
 62
3
 10
3379.906101089294
 20
314.3997930980939
 30
0
 40
4.799999999999589
 50
287.5827760084133
 51
305.6853347126496
  0
ARC
  8
1
 62
3
 10
3379.906101089294
 20
314.3997930980939
 30
0
 40
4.799999999999967
 50
274.3311487307856
 51
287.5827760084133
  0
ARC
  8
1
 62
3
 10
3379.906101089294
 20
314.3997930980939
 30
0
 40
4.800000000000618
 50
234.3146652873372
 51
252.4172239915712
  0
ARC
  8
1
 62
3
 10
3379.906101089294
 20
343.599793098094
 30
0
 40
4.799999999999805
 50
72.41722399158753
 51
85.66885126922534
  0
ARC
  8
1
 62
3
 10
3379.906101089294
 20
343.599793098094
 30
0
 40
4.800000000000493
 50
107.5827760084384
 51
125.6853347126632
  0
ARC
  8
1
 62
3
 10
3379.906101089294
 20
343.599793098094
 30
0
 40
4.800000000000126
 50
94.33114873080173
 51
107.5827760084384
  0
ARC
  8
1
 62
3
 10
3379.906101089294
 20
343.599793098094
 30
0
 40
4.799999999999245
 50
54.31466528735886
 51
72.41722399158753
  0
ARC
  8
1
 62
3
 10
3445.906101089293
 20
343.599793098094
 30
0
 40
4.800000000000217
 50
72.417223991572
 51
85.66885126920911
  0
ARC
  8
1
 62
3
 10
3445.906101089293
 20
343.599793098094
 30
0
 40
4.800000000000081
 50
107.5827760084228
 51
125.68533471265
  0
ARC
  8
1
 62
3
 10
3445.906101089293
 20
343.599793098094
 30
0
 40
4.800000000000023
 50
94.33114873078547
 51
107.5827760084228
  0
ARC
  8
1
 62
3
 10
3445.906101089293
 20
343.599793098094
 30
0
 40
4.800000000000041
 50
54.31466528734563
 51
72.417223991572
  0
ARC
  8
1
 62
3
 10
3484.05888362967
 20
378.9128386997716
 30
0
 40
4.80000000000053
 50
162.4172239915782
 51
175.6688512692107
  0
ARC
  8
1
 62
3
 10
3484.05888362967
 20
378.9128386997716
 30
0
 40
4.800000000000565
 50
197.5827760084231
 51
215.6853347126566
  0
ARC
  8
1
 62
3
 10
3484.05888362967
 20
378.9128386997716
 30
0
 40
4.7999999999996
 50
184.3311487307906
 51
197.5827760084231
  0
ARC
  8
1
 62
3
 10
3484.05888362967
 20
378.9128386997716
 30
0
 40
4.799999999999618
 50
144.3146652873445
 51
162.4172239915782
  0
ARC
  8
1
 62
3
 10
3484.05888362967
 20
428.9128386997716
 30
0
 40
4.80000000000053
 50
162.4172239915782
 51
175.66885126921
  0
ARC
  8
1
 62
3
 10
3484.05888362967
 20
428.9128386997716
 30
0
 40
4.800000000000548
 50
197.5827760084225
 51
215.6853347126566
  0
ARC
  8
1
 62
3
 10
3484.05888362967
 20
428.9128386997716
 30
0
 40
4.7999999999996
 50
184.3311487307906
 51
197.5827760084225
  0
ARC
  8
1
 62
3
 10
3484.05888362967
 20
428.9128386997716
 30
0
 40
4.799999999999651
 50
144.314665287344
 51
162.4172239915782
  0
ARC
  8
1
 62
3
 10
3513.25888362967
 20
428.9128386997716
 30
0
 40
4.800000000000081
 50
342.4172239915772
 51
355.6688512692115
  0
ARC
  8
1
 62
3
 10
3513.25888362967
 20
428.9128386997716
 30
0
 40
4.800000000000131
 50
17.58277600842477
 51
35.68533471265081
  0
ARC
  8
1
 62
3
 10
3513.25888362967
 20
428.9128386997716
 30
0
 40
4.800000000000511
 50
4.331148730790487
 51
17.58277600842477
  0
ARC
  8
1
 62
3
 10
3513.25888362967
 20
428.9128386997716
 30
0
 40
4.800000000000357
 50
324.3146652873509
 51
342.4172239915772
  0
ARC
  8
1
 62
7
 10
3434.999857341996
 20
424.2128386997717
 30
0
 40
4.799999999999971
 50
72.41722399157676
 51
85.66885126921441
  0
ARC
  8
1
 62
7
 10
3434.999857341996
 20
424.2128386997717
 30
0
 40
4.800000000000109
 50
107.5827760084284
 51
125.6853347126536
  0
ARC
  8
1
 62
7
 10
3434.999857341996
 20
424.2128386997717
 30
0
 40
4.799999999999944
 50
94.331148730791
 51
107.5827760084284
  0
ARC
  8
1
 62
7
 10
3434.999857341996
 20
424.2128386997717
 30
0
 40
4.799999999999868
 50
54.31466528735082
 51
72.41722399157676
  0
ARC
  8
1
 62
7
 10
3410.599857341996
 20
424.2128386997717
 30
0
 40
4.799999999999971
 50
72.41722399157676
 51
85.66885126919819
  0
ARC
  8
1
 62
7
 10
3410.599857341996
 20
424.2128386997717
 30
0
 40
4.799999999999698
 50
107.5827760084129
 51
125.6853347126536
  0
ARC
  8
1
 62
7
 10
3410.599857341996
 20
424.2128386997717
 30
0
 40
4.799999999999944
 50
94.331148730791
 51
107.5827760084129
  0
ARC
  8
1
 62
7
 10
3410.599857341996
 20
424.2128386997717
 30
0
 40
4.800000000000663
 50
54.3146652873376
 51
72.41722399157676
  0
ARC
  8
1
 62
7
 10
3393.166102089294
 20
424.6878386997717
 30
0
 40
4.799999999999589
 50
72.41722399158671
 51
85.66885126921974
  0
ARC
  8
1
 62
7
 10
3393.166102089294
 20
424.6878386997717
 30
0
 40
4.800000000000138
 50
107.582776008434
 51
125.6853347126624
  0
ARC
  8
1
 62
7
 10
3393.166102089294
 20
424.6878386997717
 30
0
 40
4.799999999999899
 50
94.33114873080193
 51
107.582776008434
  0
ARC
  8
1
 62
7
 10
3393.166102089294
 20
424.6878386997717
 30
0
 40
4.799999999999602
 50
54.31466528735523
 51
72.41722399158671
  0
ARC
  8
1
 62
7
 10
3420.824671919277
 20
382.0466582350096
 30
0
 40
0.5760000000000218
 50
180
 51
0
  0
ARC
  8
1
 62
7
 10
3420.824671919277
 20
378.2066582350097
 30
0
 40
0.5760000000000218
 50
0
 51
180
  0
ARC
  8
1
 62
7
 10
3393.161464113124
 20
424.6878386997715
 30
0
 40
4.799999999998922
 50
54.31466528735608
 51
72.41722399157391
  0
ARC
  8
1
 62
7
 10
3393.161464113124
 20
424.6878386997715
 30
0
 40
4.799999999999661
 50
94.33114873079126
 51
107.5827760084416
  0
ARC
  8
1
 62
7
 10
3393.161464113124
 20
424.6878386997715
 30
0
 40
4.799999999999625
 50
107.5827760084416
 51
125.6853347126572
  0
ARC
  8
1
 62
7
 10
3393.161464113124
 20
424.6878386997715
 30
0
 40
4.799999999999213
 50
72.41722399157391
 51
85.66885126922499
  0
ARC
  8
1
 62
7
 10
3410.595219365826
 20
424.2128386997716
 30
0
 40
4.800000000000201
 50
54.31466528733364
 51
72.41722399155816
  0
ARC
  8
1
 62
7
 10
3410.595219365826
 20
424.2128386997716
 30
0
 40
4.799999999999501
 50
94.33114873077507
 51
107.582776008416
  0
ARC
  8
1
 62
7
 10
3410.595219365826
 20
424.2128386997716
 30
0
 40
4.799999999998884
 50
107.582776008416
 51
125.6853347126443
  0
ARC
  8
1
 62
7
 10
3410.595219365826
 20
424.2128386997716
 30
0
 40
4.799999999999571
 50
72.41722399155816
 51
85.66885126919789
  0
ARC
  8
1
 62
7
 10
3434.995219365827
 20
424.2128386997716
 30
0
 40
4.799999999999671
 50
54.31466528734246
 51
72.41722399156852
  0
ARC
  8
1
 62
7
 10
3434.995219365827
 20
424.2128386997716
 30
0
 40
4.79999999999957
 50
94.3311487307859
 51
107.5827760084263
  0
ARC
  8
1
 62
7
 10
3434.995219365827
 20
424.2128386997716
 30
0
 40
4.79999999999916
 50
107.5827760084263
 51
125.6853347126531
  0
ARC
  8
1
 62
7
 10
3434.995219365827
 20
424.2128386997716
 30
0
 40
4.799999999999296
 50
72.41722399156852
 51
85.6688512692087
  0
CIRCLE
  8
1
 62
2
 10
3495.65888362967
 20
388.9128386997716
 30
0
 40
1.5
  0
CIRCLE
  8
1
 62
2
 10
3495.65888362967
 20
418.9128386997716
 30
0
 40
1.5
  0
CIRCLE
  8
1
 62
3
 10
3379.906101089294
 20
378.9128386997716
 30
0
 40
2.799999999999727
  0
CIRCLE
  8
1
 62
3
 10
3445.906101089293
 20
428.9128386997716
 30
0
 40
2.800000000000182
  0
CIRCLE
  8
1
 62
3
 10
3495.65888362967
 20
388.9128386997716
 30
0
 40
1
  0
CIRCLE
  8
1
 62
3
 10
3495.65888362967
 20
418.9128386997716
 30
0
 40
1
  0
CIRCLE
  8
1
 62
3
 10
3445.906101089294
 20
378.9128386997714
 30
0
 40
1.599999999999909
  0
CIRCLE
  8
1
 62
3
 10
3379.906101089294
 20
428.9128386997714
 30
0
 40
1.599999999999909
  0
CIRCLE
  8
1
 62
2
 10
3420.816774353796
 20
380.131785741244
 30
0
 40
0.1920000000000073
  0
POLYLINE
  8
1
 62
3
 66
1
  0
VERTEX
  8
1
 10
3218.41005525628
 20
494.363512693405
 30
0
 42
-0.01703707655695383
  0
VERTEX
  8
1
 10
3219.751286704648
 20
490.7335039388909
 30
0
 42
-0.01252441510406289
  0
VERTEX
  8
1
 10
3220.071973187605
 20
489.6335039388908
 30
0
 42
-0.02146569261486369
  0
VERTEX
  8
1
 10
3220.380064999093
 20
488.2335039388908
 30
0
 42
-0.02140811598683226
  0
VERTEX
  8
1
 10
3220.523915453777
 20
487.133503938891
 30
0
 42
-0.03283443794989788
  0
VERTEX
  8
1
 10
3220.554881093617
 20
485.7335039388909
 30
0
 42
-0.02953689724332094
  0
VERTEX
  8
1
 10
3220.439966915837
 20
484.6335039388909
 30
0
 42
-0.0320120982274474
  0
VERTEX
  8
1
 10
3220.107260074329
 20
483.233503938891
 30
0
 42
-0.01537131995103595
  0
VERTEX
  8
1
 10
3219.735818236321
 20
482.133503938891
 30
0
 42
-0.008474022541388054
  0
VERTEX
  8
1
 10
3219.185404275117
 20
480.7335039388909
 30
0
 42
0.001677210170604004
  0
VERTEX
  8
1
 10
3218.737651661858
 20
479.6335039388908
 30
0
 42
0.01333123803895024
  0
VERTEX
  8
1
 10
3218.212923619115
 20
478.2335039388909
 30
0
 42
0.01033163543936626
  0
VERTEX
  8
1
 10
3217.955301033567
 20
477.4193515646258
 30
0
 42
0.001721734763137833
  0
VERTEX
  8
1
 10
3217.748865906121
 20
476.71122850519
 30
0
 42
0.01978934105747968
  0
VERTEX
  8
1
 10
3217.664953028304
 20
476.3562643300982
 30
0
 42
0.01832665146101269
  0
VERTEX
  8
1
 10
3217.576800007155
 20
475.810359410825
 30
0
 42
0.01216731286470822
  0
VERTEX
  8
1
 10
3217.487260627653
 20
474.9673488571746
 30
0
 42
0.007716959306227153
  0
VERTEX
  8
1
 10
3217.399188674775
 20
473.721067778951
 30
0
 42
0.005030492549804321
  0
VERTEX
  8
1
 10
3217.315437933499
 20
471.9653512859587
 30
0
 42
0.003420853595485666
  0
VERTEX
  8
1
 10
3217.238862188803
 20
469.5940344880014
 30
0
  0
SEQEND
  8
1
  0
POLYLINE
  8
1
 62
3
 66
1
  0
VERTEX
  8
1
 10
3216.41005525628
 20
494.363512693405
 30
0
 42
-0.01703707655729359
  0
VERTEX
  8
1
 10
3217.751286704647
 20
490.7335039388909
 30
0
 42
-0.01252441510333402
  0
VERTEX
  8
1
 10
3218.071973187605
 20
489.6335039388909
 30
0
 42
-0.02146569261547801
  0
VERTEX
  8
1
 10
3218.380064999093
 20
488.2335039388908
 30
0
 42
-0.02140811598804557
  0
VERTEX
  8
1
 10
3218.523915453777
 20
487.133503938891
 30
0
 42
-0.03283443794957374
  0
VERTEX
  8
1
 10
3218.554881093618
 20
485.7335039388909
 30
0
 42
-0.02953689724374707
  0
VERTEX
  8
1
 10
3218.439966915838
 20
484.6335039388911
 30
0
 42
-0.03201209822742248
  0
VERTEX
  8
1
 10
3218.107260074329
 20
483.2335039388909
 30
0
 42
-0.01537131995233527
  0
VERTEX
  8
1
 10
3217.735818236322
 20
482.133503938891
 30
0
 42
-0.008474022533052178
  0
VERTEX
  8
1
 10
3217.185404275119
 20
480.7335039388909
 30
0
 42
0.001677210184524172
  0
VERTEX
  8
1
 10
3216.737651661933
 20
479.6335039388908
 30
0
 42
0.01333123793846102
  0
VERTEX
  8
1
 10
3216.212923619116
 20
478.2335039388908
 30
0
 42
0.01065951541302783
  0
VERTEX
  8
1
 10
3216.058881733419
 20
477.7506003202487
 30
0
 42
0.008033761176592769
  0
VERTEX
  8
1
 10
3215.845455314143
 20
476.9864928546824
 30
0
 42
0.001909745184903232
  0
VERTEX
  8
1
 10
3215.651454065149
 20
476.2423551096504
 30
0
 42
0.01941387121444251
  0
VERTEX
  8
1
 10
3215.562634118422
 20
475.8156483003559
 30
0
 42
0.01921305081506578
  0
VERTEX
  8
1
 10
3215.47870821346
 20
475.1817300291633
 30
0
 42
0.01356886055780934
  0
VERTEX
  8
1
 10
3215.409657408471
 20
474.2309491667553
 30
0
 42
0.008995755470406734
  0
VERTEX
  8
1
 10
3215.365462761651
 20
472.8536545838148
 30
0
 42
0.006047743824024596
  0
VERTEX
  8
1
 10
3215.356105331207
 20
470.9401951510249
 30
0
  0
VERTEX
  8
1
 10
3215.367609652813
 20
469.7481376380246
 30
0
  0
SEQEND
  8
1
  0
POLYLINE
  8
1
 62
3
 66
1
  0
VERTEX
  8
1
 10
3213.012695137561
 20
327.7894545527511
 30
0
 42
-0.01703707655729211
  0
VERTEX
  8
1
 10
3214.353926585929
 20
324.159445798237
 30
0
 42
-0.01252441510406409
  0
VERTEX
  8
1
 10
3214.674613068887
 20
323.059445798237
 30
0
 42
-0.02146569261610054
  0
VERTEX
  8
1
 10
3214.982704880374
 20
321.6594457982371
 30
0
 42
-0.02140811598965148
  0
VERTEX
  8
1
 10
3215.126555335059
 20
320.5594457982371
 30
0
 42
-0.03283443794989788
  0
VERTEX
  8
1
 10
3215.157520974899
 20
319.159445798237
 30
0
 42
-0.02953689724210468
  0
VERTEX
  8
1
 10
3215.04260679712
 20
318.0594457982372
 30
0
 42
-0.01199997201127768
  0
VERTEX
  8
1
 10
3214.980174877422
 20
317.7278805738943
 30
0
 42
-0.01047860803649071
  0
VERTEX
  8
1
 10
3214.878869731606
 20
317.2966685244127
 30
0
 42
-0.005543943725347887
  0
VERTEX
  8
1
 10
3214.711026158654
 20
316.6642608668759
 30
0
 42
-0.002458149647983426
  0
VERTEX
  8
1
 10
3214.448978957544
 20
315.7291088183674
 30
0
 42
-0.0008480104770690051
  0
VERTEX
  8
1
 10
3214.149753689776
 20
314.6845683127987
 30
0
 42
-0.002576799403581312
  0
VERTEX
  8
1
 10
3213.842951937946
 20
313.6420029049875
 30
0
 42
-0.003006401468516204
  0
VERTEX
  8
1
 10
3213.424565441675
 20
312.274695093146
 30
0
 42
-0.002724757650772603
  0
VERTEX
  8
1
 10
3212.854039530296
 20
310.4796143568128
 30
0
  0
SEQEND
  8
1
  0
POLYLINE
  8
1
 62
3
 66
1
  0
VERTEX
  8
1
 10
3215.012695137561
 20
327.7894545527511
 30
0
 42
-0.0170370765570575
  0
VERTEX
  8
1
 10
3216.353926585929
 20
324.159445798237
 30
0
 42
-0.01252441510440096
  0
VERTEX
  8
1
 10
3216.674613068886
 20
323.059445798237
 30
0
 42
-0.02146569261485519
  0
VERTEX
  8
1
 10
3216.982704880374
 20
321.6594457982371
 30
0
 42
-0.02140811598802793
  0
VERTEX
  8
1
 10
3217.126555335058
 20
320.5594457982371
 30
0
 42
-0.03283443795022081
  0
VERTEX
  8
1
 10
3217.157520974899
 20
319.159445798237
 30
0
 42
-0.02953689724126843
  0
VERTEX
  8
1
 10
3217.042606797119
 20
318.059445798237
 30
0
 42
-0.01200434538091852
  0
VERTEX
  8
1
 10
3216.986435332416
 20
317.760182975079
 30
0
 42
-0.01135713277150625
  0
VERTEX
  8
1
 10
3216.893364097841
 20
317.3664556342009
 30
0
 42
-0.006326688341864597
  0
VERTEX
  8
1
 10
3216.73557182385
 20
316.7822586720818
 30
0
 42
-0.003019909657930447
  0
VERTEX
  8
1
 10
3216.4852372409
 20
315.9115869852017
 30
0
 42
-0.001391686786570323
  0
VERTEX
  8
1
 10
3216.114539079448
 20
314.6584354700401
 30
0
 42
-0.0004992382836029645
  0
VERTEX
  8
1
 10
3215.797942694276
 20
313.6005062765859
 30
0
 42
-0.0004751676951552205
  0
VERTEX
  8
1
 10
3215.460519416238
 20
312.48055331097
 30
0
 42
-0.0006588349048578989
  0
VERTEX
  8
1
 10
3215.146420905286
 20
311.4463668192733
 30
0
 42
-0.001341609813919166
  0
VERTEX
  8
1
 10
3214.899798821368
 20
310.6457370475767
 30
0
 42
-0.00547716240850887
  0
VERTEX
  8
1
 10
3214.764804824431
 20
310.2264542419611
 30
0
  0
SEQEND
  8
1
  0
ARC
  8
1
 62
3
 10
3443.106101089293
 20
401.6128386997717
 30
0
 40
1
 50
0
 51
90
  0
ARC
  8
1
 62
3
 10
3443.106101089293
 20
401.6128386997717
 30
0
 40
1
 50
270
 51
0
  0
ARC
  8
1
 62
3
 10
3443.106101089293
 20
401.6128386997717
 30
0
 40
1
 50
0
 51
90
  0
ARC
  8
1
 62
3
 10
3443.106101089293
 20
401.6128386997717
 30
0
 40
1
 50
270
 51
0
  0
ARC
  8
1
 62
3
 10
3443.106101089293
 20
401.6128386997717
 30
0
 40
1
 50
0
 51
90
  0
ARC
  8
1
 62
3
 10
3443.106101089293
 20
401.6128386997717
 30
0
 40
1
 50
270
 51
0
  0
ARC
  8
1
 62
3
 10
3443.106101089293
 20
401.6128386997717
 30
0
 40
1
 50
0
 51
90
  0
ARC
  8
1
 62
3
 10
3443.106101089293
 20
401.6128386997717
 30
0
 40
1
 50
270
 51
0
  0
ARC
  8
1
 62
3
 10
3443.106101089293
 20
401.6128386997717
 30
0
 40
1
 50
0
 51
90
  0
ARC
  8
1
 62
3
 10
3443.106101089293
 20
401.6128386997717
 30
0
 40
1
 50
270
 51
0
  0
ARC
  8
1
 62
3
 10
3443.106101089293
 20
401.6128386997717
 30
0
 40
1
 50
0
 51
90
  0
ARC
  8
1
 62
3
 10
3443.106101089293
 20
401.6128386997717
 30
0
 40
1
 50
270
 51
0
  0
ARC
  8
1
 62
3
 10
3443.106101089293
 20
405.6128386997717
 30
0
 40
1
 50
0
 51
90
  0
ARC
  8
1
 62
3
 10
3443.106101089293
 20
405.6128386997717
 30
0
 40
1
 50
270
 51
0
  0
ARC
  8
1
 62
3
 10
3443.106101089293
 20
405.6128386997717
 30
0
 40
1
 50
0
 51
90
  0
ARC
  8
1
 62
3
 10
3443.106101089293
 20
405.6128386997717
 30
0
 40
1
 50
270
 51
0
  0
ARC
  8
1
 62
3
 10
3443.106101089293
 20
405.6128386997717
 30
0
 40
1
 50
0
 51
90
  0
ARC
  8
1
 62
3
 10
3443.106101089293
 20
405.6128386997717
 30
0
 40
1
 50
270
 51
0
  0
ARC
  8
1
 62
3
 10
3443.106101089293
 20
405.6128386997717
 30
0
 40
1
 50
0
 51
90
  0
ARC
  8
1
 62
3
 10
3443.106101089293
 20
405.6128386997717
 30
0
 40
1
 50
270
 51
0
  0
ARC
  8
1
 62
3
 10
3443.106101089293
 20
405.6128386997717
 30
0
 40
1
 50
0
 51
90
  0
ARC
  8
1
 62
3
 10
3443.106101089293
 20
405.6128386997717
 30
0
 40
1
 50
270
 51
0
  0
ARC
  8
1
 62
3
 10
3443.106101089293
 20
405.6128386997717
 30
0
 40
1
 50
0
 51
90
  0
ARC
  8
1
 62
3
 10
3443.106101089293
 20
405.6128386997717
 30
0
 40
1
 50
270
 51
0
  0
ARC
  8
1
 62
3
 10
3443.106101089293
 20
409.6128386997717
 30
0
 40
1
 50
0
 51
90
  0
ARC
  8
1
 62
3
 10
3443.106101089293
 20
409.6128386997717
 30
0
 40
1
 50
270
 51
0
  0
ARC
  8
1
 62
3
 10
3443.106101089293
 20
409.6128386997717
 30
0
 40
1
 50
0
 51
90
  0
ARC
  8
1
 62
3
 10
3443.106101089293
 20
409.6128386997717
 30
0
 40
1
 50
270
 51
0
  0
ARC
  8
1
 62
3
 10
3443.106101089293
 20
409.6128386997717
 30
0
 40
1
 50
0
 51
90
  0
ARC
  8
1
 62
3
 10
3443.106101089293
 20
409.6128386997717
 30
0
 40
1
 50
270
 51
0
  0
ARC
  8
1
 62
3
 10
3443.106101089293
 20
409.6128386997717
 30
0
 40
1
 50
0
 51
90
  0
ARC
  8
1
 62
3
 10
3443.106101089293
 20
409.6128386997717
 30
0
 40
1
 50
270
 51
0
  0
ARC
  8
1
 62
3
 10
3443.106101089293
 20
409.6128386997717
 30
0
 40
1
 50
0
 51
90
  0
ARC
  8
1
 62
3
 10
3443.106101089293
 20
409.6128386997717
 30
0
 40
1
 50
270
 51
0
  0
ARC
  8
1
 62
3
 10
3443.106101089293
 20
409.6128386997717
 30
0
 40
1
 50
0
 51
90
  0
ARC
  8
1
 62
3
 10
3443.106101089293
 20
409.6128386997717
 30
0
 40
1
 50
270
 51
0
  0
ARC
  8
1
 62
3
 10
3443.106101089293
 20
413.6128386997717
 30
0
 40
1
 50
0
 51
90
  0
ARC
  8
1
 62
3
 10
3443.106101089293
 20
413.6128386997717
 30
0
 40
1
 50
270
 51
0
  0
ARC
  8
1
 62
3
 10
3443.106101089293
 20
413.6128386997717
 30
0
 40
1
 50
0
 51
90
  0
ARC
  8
1
 62
3
 10
3443.106101089293
 20
413.6128386997717
 30
0
 40
1
 50
270
 51
0
  0
ARC
  8
1
 62
3
 10
3443.106101089293
 20
413.6128386997717
 30
0
 40
1
 50
0
 51
90
  0
ARC
  8
1
 62
3
 10
3443.106101089293
 20
413.6128386997717
 30
0
 40
1
 50
270
 51
0
  0
ARC
  8
1
 62
3
 10
3443.106101089293
 20
413.6128386997717
 30
0
 40
1
 50
0
 51
90
  0
ARC
  8
1
 62
3
 10
3443.106101089293
 20
413.6128386997717
 30
0
 40
1
 50
270
 51
0
  0
ARC
  8
1
 62
3
 10
3443.106101089293
 20
413.6128386997717
 30
0
 40
1
 50
0
 51
90
  0
ARC
  8
1
 62
3
 10
3443.106101089293
 20
413.6128386997717
 30
0
 40
1
 50
270
 51
0
  0
ARC
  8
1
 62
3
 10
3443.106101089293
 20
413.6128386997717
 30
0
 40
1
 50
0
 51
90
  0
ARC
  8
1
 62
3
 10
3443.106101089293
 20
413.6128386997717
 30
0
 40
1
 50
270
 51
0
  0
ARC
  8
1
 62
3
 10
3443.106101089293
 20
417.6128386997717
 30
0
 40
1
 50
0
 51
90
  0
ARC
  8
1
 62
3
 10
3443.106101089293
 20
417.6128386997717
 30
0
 40
1
 50
270
 51
0
  0
ARC
  8
1
 62
3
 10
3443.106101089293
 20
417.6128386997717
 30
0
 40
1
 50
0
 51
90
  0
ARC
  8
1
 62
3
 10
3443.106101089293
 20
417.6128386997717
 30
0
 40
1
 50
270
 51
0
  0
ARC
  8
1
 62
3
 10
3443.106101089293
 20
417.6128386997717
 30
0
 40
1
 50
0
 51
90
  0
ARC
  8
1
 62
3
 10
3443.106101089293
 20
417.6128386997717
 30
0
 40
1
 50
270
 51
0
  0
ARC
  8
1
 62
3
 10
3443.106101089293
 20
417.6128386997717
 30
0
 40
1
 50
0
 51
90
  0
ARC
  8
1
 62
3
 10
3443.106101089293
 20
417.6128386997717
 30
0
 40
1
 50
270
 51
0
  0
ARC
  8
1
 62
3
 10
3443.106101089293
 20
417.6128386997717
 30
0
 40
1
 50
0
 51
90
  0
ARC
  8
1
 62
3
 10
3443.106101089293
 20
417.6128386997717
 30
0
 40
1
 50
270
 51
0
  0
ARC
  8
1
 62
3
 10
3443.106101089293
 20
417.6128386997717
 30
0
 40
1
 50
0
 51
90
  0
ARC
  8
1
 62
3
 10
3443.106101089293
 20
417.6128386997717
 30
0
 40
1
 50
270
 51
0
  0
ARC
  8
1
 62
3
 10
3421.906101089293
 20
401.6128386997717
 30
0
 40
1
 50
90
 51
180
  0
ARC
  8
1
 62
3
 10
3421.906101089293
 20
401.6128386997717
 30
0
 40
1
 50
180
 51
270
  0
ARC
  8
1
 62
3
 10
3421.906101089293
 20
401.6128386997717
 30
0
 40
1
 50
90
 51
180
  0
ARC
  8
1
 62
3
 10
3421.906101089293
 20
401.6128386997717
 30
0
 40
1
 50
180
 51
270
  0
ARC
  8
1
 62
3
 10
3421.906101089293
 20
401.6128386997717
 30
0
 40
1
 50
90
 51
180
  0
ARC
  8
1
 62
3
 10
3421.906101089293
 20
401.6128386997717
 30
0
 40
1
 50
180
 51
270
  0
ARC
  8
1
 62
3
 10
3421.906101089293
 20
401.6128386997717
 30
0
 40
1
 50
90
 51
180
  0
ARC
  8
1
 62
3
 10
3421.906101089293
 20
401.6128386997717
 30
0
 40
1
 50
180
 51
270
  0
ARC
  8
1
 62
3
 10
3421.906101089293
 20
401.6128386997717
 30
0
 40
1
 50
90
 51
180
  0
ARC
  8
1
 62
3
 10
3421.906101089293
 20
401.6128386997717
 30
0
 40
1
 50
180
 51
270
  0
ARC
  8
1
 62
3
 10
3419.406101089293
 20
405.6128386997717
 30
0
 40
1
 50
90
 51
180
  0
ARC
  8
1
 62
3
 10
3419.406101089293
 20
405.6128386997717
 30
0
 40
1
 50
180
 51
270
  0
ARC
  8
1
 62
3
 10
3419.406101089293
 20
405.6128386997717
 30
0
 40
1
 50
90
 51
180
  0
ARC
  8
1
 62
3
 10
3419.406101089293
 20
405.6128386997717
 30
0
 40
1
 50
180
 51
270
  0
ARC
  8
1
 62
3
 10
3419.406101089293
 20
405.6128386997717
 30
0
 40
1
 50
90
 51
180
  0
ARC
  8
1
 62
3
 10
3419.406101089293
 20
405.6128386997717
 30
0
 40
1
 50
180
 51
270
  0
ARC
  8
1
 62
3
 10
3416.906101089293
 20
409.6128386997717
 30
0
 40
1
 50
90
 51
180
  0
ARC
  8
1
 62
3
 10
3416.906101089293
 20
409.6128386997717
 30
0
 40
1
 50
180
 51
270
  0
ARC
  8
1
 62
3
 10
3416.906101089293
 20
409.6128386997717
 30
0
 40
1
 50
90
 51
180
  0
ARC
  8
1
 62
3
 10
3416.906101089293
 20
409.6128386997717
 30
0
 40
1
 50
180
 51
270
  0
ARC
  8
1
 62
3
 10
3414.406101089293
 20
413.6128386997717
 30
0
 40
1
 50
90
 51
180
  0
ARC
  8
1
 62
3
 10
3414.406101089293
 20
413.6128386997717
 30
0
 40
1
 50
180
 51
270
  0
ARC
  8
1
 62
3
 10
3421.906101089293
 20
401.6128386997717
 30
0
 40
1
 50
90
 51
180
  0
ARC
  8
1
 62
3
 10
3421.906101089293
 20
401.6128386997717
 30
0
 40
1
 50
180
 51
270
  0
ARC
  8
1
 62
3
 10
3419.406101089293
 20
405.6128386997717
 30
0
 40
1
 50
90
 51
180
  0
ARC
  8
1
 62
3
 10
3419.406101089293
 20
405.6128386997717
 30
0
 40
1
 50
180
 51
270
  0
ARC
  8
1
 62
3
 10
3419.406101089293
 20
405.6128386997717
 30
0
 40
1
 50
90
 51
180
  0
ARC
  8
1
 62
3
 10
3419.406101089293
 20
405.6128386997717
 30
0
 40
1
 50
180
 51
270
  0
ARC
  8
1
 62
3
 10
3416.906101089293
 20
409.6128386997717
 30
0
 40
1
 50
90
 51
180
  0
ARC
  8
1
 62
3
 10
3416.906101089293
 20
409.6128386997717
 30
0
 40
1
 50
180
 51
270
  0
ARC
  8
1
 62
3
 10
3414.406101089293
 20
413.6128386997717
 30
0
 40
1
 50
90
 51
180
  0
ARC
  8
1
 62
3
 10
3414.406101089293
 20
413.6128386997717
 30
0
 40
1
 50
180
 51
270
  0
ARC
  8
1
 62
3
 10
3411.906101089293
 20
417.6128386997717
 30
0
 40
1
 50
90
 51
180
  0
ARC
  8
1
 62
3
 10
3411.906101089293
 20
417.6128386997717
 30
0
 40
1
 50
180
 51
270
  0
ARC
  8
1
 62
3
 10
3382.706101089293
 20
401.6128386997717
 30
0
 40
1
 50
90
 51
180
  0
ARC
  8
1
 62
3
 10
3382.706101089293
 20
401.6128386997717
 30
0
 40
1
 50
180
 51
270
  0
ARC
  8
1
 62
3
 10
3382.706101089293
 20
401.6128386997717
 30
0
 40
1
 50
90
 51
180
  0
ARC
  8
1
 62
3
 10
3382.706101089293
 20
401.6128386997717
 30
0
 40
1
 50
180
 51
270
  0
ARC
  8
1
 62
3
 10
3382.706101089293
 20
401.6128386997717
 30
0
 40
1
 50
90
 51
180
  0
ARC
  8
1
 62
3
 10
3382.706101089293
 20
401.6128386997717
 30
0
 40
1
 50
180
 51
270
  0
ARC
  8
1
 62
3
 10
3382.706101089293
 20
401.6128386997717
 30
0
 40
1
 50
90
 51
180
  0
ARC
  8
1
 62
3
 10
3382.706101089293
 20
401.6128386997717
 30
0
 40
1
 50
180
 51
270
  0
ARC
  8
1
 62
3
 10
3382.706101089293
 20
401.6128386997717
 30
0
 40
1
 50
90
 51
180
  0
ARC
  8
1
 62
3
 10
3382.706101089293
 20
401.6128386997717
 30
0
 40
1
 50
180
 51
270
  0
ARC
  8
1
 62
3
 10
3382.706101089293
 20
405.6128386997717
 30
0
 40
1
 50
90
 51
180
  0
ARC
  8
1
 62
3
 10
3382.706101089293
 20
405.6128386997717
 30
0
 40
1
 50
180
 51
270
  0
ARC
  8
1
 62
3
 10
3382.706101089293
 20
405.6128386997717
 30
0
 40
1
 50
90
 51
180
  0
ARC
  8
1
 62
3
 10
3382.706101089293
 20
405.6128386997717
 30
0
 40
1
 50
180
 51
270
  0
ARC
  8
1
 62
3
 10
3382.706101089293
 20
405.6128386997717
 30
0
 40
1
 50
90
 51
180
  0
ARC
  8
1
 62
3
 10
3382.706101089293
 20
405.6128386997717
 30
0
 40
1
 50
180
 51
270
  0
ARC
  8
1
 62
3
 10
3382.706101089293
 20
409.6128386997717
 30
0
 40
1
 50
90
 51
180
  0
ARC
  8
1
 62
3
 10
3382.706101089293
 20
409.6128386997717
 30
0
 40
1
 50
180
 51
270
  0
ARC
  8
1
 62
3
 10
3382.706101089293
 20
409.6128386997717
 30
0
 40
1
 50
90
 51
180
  0
ARC
  8
1
 62
3
 10
3382.706101089293
 20
409.6128386997717
 30
0
 40
1
 50
180
 51
270
  0
ARC
  8
1
 62
3
 10
3382.706101089293
 20
413.6128386997717
 30
0
 40
1
 50
90
 51
180
  0
ARC
  8
1
 62
3
 10
3382.706101089293
 20
413.6128386997717
 30
0
 40
1
 50
180
 51
270
  0
ARC
  8
1
 62
3
 10
3403.906101089293
 20
417.6128386997717
 30
0
 40
1
 50
0
 51
90
  0
ARC
  8
1
 62
3
 10
3403.906101089293
 20
417.6128386997717
 30
0
 40
1
 50
270
 51
0
  0
ARC
  8
1
 62
3
 10
3403.906101089293
 20
417.6128386997717
 30
0
 40
1
 50
0
 51
90
  0
ARC
  8
1
 62
3
 10
3403.906101089293
 20
417.6128386997717
 30
0
 40
1
 50
270
 51
0
  0
ARC
  8
1
 62
3
 10
3403.906101089293
 20
417.6128386997717
 30
0
 40
1
 50
0
 51
90
  0
ARC
  8
1
 62
3
 10
3403.906101089293
 20
417.6128386997717
 30
0
 40
1
 50
270
 51
0
  0
ARC
  8
1
 62
3
 10
3403.906101089293
 20
417.6128386997717
 30
0
 40
1
 50
0
 51
90
  0
ARC
  8
1
 62
3
 10
3403.906101089293
 20
417.6128386997717
 30
0
 40
1
 50
270
 51
0
  0
ARC
  8
1
 62
3
 10
3403.906101089293
 20
417.6128386997717
 30
0
 40
1
 50
0
 51
90
  0
ARC
  8
1
 62
3
 10
3403.906101089293
 20
417.6128386997717
 30
0
 40
1
 50
270
 51
0
  0
ARC
  8
1
 62
3
 10
3406.406101089293
 20
413.6128386997717
 30
0
 40
1
 50
0
 51
90
  0
ARC
  8
1
 62
3
 10
3406.406101089293
 20
413.6128386997717
 30
0
 40
1
 50
270
 51
0
  0
ARC
  8
1
 62
3
 10
3406.406101089293
 20
413.6128386997717
 30
0
 40
1
 50
0
 51
90
  0
ARC
  8
1
 62
3
 10
3406.406101089293
 20
413.6128386997717
 30
0
 40
1
 50
270
 51
0
  0
ARC
  8
1
 62
3
 10
3406.406101089293
 20
413.6128386997717
 30
0
 40
1
 50
0
 51
90
  0
ARC
  8
1
 62
3
 10
3406.406101089293
 20
413.6128386997717
 30
0
 40
1
 50
270
 51
0
  0
ARC
  8
1
 62
3
 10
3406.406101089293
 20
413.6128386997717
 30
0
 40
1
 50
0
 51
90
  0
ARC
  8
1
 62
3
 10
3406.406101089293
 20
413.6128386997717
 30
0
 40
1
 50
270
 51
0
  0
ARC
  8
1
 62
3
 10
3408.906101089293
 20
409.6128386997717
 30
0
 40
1
 50
0
 51
90
  0
ARC
  8
1
 62
3
 10
3408.906101089293
 20
409.6128386997717
 30
0
 40
1
 50
270
 51
0
  0
ARC
  8
1
 62
3
 10
3408.906101089293
 20
409.6128386997717
 30
0
 40
1
 50
0
 51
90
  0
ARC
  8
1
 62
3
 10
3408.906101089293
 20
409.6128386997717
 30
0
 40
1
 50
270
 51
0
  0
ARC
  8
1
 62
3
 10
3408.906101089293
 20
409.6128386997717
 30
0
 40
1
 50
0
 51
90
  0
ARC
  8
1
 62
3
 10
3408.906101089293
 20
409.6128386997717
 30
0
 40
1
 50
270
 51
0
  0
ARC
  8
1
 62
3
 10
3411.406101089293
 20
405.6128386997717
 30
0
 40
1
 50
0
 51
90
  0
ARC
  8
1
 62
3
 10
3411.406101089293
 20
405.6128386997717
 30
0
 40
1
 50
270
 51
0
  0
ARC
  8
1
 62
2
 10
3448.106101089293
 20
376.7128386997717
 30
0
 40
1
 50
270
 51
0
  0
ARC
  8
1
 62
2
 10
3443.706101089293
 20
376.7128386997717
 30
0
 40
1
 50
180
 51
270
  0
ARC
  8
1
 62
2
 10
3441.706101089293
 20
383.2128386997717
 30
0
 40
1
 50
0
 51
90
  0
ARC
  8
1
 62
2
 10
3448.106101089293
 20
431.1128386997717
 30
0
 40
1
 50
0
 51
90
  0
ARC
  8
1
 62
2
 10
3443.706101089293
 20
431.1128386997717
 30
0
 40
1
 50
90
 51
180
  0
ARC
  8
1
 62
2
 10
3441.706101089293
 20
424.6128386997715
 30
0
 40
0.9999999999997726
 50
270
 51
0
  0
ARC
  8
1
 62
2
 10
3384.106101089293
 20
383.2128386997717
 30
0
 40
1
 50
90
 51
180
  0
ARC
  8
1
 62
2
 10
3382.106101089293
 20
376.7128386997717
 30
0
 40
1
 50
270
 51
0
  0
ARC
  8
1
 62
2
 10
3377.706101089293
 20
376.7128386997717
 30
0
 40
1
 50
180
 51
270
  0
ARC
  8
1
 62
2
 10
3377.706101089293
 20
431.1128386997717
 30
0
 40
1
 50
90
 51
180
  0
ARC
  8
1
 62
2
 10
3382.106101089293
 20
431.1128386997715
 30
0
 40
1
 50
0
 51
90
  0
ARC
  8
1
 62
2
 10
3384.106101089293
 20
424.6128386997715
 30
0
 40
1
 50
180
 51
270
  0
ARC
  8
1
 62
3
 10
3382.706101089293
 20
401.6128386997717
 30
0
 40
1
 50
90
 51
180
  0
ARC
  8
1
 62
3
 10
3382.706101089293
 20
401.6128386997717
 30
0
 40
1
 50
180
 51
270
  0
ARC
  8
1
 62
3
 10
3413.906101089293
 20
401.6128386997717
 30
0
 40
1
 50
0
 51
90
  0
ARC
  8
1
 62
3
 10
3413.906101089293
 20
401.6128386997717
 30
0
 40
1
 50
270
 51
0
  0
ARC
  8
1
 62
3
 10
3382.706101089293
 20
405.6128386997717
 30
0
 40
1
 50
90
 51
180
  0
ARC
  8
1
 62
3
 10
3382.706101089293
 20
405.6128386997717
 30
0
 40
1
 50
180
 51
270
  0
ARC
  8
1
 62
3
 10
3411.406101089293
 20
405.6128386997717
 30
0
 40
1
 50
0
 51
90
  0
ARC
  8
1
 62
3
 10
3411.406101089293
 20
405.6128386997717
 30
0
 40
1
 50
270
 51
0
  0
ARC
  8
1
 62
3
 10
3382.706101089293
 20
405.6128386997717
 30
0
 40
1
 50
90
 51
180
  0
ARC
  8
1
 62
3
 10
3382.706101089293
 20
405.6128386997717
 30
0
 40
1
 50
180
 51
270
  0
ARC
  8
1
 62
3
 10
3411.406101089293
 20
405.6128386997717
 30
0
 40
1
 50
0
 51
90
  0
ARC
  8
1
 62
3
 10
3411.406101089293
 20
405.6128386997717
 30
0
 40
1
 50
270
 51
0
  0
ARC
  8
1
 62
3
 10
3382.706101089293
 20
409.6128386997717
 30
0
 40
1
 50
90
 51
180
  0
ARC
  8
1
 62
3
 10
3382.706101089293
 20
409.6128386997717
 30
0
 40
1
 50
180
 51
270
  0
ARC
  8
1
 62
3
 10
3408.906101089293
 20
409.6128386997717
 30
0
 40
1
 50
0
 51
90
  0
ARC
  8
1
 62
3
 10
3408.906101089293
 20
409.6128386997717
 30
0
 40
1
 50
270
 51
0
  0
ARC
  8
1
 62
3
 10
3382.706101089293
 20
413.6128386997717
 30
0
 40
1
 50
90
 51
180
  0
ARC
  8
1
 62
3
 10
3382.706101089293
 20
413.6128386997717
 30
0
 40
1
 50
180
 51
270
  0
ARC
  8
1
 62
3
 10
3406.406101089293
 20
413.6128386997717
 30
0
 40
1
 50
0
 51
90
  0
ARC
  8
1
 62
3
 10
3406.406101089293
 20
413.6128386997717
 30
0
 40
1
 50
270
 51
0
  0
ARC
  8
1
 62
3
 10
3382.706101089293
 20
417.6128386997717
 30
0
 40
1
 50
90
 51
180
  0
ARC
  8
1
 62
3
 10
3382.706101089293
 20
417.6128386997717
 30
0
 40
1
 50
180
 51
270
  0
ARC
  8
1
 62
3
 10
3403.906101089293
 20
417.6128386997717
 30
0
 40
1
 50
0
 51
90
  0
ARC
  8
1
 62
3
 10
3403.906101089293
 20
417.6128386997717
 30
0
 40
1
 50
270
 51
0
  0
ARC
  8
1
 62
3
 10
3442.406101089293
 20
385.7128386997717
 30
0
 40
0.4999999999998863
 50
270
 51
0
  0
ARC
  8
1
 62
3
 10
3383.406101089293
 20
385.7128386997717
 30
0
 40
0.5
 50
180
 51
270
  0
ARC
  8
1
 62
3
 10
3383.406101089293
 20
396.7128386997716
 30
0
 40
0.5
 50
90
 51
180
  0
ARC
  8
1
 62
3
 10
3442.406101089293
 20
396.7128386997716
 30
0
 40
0.5
 50
0
 51
90
  0
ARC
  8
1
 62
2
 10
3427.740482245068
 20
388.0128386997717
 30
0
 40
0.3000000000010914
 50
180
 51
270
  0
ARC
  8
1
 62
2
 10
3427.740482245068
 20
390.9128386997718
 30
0
 40
0.2999999999998977
 50
90
 51
180
  0
ARC
  8
1
 62
2
 10
3439.140482245067
 20
390.9128386997718
 30
0
 40
0.3000000000001819
 50
0
 51
90
  0
ARC
  8
1
 62
2
 10
3439.140482245067
 20
388.0128386997717
 30
0
 40
0.3000000000000114
 50
270
 51
0
  0
ARC
  8
1
 62
2
 10
3442.206101089293
 20
385.9128386997718
 30
0
 40
0.2000000000001023
 50
270
 51
0
  0
ARC
  8
1
 62
2
 10
3383.606101089293
 20
396.5128386997717
 30
0
 40
0.1999999999999318
 50
90
 51
180
  0
ARC
  8
1
 62
2
 10
3442.206101089293
 20
396.5128386997717
 30
0
 40
0.1999999999998181
 50
0
 51
90
  0
ARC
  8
1
 62
2
 10
3383.606101089293
 20
385.9128386997718
 30
0
 40
0.2000000000002729
 50
180
 51
270
  0
ARC
  8
1
 62
3
 10
3314.59283210833
 20
375.9042431820752
 30
0
 40
0.150000000000091
 50
180
 51
270
  0
ARC
  8
1
 62
3
 10
3314.39283210833
 20
375.7042431820754
 30
0
 40
0.1499999999987267
 50
180
 51
270
  0
ARC
  8
1
 62
3
 10
3315.89283210833
 20
375.9042431820752
 30
0
 40
0.1499999999999204
 50
270
 51
0
  0
ARC
  8
1
 62
3
 10
3316.09283210833
 20
375.7042431820754
 30
0
 40
0.150000000000091
 50
270
 51
0
  0
ARC
  8
1
 62
3
 10
3380.578695219543
 20
378.8247861753033
 30
0
 40
0.04333333333296341
 50
172.5415509437553
 51
225.0000000004783
  0
ARC
  8
1
 62
3
 10
3380.578695219543
 20
379.0008912242402
 30
0
 40
0.04333333333323293
 50
134.9999999997343
 51
187.4584490565428
  0
ARC
  8
1
 62
3
 10
3379.818048564825
 20
378.2402445695223
 30
0
 40
0.04333333333344383
 50
82.54155094353526
 51
134.9999999993091
  0
ARC
  8
1
 62
3
 10
3379.994153613762
 20
378.2402445695223
 30
0
 40
0.04333333333291138
 50
45.0000000006909
 51
97.45844905646473
  0
ARC
  8
1
 62
3
 10
3379.233506959044
 20
379.0008912242402
 30
0
 40
0.04333333333299293
 50
352.5415509434572
 51
44.9999999994154
  0
ARC
  8
1
 62
3
 10
3379.233506959044
 20
378.8247861753033
 30
0
 40
0.04333333333403682
 50
315.000000000372
 51
7.458449056244694
  0
ARC
  8
1
 62
3
 10
3379.994153613762
 20
379.5854328300209
 30
0
 40
0.04333333333316201
 50
262.5415509434865
 51
314.9999999993623
  0
ARC
  8
1
 62
3
 10
3379.818048564825
 20
379.5854328300209
 30
0
 40
0.04333333333287118
 50
225.0000000006377
 51
277.4584490565135
  0
ARC
  8
1
 62
3
 10
3446.578695219543
 20
428.8247861753032
 30
0
 40
0.04333333333297817
 50
172.5415509436062
 51
224.9999999995217
  0
ARC
  8
1
 62
3
 10
3446.578695219543
 20
429.0008912242402
 30
0
 40
0.04333333333387604
 50
135.0000000005846
 51
187.4584490565428
  0
ARC
  8
1
 62
3
 10
3445.818048564825
 20
428.2402445695223
 30
0
 40
0.04333333333344383
 50
82.54155094353526
 51
134.9999999993091
  0
ARC
  8
1
 62
3
 10
3445.994153613762
 20
428.2402445695223
 30
0
 40
0.04333333333291138
 50
45.0000000006909
 51
97.45844905646473
  0
ARC
  8
1
 62
3
 10
3445.233506959044
 20
429.0008912242402
 30
0
 40
0.04333333333299293
 50
352.5415509434572
 51
44.9999999994154
  0
ARC
  8
1
 62
3
 10
3445.233506959044
 20
428.8247861753032
 30
0
 40
0.04333333333395643
 50
315.0000000004783
 51
7.458449056393741
  0
ARC
  8
1
 62
3
 10
3445.994153613762
 20
429.5854328300209
 30
0
 40
0.04333333333316201
 50
262.5415509434865
 51
314.9999999993623
  0
ARC
  8
1
 62
3
 10
3445.818048564825
 20
429.5854328300209
 30
0
 40
0.04333333333287118
 50
225.0000000006377
 51
277.4584490565135
  0
ARC
  8
1
 62
3
 10
3513.50888362967
 20
431.921434217468
 30
0
 40
0.150000000000091
 50
0
 51
90
  0
ARC
  8
1
 62
3
 10
3513.70888362967
 20
432.1214342174681
 30
0
 40
0.150000000000091
 50
0
 51
90
  0
ARC
  8
1
 62
3
 10
3512.20888362967
 20
431.921434217468
 30
0
 40
0.1499999999999773
 50
90
 51
180
  0
ARC
  8
1
 62
3
 10
3512.00888362967
 20
432.1214342174681
 30
0
 40
0.1499999999999773
 50
90
 51
180
  0
ARC
  8
1
 62
2
 10
3384.406101089294
 20
382.9128386997716
 30
0
 40
1
 50
90
 51
180
  0
ARC
  8
1
 62
2
 10
3442.906101089294
 20
427.8128386997715
 30
0
 40
0.5000000000005141
 50
113.578178478324
 51
180
  0
ARC
  8
1
 62
2
 10
3443.406101089294
 20
376.4128386997716
 30
0
 40
1
 50
180
 51
270
  0
ARC
  8
1
 62
2
 10
3448.406101089294
 20
431.4128386997716
 30
0
 40
1
 50
0
 51
90
  0
ARC
  8
1
 62
2
 10
3443.406101089294
 20
431.4128386997716
 30
0
 40
1
 50
90
 51
180
  0
ARC
  8
1
 62
2
 10
3441.406101089294
 20
382.9128386997716
 30
0
 40
1
 50
0
 51
90
  0
ARC
  8
1
 62
2
 10
3441.406101089294
 20
424.9128386997716
 30
0
 40
1
 50
270
 51
0
  0
ARC
  8
1
 62
2
 10
3384.406101089294
 20
424.9128386997716
 30
0
 40
1
 50
180
 51
270
  0
ARC
  8
1
 62
2
 10
3377.406101089294
 20
376.4128386997716
 30
0
 40
1
 50
180
 51
270
  0
ARC
  8
1
 62
2
 10
3382.406101089294
 20
376.4128386997716
 30
0
 40
1
 50
270
 51
0
  0
ARC
  8
1
 62
2
 10
3382.906101089294
 20
380.0128386997713
 30
0
 40
0.4999999999992921
 50
293.5781784781008
 51
0
  0
ARC
  8
1
 62
2
 10
3448.406101089294
 20
376.4128386997716
 30
0
 40
1
 50
270
 51
0
  0
ARC
  8
1
 62
2
 10
3442.906101089294
 20
377.8128386997715
 30
0
 40
0.5000000000005141
 50
113.578178478324
 51
180
  0
ARC
  8
1
 62
2
 10
3382.406101089294
 20
431.4128386997716
 30
0
 40
1
 50
0
 51
90
  0
ARC
  8
1
 62
2
 10
3377.406101089294
 20
431.4128386997716
 30
0
 40
1
 50
90
 51
180
  0
ARC
  8
1
 62
2
 10
3382.906101089294
 20
430.0128386997713
 30
0
 40
0.4999999999995005
 50
293.5781784780903
 51
0
  0
ARC
  8
1
 62
2
 10
3382.906101089294
 20
377.8128386997715
 30
0
 40
0.5
 50
0
 51
66.42182152191485
  0
ARC
  8
1
 62
2
 10
3382.906101089294
 20
427.8128386997715
 30
0
 40
0.5
 50
0
 51
66.42182152191485
  0
ARC
  8
1
 62
2
 10
3442.906101089294
 20
380.0128386997713
 30
0
 40
0.5
 50
180
 51
246.4218215216604
  0
ARC
  8
1
 62
2
 10
3442.906101089294
 20
430.0128386997716
 30
0
 40
0.5
 50
180
 51
246.4218215216787
  0
ARC
  8
1
 62
2
 10
3384.401463113124
 20
382.9128386997716
 30
0
 40
1
 50
90
 51
180
  0
ARC
  8
1
 62
2
 10
3384.101463113123
 20
383.2128386997716
 30
0
 40
1
 50
90
 51
180
  0
TEXT
  8
1
 62
2
 10
3283.281097528271
 20
504.8071386474821
 30
0
 40
3.199999999999997
  1
âsâô No.
 41
0.6300000000000001
  0
TEXT
  8
1
 62
2
 10
3301.162381264168
 20
504.8071386474821
 30
0
 40
3.199999999999997
  1
ÉF
 41
0.9
  0
TEXT
  8
1
 62
2
 10
3301.162381264168
 20
499.8071386474821
 30
0
 40
3.199999999999999
  1
ÉÈ
 41
0.9
  0
TEXT
  8
1
 62
2
 10
3301.162381264168
 20
494.8071386474821
 30
0
 40
3.199999999999999
  1
ìò
 41
0.9
  0
TEXT
  8
1
 62
2
 10
3301.162381264168
 20
489.8071386474821
 30
0
 40
3.199999999999999
  1
×%%d
 41
0.9
  0
TEXT
  8
1
 62
2
 10
3301.162381264168
 20
484.8071386474821
 30
0
 40
3.199999999999999
  1
ë®
 41
0.9
  0
TEXT
  8
1
 62
2
 10
3301.162381264168
 20
479.8071386474821
 30
0
 40
3.199999999999999
  1
ù╬
 41
0.9
  0
TEXT
  8
1
 62
2
 10
3301.162381264168
 20
474.8071386474821
 30
0
 40
3.199999999999999
  1
É┬
 41
0.9
  0
TEXT
  8
1
 62
2
 10
3275.620184656025
 20
465.059261266666
 30
0
 40
3.199999999999999
  1
9âsâô
 50
90
 41
0.9
  0
TEXT
  8
1
 62
2
 10
3275.617302005511
 20
489.7029543477906
 30
0
 40
3.200000000000001
  1
1âsâô
 50
90
 41
0.9
  0
TEXT
  8
1
 62
2
 10
3282.773911121104
 20
494.8071386474821
 30
0
 40
3.199999999999997
  1
  2
 41
0.9
  0
TEXT
  8
1
 62
2
 10
3282.773911121104
 20
489.8071386474821
 30
0
 40
3.199999999999997
  1
  3
 41
0.9
  0
TEXT
  8
1
 62
2
 10
3282.773911121104
 20
484.8071386474821
 30
0
 40
3.199999999999997
  1
  4
 41
0.9
  0
TEXT
  8
1
 62
2
 10
3282.773911121104
 20
479.8071386474821
 30
0
 40
3.199999999999997
  1
  5
 41
0.9
  0
TEXT
  8
1
 62
2
 10
3282.773911121104
 20
474.8071386474821
 30
0
 40
3.199999999999997
  1
  6
 41
0.9
  0
TEXT
  8
1
 62
2
 10
3282.773911121104
 20
499.8071386474821
 30
0
 40
3.199999999999997
  1
  1
 41
0.9
  0
TEXT
  8
1
 62
2
 10
3257.771413319859
 20
465.6199527320462
 30
0
 40
3.200000000000001
  1
9
 50
90
 41
0.9
  0
TEXT
  8
1
 62
2
 10
3257.998241498187
 20
493.2498315079026
 30
0
 40
3.200000000000001
  1
1
 50
90
 41
0.9
  0
TEXT
  8
1
 62
2
 10
3154.43404485261
 20
441.1834214483317
 30
0
 40
3
  1
UL3266,AWG22
 41
0.72
  0
TEXT
  8
1
 62
2
 10
3160.745528800547
 20
446.5958895281976
 30
0
 40
3
  1
âèü[âh
 41
0.9
  0
TEXT
  8
1
 62
2
 10
3188.688721880476
 20
441.1834214483317
 30
0
 40
3
  1
IL-G-9S-S3C2-SA
 41
0.6300000000000001
  0
TEXT
  8
1
 62
2
 10
3259.531478492915
 20
441.1960926542927
 30
0
 40
3
  1
ô·û{ìqï%%côdÄqìHïã
 41
0.72
  0
TEXT
  8
1
 62
2
 10
3195.745528800547
 20
446.5958895281976
 30
0
 40
3
  1
ânâEâWâôâO
 41
0.9
  0
TEXT
  8
1
 62
2
 10
3262.279120990867
 20
446.5025592726597
 30
0
 40
3
  1
âRâlâNâ^âüü|âJ
 41
0.6300000000000001
  0
TEXT
  8
1
 62
2
 10
3230.543404643719
 20
446.302389851394
 30
0
 40
3
  1
âRâôâ^âNâg
 41
0.9
  0
TEXT
  8
1
 62
2
 10
3223.982322113297
 20
441.1880884866764
 30
0
 40
3
  1
IL-G-C2-SC-10000
 41
0.5850000000000001
  0
TEXT
  8
1
 62
2
 10
3254.600881379468
 20
326.6757733672487
 30
0
 40
3.200000000000001
  1
1
 50
90
 41
0.9
  0
TEXT
  8
1
 62
2
 10
3254.37405320114
 20
311.5458945913923
 30
0
 40
3.200000000000001
  1
6
 50
90
 41
0.9
  0
TEXT
  8
1
 62
2
 10
3272.219941886792
 20
323.1288962071369
 30
0
 40
3.200000000000001
  1
1âsâô
 50
90
 41
0.9
  0
TEXT
  8
1
 62
2
 10
3272.35742458144
 20
309.2532066567603
 30
0
 40
3.199999999999999
  1
6âsâô
 50
90
 41
0.9
  0
TEXT
  8
1
 62
2
 10
3151.897149840579
 20
289.8567599546691
 30
0
 40
3
  1
UL3266,AWG22
 41
0.72
  0
TEXT
  8
1
 62
2
 10
3158.208633788515
 20
295.2692280345351
 30
0
 40
3
  1
âèü[âh
 41
0.9
  0
TEXT
  8
1
 62
2
 10
3186.151826868445
 20
289.8567599546691
 30
0
 40
3
  1
IL-G-6S-S3C2-SA
 41
0.6300000000000001
  0
TEXT
  8
1
 62
2
 10
3256.994583480884
 20
289.8694311606301
 30
0
 40
3
  1
ô·û{ìqï%%côdÄqìHïã
 41
0.72
  0
TEXT
  8
1
 62
2
 10
3193.208633788515
 20
295.2692280345351
 30
0
 40
3
  1
ânâEâWâôâO
 41
0.9
  0
TEXT
  8
1
 62
2
 10
3259.742225978835
 20
295.1758977789971
 30
0
 40
3
  1
âRâlâNâ^âüü|âJ
 41
0.6300000000000001
  0
TEXT
  8
1
 62
2
 10
3228.006509631688
 20
294.9757283577314
 30
0
 40
3
  1
âRâôâ^âNâg
 41
0.9
  0
TEXT
  8
1
 62
2
 10
3221.445427101266
 20
289.8614269930139
 30
0
 40
3
  1
IL-G-C2-SC-10000
 41
0.5850000000000001
  0
TEXT
  8
1
 62
2
 10
3301.162381264168
 20
459.8071386474821
 30
0
 40
3.199999999999999
  1
öÆ
 41
0.9
  0
TEXT
  8
1
 62
2
 10
3301.162381264168
 20
464.8071386474821
 30
0
 40
3.199999999999999
  1
èD
 41
0.9
  0
TEXT
  8
1
 62
2
 10
3301.162381264168
 20
469.8071386474821
 30
0
 40
3.199999999999999
  1
Äç
 41
0.9
  0
TEXT
  8
1
 62
2
 10
3282.773911121104
 20
459.8071386474821
 30
0
 40
3.199999999999997
  1
  9
 41
0.9
  0
TEXT
  8
1
 62
2
 10
3282.773911121104
 20
464.8071386474821
 30
0
 40
3.199999999999997
  1
  8
 41
0.9
  0
TEXT
  8
1
 62
2
 10
3282.773911121104
 20
469.8071386474821
 30
0
 40
3.199999999999997
  1
  7
 41
0.9
  0
TEXT
  8
1
 62
2
 10
3282.773911121104
 20
332.141664175202
 30
0
 40
3.199999999999997
  1
  1
 41
0.9
  0
TEXT
  8
1
 62
2
 10
3297.79738016081
 20
307.141664175202
 30
0
 40
3.199999999999999
  1
öÆü^ù╬
 41
0.9
  0
TEXT
  8
1
 62
2
 10
3301.162381264169
 20
312.141664175202
 30
0
 40
3.199999999999999
  1
öÆ
 41
0.9
  0
TEXT
  8
1
 62
2
 10
3301.099107739148
 20
327.2988892979801
 30
0
 40
3.199999999999999
  1
ìò
 41
0.9
  0
TEXT
  8
1
 62
2
 10
3301.162381264169
 20
332.141664175202
 30
0
 40
3.199999999999999
  1
ÉÈ
 41
0.9
  0
TEXT
  8
1
 62
2
 10
3282.773911121104
 20
307.141664175202
 30
0
 40
3.199999999999997
  1
  6
 41
0.9
  0
TEXT
  8
1
 62
2
 10
3282.773911121104
 20
312.141664175202
 30
0
 40
3.199999999999997
  1
  5
 41
0.9
  0
TEXT
  8
1
 62
2
 10
3282.773911121104
 20
327.141664175202
 30
0
 40
3.199999999999997
  1
  2
 41
0.9
  0
TEXT
  8
1
 62
2
 10
3301.162381264169
 20
337.141664175202
 30
0
 40
3.199999999999997
  1
ÉF
 41
0.9
  0
TEXT
  8
1
 62
2
 10
3283.281097528271
 20
337.141664175202
 30
0
 40
3.199999999999997
  1
âsâô No.
 41
0.6300000000000001
  0
TEXT
  8
1
 62
2
 10
3301.162381264169
 20
317.141664175202
 30
0
 40
3.199999999999999
  1
ù╬
 41
0.9
  0
TEXT
  8
1
 62
2
 10
3282.773911121104
 20
317.141664175202
 30
0
 40
3.199999999999997
  1
  4
 41
0.9
  0
TEXT
  8
1
 62
2
 10
3297.79738016081
 20
322.141664175202
 30
0
 40
3.199999999999999
  1
öÆü^ÉÈ
 41
0.9
  0
TEXT
  8
1
 62
2
 10
3282.773911121104
 20
322.141664175202
 30
0
 40
3.199999999999997
  1
  3
 41
0.9
  0
TEXT
  8
1
 62
2
 10
3415.923515774705
 20
386.2149351829969
 30
0
 40
1
  1
JAPAN SERVO  MADE IN JAPAN
 41
0.9
 72
1
 11
3427.623515774705
 21
386.2149351829969
 31
0
  0
TEXT
  8
1
 62
2
 10
3416.54366219481
 20
387.7128386997716
 30
0
 40
1.5
  1
LOT NOüD
 41
0.9
  0
TEXT
  8
1
 62
2
 10
3418.668601089293
 20
393.2128386997716
 30
0
 40
2.5
  1
FSD2U2P14
 41
0.8100000000000001
  7
COMPLEX
 72
1
 11
3427.781101089293
 21
393.2128386997716
 31
0
  0
TEXT
  8
1
 62
2
 10
3388.581101089293
 20
386.2293322079517
 30
0
 40
1
  1
STEPPING MOTOR DRIVER
 41
0.9
 72
1
 11
3398.031101089293
 21
386.2293322079517
 31
0
  0
TEXT
  8
1
 62
2
 10
3416.54366219481
 20
390.2128386997716
 30
0
 40
1.5
  1
DC24V
 41
0.9
  0
TEXT
  8
LAYER16
 62
7
 10
3384.856593542638
 20
377.1128406997705
 30
0
 40
1.2
  1
CN1
 50
90
 41
1.017500220000001
  0
TEXT
  8
LAYER16
 62
7
 10
3392.356593542638
 20
429.6128406997705
 30
0
 40
1.2
  1
U2
 41
0.96937533
  0
TEXT
  8
LAYER16
 62
7
 10
3404.356593542638
 20
429.6128406997705
 30
0
 40
1.2
  1
U3
 41
0.96937533
  0
TEXT
  8
LAYER16
 62
7
 10
3384.356593542638
 20
381.6128406997705
 30
0
 40
1.2
  1
1
 41
0.8249996700000002
  0
TEXT
  8
1
 62
7
 10
3415.430357045377
 20
378.9561063294016
 30
0
 40
0.9
  1
4
 50
90
 41
0.9
  0
TEXT
  8
1
 62
7
 10
3414.287357045377
 20
378.9561063294016
 30
0
 40
0.9
  1
3
 50
90
 41
0.9
  0
TEXT
  8
1
 62
7
 10
3413.144357045377
 20
378.9561063294016
 30
0
 40
0.9
  1
2
 50
90
 41
0.9
  0
TEXT
  8
1
 62
7
 10
3412.001357045377
 20
378.9561063294016
 30
0
 40
0.9
  1
1
 50
90
 41
0.9
  0
TEXT
  8
1
 62
7
 10
3411.981425932606
 20
382.808791670243
 30
0
 40
0.9
  1
O
 50
90
 41
0.9
  0
TEXT
  8
1
 62
7
 10
3413.061425932606
 20
382.808791670243
 30
0
 40
0.9
  1
N
 50
90
 41
0.9
  0
TEXT
  8
1
 62
2
 10
3452.292544321974
 20
272.013339041346
 30
0
 40
5
  1
FSD2U2P14-01
 41
0.9
  0
DIMENSION
  8
1
  6
CONTINUOUS
 62
2
  2
*D0
  3
DMST_1
 10
3178.030638673828
 20
502.834799848074
 30
0
 11
3210.126796436831
 21
507.234799848074
 31
0
 12
0
 22
0
 32
0
 70
0
  1
300
 13
3245.43821731753
 23
492.9335039388909
 33
0
 14
3178.030638673828
 24
492.1335039388908
 34
0
 53
0
  0
DIMENSION
  8
1
  6
CONTINUOUS
 62
2
  2
*D1
  3
DMST_2
 10
3178.030638673828
 20
502.8637677678019
 30
0
 11
3173.030638673828
 21
506.4637677678019
 31
0
 12
0
 22
0
 32
0
 70
0
 13
3168.030638673828
 23
491.7835039388909
 33
0
 14
3178.030638673828
 24
492.1335039388908
 34
0
 53
0
  0
DIMENSION
  8
1
  6
CONTINUOUS
 62
2
  2
*D2
  3
DMST_2
 10
3174.633278555109
 20
336.2897096271481
 30
0
 11
3169.633278555109
 21
339.889709627148
 31
0
 12
0
 22
0
 32
0
 70
0
 13
3164.633278555109
 23
325.2094457982371
 33
0
 14
3174.633278555109
 24
325.5594457982371
 34
0
 53
0
  0
DIMENSION
  8
1
  6
CONTINUOUS
 62
2
  2
*D3
  3
DMST_1
 10
3174.63327855511
 20
336.2607417074201
 30
0
 11
3206.729436318112
 21
340.6607417074201
 31
0
 12
0
 22
0
 32
0
 70
0
  1
300
 13
3242.040857198811
 23
326.359445798237
 33
0
 14
3174.633278555109
 24
325.5594457982371
 34
0
 53
0
  0
DIMENSION
  8
1
  6
CONTINUOUS
 62
2
  2
*D6
  3
DMST_3
 10
3376.406101089294
 20
452.5261650315572
 30
0
 11
3362.7028081767
 21
456.1261650315572
 31
0
 12
0
 22
0
 32
0
 70
0
 13
3379.906101089294
 23
433.9128386997714
 33
0
 14
3376.406101089294
 24
431.4128386997716
 34
0
 53
0
  0
DIMENSION
  8
1
  6
CONTINUOUS
 62
2
  2
*D7
  3
DMST_4
 10
3379.906101089294
 20
452.5012258469542
 30
0
 11
3412.71975007561
 21
456.1012258469542
 31
0
 12
0
 22
0
 32
0
 70
0
 13
3445.906101089294
 23
433.9128386997714
 33
0
 14
3379.906101089294
 24
433.9128386997714
 34
0
 53
0
  0
DIMENSION
  8
1
  6
CONTINUOUS
 62
2
  2
*D8
  3
DMST_5
 10
3449.406101089294
 20
463.4664464367162
 30
0
 11
3413.84852278338
 21
467.0664464367162
 31
0
 12
0
 22
0
 32
0
 70
0
 13
3376.406101089294
 23
431.4128386997716
 33
0
 14
3449.406101089294
 24
431.4128386997716
 34
0
 53
0
  0
DIMENSION
  8
1
  6
CONTINUOUS
 62
2
  2
*D16
  3
DMST_4
 10
3383.206101089293
 20
296.999793098094
 30
0
 11
3393.759934760537
 21
300.599793098094
 31
0
 12
0
 22
0
 32
0
 70
0
 13
3376.606101089293
 23
306.9997930980939
 33
0
 14
3383.206101089293
 24
306.9997930980939
 34
0
 53
0
  0
DIMENSION
  8
1
  6
CONTINUOUS
 62
2
  2
*D17
  3
DMST_4
 10
3449.206101089293
 20
296.999793098094
 30
0
 11
3463.143498801022
 21
300.599793098094
 31
0
 12
0
 22
0
 32
0
 70
0
 13
3442.606101089293
 23
306.9997930980939
 33
0
 14
3449.206101089293
 24
306.9997930980939
 34
0
 53
0
  0
DIMENSION
  8
1
  6
CONTINUOUS
 62
2
  2
*D24
  3
DMST_4
 10
3520.65888362967
 20
365.4128386997716
 30
0
 11
3508.555071066998
 21
369.0128386997716
 31
0
 12
0
 22
0
 32
0
 70
0
 13
3495.65888362967
 23
383.9128386997716
 33
0
 14
3520.65888362967
 24
375.9128386997716
 34
0
 53
0
  0
DIMENSION
  8
1
  6
CONTINUOUS
 62
2
  2
*D25
  3
DMST_6
 10
3495.65888362967
 20
365.4128386997716
 30
0
 11
3487.65888362967
 21
369.0128386997716
 31
0
 12
0
 22
0
 32
0
 70
0
  1
(17)
 13
3479.272591353806
 23
378.5503386997715
 33
0
 14
3495.65888362967
 24
383.9128386997716
 34
0
 53
0
  0
DIMENSION
  8
1
  6
CONTINUOUS
 62
2
  2
*D26
  3
DMST_4
 10
3520.65888362967
 20
410.3139723966315
 30
0
 11
3527.411068108471
 21
413.9139723966315
 31
0
 12
0
 22
0
 32
0
 70
0
 13
3517.65888362967
 23
419.7128386997717
 33
0
 14
3520.65888362967
 24
419.7128386997717
 34
0
 53
0
  0
INSERT
  8
1
  2
*D4
 10
0
 20
0
 30
0
  0
INSERT
  8
1
  2
*D5
 10
0
 20
0
 30
0
  0
INSERT
  8
1
  2
*D9
 10
0
 20
0
 30
0
  0
INSERT
  8
1
  2
*D10
 10
0
 20
0
 30
0
  0
INSERT
  8
1
  2
*D11
 10
0
 20
0
 30
0
  0
INSERT
  8
1
  2
*D12
 10
0
 20
0
 30
0
  0
INSERT
  8
1
  2
*D13
 10
0
 20
0
 30
0
  0
INSERT
  8
1
  2
*D14
 10
0
 20
0
 30
0
  0
INSERT
  8
1
  2
*D15
 10
0
 20
0
 30
0
  0
INSERT
  8
1
  2
*D18
 10
0
 20
0
 30
0
  0
INSERT
  8
1
  2
*D19
 10
0
 20
0
 30
0
  0
INSERT
  8
1
  2
*D20
 10
0
 20
0
 30
0
  0
INSERT
  8
1
  2
*D21
 10
0
 20
0
 30
0
  0
INSERT
  8
1
  2
*D22
 10
0
 20
0
 30
0
  0
INSERT
  8
1
  2
*D23
 10
0
 20
0
 30
0
  0
INSERT
  8
1
  2
*D27
 10
0
 20
0
 30
0
  0
INSERT
  8
1
  2
*D28
 10
0
 20
0
 30
0
  0
INSERT
  8
1
  2
*D29
 10
0
 20
0
 30
0
  0
ENDSEC
  0
EOF
