  0
SECTION
  2
HEADER
  9
$ACADVER
  1
AC1009
  9
$INSBASE
 10
0
 20
0
  9
$EXTMIN
 10
51.11549672632793
 20
-195.3006744497156
  9
$EXTMAX
 10
306.5070917508944
 20
-98.48733573083034
  9
$LIMMIN
 10
51.11549672632793
 20
-195.3006744497156
  9
$LIMMAX
 10
306.5070917508944
 20
-98.48733573083034
  9
$VIEWCTR
 10
10
 20
10
  9
$VIEWSIZE
 40
10
  9
$SNAPMODE
 70
0
  9
$SNAPUNIT
 10
1
 20
1
  9
$SNAPBASE
 10
0
 20
0
  9
$SNAPANG
 50
0
  9
$SNAPSTYLE
 70
0
  9
$SNAPISOPAIR
 70
0
  9
$GRIDMODE
 70
0
  9
$GRIDUNIT
 10
0
 20
0
  9
$ORTHOMODE
 70
0
  9
$REGENMODE
 70
1
  9
$FILLMODE
 70
1
  9
$QTEXTMODE
 70
0
  9
$DRAGMODE
 70
2
  9
$LTSCALE
 40
1
  9
$OSMODE
 70
0
  9
$ATTMODE
 70
1
  9
$TEXTSIZE
 40
3.5
  9
$TRACEWID
 40
0.5
  9
$TEXTSTYLE
  7
STANDARD
  9
$CLAYER
  8
0
  9
$CELTYPE
  6
BYLAYER
  9
$CECOLOR
 62
256
  9
$DIMSCALE
 40
1
  9
$DIMASZ
 40
0.18
  9
$DIMEXO
 40
0.0625
  9
$DIMDLI
 40
0.38
  9
$DIMRND
 40
0
  9
$DIMDLE
 40
0
  9
$DIMEXE
 40
0.18
  9
$DIMTP
 40
0
  9
$DIMTM
 40
0
  9
$DIMTXT
 40
0.18
  9
$DIMCEN
 40
0.09
  9
$DIMTSZ
 40
0
  9
$DIMTOL
 70
0
  9
$DIMLIM
 70
0
  9
$DIMTIH
 70
1
  9
$DIMTOH
 70
1
  9
$DIMSE1
 70
0
  9
$DIMSE2
 70
0
  9
$DIMTAD
 70
0
  9
$DIMZIN
 70
0
  9
$DIMBLK
  1

  9
$DIMASO
 70
1
  9
$DIMSHO
 70
1
  9
$DIMPOST
  1

  9
$DIMAPOST
  1

  9
$DIMALT
 70
0
  9
$DIMALTD
 70
2
  9
$DIMALTF
 40
25.4
  9
$DIMLFAC
 40
1
  9
$DIMTOFL
 70
0
  9
$DIMTVP
 40
0
  9
$DIMTIX
 70
0
  9
$DIMSOXD
 70
0
  9
$DIMSAH
 70
0
  9
$DIMBLK1
  1

  9
$DIMBLK2
  1

  9
$DIMSTYLE
  2
*UNNAMED
  9
$DIMCLRD
 70
0
  9
$DIMCLRE
 70
0
  9
$DIMCLRT
 70
0
  9
$DIMTFAC
 40
1
  9
$DIMGAP
 40
0.09
  9
$LUNITS
 70
2
  9
$LUPREC
 70
4
  9
$AXISMODE
 70
0
  9
$AXISUNIT
 10
0
 20
0
  9
$SKETCHINC
 40
0.1
  9
$FILLETRAD
 40
2
  9
$AUNITS
 70
0
  9
$AUPREC
 70
0
  9
$MENU
  1
ACAD
  9
$ELEVATION
 40
0
  9
$THICKNESS
 40
0
  9
$VIEWDIR
 10
0
 20
0
 30
1
  9
$LIMCHECK
 70
0
  9
$BLIPMODE
 70
1
  9
$CHAMFERA
 40
0
  9
$CHAMFERB
 40
0
  9
$FASTZOOM
 70
1
  9
$SKPOLY
 70
0
  9
$ANGBASE
 50
0
  9
$ANGDIR
 70
0
  9
$PDMODE
 70
0
  9
$PDSIZE
 40
0
  9
$PLINEWID
 40
0
  9
$COORDS
 70
2
  0
ENDSEC
  0
SECTION
  2
TABLES
  0
TABLE
  2
DIMSTYLE
 70
2
  0
DIMSTYLE
  2
DMST_1
 70
0
  3

  4

  5

  6

  7

 40
1
 41
3.2
 42
1
 43
7
 44
1.5
 45
0
 46
0
 47
0
 48
0
140
3.2
141
0
142
0
143
25.4
144
1
145
0
146
1
147
0.09
 71
0
 72
0
 73
0
 74
0
 75
0
 76
0
 77
1
 78
9
170
0
171
2
172
0
173
0
174
0
175
0
176
2
177
2
178
2
  0
DIMSTYLE
  2
DMST_2
 70
0
  3
)
  4

  5

  6

  7

 40
1
 41
3.2
 42
1
 43
7
 44
1
 45
0
 46
0
 47
0
 48
0
140
3.2
141
0
142
0
143
25.4
144
1
145
0
146
1
147
0.09
 71
0
 72
0
 73
0
 74
0
 75
0
 76
0
 77
1
 78
9
170
0
171
2
172
0
173
0
174
0
175
0
176
2
177
2
178
2
  0
ENDTAB
  0
TABLE
  2
LTYPE
 70
9
  0
LTYPE
  2
CONTINUOUS
 70
64
  3
Solid line
 72
65
 73
0
 40
0
  0
LTYPE
  2
BORDER
 70
64
  3
__ __ . __ __ .
 72
65
 73
6
 40
11.76145503402609
 49
3.360415724007454
 49
-1.680207862003727
 49
3.360415724007454
 49
-1.680207862003727
 49
0
 49
-1.680207862003727
  0
LTYPE
  2
CENTER
 70
64
  3
____ _ ____ _
 72
65
 73
4
 40
13.44166289602982
 49
8.401039310018634
 49
-1.680207862003727
 49
1.680207862003727
 49
-1.680207862003727
  0
LTYPE
  2
DASHDOT
 70
64
  3
__ . __ . __ .
 72
65
 73
4
 40
6.720831448014907
 49
3.360415724007454
 49
-1.680207862003727
 49
0
 49
-1.680207862003727
  0
LTYPE
  2
DASHED
 70
64
  3
__ __ __ __ __
 72
65
 73
2
 40
5.040623586011181
 49
3.360415724007454
 49
-1.680207862003727
  0
LTYPE
  2
DIVIDE
 70
64
  3
__ . . __ . . 
 72
65
 73
6
 40
8.401039310018634
 49
3.360415724007454
 49
-1.680207862003727
 49
0
 49
-1.680207862003727
 49
0
 49
-1.680207862003727
  0
LTYPE
  2
DOT
 70
64
  3
..............
 72
65
 73
4
 40
3.360415724007454
 49
0
 49
-1.680207862003727
 49
0
 49
-1.680207862003727
  0
LTYPE
  2
HIDDEN
 70
64
  3
_ _ _ _ _ _ _
 72
65
 73
2
 40
2.520311793005591
 49
1.680207862003727
 49
-0.8401039310018634
  0
LTYPE
  2
PHANTOM
 70
64
  3
_____ _ _ _____ _ _ 
 72
65
 73
6
 40
16.80207862003727
 49
8.401039310018634
 49
-1.680207862003727
 49
1.680207862003727
 49
-1.680207862003727
 49
1.680207862003727
 49
-1.680207862003727
  0
ENDTAB
  0
TABLE
  2
LAYER
 70
3
  0
LAYER
  2
1
 70
0
 62
7
  6
CONTINUOUS
  0
LAYER
  2
0
 70
0
 62
7
  6
CONTINUOUS
  0
ENDTAB
  0
TABLE
  2
STYLE
 70
4
  0
STYLE
  2
STANDARD
 70
0
 40
0
 41
1
 50
0
 71
0
 42
3.5
  3
txt
  4

  0
STYLE
  2
SIMPLEX
 70
0
 40
0
 41
1
 50
0
 71
0
 42
3.5
  3
simplex
  4

  0
STYLE
  2
COMPLEX
 70
0
 40
0
 41
1
 50
0
 71
0
 42
3.5
  3
complex
  4

  0
STYLE
  2
ITALIC
 70
0
 40
0
 41
1
 50
0
 71
0
 42
3.5
  3
italic
  4

  0
ENDTAB
  0
TABLE
  2
VIEW
 70
0
  0
ENDTAB
  0
ENDSEC
  0
SECTION
  2
BLOCKS
  0
BLOCK
  8
1
  2
*D0
 70
1
 10
0
 20
0
 30
0
  0
LINE
  8
1
 62
2
 10
176.2282509537713
 20
-156.873734450256
 30
0
 11
264.1870309330903
 21
-156.873734450256
 31
0
  0
LINE
  8
1
 62
2
 10
264.1870309330903
 20
-167.316209153758
 30
0
 11
264.1870309330903
 21
-155.373734450256
 31
0
  0
LINE
  8
1
 62
2
 10
176.2282509537713
 20
-169.316209153758
 30
0
 11
176.2282509537713
 21
-155.373734450256
 31
0
  0
SOLID
  8
1
 62
2
 10
264.1870309330903
 20
-156.873734450256
 30
0
 11
260.9870309330903
 21
-157.289734450256
 31
0
 12
260.9870309330903
 22
-156.457734450256
 32
0
 13
260.9870309330903
 23
-156.457734450256
 33
0
  0
SOLID
  8
1
 62
2
 10
176.2282509537713
 20
-156.873734450256
 30
0
 11
179.4282509537713
 21
-156.457734450256
 31
0
 12
179.4282509537713
 22
-157.289734450256
 32
0
 13
179.4282509537713
 23
-157.289734450256
 33
0
  0
TEXT
  8
1
 62
2
 10
218.2876409434308
 20
-154.873734450256
 30
0
 40
3.2
  1
L1
 41
0.9
  0
ENDBLK
  8
0
  0
BLOCK
  8
1
  2
*D1
 70
1
 10
0
 20
0
 30
0
  0
LINE
  8
1
 62
2
 10
166.2282509537714
 20
-156.873734450256
 30
0
 11
176.2282509537713
 21
-156.873734450256
 31
0
  0
LINE
  8
1
 62
2
 10
176.2282509537713
 20
-169.316209153758
 30
0
 11
176.2282509537713
 21
-155.873734450256
 31
0
  0
LINE
  8
1
 62
2
 10
166.2282509537714
 20
-169.716209153758
 30
0
 11
166.2282509537714
 21
-155.873734450256
 31
0
  0
SOLID
  8
1
 62
2
 10
166.2282509537714
 20
-156.873734450256
 30
0
 11
169.4282509537714
 21
-156.457734450256
 31
0
 12
169.4282509537714
 22
-157.289734450256
 32
0
 13
169.4282509537714
 23
-157.289734450256
 33
0
  0
SOLID
  8
1
 62
2
 10
176.2282509537713
 20
-156.873734450256
 30
0
 11
173.0282509537713
 21
-157.289734450256
 31
0
 12
173.0282509537713
 22
-156.457734450256
 32
0
 13
173.0282509537713
 23
-156.457734450256
 33
0
  0
TEXT
  8
1
 62
2
 10
169.48846987992
 20
-154.873734450256
 30
0
 40
3.2
  1
10
 41
0.9
  0
TEXT
  8
1
 62
2
 10
167.40846987992
 20
-154.873734450256
 30
0
 40
3.2
  1
(
 41
0.9
  0
TEXT
  8
1
 62
2
 10
174.92846987992
 20
-154.873734450256
 30
0
 40
3.2
  1
)
 41
0.9
  0
ENDBLK
  8
0
  0
ENDSEC
  0
SECTION
  2
ENTITIES
  0
LINE
  8
1
 62
2
 10
261.4172709807011
 20
-98.48733573083034
 30
0
 11
261.4172709807011
 21
-126.48733573083
 31
0
  0
LINE
  8
1
 62
2
 10
51.11549672632793
 20
-195.3006744497156
 30
0
 11
131.115496726328
 21
-195.3006744497155
 31
0
  0
LINE
  8
1
 62
2
 10
51.11549672632801
 20
-134.8006744497153
 30
0
 11
131.115496726328
 21
-134.8006744497153
 31
0
  0
LINE
  8
1
 62
2
 10
111.115496726328
 20
-134.8006744497153
 30
0
 11
111.115496726328
 21
-156.300674449715
 31
0
  0
LINE
  8
1
 62
2
 10
51.11549672632793
 20
-143.3006744497156
 30
0
 11
131.115496726328
 21
-143.3006744497153
 31
0
  0
LINE
  8
1
 62
2
 10
65.11549672632802
 20
-134.8006744497153
 30
0
 11
65.11549672632802
 21
-156.300674449715
 31
0
  0
LINE
  8
1
 62
2
 10
83.11549672632802
 20
-134.8006744497153
 30
0
 11
83.11549672632793
 21
-156.300674449715
 31
0
  0
LINE
  8
1
 62
2
 10
131.115496726328
 20
-134.8006744497153
 30
0
 11
131.115496726328
 21
-195.3006744497155
 31
0
  0
LINE
  8
1
 62
2
 10
51.11549672632801
 20
-134.8006744497153
 30
0
 11
51.11549672632793
 21
-195.3006744497156
 31
0
  0
LINE
  8
1
 62
2
 10
51.11549672632793
 20
-149.800674449715
 30
0
 11
111.115496726328
 21
-149.800674449715
 31
0
  0
LINE
  8
1
 62
2
 10
51.11549672632793
 20
-156.300674449715
 30
0
 11
131.115496726328
 21
-156.300674449715
 31
0
  0
LINE
  8
1
 62
3
 10
264.1870309330903
 20
-168.316209153758
 30
0
 11
274.9870309330904
 21
-168.316209153758
 31
0
  0
LINE
  8
1
 62
3
 10
296.7098128221043
 20
-178.016209153758
 30
0
 11
296.7098128221043
 21
-168.316209153758
 31
0
  0
LINE
  8
1
 62
3
 10
296.7098128221043
 20
-168.316209153758
 30
0
 11
302.1098128221043
 21
-168.316209153758
 31
0
  0
LINE
  8
1
 62
3
 10
302.1098128221043
 20
-168.316209153758
 30
0
 11
302.1098128221043
 21
-178.016209153758
 31
0
  0
LINE
  8
1
 62
3
 10
302.1098128221043
 20
-178.016209153758
 30
0
 11
296.7098128221043
 21
-178.016209153758
 31
0
  0
LINE
  8
1
 62
3
 10
297.6598128221044
 20
-173.516209153758
 30
0
 11
301.1598128221044
 21
-173.516209153758
 31
0
  0
LINE
  8
1
 62
3
 10
297.6598128221044
 20
-177.016209153758
 30
0
 11
297.6598128221044
 21
-173.516209153758
 31
0
  0
LINE
  8
1
 62
3
 10
297.6598128221044
 20
-169.316209153758
 30
0
 11
301.1598128221044
 21
-169.316209153758
 31
0
  0
LINE
  8
1
 62
3
 10
301.1598128221044
 20
-173.516209153758
 30
0
 11
301.1598128221044
 21
-177.016209153758
 31
0
  0
LINE
  8
1
 62
3
 10
301.1598128221044
 20
-177.016209153758
 30
0
 11
297.6598128221044
 21
-177.016209153758
 31
0
  0
LINE
  8
1
 62
3
 10
302.1098128221043
 20
-168.316209153758
 30
0
 11
302.1098128221043
 21
-164.816209153758
 31
0
  0
LINE
  8
1
 62
3
 10
302.1098128221043
 20
-164.816209153758
 30
0
 11
296.7098128221043
 21
-164.816209153758
 31
0
  0
LINE
  8
1
 62
3
 10
296.7098128221043
 20
-164.816209153758
 30
0
 11
296.7098128221043
 21
-168.316209153758
 31
0
  0
LINE
  8
1
 62
3
 10
300.9098128221044
 20
-168.316209153758
 30
0
 11
300.9098128221044
 21
-164.816209153758
 31
0
  0
LINE
  8
1
 62
3
 10
297.9098128221044
 20
-164.816209153758
 30
0
 11
297.9098128221044
 21
-168.316209153758
 31
0
  0
LINE
  8
1
 62
3
 10
300.9098128221044
 20
-165.426262717142
 30
0
 11
297.9098128221044
 21
-165.426262717142
 31
0
  0
LINE
  8
1
 62
3
 10
300.9098128221044
 20
-166.745872962172
 30
0
 11
297.9098128221044
 21
-166.745872962172
 31
0
  0
LINE
  8
1
 62
3
 10
300.9098128221044
 20
-165.866132798819
 30
0
 11
302.1098128221043
 21
-165.866132798819
 31
0
  0
LINE
  8
1
 62
3
 10
297.9098128221044
 20
-165.866132798819
 30
0
 11
296.7098128221043
 21
-165.866132798819
 31
0
  0
LINE
  8
1
 62
3
 10
264.1870309330903
 20
-170.316209153758
 30
0
 11
236.0067464258248
 21
-170.316209153758
 31
0
  0
LINE
  8
1
 62
3
 10
264.1870309330903
 20
-171.816209153758
 30
0
 11
235.3793598639598
 21
-171.816209153758
 31
0
  0
LINE
  8
1
 62
3
 10
264.1870309330903
 20
-174.516209153758
 30
0
 11
235.9665834234997
 21
-174.516209153758
 31
0
  0
LINE
  8
1
 62
3
 10
264.1870309330903
 20
-176.016209153758
 30
0
 11
236.1073939798811
 21
-176.016209153758
 31
0
  0
LINE
  8
1
 62
3
 10
176.2282509537713
 20
-170.316209153758
 30
0
 11
176.2282509537713
 21
-171.816209153758
 31
0
  0
LINE
  8
1
 62
3
 10
176.2282509537713
 20
-170.716209153758
 30
0
 11
166.2282509537714
 21
-170.716209153758
 31
0
  0
LINE
  8
1
 62
3
 10
166.2282509537714
 20
-170.716209153758
 30
0
 11
166.2282509537714
 21
-171.416209153758
 31
0
  0
LINE
  8
1
 62
3
 10
166.2282509537714
 20
-171.416209153758
 30
0
 11
176.2282509537713
 21
-171.416209153758
 31
0
  0
LINE
  8
1
 62
3
 10
298.1598128221044
 20
-176.251201014225
 30
0
 11
298.1598128221044
 21
-173.751201014225
 31
0
  0
LINE
  8
1
 62
3
 10
300.6598128221044
 20
-176.251201014225
 30
0
 11
298.1598128221044
 21
-176.251201014225
 31
0
  0
LINE
  8
1
 62
3
 10
298.1598128221044
 20
-173.751201014225
 30
0
 11
300.6598128221044
 21
-173.751201014225
 31
0
  0
LINE
  8
1
 62
3
 10
300.6598128221044
 20
-173.751201014225
 30
0
 11
300.6598128221044
 21
-176.251201014225
 31
0
  0
LINE
  8
1
 62
3
 10
298.1598128221044
 20
-172.051201014225
 30
0
 11
298.1598128221044
 21
-169.551201014225
 31
0
  0
LINE
  8
1
 62
3
 10
298.1598128221044
 20
-169.551201014225
 30
0
 11
300.6598128221044
 21
-169.551201014225
 31
0
  0
LINE
  8
1
 62
3
 10
300.6598128221044
 20
-172.051201014225
 30
0
 11
298.1598128221044
 21
-172.051201014225
 31
0
  0
LINE
  8
1
 62
3
 10
300.6598128221044
 20
-169.551201014225
 30
0
 11
300.6598128221044
 21
-172.051201014225
 31
0
  0
LINE
  8
1
 62
3
 10
176.2282509537713
 20
-170.316209153758
 30
0
 11
233.910884787604
 21
-170.316209153758
 31
0
  0
LINE
  8
1
 62
3
 10
233.2834982257434
 20
-171.816209153758
 30
0
 11
176.2282509537713
 21
-171.816209153758
 31
0
  0
LINE
  8
1
 62
3
 10
301.1598128221044
 20
-169.316209153758
 30
0
 11
301.1598128221044
 21
-171.666209153758
 31
0
  0
LINE
  8
1
 62
3
 10
301.1598128221044
 20
-171.666209153758
 30
0
 11
300.0098128221044
 21
-172.816209153758
 31
0
  0
LINE
  8
1
 62
3
 10
298.8098128221043
 20
-172.816209153758
 30
0
 11
297.6598128221044
 21
-171.666209153758
 31
0
  0
LINE
  8
1
 62
3
 10
297.6598128221044
 20
-171.666209153758
 30
0
 11
297.6598128221044
 21
-169.316209153758
 31
0
  0
LINE
  8
1
 62
3
 10
300.0098128221044
 20
-172.816209153758
 30
0
 11
298.8098128221043
 21
-172.816209153758
 31
0
  0
LINE
  8
1
 62
3
 10
283.7870309330903
 20
-172.816209153758
 30
0
 11
283.7870309330903
 21
-169.316209153758
 31
0
  0
LINE
  8
1
 62
3
 10
274.9870309330904
 20
-177.016209153758
 30
0
 11
283.7870309330903
 21
-177.016209153758
 31
0
  0
LINE
  8
1
 62
3
 10
283.7870309330903
 20
-169.316209153758
 30
0
 11
274.9870309330904
 21
-169.316209153758
 31
0
  0
LINE
  8
1
 62
3
 10
283.7870309330903
 20
-177.016209153758
 30
0
 11
283.7870309330903
 21
-173.516209153758
 31
0
  0
LINE
  8
1
 62
3
 10
264.1870309330903
 20
-168.316209153758
 30
0
 11
264.1870309330903
 21
-178.016209153758
 31
0
  0
LINE
  8
1
 62
3
 10
274.9870309330904
 20
-178.016209153758
 30
0
 11
274.9870309330904
 21
-168.316209153758
 31
0
  0
LINE
  8
1
 62
3
 10
283.7870309330903
 20
-173.516209153758
 30
0
 11
274.9870309330904
 21
-173.516209153758
 31
0
  0
LINE
  8
1
 62
3
 10
283.7870309330903
 20
-172.816209153758
 30
0
 11
274.9870309330904
 21
-172.816209153758
 31
0
  0
LINE
  8
1
 62
3
 10
278.2870309330903
 20
-166.816209153758
 30
0
 11
278.2870309330903
 21
-168.316209153758
 31
0
  0
LINE
  8
1
 62
3
 10
274.2000418041023
 20
-166.816209153758
 30
0
 11
278.2870309330903
 21
-166.816209153758
 31
0
  0
LINE
  8
1
 62
3
 10
274.2000418041023
 20
-167.816209153758
 30
0
 11
274.2000418041023
 21
-166.816209153758
 31
0
  0
LINE
  8
1
 62
3
 10
279.8552903959593
 20
-168.316209153758
 30
0
 11
278.2870309330903
 21
-168.316209153758
 31
0
  0
LINE
  8
1
 62
3
 10
281.2870309330903
 20
-166.816209153758
 30
0
 11
279.8552903959593
 21
-168.316209153758
 31
0
  0
LINE
  8
1
 62
3
 10
280.7748430125213
 20
-164.816209153758
 30
0
 11
281.2870309330903
 21
-165.372360676028
 31
0
  0
LINE
  8
1
 62
3
 10
266.4870309330904
 20
-164.406830428638
 30
0
 11
268.2229497964493
 21
-164.406830428638
 31
0
  0
LINE
  8
1
 62
3
 10
266.4870309330904
 20
-164.816209153758
 30
0
 11
266.4870309330904
 21
-164.406830428638
 31
0
  0
LINE
  8
1
 62
3
 10
268.2229497964493
 20
-164.406830428638
 30
0
 11
268.2229497964493
 21
-165.188450152716
 31
0
  0
LINE
  8
1
 62
3
 10
268.5447932122464
 20
-165.648226460997
 30
0
 11
268.2229497964493
 21
-165.188450152716
 31
0
  0
LINE
  8
1
 62
3
 10
274.2000418041023
 20
-165.648226460997
 30
0
 11
268.5447932122464
 21
-165.648226460997
 31
0
  0
LINE
  8
1
 62
3
 10
274.2000418041023
 20
-166.816209153758
 30
0
 11
274.2000418041023
 21
-165.648226460997
 31
0
  0
LINE
  8
1
 62
3
 10
272.0850707860104
 20
-166.816209153758
 30
0
 11
266.4870309330904
 21
-166.153980400106
 31
0
  0
LINE
  8
1
 62
3
 10
272.2448470942913
 20
-166.816209153758
 30
0
 11
272.0850707860104
 21
-166.816209153758
 31
0
  0
LINE
  8
1
 62
3
 10
272.5448470942914
 20
-167.816209153758
 30
0
 11
272.5448470942914
 21
-167.116209153758
 31
0
  0
LINE
  8
1
 62
3
 10
274.9870309330904
 20
-168.316209153758
 30
0
 11
274.7000418041023
 21
-168.316209153758
 31
0
  0
LINE
  8
1
 62
3
 10
281.2870309330903
 20
-165.372360676028
 30
0
 11
281.2870309330903
 21
-166.816209153758
 31
0
  0
LINE
  8
1
 62
3
 10
268.2229497964493
 20
-164.816209153758
 30
0
 11
280.7748430125213
 21
-164.816209153758
 31
0
  0
LINE
  8
1
 62
3
 10
266.4870309330904
 20
-166.153980400106
 30
0
 11
266.4870309330904
 21
-164.816209153758
 31
0
  0
LINE
  8
1
 62
3
 10
274.9870309330904
 20
-178.016209153758
 30
0
 11
264.1870309330903
 21
-178.016209153758
 31
0
  0
LINE
  8
1
 62
3
 10
176.2282509537713
 20
-174.516209153758
 30
0
 11
233.910884787604
 21
-174.516209153758
 31
0
  0
LINE
  8
1
 62
3
 10
176.2282509537713
 20
-174.516209153758
 30
0
 11
176.2282509537713
 21
-176.016209153758
 31
0
  0
LINE
  8
1
 62
3
 10
176.2282509537713
 20
-174.916209153758
 30
0
 11
166.2282509537714
 21
-174.916209153758
 31
0
  0
LINE
  8
1
 62
3
 10
166.2282509537714
 20
-174.916209153758
 30
0
 11
166.2282509537714
 21
-175.616209153758
 31
0
  0
LINE
  8
1
 62
3
 10
166.2282509537714
 20
-175.616209153758
 30
0
 11
176.2282509537713
 21
-175.616209153758
 31
0
  0
LINE
  8
1
 62
2
 10
180.9015177265502
 20
-98.48733573083034
 30
0
 11
261.4172709807011
 21
-98.48733573083034
 31
0
  0
LINE
  8
1
 62
2
 10
180.9015177265501
 20
-106.9873357308307
 30
0
 11
261.4172709807012
 21
-106.9873357308303
 31
0
  0
LINE
  8
1
 62
2
 10
180.9015177265502
 20
-98.48733573083034
 30
0
 11
180.9015177265501
 21
-126.48733573083
 31
0
  0
LINE
  8
1
 62
2
 10
180.9015177265501
 20
-113.48733573083
 30
0
 11
261.4172709807011
 21
-113.48733573083
 31
0
  0
LINE
  8
1
 62
2
 10
180.9015177265501
 20
-126.48733573083
 30
0
 11
261.4172709807011
 21
-126.48733573083
 31
0
  0
LINE
  8
1
 62
2
 10
215.7704022566654
 20
-98.48733573083035
 30
0
 11
215.7704022566654
 21
-126.48733573083
 31
0
  0
LINE
  8
1
 62
2
 10
180.9015177265501
 20
-119.9873357308297
 30
0
 11
261.4172709807011
 21
-119.98733573083
 31
0
  0
LINE
  8
1
 62
3
 10
234.0115323416681
 20
-176.016209153758
 30
0
 11
176.2282509537713
 21
-176.016209153758
 31
0
  0
LINE
  8
1
 62
2
 10
180.9015177265502
 20
-104.9873357308306
 30
0
 11
180.9015177265501
 21
-126.48733573083
 31
0
  0
LINE
  8
1
 62
2
 10
215.7704022566654
 20
-104.9873357308306
 30
0
 11
215.7704022566654
 21
-126.48733573083
 31
0
  0
CIRCLE
  8
1
 62
2
 10
284.3165976754253
 20
-143.5570746593468
 30
0
 40
4
  0
CIRCLE
  8
1
 62
2
 10
55.08853936794892
 20
-129.310659219188
 30
0
 40
2.500000000000014
  0
CIRCLE
  8
1
 62
2
 10
55.61549672632793
 20
-164.40875526485
 30
0
 40
2.5
  0
POLYLINE
  8
1
 62
2
 66
1
  0
VERTEX
  8
1
 10
232.842314883897
 20
-168.867239195915
 30
0
 42
-0.005329609868815874
  0
VERTEX
  8
1
 10
233.1493099698702
 20
-169.1462092759333
 30
0
 42
-0.01721803191533764
  0
VERTEX
  8
1
 10
233.4329847795355
 20
-169.4278853338392
 30
0
 42
-0.03309656202119543
  0
VERTEX
  8
1
 10
233.6700190365849
 20
-169.7149733475202
 30
0
 42
-0.05582201936429608
  0
VERTEX
  8
1
 10
233.8370924647103
 20
-170.010179294864
 30
0
 42
-0.08329269170885453
  0
VERTEX
  8
1
 10
233.910884787604
 20
-170.316209153758
 30
0
 42
-0.1042059785968484
  0
VERTEX
  8
1
 10
233.8247085395898
 20
-170.8019899949271
 30
0
 42
-0.03970357177302537
  0
VERTEX
  8
1
 10
233.5782737038858
 20
-171.3087905332785
 30
0
 42
0.0008403655787823125
  0
VERTEX
  8
1
 10
233.2775684009623
 20
-171.8267364193118
 30
0
 42
0.03861007055619227
  0
VERTEX
  8
1
 10
233.0285807512896
 20
-172.3459533035262
 30
0
 42
0.0968348067378581
  0
VERTEX
  8
1
 10
232.937298875338
 20
-172.856566836421
 30
0
 42
0.1250610905313581
  0
VERTEX
  8
1
 10
233.0673713525497
 20
-173.3358670061809
 30
0
 42
0.01535819576882577
  0
VERTEX
  8
1
 10
233.3502973882637
 20
-173.8030343089685
 30
0
 42
0.03147894984168357
  0
VERTEX
  8
1
 10
233.6916663742447
 20
-174.2632623059056
 30
0
 42
-0.03164132440835391
  0
VERTEX
  8
1
 10
233.997067702257
 20
-174.7217445581138
 30
0
 42
-0.08519901686178248
  0
VERTEX
  8
1
 10
234.172090764065
 20
-175.183674626715
 30
0
 42
-0.0869795160397016
  0
VERTEX
  8
1
 10
234.1670617009545
 20
-175.5616154735245
 30
0
 42
-0.06000537361014574
  0
VERTEX
  8
1
 10
234.0450722907597
 20
-175.9440525326841
 30
0
 42
-0.03581699523568463
  0
VERTEX
  8
1
 10
233.8353626202516
 20
-176.3298617511063
 30
0
 42
-0.01861822024546479
  0
VERTEX
  8
1
 10
233.5671727762014
 20
-176.7179190757034
 30
0
 42
-0.005754684647558109
  0
VERTEX
  8
1
 10
233.26974284538
 20
-177.107100453388
 30
0
  0
SEQEND
  8
1
  0
POLYLINE
  8
1
 62
2
 66
1
  0
VERTEX
  8
1
 10
234.9381765221178
 20
-168.867239195915
 30
0
 42
-0.005329609868815874
  0
VERTEX
  8
1
 10
235.245171608091
 20
-169.1462092759333
 30
0
 42
-0.01721803191534075
  0
VERTEX
  8
1
 10
235.5288464177563
 20
-169.4278853338392
 30
0
 42
-0.03309656202124834
  0
VERTEX
  8
1
 10
235.7658806748056
 20
-169.7149733475202
 30
0
 42
-0.05582201936414918
  0
VERTEX
  8
1
 10
235.9329541029311
 20
-170.010179294864
 30
0
 42
-0.08329269170902892
  0
VERTEX
  8
1
 10
236.0067464258248
 20
-170.316209153758
 30
0
 42
-0.1042059785969053
  0
VERTEX
  8
1
 10
235.9205701778106
 20
-170.8019899949271
 30
0
 42
-0.03970357177307074
  0
VERTEX
  8
1
 10
235.6741353421066
 20
-171.3087905332785
 30
0
 42
0.0008403655787412342
  0
VERTEX
  8
1
 10
235.3734300391831
 20
-171.8267364193118
 30
0
 42
0.03861007055623496
  0
VERTEX
  8
1
 10
235.1244423895104
 20
-172.3459533035262
 30
0
 42
0.09683480673776801
  0
VERTEX
  8
1
 10
235.0331605135588
 20
-172.856566836421
 30
0
 42
0.1250610905314821
  0
VERTEX
  8
1
 10
235.1632329907705
 20
-173.3358670061809
 30
0
 42
0.01535819576870072
  0
VERTEX
  8
1
 10
235.4461590264845
 20
-173.8030343089685
 30
0
 42
0.03147894984180809
  0
VERTEX
  8
1
 10
235.7875280124655
 20
-174.2632623059056
 30
0
 42
-0.03164132440826778
  0
VERTEX
  8
1
 10
236.0929293404778
 20
-174.7217445581138
 30
0
 42
-0.08519901686178248
  0
VERTEX
  8
1
 10
236.2679524022858
 20
-175.183674626715
 30
0
 42
-0.0869795160397016
  0
VERTEX
  8
1
 10
236.2629233391753
 20
-175.5616154735245
 30
0
 42
-0.06000537361014574
  0
VERTEX
  8
1
 10
236.1409339289805
 20
-175.9440525326841
 30
0
 42
-0.03581699523568463
  0
VERTEX
  8
1
 10
235.9312242584724
 20
-176.3298617511063
 30
0
 42
-0.01861822024546479
  0
VERTEX
  8
1
 10
235.6630344144222
 20
-176.7179190757034
 30
0
 42
-0.005754684647558109
  0
VERTEX
  8
1
 10
235.3656044836008
 20
-177.107100453388
 30
0
  0
SEQEND
  8
1
  0
ARC
  8
1
 62
3
 10
272.2448470942913
 20
-167.116209153758
 30
0
 40
0.3000000000001251
 50
0
 51
90
  0
ARC
  8
1
 62
3
 10
272.0448470942914
 20
-167.816209153758
 30
0
 40
0.5
 50
270
 51
0
  0
ARC
  8
1
 62
3
 10
274.7000418041023
 20
-167.816209153758
 30
0
 40
0.5
 50
180
 51
270
  0
LINE
  8
1
 62
2
 10
282.473659088327
 20
-147.1072263975383
 30
0
 11
275.4512626068053
 21
-164.816209153758
 31
0
  0
SOLID
  8
1
 62
2
 10
276.2392248709669
 20
-161.6862572303738
 30
0
 11
277.0224668759273
 21
-161.9968473967052
 31
0
 12
275.4512626068053
 22
-164.816209153758
 32
0
 13
275.4512626068053
 23
-164.816209153758
 33
0
  0
TEXT
  8
1
 62
2
 10
201.100843109517
 20
-194.081278560993
 30
0
 40
4
  1
FED-CNSL
 41
0.9
  0
TEXT
  8
1
 62
2
 10
227.6940367035474
 20
-118.690390352955
 30
0
 40
3.5
  1
 490
 41
0.72
 73
2
 11
227.6940367035474
 21
-116.940390352955
 31
0
  0
TEXT
  8
1
 62
2
 10
227.6940367035474
 20
-112.190390352955
 30
0
 40
3.5
  1
 290
 41
0.72
 73
2
 11
227.6940367035474
 21
-110.440390352955
 31
0
  0
TEXT
  8
1
 62
2
 10
282.8765976754253
 20
-145.1570746593468
 30
0
 40
3.2
  1
1
 41
0.9
 72
1
 73
2
 11
284.3165976754253
 21
-143.5570746593468
 31
0
  0
TEXT
  8
1
 62
2
 10
60.11549672632802
 20
-165.425888176729
 30
0
 40
3.5
  1
ハウジング：５５５７－０２Ｒ　　　　　　　モレックス
 41
0.675
  0
TEXT
  8
1
 62
2
 10
60.11549672632802
 20
-170.150888176729
 30
0
 40
3.5
  1
ＨＯＵＳＩＮＧ　　　　　　　　　　　　　　ＭＯＬＥＸ
 41
0.675
  0
TEXT
  8
1
 62
2
 10
60.11549672632802
 20
-174.875888176729
 30
0
 40
3.5
  1
コンタクト：５５５６Ｔ　　　　　　　　　　モレックス
 41
0.675
  0
TEXT
  8
1
 62
2
 10
60.11549672632802
 20
-179.600888176729
 30
0
 40
3.5
  1
ＣＯＮＴＡＣＴ　　　　　　　　　　　　　　ＭＯＬＥＸ
 41
0.675
  0
TEXT
  8
1
 62
2
 10
60.11549672632802
 20
-184.325888176729
 30
0
 40
3.5
  1
適合ピンヘッダ：５５６６－０２Ａ　　　　　モレックス
 41
0.675
  0
TEXT
  8
1
 62
2
 10
60.11549672632802
 20
-189.050888176729
 30
0
 40
3.5
  1
　　　　　　　：５５６９－０２Ａ１　　　　　　〃
 41
0.675
  0
TEXT
  8
1
 62
2
 10
60.11549672632802
 20
-193.775888176729
 30
0
 40
3.5
  1
ＡＤＡＰＴＩＮＧ　ＰＩＮ　ＨＥＡＤＥＲ　　ＭＯＬＥＸ
 41
0.675
  0
TEXT
  8
1
 62
2
 10
86.11549672632802
 20
-148.300674449715
 30
0
 40
3.5
  1
赤　RED
 41
0.72
 73
2
 11
86.11549672632802
 21
-146.550674449715
 31
0
  0
TEXT
  8
1
 62
2
 10
86.11549672632802
 20
-154.8006744497157
 30
0
 40
3.5
  1
黒　BLACK
 41
0.72
 73
2
 11
86.11549672632802
 21
-153.0506744497157
 31
0
  0
TEXT
  8
1
 62
2
 10
67.11549672632802
 20
-154.8006744497155
 30
0
 40
3.5
  1
P.GND
 41
0.6300000000000001
 73
2
 11
67.11549672632802
 21
-153.0506744497155
 31
0
  0
TEXT
  8
1
 62
2
 10
67.11549672632802
 20
-148.3006744497153
 30
0
 40
3.5
  1
VM
 41
0.72
 73
2
 11
67.11549672632802
 21
-146.5506744497153
 31
0
  0
TEXT
  8
1
 62
2
 10
53.11549672632793
 20
-160.241560883796
 30
0
 40
3
  1
コネクタ型式
 41
0.9
 73
2
 11
53.11549672632793
 21
-158.741560883796
 31
0
  0
TEXT
  8
1
 62
2
 10
114.115496726328
 20
-149.200674449715
 30
0
 40
3
  1
UL1430
 41
0.6300000000000001
  0
TEXT
  8
1
 62
2
 10
114.115496726328
 20
-153.400674449715
 30
0
 40
3
  1
AWG22
 41
0.6300000000000001
  0
TEXT
  8
1
 62
2
 10
108.515496726328
 20
-138.9756744497152
 30
0
 40
3.5
  1
リード線種
 41
0.72
 72
1
 73
2
 11
121.115496726328
 21
-137.2256744497152
 31
0
  0
TEXT
  8
1
 62
2
 10
113.987496726328
 20
-142.4756744497151
 30
0
 40
3.2
  1
LEAD WIRE
 41
0.4949999999999999
 72
1
 73
2
 11
121.115496726328
 21
-140.8756744497151
 31
0
  0
TEXT
  8
1
 62
2
 10
85.23549672632802
 20
-142.4756744497151
 30
0
 40
3.2
  1
LEAD WIRE COLOR
 41
0.4949999999999999
 72
1
 73
2
 11
97.11549672632802
 21
-140.8756744497151
 31
0
  0
TEXT
  8
1
 62
2
 10
84.51549672632802
 20
-138.9756744497152
 30
0
 40
3.5
  1
リード線色
 41
0.72
 72
1
 73
2
 11
97.11549672632802
 21
-137.2256744497152
 31
0
  0
TEXT
  8
1
 62
2
 10
60.6654150587801
 20
-128.0387635844471
 30
0
 40
3.5
  1
コネクタ接続表
 41
0.9
 73
2
 11
60.6654150587801
 21
-126.2887635844471
 31
0
  0
TEXT
  8
1
 62
2
 10
60.6654150587801
 20
-132.6955840451561
 30
0
 40
3.5
  1
CONNECTION GUIDE
 41
0.72
 73
2
 11
60.6654150587801
 21
-130.9455840451561
 31
0
  0
TEXT
  8
1
 62
2
 10
69.07549672632801
 20
-138.9756744497152
 30
0
 40
3.5
  1
名称
 41
0.72
 72
1
 73
2
 11
74.11549672632802
 21
-137.2256744497152
 31
0
  0
TEXT
  8
1
 62
2
 10
69.50749672632801
 20
-142.4756744497151
 30
0
 40
3.2
  1
NAME
 41
0.72
 72
1
 73
2
 11
74.11549672632802
 21
-140.8756744497151
 31
0
  0
TEXT
  8
1
 62
2
 10
53.50749672632801
 20
-140.6506744497153
 30
0
 40
3.200000000000001
  1
PIN#
 41
0.7200000000000001
 72
1
 73
2
 11
58.11549672632802
 21
-139.0506744497153
 31
0
  0
TEXT
  8
1
 62
2
 10
56.54049672632802
 20
-148.3006744497153
 30
0
 40
3.5
  1
1
 41
0.9
 72
1
 73
2
 11
58.11549672632802
 21
-146.5506744497153
 31
0
  0
TEXT
  8
1
 62
2
 10
56.54049672632802
 20
-154.8006744497153
 30
0
 40
3.5
  1
2
 41
0.9
 72
1
 73
2
 11
58.11549672632802
 21
-153.0506744497153
 31
0
  0
TEXT
  8
1
 62
2
 10
75.57665329846003
 20
-160.241560883796
 30
0
 40
3
  1
ＣＯＮＮＥＣＴＯＲ　ＭＯＤＥＬ　ＣＯＤＥ
 41
0.72
 73
2
 11
75.57665329846003
 21
-158.741560883796
 31
0
  0
TEXT
  8
1
 62
2
 10
54.09853936794892
 20
-130.410659219188
 30
0
 40
2.2
  1
1
 41
0.9
 72
1
 73
2
 11
55.08853936794892
 21
-129.310659219188
 31
0
  0
TEXT
  8
1
 62
2
 10
54.62549672632793
 20
-165.50875526485
 30
0
 40
2.2
  1
1
 41
0.9
 72
1
 73
2
 11
55.61549672632793
 21
-164.40875526485
 31
0
  0
TEXT
  8
1
 62
2
 10
304.4070917508944
 20
-178.843425517106
 30
0
 40
3.5
  1
1
 41
0.9
  0
TEXT
  8
1
 62
2
 10
304.4070917508944
 20
-170.162073725414
 30
0
 40
3.5
  1
2
 41
0.9
  0
TEXT
  8
1
 62
2
 10
182.9015177265502
 20
-111.98733573083
 30
0
 40
3.5
  1
FED-CNSL03
 41
0.72
 73
2
 11
182.9015177265502
 21
-110.23733573083
 31
0
  0
TEXT
  8
1
 62
2
 10
188.2559599916078
 20
-106.1623357308301
 30
0
 40
3.200000000000001
  1
MODEL CODE
 41
0.6299999999999999
 72
1
 73
2
 11
198.3359599916078
 21
-104.5623357308301
 31
0
  0
TEXT
  8
1
 62
2
 10
188.8859599916078
 20
-102.6623357308302
 30
0
 40
3.5
  1
型　式
 41
0.9
 72
1
 73
2
 11
198.3359599916078
 21
-100.9123357308302
 31
0
  0
TEXT
  8
1
 62
2
 10
229.3673738340759
 20
-104.4873357308302
 30
0
 40
3.5
  1
L1(mm)
 41
0.72
 72
1
 73
2
 11
236.9273738340759
 21
-102.7373357308302
 31
0
  0
TEXT
  8
1
 62
2
 10
243.9101214339133
 20
-112.8621949750796
 30
0
 40
2
  1
0
 41
0.9
 72
2
 73
2
 11
245.7101214339133
 21
-111.8621949750796
 31
0
  0
TEXT
  8
1
 62
2
 10
240.3101214339133
 20
-110.4246949750797
 30
0
 40
2
  1
+20
 41
0.9
 72
2
 73
2
 11
245.7101214339133
 21
-109.4246949750797
 31
0
  0
TEXT
  8
1
 62
2
 10
240.3101214339133
 20
-116.9246949750797
 30
0
 40
2
  1
+30
 41
0.9
 72
2
 73
2
 11
245.7101214339133
 21
-115.9246949750797
 31
0
  0
TEXT
  8
1
 62
2
 10
243.9101214339133
 20
-119.3621949750796
 30
0
 40
2
  1
0
 41
0.9
 72
2
 73
2
 11
245.7101214339133
 21
-118.3621949750796
 31
0
  0
TEXT
  8
1
 62
2
 10
182.9015177265502
 20
-118.48733573083
 30
0
 40
3.5
  1
FED-CNSL05
 41
0.72
 73
2
 11
182.9015177265502
 21
-116.73733573083
 31
0
  0
TEXT
  8
1
 62
2
 10
227.7704022566654
 20
-124.9873357308305
 30
0
 40
3.5
  1
 990
 41
0.72
 73
2
 11
227.7704022566654
 21
-123.2373357308305
 31
0
  0
TEXT
  8
1
 62
2
 10
240.3101214339133
 20
-123.4246949750799
 30
0
 40
2
  1
+50
 41
0.9
 72
2
 73
2
 11
245.7101214339133
 21
-122.4246949750799
 31
0
  0
TEXT
  8
1
 62
2
 10
243.9101214339133
 20
-125.8621949750798
 30
0
 40
2
  1
0
 41
0.9
 72
2
 73
2
 11
245.7101214339133
 21
-124.8621949750798
 31
0
  0
TEXT
  8
1
 62
2
 10
182.9015177265502
 20
-124.9873357308302
 30
0
 40
3.5
  1
FED-CNSL10
 41
0.72
 73
2
 11
182.9015177265502
 21
-123.2373357308302
 31
0
  0
DIMENSION
  8
1
  6
CONTINUOUS
 62
2
  2
*D0
  3
DMST_1
 10
264.1870309330903
 20
-156.873734450256
 30
0
 11
220.2076409434308
 21
-153.273734450256
 31
0
 12
0
 22
0
 32
0
 70
0
  1
L1
 13
176.2282509537713
 23
-170.316209153758
 33
0
 14
264.1870309330903
 24
-168.316209153758
 34
0
 53
0
  0
DIMENSION
  8
1
  6
CONTINUOUS
 62
2
  2
*D1
  3
DMST_2
 10
176.2282509537713
 20
-156.873734450256
 30
0
 11
171.40846987992
 21
-153.273734450256
 31
0
 12
0
 22
0
 32
0
 70
0
  1
(<>
 13
166.2282509537714
 23
-170.716209153758
 33
0
 14
176.2282509537713
 24
-170.316209153758
 34
0
 53
0
  0
ENDSEC
  0
EOF
