  0
SECTION
  2
HEADER
  9
$ACADVER
  1
AC1009
  9
$INSBASE
 10
0
 20
0
  9
$EXTMIN
 10
165.497606321303
 20
145.6997263487577
  9
$EXTMAX
 10
346.364865366957
 20
261.906949714026
  9
$LIMMIN
 10
165.497606321303
 20
145.6997263487577
  9
$LIMMAX
 10
346.364865366957
 20
261.906949714026
  9
$VIEWCTR
 10
10
 20
10
  9
$VIEWSIZE
 40
10
  9
$SNAPMODE
 70
0
  9
$SNAPUNIT
 10
1
 20
1
  9
$SNAPBASE
 10
0
 20
0
  9
$SNAPANG
 50
0
  9
$SNAPSTYLE
 70
0
  9
$SNAPISOPAIR
 70
0
  9
$GRIDMODE
 70
0
  9
$GRIDUNIT
 10
0
 20
0
  9
$ORTHOMODE
 70
0
  9
$REGENMODE
 70
1
  9
$FILLMODE
 70
1
  9
$QTEXTMODE
 70
0
  9
$DRAGMODE
 70
2
  9
$LTSCALE
 40
1
  9
$OSMODE
 70
0
  9
$ATTMODE
 70
1
  9
$TEXTSIZE
 40
3.5
  9
$TRACEWID
 40
0.5
  9
$TEXTSTYLE
  7
STANDARD
  9
$CLAYER
  8
0
  9
$CELTYPE
  6
BYLAYER
  9
$CECOLOR
 62
256
  9
$DIMSCALE
 40
1
  9
$DIMASZ
 40
0.18
  9
$DIMEXO
 40
0.0625
  9
$DIMDLI
 40
0.38
  9
$DIMRND
 40
0
  9
$DIMDLE
 40
0
  9
$DIMEXE
 40
0.18
  9
$DIMTP
 40
0
  9
$DIMTM
 40
0
  9
$DIMTXT
 40
0.18
  9
$DIMCEN
 40
0.09
  9
$DIMTSZ
 40
0
  9
$DIMTOL
 70
0
  9
$DIMLIM
 70
0
  9
$DIMTIH
 70
1
  9
$DIMTOH
 70
1
  9
$DIMSE1
 70
0
  9
$DIMSE2
 70
0
  9
$DIMTAD
 70
0
  9
$DIMZIN
 70
0
  9
$DIMBLK
  1

  9
$DIMASO
 70
1
  9
$DIMSHO
 70
1
  9
$DIMPOST
  1

  9
$DIMAPOST
  1

  9
$DIMALT
 70
0
  9
$DIMALTD
 70
2
  9
$DIMALTF
 40
25.4
  9
$DIMLFAC
 40
1
  9
$DIMTOFL
 70
0
  9
$DIMTVP
 40
0
  9
$DIMTIX
 70
0
  9
$DIMSOXD
 70
0
  9
$DIMSAH
 70
0
  9
$DIMBLK1
  1

  9
$DIMBLK2
  1

  9
$DIMSTYLE
  2
*UNNAMED
  9
$DIMCLRD
 70
0
  9
$DIMCLRE
 70
0
  9
$DIMCLRT
 70
0
  9
$DIMTFAC
 40
1
  9
$DIMGAP
 40
0.09
  9
$LUNITS
 70
2
  9
$LUPREC
 70
4
  9
$AXISMODE
 70
0
  9
$AXISUNIT
 10
0
 20
0
  9
$SKETCHINC
 40
0.1
  9
$FILLETRAD
 40
2
  9
$AUNITS
 70
0
  9
$AUPREC
 70
0
  9
$MENU
  1
ACAD
  9
$ELEVATION
 40
0
  9
$THICKNESS
 40
0
  9
$VIEWDIR
 10
0
 20
0
 30
1
  9
$LIMCHECK
 70
0
  9
$BLIPMODE
 70
1
  9
$CHAMFERA
 40
0
  9
$CHAMFERB
 40
0
  9
$FASTZOOM
 70
1
  9
$SKPOLY
 70
0
  9
$ANGBASE
 50
0
  9
$ANGDIR
 70
0
  9
$PDMODE
 70
0
  9
$PDSIZE
 40
0
  9
$PLINEWID
 40
0
  9
$COORDS
 70
2
  0
ENDSEC
  0
SECTION
  2
TABLES
  0
TABLE
  2
DIMSTYLE
 70
2
  0
DIMSTYLE
  2
DMST_1
 70
0
  3

  4

  5

  6

  7

 40
1
 41
3.2
 42
1
 43
7
 44
1.5
 45
0
 46
0
 47
0
 48
0
140
3.2
141
0
142
0
143
25.4
144
1
145
0
146
1
147
0.09
 71
0
 72
0
 73
1
 74
1
 75
0
 76
0
 77
1
 78
9
170
0
171
2
172
0
173
0
174
0
175
0
176
2
177
2
178
2
  0
DIMSTYLE
  2
DMST_2
 70
0
  3
)
  4

  5

  6

  7

 40
1
 41
3.2
 42
1
 43
7
 44
1.5
 45
0
 46
0
 47
0
 48
0
140
3.2
141
0
142
0
143
25.4
144
1
145
0
146
1
147
0.09
 71
0
 72
0
 73
1
 74
1
 75
0
 76
0
 77
1
 78
9
170
0
171
2
172
0
173
0
174
0
175
0
176
2
177
2
178
2
  0
ENDTAB
  0
TABLE
  2
LTYPE
 70
9
  0
LTYPE
  2
CONTINUOUS
 70
64
  3
Solid line
 72
65
 73
0
 40
0
  0
LTYPE
  2
BORDER
 70
64
  3
__ __ . __ __ .
 72
65
 73
6
 40
8.32941324552354
 49
2.379832355863869
 49
-1.189916177931934
 49
2.379832355863869
 49
-1.189916177931934
 49
0
 49
-1.189916177931934
  0
LTYPE
  2
CENTER
 70
64
  3
____ _ ____ _
 72
65
 73
4
 40
9.519329423455474
 49
5.949580889659671
 49
-1.189916177931934
 49
1.189916177931934
 49
-1.189916177931934
  0
LTYPE
  2
DASHDOT
 70
64
  3
__ . __ . __ .
 72
65
 73
4
 40
4.759664711727737
 49
2.379832355863869
 49
-1.189916177931934
 49
0
 49
-1.189916177931934
  0
LTYPE
  2
DASHED
 70
64
  3
__ __ __ __ __
 72
65
 73
2
 40
3.569748533795803
 49
2.379832355863869
 49
-1.189916177931934
  0
LTYPE
  2
DIVIDE
 70
64
  3
__ . . __ . . 
 72
65
 73
6
 40
5.949580889659671
 49
2.379832355863869
 49
-1.189916177931934
 49
0
 49
-1.189916177931934
 49
0
 49
-1.189916177931934
  0
LTYPE
  2
DOT
 70
64
  3
..............
 72
65
 73
4
 40
2.379832355863869
 49
0
 49
-1.189916177931934
 49
0
 49
-1.189916177931934
  0
LTYPE
  2
HIDDEN
 70
64
  3
_ _ _ _ _ _ _
 72
65
 73
2
 40
1.784874266897901
 49
1.189916177931934
 49
-0.5949580889659671
  0
LTYPE
  2
PHANTOM
 70
64
  3
_____ _ _ _____ _ _ 
 72
65
 73
6
 40
11.89916177931934
 49
5.949580889659671
 49
-1.189916177931934
 49
1.189916177931934
 49
-1.189916177931934
 49
1.189916177931934
 49
-1.189916177931934
  0
ENDTAB
  0
TABLE
  2
LAYER
 70
3
  0
LAYER
  2
1
 70
0
 62
7
  6
CONTINUOUS
  0
LAYER
  2
0
 70
0
 62
7
  6
CONTINUOUS
  0
ENDTAB
  0
TABLE
  2
STYLE
 70
4
  0
STYLE
  2
STANDARD
 70
0
 40
0
 41
1
 50
0
 71
0
 42
3.5
  3
txt
  4

  0
STYLE
  2
SIMPLEX
 70
0
 40
0
 41
1
 50
0
 71
0
 42
3.5
  3
simplex
  4

  0
STYLE
  2
COMPLEX
 70
0
 40
0
 41
1
 50
0
 71
0
 42
3.5
  3
complex
  4

  0
STYLE
  2
ITALIC
 70
0
 40
0
 41
1
 50
0
 71
0
 42
3.5
  3
italic
  4

  0
ENDTAB
  0
TABLE
  2
VIEW
 70
0
  0
ENDTAB
  0
ENDSEC
  0
SECTION
  2
BLOCKS
  0
BLOCK
  8
1
  2
*D0
 70
1
 10
0
 20
0
 30
0
  0
LINE
  8
1
 62
2
 10
292.4121424699133
 20
181.643298275042
 30
0
 11
328.2582608695576
 21
181.643298275042
 31
0
  0
LINE
  8
1
 62
2
 10
328.2582608695576
 20
175.912833012965
 30
0
 11
328.2582608695576
 21
183.143298275042
 31
0
  0
LINE
  8
1
 62
2
 10
292.4121424699133
 20
175.207833012965
 30
0
 11
292.4121424699133
 21
183.143298275042
 31
0
  0
SOLID
  8
1
 62
2
 10
292.4121424699133
 20
181.643298275042
 30
0
 11
295.6121424699133
 21
182.059298275042
 31
0
 12
295.6121424699133
 22
181.227298275042
 32
0
 13
295.6121424699133
 23
181.227298275042
 33
0
  0
SOLID
  8
1
 62
2
 10
328.2582608695576
 20
181.643298275042
 30
0
 11
325.0582608695576
 21
181.227298275042
 31
0
 12
325.0582608695576
 22
182.059298275042
 32
0
 13
325.0582608695576
 23
182.059298275042
 33
0
  0
TEXT
  8
1
 62
2
 10
308.781444589942
 20
183.643298275042
 30
0
 40
3.2
  1
L1
 41
0.9
  0
ENDBLK
  8
0
  0
BLOCK
  8
1
  2
*D1
 70
1
 10
0
 20
0
 30
0
  0
LINE
  8
1
 62
2
 10
282.4121424699134
 20
181.637833012965
 30
0
 11
292.4121424699134
 21
181.637833012965
 31
0
  0
LINE
  8
1
 62
2
 10
292.4121424699134
 20
175.207833012965
 30
0
 11
292.4121424699134
 21
183.137833012965
 31
0
  0
LINE
  8
1
 62
2
 10
282.4121424699134
 20
174.777833012965
 30
0
 11
282.4121424699134
 21
183.137833012965
 31
0
  0
SOLID
  8
1
 62
2
 10
282.4121424699134
 20
181.637833012965
 30
0
 11
285.6121424699134
 21
182.053833012965
 31
0
 12
285.6121424699134
 22
181.221833012965
 32
0
 13
285.6121424699134
 23
181.221833012965
 33
0
  0
SOLID
  8
1
 62
2
 10
292.4121424699134
 20
181.637833012965
 30
0
 11
289.2121424699134
 21
181.221833012965
 31
0
 12
289.2121424699134
 22
182.053833012965
 32
0
 13
289.2121424699134
 23
182.053833012965
 33
0
  0
TEXT
  8
1
 62
2
 10
285.33082990251
 20
183.637833012965
 30
0
 40
3.2
  1
10
 41
0.9
  0
TEXT
  8
1
 62
2
 10
283.25082990251
 20
183.637833012965
 30
0
 40
3.2
  1
(
 41
0.9
  0
TEXT
  8
1
 62
2
 10
290.77082990251
 20
183.637833012965
 30
0
 40
3.2
  1
)
 41
0.9
  0
ENDBLK
  8
0
  0
ENDSEC
  0
SECTION
  2
ENTITIES
  0
LINE
  8
1
 62
2
 10
277.023458535467
 20
227.5891699498902
 30
0
 11
277.0234585354669
 21
199.5891699498911
 31
0
  0
LINE
  8
1
 62
2
 10
165.497606321303
 20
184.6997263487581
 30
0
 11
225.497606321303
 21
184.6997263487583
 31
0
  0
LINE
  8
1
 62
2
 10
165.497606321303
 20
191.1997263487581
 30
0
 11
225.497606321303
 21
191.1997263487583
 31
0
  0
LINE
  8
1
 62
2
 10
165.497606321303
 20
197.6997263487581
 30
0
 11
225.497606321303
 21
197.6997263487583
 31
0
  0
LINE
  8
1
 62
2
 10
165.497606321303
 20
204.1997263487581
 30
0
 11
225.497606321303
 21
204.1997263487583
 31
0
  0
LINE
  8
1
 62
2
 10
165.497606321303
 20
210.6997263487578
 30
0
 11
225.497606321303
 21
210.6997263487581
 31
0
  0
LINE
  8
1
 62
2
 10
165.497606321303
 20
217.1997263487578
 30
0
 11
225.497606321303
 21
217.1997263487581
 31
0
  0
LINE
  8
1
 62
2
 10
165.497606321303
 20
223.6997263487578
 30
0
 11
225.497606321303
 21
223.6997263487581
 31
0
  0
LINE
  8
1
 62
2
 10
165.497606321303
 20
230.1997263487578
 30
0
 11
225.497606321303
 21
230.1997263487581
 31
0
  0
LINE
  8
1
 62
2
 10
165.497606321303
 20
178.1997263487583
 30
0
 11
245.4976063213032
 21
178.1997263487585
 31
0
  0
LINE
  8
1
 62
2
 10
165.497606321303
 20
236.6997263487576
 30
0
 11
225.497606321303
 21
236.6997263487581
 31
0
  0
LINE
  8
1
 62
2
 10
165.497606321303
 20
145.6997263487577
 30
0
 11
245.4976063213032
 21
145.6997263487585
 31
0
  0
LINE
  8
1
 62
2
 10
165.497606321303
 20
251.6997263487576
 30
0
 11
165.497606321303
 21
145.6997263487577
 31
0
  0
LINE
  8
1
 62
2
 10
245.4976063213032
 20
251.6997263487576
 30
0
 11
245.4976063213032
 21
145.6997263487585
 31
0
  0
LINE
  8
1
 62
2
 10
197.497606321303
 20
251.6997263487576
 30
0
 11
197.497606321303
 21
178.1997263487585
 31
0
  0
LINE
  8
1
 62
2
 10
179.497606321303
 20
251.6997263487576
 30
0
 11
179.497606321303
 21
178.1997263487585
 31
0
  0
LINE
  8
1
 62
2
 10
165.497606321303
 20
243.1997263487576
 30
0
 11
245.4976063213032
 21
243.1997263487581
 31
0
  0
LINE
  8
1
 62
2
 10
165.497606321303
 20
251.6997263487576
 30
0
 11
245.4976063213032
 21
251.6997263487576
 31
0
  0
LINE
  8
1
 62
2
 10
225.497606321303
 20
251.6997263487576
 30
0
 11
225.497606321303
 21
178.1997263487585
 31
0
  0
LINE
  8
1
 62
3
 10
282.4121424699134
 20
159.797833012965
 30
0
 11
292.4121424699133
 21
159.797833012965
 31
0
  0
LINE
  8
1
 62
3
 10
282.4121424699134
 20
160.277833012965
 30
0
 11
282.4121424699134
 21
159.797833012965
 31
0
  0
LINE
  8
1
 62
3
 10
282.4121424699134
 20
161.297833012965
 30
0
 11
292.4121424699133
 21
161.297833012965
 31
0
  0
LINE
  8
1
 62
3
 10
282.4121424699134
 20
161.777833012965
 30
0
 11
282.4121424699134
 21
161.297833012965
 31
0
  0
LINE
  8
1
 62
3
 10
282.4121424699134
 20
162.797833012965
 30
0
 11
292.4121424699133
 21
162.797833012965
 31
0
  0
LINE
  8
1
 62
3
 10
282.4121424699134
 20
163.277833012965
 30
0
 11
282.4121424699134
 21
162.797833012965
 31
0
  0
LINE
  8
1
 62
3
 10
282.4121424699134
 20
164.297833012965
 30
0
 11
292.4121424699133
 21
164.297833012965
 31
0
  0
LINE
  8
1
 62
3
 10
282.4121424699134
 20
164.777833012965
 30
0
 11
282.4121424699134
 21
164.297833012965
 31
0
  0
LINE
  8
1
 62
3
 10
282.4121424699134
 20
165.797833012965
 30
0
 11
292.4121424699133
 21
165.797833012965
 31
0
  0
LINE
  8
1
 62
3
 10
282.4121424699134
 20
166.277833012965
 30
0
 11
282.4121424699134
 21
165.797833012965
 31
0
  0
LINE
  8
1
 62
3
 10
282.4121424699134
 20
167.297833012965
 30
0
 11
292.4121424699133
 21
167.297833012965
 31
0
  0
LINE
  8
1
 62
3
 10
282.4121424699134
 20
167.777833012965
 30
0
 11
282.4121424699134
 21
167.297833012965
 31
0
  0
LINE
  8
1
 62
3
 10
282.4121424699134
 20
168.797833012965
 30
0
 11
292.4121424699133
 21
168.797833012965
 31
0
  0
LINE
  8
1
 62
3
 10
282.4121424699134
 20
169.277833012965
 30
0
 11
282.4121424699134
 21
168.797833012965
 31
0
  0
LINE
  8
1
 62
3
 10
282.4121424699134
 20
170.297833012965
 30
0
 11
292.4121424699133
 21
170.297833012965
 31
0
  0
LINE
  8
1
 62
3
 10
282.4121424699134
 20
170.777833012965
 30
0
 11
282.4121424699134
 21
170.297833012965
 31
0
  0
LINE
  8
1
 62
3
 10
282.4121424699134
 20
171.797833012965
 30
0
 11
292.4121424699133
 21
171.797833012965
 31
0
  0
LINE
  8
1
 62
3
 10
282.4121424699134
 20
172.277833012965
 30
0
 11
282.4121424699134
 21
171.797833012965
 31
0
  0
LINE
  8
1
 62
3
 10
282.4121424699134
 20
159.797833012965
 30
0
 11
292.4121424699133
 21
159.797833012965
 31
0
  0
LINE
  8
1
 62
3
 10
282.4121424699134
 20
161.297833012965
 30
0
 11
292.4121424699133
 21
161.297833012965
 31
0
  0
LINE
  8
1
 62
3
 10
282.4121424699134
 20
162.797833012965
 30
0
 11
292.4121424699133
 21
162.797833012965
 31
0
  0
LINE
  8
1
 62
3
 10
282.4121424699134
 20
164.297833012965
 30
0
 11
292.4121424699133
 21
164.297833012965
 31
0
  0
LINE
  8
1
 62
3
 10
282.4121424699134
 20
165.797833012965
 30
0
 11
292.4121424699133
 21
165.797833012965
 31
0
  0
LINE
  8
1
 62
3
 10
282.4121424699134
 20
167.297833012965
 30
0
 11
292.4121424699133
 21
167.297833012965
 31
0
  0
LINE
  8
1
 62
3
 10
282.4121424699134
 20
168.797833012965
 30
0
 11
292.4121424699133
 21
168.797833012965
 31
0
  0
LINE
  8
1
 62
3
 10
282.4121424699134
 20
170.297833012965
 30
0
 11
292.4121424699133
 21
170.297833012965
 31
0
  0
LINE
  8
1
 62
3
 10
282.4121424699134
 20
171.797833012965
 30
0
 11
292.4121424699133
 21
171.797833012965
 31
0
  0
LINE
  8
1
 62
3
 10
292.4121424699133
 20
160.277833012965
 30
0
 11
282.4121424699134
 21
160.277833012965
 31
0
  0
LINE
  8
1
 62
3
 10
292.4121424699133
 20
161.777833012965
 30
0
 11
282.4121424699134
 21
161.777833012965
 31
0
  0
LINE
  8
1
 62
3
 10
292.4121424699133
 20
163.277833012965
 30
0
 11
282.4121424699134
 21
163.277833012965
 31
0
  0
LINE
  8
1
 62
3
 10
292.4121424699133
 20
164.777833012965
 30
0
 11
282.4121424699134
 21
164.777833012965
 31
0
  0
LINE
  8
1
 62
3
 10
292.4121424699133
 20
166.277833012965
 30
0
 11
282.4121424699134
 21
166.277833012965
 31
0
  0
LINE
  8
1
 62
3
 10
292.4121424699133
 20
167.777833012965
 30
0
 11
282.4121424699134
 21
167.777833012965
 31
0
  0
LINE
  8
1
 62
3
 10
292.4121424699133
 20
169.277833012965
 30
0
 11
282.4121424699134
 21
169.277833012965
 31
0
  0
LINE
  8
1
 62
3
 10
292.4121424699133
 20
170.777833012965
 30
0
 11
282.4121424699134
 21
170.777833012965
 31
0
  0
LINE
  8
1
 62
3
 10
292.4121424699133
 20
172.277833012965
 30
0
 11
282.4121424699134
 21
172.277833012965
 31
0
  0
LINE
  8
1
 62
3
 10
282.4121424699134
 20
173.297833012965
 30
0
 11
292.4121424699133
 21
173.297833012965
 31
0
  0
LINE
  8
1
 62
3
 10
282.4121424699134
 20
173.777833012965
 30
0
 11
282.4121424699134
 21
173.297833012965
 31
0
  0
LINE
  8
1
 62
3
 10
292.4121424699133
 20
173.777833012965
 30
0
 11
282.4121424699134
 21
173.777833012965
 31
0
  0
LINE
  8
1
 62
3
 10
292.4121424699133
 20
171.367833012965
 30
0
 11
292.4121424699133
 21
172.707833012965
 31
0
  0
LINE
  8
1
 62
3
 10
292.4121424699133
 20
169.867833012965
 30
0
 11
292.4121424699133
 21
171.207833012965
 31
0
  0
LINE
  8
1
 62
3
 10
292.4121424699133
 20
166.867833012965
 30
0
 11
292.4121424699133
 21
168.207833012965
 31
0
  0
LINE
  8
1
 62
3
 10
292.4121424699133
 20
165.367833012965
 30
0
 11
292.4121424699133
 21
166.707833012965
 31
0
  0
LINE
  8
1
 62
3
 10
292.4121424699133
 20
163.867833012965
 30
0
 11
292.4121424699133
 21
165.207833012965
 31
0
  0
LINE
  8
1
 62
3
 10
292.4121424699133
 20
160.867833012965
 30
0
 11
292.4121424699133
 21
162.207833012965
 31
0
  0
LINE
  8
1
 62
3
 10
292.4121424699133
 20
159.367833012965
 30
0
 11
292.4121424699133
 21
160.707833012965
 31
0
  0
LINE
  8
1
 62
3
 10
292.4121424699133
 20
163.707833012965
 30
0
 11
292.4121424699133
 21
162.367833012965
 31
0
  0
LINE
  8
1
 62
3
 10
292.4121424699133
 20
169.707833012965
 30
0
 11
292.4121424699133
 21
168.367833012965
 31
0
  0
LINE
  8
1
 62
3
 10
292.4121424699133
 20
174.207833012965
 30
0
 11
292.4121424699133
 21
172.867833012965
 31
0
  0
LINE
  8
1
 62
2
 10
341.6296777436435
 20
173.787833012965
 30
0
 11
341.8796777436435
 21
174.037833012965
 31
0
  0
LINE
  8
1
 62
2
 10
341.6296777436435
 20
172.287833012965
 30
0
 11
341.8796777436435
 21
172.537833012965
 31
0
  0
LINE
  8
1
 62
2
 10
341.6296777436435
 20
170.787833012965
 30
0
 11
341.8796777436435
 21
171.037833012965
 31
0
  0
LINE
  8
1
 62
2
 10
341.6296777436435
 20
169.287833012965
 30
0
 11
341.8796777436435
 21
169.537833012965
 31
0
  0
LINE
  8
1
 62
2
 10
341.6296777436435
 20
167.787833012965
 30
0
 11
341.8796777436435
 21
168.037833012965
 31
0
  0
LINE
  8
1
 62
2
 10
341.6296777436435
 20
166.287833012965
 30
0
 11
341.8796777436435
 21
166.537833012965
 31
0
  0
LINE
  8
1
 62
2
 10
341.6296777436435
 20
164.787833012965
 30
0
 11
341.8796777436435
 21
165.037833012965
 31
0
  0
LINE
  8
1
 62
2
 10
341.6296777436435
 20
163.287833012965
 30
0
 11
341.8796777436435
 21
163.537833012965
 31
0
  0
LINE
  8
1
 62
2
 10
341.6296777436435
 20
161.787833012965
 30
0
 11
341.8796777436435
 21
162.037833012965
 31
0
  0
LINE
  8
1
 62
2
 10
341.6296777436435
 20
173.287833012965
 30
0
 11
341.8796777436435
 21
173.037833012965
 31
0
  0
LINE
  8
1
 62
2
 10
341.6296777436435
 20
171.787833012965
 30
0
 11
341.8796777436435
 21
171.537833012965
 31
0
  0
LINE
  8
1
 62
2
 10
341.6296777436435
 20
170.287833012965
 30
0
 11
341.8796777436435
 21
170.037833012965
 31
0
  0
LINE
  8
1
 62
2
 10
341.6296777436435
 20
168.787833012965
 30
0
 11
341.8796777436435
 21
168.537833012965
 31
0
  0
LINE
  8
1
 62
2
 10
341.6296777436435
 20
167.287833012965
 30
0
 11
341.8796777436435
 21
167.037833012965
 31
0
  0
LINE
  8
1
 62
2
 10
341.6296777436435
 20
165.787833012965
 30
0
 11
341.8796777436435
 21
165.537833012965
 31
0
  0
LINE
  8
1
 62
2
 10
341.6296777436435
 20
164.287833012965
 30
0
 11
341.8796777436435
 21
164.037833012965
 31
0
  0
LINE
  8
1
 62
2
 10
341.6296777436435
 20
162.787833012965
 30
0
 11
341.8796777436435
 21
162.537833012965
 31
0
  0
LINE
  8
1
 62
2
 10
341.6296777436435
 20
161.287833012965
 30
0
 11
341.8796777436435
 21
161.037833012965
 31
0
  0
LINE
  8
1
 62
2
 10
341.1296777436435
 20
173.287833012965
 30
0
 11
340.8796777436435
 21
173.037833012965
 31
0
  0
LINE
  8
1
 62
2
 10
341.1296777436435
 20
171.787833012965
 30
0
 11
340.8796777436435
 21
171.537833012965
 31
0
  0
LINE
  8
1
 62
2
 10
341.1296777436435
 20
170.287833012965
 30
0
 11
340.8796777436435
 21
170.037833012965
 31
0
  0
LINE
  8
1
 62
2
 10
341.1296777436435
 20
168.787833012965
 30
0
 11
340.8796777436435
 21
168.537833012965
 31
0
  0
LINE
  8
1
 62
2
 10
341.1296777436435
 20
167.287833012965
 30
0
 11
340.8796777436435
 21
167.037833012965
 31
0
  0
LINE
  8
1
 62
2
 10
341.1296777436435
 20
165.787833012965
 30
0
 11
340.8796777436435
 21
165.537833012965
 31
0
  0
LINE
  8
1
 62
2
 10
341.1296777436435
 20
164.287833012965
 30
0
 11
340.8796777436435
 21
164.037833012965
 31
0
  0
LINE
  8
1
 62
2
 10
341.1296777436435
 20
162.787833012965
 30
0
 11
340.8796777436435
 21
162.537833012965
 31
0
  0
LINE
  8
1
 62
2
 10
341.1296777436435
 20
161.287833012965
 30
0
 11
340.8796777436435
 21
161.037833012965
 31
0
  0
LINE
  8
1
 62
2
 10
340.8796777436435
 20
174.037833012965
 30
0
 11
341.1296777436435
 21
173.787833012965
 31
0
  0
LINE
  8
1
 62
2
 10
340.8796777436435
 20
172.537833012965
 30
0
 11
341.1296777436435
 21
172.287833012965
 31
0
  0
LINE
  8
1
 62
2
 10
340.8796777436435
 20
171.037833012965
 30
0
 11
341.1296777436435
 21
170.787833012965
 31
0
  0
LINE
  8
1
 62
2
 10
340.8796777436435
 20
169.537833012965
 30
0
 11
341.1296777436435
 21
169.287833012965
 31
0
  0
LINE
  8
1
 62
2
 10
340.8796777436435
 20
168.037833012965
 30
0
 11
341.1296777436435
 21
167.787833012965
 31
0
  0
LINE
  8
1
 62
2
 10
340.8796777436435
 20
166.537833012965
 30
0
 11
341.1296777436435
 21
166.287833012965
 31
0
  0
LINE
  8
1
 62
2
 10
340.8796777436435
 20
165.037833012965
 30
0
 11
341.1296777436435
 21
164.787833012965
 31
0
  0
LINE
  8
1
 62
2
 10
340.8796777436435
 20
163.537833012965
 30
0
 11
341.1296777436435
 21
163.287833012965
 31
0
  0
LINE
  8
1
 62
2
 10
340.8796777436435
 20
162.037833012965
 30
0
 11
341.1296777436435
 21
161.787833012965
 31
0
  0
LINE
  8
1
 62
2
 10
341.1296777436435
 20
173.287833012965
 30
0
 11
341.1296777436435
 21
173.787833012965
 31
0
  0
LINE
  8
1
 62
2
 10
341.6296777436435
 20
173.287833012965
 30
0
 11
341.1296777436435
 21
173.287833012965
 31
0
  0
LINE
  8
1
 62
2
 10
341.6296777436435
 20
173.787833012965
 30
0
 11
341.6296777436435
 21
173.287833012965
 31
0
  0
LINE
  8
1
 62
2
 10
341.1296777436435
 20
173.787833012965
 30
0
 11
341.6296777436435
 21
173.787833012965
 31
0
  0
LINE
  8
1
 62
2
 10
341.1296777436435
 20
171.787833012965
 30
0
 11
341.1296777436435
 21
172.287833012965
 31
0
  0
LINE
  8
1
 62
2
 10
341.6296777436435
 20
171.787833012965
 30
0
 11
341.1296777436435
 21
171.787833012965
 31
0
  0
LINE
  8
1
 62
2
 10
341.6296777436435
 20
172.287833012965
 30
0
 11
341.6296777436435
 21
171.787833012965
 31
0
  0
LINE
  8
1
 62
2
 10
341.1296777436435
 20
172.287833012965
 30
0
 11
341.6296777436435
 21
172.287833012965
 31
0
  0
LINE
  8
1
 62
2
 10
341.1296777436435
 20
170.287833012965
 30
0
 11
341.1296777436435
 21
170.787833012965
 31
0
  0
LINE
  8
1
 62
2
 10
341.6296777436435
 20
170.287833012965
 30
0
 11
341.1296777436435
 21
170.287833012965
 31
0
  0
LINE
  8
1
 62
2
 10
341.6296777436435
 20
170.787833012965
 30
0
 11
341.6296777436435
 21
170.287833012965
 31
0
  0
LINE
  8
1
 62
2
 10
341.1296777436435
 20
170.787833012965
 30
0
 11
341.6296777436435
 21
170.787833012965
 31
0
  0
LINE
  8
1
 62
2
 10
341.1296777436435
 20
168.787833012965
 30
0
 11
341.1296777436435
 21
169.287833012965
 31
0
  0
LINE
  8
1
 62
2
 10
341.6296777436435
 20
168.787833012965
 30
0
 11
341.1296777436435
 21
168.787833012965
 31
0
  0
LINE
  8
1
 62
2
 10
341.6296777436435
 20
169.287833012965
 30
0
 11
341.6296777436435
 21
168.787833012965
 31
0
  0
LINE
  8
1
 62
2
 10
341.1296777436435
 20
169.287833012965
 30
0
 11
341.6296777436435
 21
169.287833012965
 31
0
  0
LINE
  8
1
 62
2
 10
341.1296777436435
 20
167.287833012965
 30
0
 11
341.1296777436435
 21
167.787833012965
 31
0
  0
LINE
  8
1
 62
2
 10
341.6296777436435
 20
167.287833012965
 30
0
 11
341.1296777436435
 21
167.287833012965
 31
0
  0
LINE
  8
1
 62
2
 10
341.6296777436435
 20
167.787833012965
 30
0
 11
341.6296777436435
 21
167.287833012965
 31
0
  0
LINE
  8
1
 62
2
 10
341.1296777436435
 20
167.787833012965
 30
0
 11
341.6296777436435
 21
167.787833012965
 31
0
  0
LINE
  8
1
 62
2
 10
341.1296777436435
 20
165.787833012965
 30
0
 11
341.1296777436435
 21
166.287833012965
 31
0
  0
LINE
  8
1
 62
2
 10
341.6296777436435
 20
165.787833012965
 30
0
 11
341.1296777436435
 21
165.787833012965
 31
0
  0
LINE
  8
1
 62
2
 10
341.6296777436435
 20
166.287833012965
 30
0
 11
341.6296777436435
 21
165.787833012965
 31
0
  0
LINE
  8
1
 62
2
 10
341.1296777436435
 20
166.287833012965
 30
0
 11
341.6296777436435
 21
166.287833012965
 31
0
  0
LINE
  8
1
 62
2
 10
341.1296777436435
 20
164.287833012965
 30
0
 11
341.1296777436435
 21
164.787833012965
 31
0
  0
LINE
  8
1
 62
2
 10
341.6296777436435
 20
164.287833012965
 30
0
 11
341.1296777436435
 21
164.287833012965
 31
0
  0
LINE
  8
1
 62
2
 10
341.6296777436435
 20
164.787833012965
 30
0
 11
341.6296777436435
 21
164.287833012965
 31
0
  0
LINE
  8
1
 62
2
 10
341.1296777436435
 20
164.787833012965
 30
0
 11
341.6296777436435
 21
164.787833012965
 31
0
  0
LINE
  8
1
 62
2
 10
341.1296777436435
 20
162.787833012965
 30
0
 11
341.1296777436435
 21
163.287833012965
 31
0
  0
LINE
  8
1
 62
2
 10
341.6296777436435
 20
162.787833012965
 30
0
 11
341.1296777436435
 21
162.787833012965
 31
0
  0
LINE
  8
1
 62
2
 10
341.6296777436435
 20
163.287833012965
 30
0
 11
341.6296777436435
 21
162.787833012965
 31
0
  0
LINE
  8
1
 62
2
 10
341.1296777436435
 20
163.287833012965
 30
0
 11
341.6296777436435
 21
163.287833012965
 31
0
  0
LINE
  8
1
 62
2
 10
341.1296777436435
 20
161.287833012965
 30
0
 11
341.1296777436435
 21
161.787833012965
 31
0
  0
LINE
  8
1
 62
2
 10
341.6296777436435
 20
161.287833012965
 30
0
 11
341.1296777436435
 21
161.287833012965
 31
0
  0
LINE
  8
1
 62
2
 10
341.6296777436435
 20
161.787833012965
 30
0
 11
341.6296777436435
 21
161.287833012965
 31
0
  0
LINE
  8
1
 62
2
 10
341.1296777436435
 20
161.787833012965
 30
0
 11
341.6296777436435
 21
161.787833012965
 31
0
  0
LINE
  8
1
 62
2
 10
341.1296777436435
 20
159.787833012965
 30
0
 11
340.8796777436435
 21
159.537833012965
 31
0
  0
LINE
  8
1
 62
2
 10
341.6296777436435
 20
159.787833012965
 30
0
 11
341.8796777436435
 21
159.537833012965
 31
0
  0
LINE
  8
1
 62
2
 10
341.6296777436435
 20
160.287833012965
 30
0
 11
341.8796777436435
 21
160.537833012965
 31
0
  0
LINE
  8
1
 62
2
 10
340.8796777436435
 20
160.537833012965
 30
0
 11
341.1296777436435
 21
160.287833012965
 31
0
  0
LINE
  8
1
 62
2
 10
341.1296777436435
 20
159.787833012965
 30
0
 11
341.1296777436435
 21
160.287833012965
 31
0
  0
LINE
  8
1
 62
2
 10
341.6296777436435
 20
159.787833012965
 30
0
 11
341.1296777436435
 21
159.787833012965
 31
0
  0
LINE
  8
1
 62
2
 10
341.6296777436435
 20
160.287833012965
 30
0
 11
341.6296777436435
 21
159.787833012965
 31
0
  0
LINE
  8
1
 62
2
 10
341.1296777436435
 20
160.287833012965
 30
0
 11
341.6296777436435
 21
160.287833012965
 31
0
  0
LINE
  8
1
 62
2
 10
340.8796777436435
 20
173.037833012965
 30
0
 11
340.8796777436435
 21
174.037833012965
 31
0
  0
LINE
  8
1
 62
2
 10
341.8796777436435
 20
173.037833012965
 30
0
 11
340.8796777436435
 21
173.037833012965
 31
0
  0
LINE
  8
1
 62
2
 10
341.8796777436435
 20
174.037833012965
 30
0
 11
341.8796777436435
 21
173.037833012965
 31
0
  0
LINE
  8
1
 62
2
 10
340.8796777436435
 20
174.037833012965
 30
0
 11
341.8796777436435
 21
174.037833012965
 31
0
  0
LINE
  8
1
 62
2
 10
340.8796777436435
 20
171.537833012965
 30
0
 11
340.8796777436435
 21
172.537833012965
 31
0
  0
LINE
  8
1
 62
2
 10
341.8796777436435
 20
171.537833012965
 30
0
 11
340.8796777436435
 21
171.537833012965
 31
0
  0
LINE
  8
1
 62
2
 10
341.8796777436435
 20
172.537833012965
 30
0
 11
341.8796777436435
 21
171.537833012965
 31
0
  0
LINE
  8
1
 62
2
 10
340.8796777436435
 20
172.537833012965
 30
0
 11
341.8796777436435
 21
172.537833012965
 31
0
  0
LINE
  8
1
 62
2
 10
340.8796777436435
 20
170.037833012965
 30
0
 11
340.8796777436435
 21
171.037833012965
 31
0
  0
LINE
  8
1
 62
2
 10
341.8796777436435
 20
170.037833012965
 30
0
 11
340.8796777436435
 21
170.037833012965
 31
0
  0
LINE
  8
1
 62
2
 10
341.8796777436435
 20
171.037833012965
 30
0
 11
341.8796777436435
 21
170.037833012965
 31
0
  0
LINE
  8
1
 62
2
 10
340.8796777436435
 20
171.037833012965
 30
0
 11
341.8796777436435
 21
171.037833012965
 31
0
  0
LINE
  8
1
 62
2
 10
340.8796777436435
 20
168.537833012965
 30
0
 11
340.8796777436435
 21
169.537833012965
 31
0
  0
LINE
  8
1
 62
2
 10
341.8796777436435
 20
168.537833012965
 30
0
 11
340.8796777436435
 21
168.537833012965
 31
0
  0
LINE
  8
1
 62
2
 10
341.8796777436435
 20
169.537833012965
 30
0
 11
341.8796777436435
 21
168.537833012965
 31
0
  0
LINE
  8
1
 62
2
 10
340.8796777436435
 20
169.537833012965
 30
0
 11
341.8796777436435
 21
169.537833012965
 31
0
  0
LINE
  8
1
 62
2
 10
340.8796777436435
 20
167.037833012965
 30
0
 11
340.8796777436435
 21
168.037833012965
 31
0
  0
LINE
  8
1
 62
2
 10
341.8796777436435
 20
167.037833012965
 30
0
 11
340.8796777436435
 21
167.037833012965
 31
0
  0
LINE
  8
1
 62
2
 10
341.8796777436435
 20
168.037833012965
 30
0
 11
341.8796777436435
 21
167.037833012965
 31
0
  0
LINE
  8
1
 62
2
 10
340.8796777436435
 20
168.037833012965
 30
0
 11
341.8796777436435
 21
168.037833012965
 31
0
  0
LINE
  8
1
 62
2
 10
340.8796777436435
 20
165.537833012965
 30
0
 11
340.8796777436435
 21
166.537833012965
 31
0
  0
LINE
  8
1
 62
2
 10
341.8796777436435
 20
165.537833012965
 30
0
 11
340.8796777436435
 21
165.537833012965
 31
0
  0
LINE
  8
1
 62
2
 10
341.8796777436435
 20
166.537833012965
 30
0
 11
341.8796777436435
 21
165.537833012965
 31
0
  0
LINE
  8
1
 62
2
 10
340.8796777436435
 20
166.537833012965
 30
0
 11
341.8796777436435
 21
166.537833012965
 31
0
  0
LINE
  8
1
 62
2
 10
340.8796777436435
 20
164.037833012965
 30
0
 11
340.8796777436435
 21
165.037833012965
 31
0
  0
LINE
  8
1
 62
2
 10
341.8796777436435
 20
164.037833012965
 30
0
 11
340.8796777436435
 21
164.037833012965
 31
0
  0
LINE
  8
1
 62
2
 10
341.8796777436435
 20
165.037833012965
 30
0
 11
341.8796777436435
 21
164.037833012965
 31
0
  0
LINE
  8
1
 62
2
 10
340.8796777436435
 20
165.037833012965
 30
0
 11
341.8796777436435
 21
165.037833012965
 31
0
  0
LINE
  8
1
 62
2
 10
340.8796777436435
 20
162.537833012965
 30
0
 11
340.8796777436435
 21
163.537833012965
 31
0
  0
LINE
  8
1
 62
2
 10
341.8796777436435
 20
162.537833012965
 30
0
 11
340.8796777436435
 21
162.537833012965
 31
0
  0
LINE
  8
1
 62
2
 10
341.8796777436435
 20
163.537833012965
 30
0
 11
341.8796777436435
 21
162.537833012965
 31
0
  0
LINE
  8
1
 62
2
 10
340.8796777436435
 20
163.537833012965
 30
0
 11
341.8796777436435
 21
163.537833012965
 31
0
  0
LINE
  8
1
 62
2
 10
340.8796777436435
 20
161.037833012965
 30
0
 11
340.8796777436435
 21
162.037833012965
 31
0
  0
LINE
  8
1
 62
2
 10
341.8796777436435
 20
161.037833012965
 30
0
 11
340.8796777436435
 21
161.037833012965
 31
0
  0
LINE
  8
1
 62
2
 10
341.8796777436435
 20
162.037833012965
 30
0
 11
341.8796777436435
 21
161.037833012965
 31
0
  0
LINE
  8
1
 62
2
 10
340.8796777436435
 20
162.037833012965
 30
0
 11
341.8796777436435
 21
162.037833012965
 31
0
  0
LINE
  8
1
 62
2
 10
340.8796777436435
 20
159.537833012965
 30
0
 11
340.8796777436435
 21
160.537833012965
 31
0
  0
LINE
  8
1
 62
2
 10
341.8796777436435
 20
159.537833012965
 30
0
 11
340.8796777436435
 21
159.537833012965
 31
0
  0
LINE
  8
1
 62
2
 10
341.8796777436435
 20
160.537833012965
 30
0
 11
341.8796777436435
 21
159.537833012965
 31
0
  0
LINE
  8
1
 62
2
 10
340.8796777436435
 20
160.537833012965
 30
0
 11
341.8796777436435
 21
160.537833012965
 31
0
  0
LINE
  8
1
 62
3
 10
342.5796777436435
 20
174.537833012965
 30
0
 11
342.5796777436435
 21
159.037833012965
 31
0
  0
LINE
  8
1
 62
3
 10
339.9796777436435
 20
166.287833012965
 30
0
 11
340.3796777436435
 21
166.287833012965
 31
0
  0
LINE
  8
1
 62
3
 10
339.9796777436435
 20
167.287833012965
 30
0
 11
340.3796777436435
 21
167.287833012965
 31
0
  0
LINE
  8
1
 62
3
 10
340.3796777436435
 20
159.037833012965
 30
0
 11
340.3796777436435
 21
174.537833012965
 31
0
  0
LINE
  8
1
 62
3
 10
343.0796777436435
 20
159.037833012965
 30
0
 11
340.3796777436435
 21
159.037833012965
 31
0
  0
LINE
  8
1
 62
3
 10
343.0796777436435
 20
174.537833012965
 30
0
 11
343.0796777436435
 21
159.037833012965
 31
0
  0
LINE
  8
1
 62
3
 10
340.3796777436435
 20
174.537833012965
 30
0
 11
343.0796777436435
 21
174.537833012965
 31
0
  0
LINE
  8
1
 62
3
 10
339.9796777436435
 20
158.662833012965
 30
0
 11
339.9796777436435
 21
174.912833012965
 31
0
  0
LINE
  8
1
 62
3
 10
343.4796777436435
 20
158.662833012965
 30
0
 11
339.9796777436435
 21
158.662833012965
 31
0
  0
LINE
  8
1
 62
3
 10
343.4796777436435
 20
174.912833012965
 30
0
 11
343.4796777436435
 21
158.662833012965
 31
0
  0
LINE
  8
1
 62
3
 10
339.9796777436435
 20
174.912833012965
 30
0
 11
343.4796777436435
 21
174.912833012965
 31
0
  0
LINE
  8
1
 62
3
 10
332.1082608695575
 20
166.287833012965
 30
0
 11
332.1082608695575
 21
167.287833012965
 31
0
  0
LINE
  8
1
 62
3
 10
332.8582608695575
 20
166.287833012965
 30
0
 11
332.1082608695575
 21
166.287833012965
 31
0
  0
LINE
  8
1
 62
3
 10
332.8582608695575
 20
167.287833012965
 30
0
 11
332.8582608695575
 21
166.287833012965
 31
0
  0
LINE
  8
1
 62
3
 10
332.1082608695575
 20
167.287833012965
 30
0
 11
332.8582608695575
 21
167.287833012965
 31
0
  0
LINE
  8
1
 62
2
 10
333.3082608695576
 20
159.037833012965
 30
0
 11
333.3082608695576
 21
174.537833012965
 31
0
  0
LINE
  8
1
 62
3
 10
333.5582608695576
 20
159.037833012965
 30
0
 11
333.5582608695576
 21
174.537833012965
 31
0
  0
LINE
  8
1
 62
2
 10
328.7582608695575
 20
166.287833012965
 30
0
 11
328.7582608695575
 21
159.037833012965
 31
0
  0
LINE
  8
1
 62
2
 10
328.5082608695576
 20
166.287833012965
 30
0
 11
328.7582608695575
 21
166.287833012965
 31
0
  0
LINE
  8
1
 62
2
 10
328.7582608695575
 20
167.287833012965
 30
0
 11
328.7582608695575
 21
174.537833012965
 31
0
  0
LINE
  8
1
 62
2
 10
328.5082608695576
 20
167.287833012965
 30
0
 11
328.7582608695575
 21
167.287833012965
 31
0
  0
LINE
  8
1
 62
2
 10
328.5082608695576
 20
167.287833012965
 30
0
 11
328.5082608695576
 21
174.912833012965
 31
0
  0
LINE
  8
1
 62
2
 10
328.2582608695576
 20
167.287833012965
 30
0
 11
328.5082608695576
 21
167.287833012965
 31
0
  0
LINE
  8
1
 62
2
 10
328.5082608695576
 20
166.287833012965
 30
0
 11
328.2582608695576
 21
166.287833012965
 31
0
  0
LINE
  8
1
 62
2
 10
328.5082608695576
 20
158.662833012965
 30
0
 11
328.5082608695576
 21
166.287833012965
 31
0
  0
LINE
  8
1
 62
3
 10
328.5082608695576
 20
158.662833012965
 30
0
 11
328.2582608695576
 21
158.662833012965
 31
0
  0
LINE
  8
1
 62
3
 10
328.7582608695575
 20
159.037833012965
 30
0
 11
328.5082608695576
 21
158.662833012965
 31
0
  0
LINE
  8
1
 62
3
 10
333.5582608695576
 20
159.037833012965
 30
0
 11
328.7582608695575
 21
159.037833012965
 31
0
  0
LINE
  8
1
 62
3
 10
328.7582608695575
 20
174.537833012965
 30
0
 11
333.5582608695576
 21
174.537833012965
 31
0
  0
LINE
  8
1
 62
3
 10
328.5082608695576
 20
174.912833012965
 30
0
 11
328.7582608695575
 21
174.537833012965
 31
0
  0
LINE
  8
1
 62
3
 10
328.2582608695576
 20
174.912833012965
 30
0
 11
328.5082608695576
 21
174.912833012965
 31
0
  0
LINE
  8
1
 62
3
 10
328.2582608695576
 20
158.662833012965
 30
0
 11
328.2582608695576
 21
174.912833012965
 31
0
  0
LINE
  8
1
 62
3
 10
307.761037869465
 20
159.367833012965
 30
0
 11
292.4121424699133
 21
159.367833012965
 31
0
  0
LINE
  8
1
 62
3
 10
307.0627319923293
 20
160.707833012965
 30
0
 11
292.4121424699133
 21
160.707833012965
 31
0
  0
LINE
  8
1
 62
3
 10
306.9753868556061
 20
160.867833012965
 30
0
 11
292.4121424699133
 21
160.867833012965
 31
0
  0
LINE
  8
1
 62
3
 10
306.3187784165126
 20
162.207833012965
 30
0
 11
292.4121424699133
 21
162.207833012965
 31
0
  0
LINE
  8
1
 62
3
 10
306.256756811508
 20
162.367833012965
 30
0
 11
292.4121424699133
 21
162.367833012965
 31
0
  0
LINE
  8
1
 62
3
 10
305.9750308204741
 20
163.707833012965
 30
0
 11
292.4121424699133
 21
163.707833012965
 31
0
  0
LINE
  8
1
 62
3
 10
305.9746321883007
 20
163.867833012965
 30
0
 11
292.4121424699133
 21
163.867833012965
 31
0
  0
LINE
  8
1
 62
3
 10
306.1991575967627
 20
165.207833012965
 30
0
 11
292.4121424699133
 21
165.207833012965
 31
0
  0
LINE
  8
1
 62
3
 10
306.2471377335141
 20
165.367833012965
 30
0
 11
292.4121424699133
 21
165.367833012965
 31
0
  0
LINE
  8
1
 62
3
 10
306.7444180237403
 20
166.707833012965
 30
0
 11
292.4121424699133
 21
166.707833012965
 31
0
  0
LINE
  8
1
 62
3
 10
306.8097564324842
 20
166.867833012965
 30
0
 11
292.4121424699133
 21
166.867833012965
 31
0
  0
LINE
  8
1
 62
3
 10
307.3319064398945
 20
168.207833012965
 30
0
 11
292.4121424699133
 21
168.207833012965
 31
0
  0
LINE
  8
1
 62
3
 10
307.3861409820028
 20
168.367833012965
 30
0
 11
292.4121424699133
 21
168.367833012965
 31
0
  0
LINE
  8
1
 62
3
 10
307.7002001729557
 20
169.707833012965
 30
0
 11
292.4121424699133
 21
169.707833012965
 31
0
  0
LINE
  8
1
 62
3
 10
307.7168296609107
 20
169.867833012965
 30
0
 11
292.4121424699133
 21
169.867833012965
 31
0
  0
LINE
  8
1
 62
3
 10
307.6892464867572
 20
171.207833012965
 30
0
 11
292.4121424699133
 21
171.207833012965
 31
0
  0
LINE
  8
1
 62
3
 10
307.6682298166913
 20
171.367833012965
 30
0
 11
292.4121424699133
 21
171.367833012965
 31
0
  0
LINE
  8
1
 62
3
 10
307.3753461307745
 20
172.707833012965
 30
0
 11
292.4121424699133
 21
172.707833012965
 31
0
  0
LINE
  8
1
 62
3
 10
307.3286090564781
 20
172.867833012965
 30
0
 11
292.4121424699133
 21
172.867833012965
 31
0
  0
LINE
  8
1
 62
3
 10
306.8699437366078
 20
174.207833012965
 30
0
 11
292.4121424699133
 21
174.207833012965
 31
0
  0
LINE
  8
1
 62
3
 10
328.2582608695576
 20
159.367833012965
 30
0
 11
308.9610378695046
 21
159.367833012965
 31
0
  0
LINE
  8
1
 62
3
 10
328.2582608695576
 20
160.867833012965
 30
0
 11
308.1753868555996
 21
160.867833012965
 31
0
  0
LINE
  8
1
 62
3
 10
328.2582608695576
 20
162.367833012965
 30
0
 11
307.4567568115286
 21
162.367833012965
 31
0
  0
LINE
  8
1
 62
3
 10
328.2582608695576
 20
163.867833012965
 30
0
 11
307.174632188399
 21
163.867833012965
 31
0
  0
LINE
  8
1
 62
3
 10
328.2582608695576
 20
165.367833012965
 30
0
 11
307.4471377336273
 21
165.367833012965
 31
0
  0
LINE
  8
1
 62
3
 10
328.2582608695576
 20
166.867833012965
 30
0
 11
308.0097564324708
 21
166.867833012965
 31
0
  0
LINE
  8
1
 62
3
 10
328.2582608695576
 20
168.367833012965
 30
0
 11
308.5861409820021
 21
168.367833012965
 31
0
  0
LINE
  8
1
 62
3
 10
328.2582608695576
 20
169.867833012965
 30
0
 11
308.9168296609106
 21
169.867833012965
 31
0
  0
LINE
  8
1
 62
3
 10
328.2582608695576
 20
171.367833012965
 30
0
 11
308.8682298166912
 21
171.367833012965
 31
0
  0
LINE
  8
1
 62
3
 10
328.2582608695576
 20
160.707833012965
 30
0
 11
308.2627319923237
 21
160.707833012965
 31
0
  0
LINE
  8
1
 62
3
 10
328.2582608695576
 20
162.207833012965
 30
0
 11
307.5187784165452
 21
162.207833012965
 31
0
  0
LINE
  8
1
 62
3
 10
328.2582608695576
 20
163.707833012965
 30
0
 11
307.1750308205277
 21
163.707833012965
 31
0
  0
LINE
  8
1
 62
3
 10
328.2582608695576
 20
165.207833012965
 30
0
 11
307.3991575969552
 21
165.207833012965
 31
0
  0
LINE
  8
1
 62
3
 10
328.2582608695576
 20
166.707833012965
 30
0
 11
307.9444180237163
 21
166.707833012965
 31
0
  0
LINE
  8
1
 62
3
 10
328.2582608695576
 20
168.207833012965
 30
0
 11
308.5319064398938
 21
168.207833012965
 31
0
  0
LINE
  8
1
 62
3
 10
328.2582608695576
 20
169.707833012965
 30
0
 11
308.9002001729556
 21
169.707833012965
 31
0
  0
LINE
  8
1
 62
3
 10
328.2582608695576
 20
171.207833012965
 30
0
 11
308.8892464867571
 21
171.207833012965
 31
0
  0
LINE
  8
1
 62
3
 10
328.2582608695576
 20
172.707833012965
 30
0
 11
308.5753461307745
 21
172.707833012965
 31
0
  0
LINE
  8
1
 62
3
 10
328.2582608695576
 20
174.207833012965
 30
0
 11
308.0699437366077
 21
174.207833012965
 31
0
  0
LINE
  8
1
 62
3
 10
328.2582608695576
 20
172.867833012965
 30
0
 11
308.5286090564781
 21
172.867833012965
 31
0
  0
LINE
  8
1
 62
2
 10
277.023458535467
 20
227.5891699498902
 30
0
 11
335.5268100070703
 21
227.5891699498902
 31
0
  0
LINE
  8
1
 62
2
 10
277.0234585354669
 20
219.0891699498899
 30
0
 11
335.5268100070704
 21
219.0891699498901
 31
0
  0
LINE
  8
1
 62
2
 10
313.2128668522491
 20
227.5891699498902
 30
0
 11
313.2128668522491
 21
199.5891699498901
 31
0
  0
LINE
  8
1
 62
2
 10
335.5268100070703
 20
227.5891699498902
 30
0
 11
335.5268100070703
 21
199.5891699498911
 31
0
  0
LINE
  8
1
 62
2
 10
277.0234585354669
 20
199.5891699498911
 30
0
 11
335.5268100070703
 21
199.5891699498911
 31
0
  0
LINE
  8
1
 62
2
 10
277.0234585354669
 20
212.5891699498905
 30
0
 11
335.5268100070703
 21
212.5891699498904
 31
0
  0
LINE
  8
1
 62
2
 10
277.0234585354669
 20
206.0891699498907
 30
0
 11
335.5268100070703
 21
206.0891699498907
 31
0
  0
CIRCLE
  8
1
 62
2
 10
168.997606321303
 20
170.0916455336235
 30
0
 40
2.5
  0
CIRCLE
  8
1
 62
2
 10
169.470648962924
 20
257.1897415792852
 30
0
 40
2.5
  0
POLYLINE
  8
1
 62
2
 66
1
  0
VERTEX
  8
1
 10
306.446811073079
 20
175.2958382656734
 30
0
 42
-0.01703707655695969
  0
VERTEX
  8
1
 10
307.2515499420994
 20
173.117833012965
 30
0
 42
-0.01252441510374619
  0
VERTEX
  8
1
 10
307.443961831874
 20
172.457833012965
 30
0
 42
-0.02146569261516309
  0
VERTEX
  8
1
 10
307.6288169187664
 20
171.617833012965
 30
0
 42
-0.02140811598750732
  0
VERTEX
  8
1
 10
307.7151271915772
 20
170.957833012965
 30
0
 42
-0.03283443794975276
  0
VERTEX
  8
1
 10
307.7337065754817
 20
170.117833012965
 30
0
 42
-0.02953689724276961
  0
VERTEX
  8
1
 10
307.6647580688137
 20
169.4578330129651
 30
0
 42
-0.03201209822699733
  0
VERTEX
  8
1
 10
307.4651339639085
 20
168.617833012965
 30
0
 42
-0.01537131995282021
  0
VERTEX
  8
1
 10
307.2422688611038
 20
167.957833012965
 30
0
 42
-0.008474022532884746
  0
VERTEX
  8
1
 10
306.9120204843827
 20
167.117833012965
 30
0
 42
0.001677210185173775
  0
VERTEX
  8
1
 10
306.6433689164711
 20
166.457833012965
 30
0
 42
0.01333123793885439
  0
VERTEX
  8
1
 10
306.3285320907806
 20
165.617833012965
 30
0
 42
0.02041450017189508
  0
VERTEX
  8
1
 10
306.1315821219324
 20
164.957833012965
 30
0
 42
0.04103416069521888
  0
VERTEX
  8
1
 10
305.9872994427695
 20
164.117833012965
 30
0
 42
0.04452214792743915
  0
VERTEX
  8
1
 10
305.9900809496785
 20
163.457833012965
 30
0
 42
0.05291366352209477
  0
VERTEX
  8
1
 10
306.1701736226944
 20
162.617833012965
 30
0
 42
0.02715735728492984
  0
VERTEX
  8
1
 10
306.4247723423597
 20
161.957833012965
 30
0
 42
0.01794458984370222
  0
VERTEX
  8
1
 10
306.840637245542
 20
161.117833012965
 30
0
 42
0.00279035325779622
  0
VERTEX
  8
1
 10
307.1997293200719
 20
160.457833012965
 30
0
 42
-0.02845105539846112
  0
VERTEX
  8
1
 10
307.9054124214121
 20
159.0352362610407
 30
0
  0
VERTEX
  8
1
 10
308.1603098036061
 20
158.279833012965
 30
0
  0
SEQEND
  8
1
  0
POLYLINE
  8
1
 62
2
 66
1
  0
VERTEX
  8
1
 10
307.646811073079
 20
175.2958382656734
 30
0
 42
-0.01703707655694985
  0
VERTEX
  8
1
 10
308.4515499420994
 20
173.117833012965
 30
0
 42
-0.01252441510343046
  0
VERTEX
  8
1
 10
308.6439618318739
 20
172.457833012965
 30
0
 42
-0.02146569261496316
  0
VERTEX
  8
1
 10
308.8288169187663
 20
171.617833012965
 30
0
 42
-0.021408115987495
  0
VERTEX
  8
1
 10
308.915127191577
 20
170.957833012965
 30
0
 42
-0.03283443794989028
  0
VERTEX
  8
1
 10
308.9337065754817
 20
170.1178330129651
 30
0
 42
-0.02953689724258093
  0
VERTEX
  8
1
 10
308.8647580688136
 20
169.457833012965
 30
0
 42
-0.03201209822743276
  0
VERTEX
  8
1
 10
308.6651339639084
 20
168.617833012965
 30
0
 42
-0.01537131995107049
  0
VERTEX
  8
1
 10
308.4422688611036
 20
167.957833012965
 30
0
 42
-0.008474022541057074
  0
VERTEX
  8
1
 10
308.1120204843808
 20
167.117833012965
 30
0
 42
0.001677210171834155
  0
VERTEX
  8
1
 10
307.8433689164257
 20
166.457833012965
 30
0
 42
0.01333123803928869
  0
VERTEX
  8
1
 10
307.5285320907802
 20
165.617833012965
 30
0
 42
0.02041450014664066
  0
VERTEX
  8
1
 10
307.3315821222178
 20
164.957833012965
 30
0
 42
0.04103416056300101
  0
VERTEX
  8
1
 10
307.1872994429448
 20
164.117833012965
 30
0
 42
0.04452214796518983
  0
VERTEX
  8
1
 10
307.1900809496787
 20
163.457833012965
 30
0
 42
0.05291366358013738
  0
VERTEX
  8
1
 10
307.3701736226936
 20
162.617833012965
 30
0
 42
0.02715735726775974
  0
VERTEX
  8
1
 10
307.6247723424022
 20
161.957833012965
 30
0
 42
0.01794458983232429
  0
VERTEX
  8
1
 10
308.0406372455419
 20
161.117833012965
 30
0
 42
0.002790353272916366
  0
VERTEX
  8
1
 10
308.399729320072
 20
160.457833012965
 30
0
 42
-0.02845105540689903
  0
VERTEX
  8
1
 10
309.105412421446
 20
159.0352362610568
 30
0
  0
VERTEX
  8
1
 10
309.3603098036062
 20
158.279833012965
 30
0
  0
SEQEND
  8
1
  0
POLYLINE
  8
1
 62
2
 66
1
 70
1
  0
VERTEX
  8
1
 10
337.5325150316326
 20
183.7557324198
 30
0
  0
VERTEX
  8
1
 10
337.5325150316326
 20
183.7557324198
 30
0
 42
0.4142135624
  0
VERTEX
  8
1
 10
341.0325150316326
 20
187.2557324198
 30
0
  0
VERTEX
  8
1
 10
341.0325150316326
 20
187.2557324198
 30
0
 42
0.4142135624
  0
VERTEX
  8
1
 10
337.5325150316326
 20
190.7557324198
 30
0
  0
VERTEX
  8
1
 10
337.5325150316326
 20
190.7557324198
 30
0
 42
0.4142135624
  0
VERTEX
  8
1
 10
334.0325150316326
 20
187.2557324198
 30
0
  0
VERTEX
  8
1
 10
334.0325150316326
 20
187.2557324198
 30
0
 42
0.4142135624
  0
SEQEND
  8
1
  0
LINE
  8
1
 62
2
 10
335.673869527622
 20
184.329575061167
 30
0
 11
330.69928288665
 21
174.537833012965
 31
0
  0
SOLID
  8
1
 62
2
 10
331.8737581076442
 20
177.8669364375754
 30
0
 11
332.6953742043501
 21
177.4495234339893
 31
0
 12
330.69928288665
 22
174.537833012965
 32
0
 13
330.69928288665
 23
174.537833012965
 33
0
  0
TEXT
  8
1
 62
2
 10
169.347606321303
 20
179.6997263487581
 30
0
 40
3.5
  1
10
 41
0.9
 72
1
 73
2
 11
172.497606321303
 21
181.4497263487581
 31
0
  0
TEXT
  8
1
 62
2
 10
181.497606321303
 20
179.6997263487581
 30
0
 40
3.5
  1
RUN
 41
0.54
 73
2
 11
181.497606321303
 21
181.4497263487581
 31
0
  0
TEXT
  8
1
 62
2
 10
200.497606321303
 20
179.6997263487576
 30
0
 40
3.5
  1
ìòü@BLACK
 41
0.72
 73
2
 11
200.497606321303
 21
181.4497263487576
 31
0
  0
TEXT
  8
1
 62
2
 10
170.922606321303
 20
186.1997263487581
 30
0
 40
3.5
  1
9
 41
0.9
 72
1
 73
2
 11
172.497606321303
 21
187.9497263487581
 31
0
  0
TEXT
  8
1
 62
2
 10
181.497606321303
 20
186.1997263487581
 30
0
 40
3.5
  1
BRAKE
 41
0.54
 73
2
 11
181.497606321303
 21
187.9497263487581
 31
0
  0
TEXT
  8
1
 62
2
 10
200.497606321303
 20
186.1997263487576
 30
0
 40
3.5
  1
öÆü@WHITE
 41
0.72
 73
2
 11
200.497606321303
 21
187.9497263487576
 31
0
  0
TEXT
  8
1
 62
2
 10
170.922606321303
 20
192.6997263487581
 30
0
 40
3.5
  1
8
 41
0.9
 72
1
 73
2
 11
172.497606321303
 21
194.4497263487581
 31
0
  0
TEXT
  8
1
 62
2
 10
181.497606321303
 20
192.6997263487578
 30
0
 40
3.5
  1
F/R IN
 41
0.54
 73
2
 11
181.497606321303
 21
194.4497263487578
 31
0
  0
TEXT
  8
1
 62
2
 10
200.497606321303
 20
192.6997263487576
 30
0
 40
3.5
  1
èDü@GRAY
 41
0.72
 73
2
 11
200.497606321303
 21
194.4497263487576
 31
0
  0
TEXT
  8
1
 62
2
 10
170.922606321303
 20
199.1997263487581
 30
0
 40
3.5
  1
7
 41
0.9
 72
1
 73
2
 11
172.497606321303
 21
200.9497263487581
 31
0
  0
TEXT
  8
1
 62
2
 10
181.497606321303
 20
199.1997263487578
 30
0
 40
3.5
  1
ALARM
 41
0.54
 73
2
 11
181.497606321303
 21
200.9497263487578
 31
0
  0
TEXT
  8
1
 62
2
 10
200.497606321303
 20
199.1997263487576
 30
0
 40
3.5
  1
Äçü@PORPLE
 41
0.72
 73
2
 11
200.497606321303
 21
200.9497263487576
 31
0
  0
TEXT
  8
1
 62
2
 10
170.922606321303
 20
205.6997263487578
 30
0
 40
3.5
  1
6
 41
0.9
 72
1
 73
2
 11
172.497606321303
 21
207.4497263487578
 31
0
  0
TEXT
  8
1
 62
2
 10
181.497606321303
 20
205.6997263487578
 30
0
 40
3.5
  1
GND
 41
0.54
 73
2
 11
181.497606321303
 21
207.4497263487578
 31
0
  0
TEXT
  8
1
 62
2
 10
200.497606321303
 20
205.6997263487574
 30
0
 40
3.5
  1
É┬ü@BLUE
 41
0.72
 73
2
 11
200.497606321303
 21
207.4497263487574
 31
0
  0
TEXT
  8
1
 62
2
 10
170.922606321303
 20
212.1997263487578
 30
0
 40
3.5
  1
5
 41
0.9
 72
1
 73
2
 11
172.497606321303
 21
213.9497263487578
 31
0
  0
TEXT
  8
1
 62
2
 10
181.497606321303
 20
212.1997263487578
 30
0
 40
3.5
  1
GND
 41
0.54
 73
2
 11
181.497606321303
 21
213.9497263487578
 31
0
  0
TEXT
  8
1
 62
2
 10
200.497606321303
 20
212.1997263487574
 30
0
 40
3.5
  1
ù╬ü@GREEN
 41
0.72
 73
2
 11
200.497606321303
 21
213.9497263487574
 31
0
  0
TEXT
  8
1
 62
2
 10
170.922606321303
 20
218.6997263487578
 30
0
 40
3.5
  1
4
 41
0.9
 72
1
 73
2
 11
172.497606321303
 21
220.4497263487578
 31
0
  0
TEXT
  8
1
 62
2
 10
181.497606321303
 20
218.6997263487576
 30
0
 40
3.5
  1
VS
 41
0.54
 73
2
 11
181.497606321303
 21
220.4497263487576
 31
0
  0
TEXT
  8
1
 62
2
 10
200.497606321303
 20
218.6997263487574
 30
0
 40
3.5
  1
ë®ü@YELLOW
 41
0.72
 73
2
 11
200.497606321303
 21
220.4497263487574
 31
0
  0
TEXT
  8
1
 62
2
 10
170.922606321303
 20
225.1997263487578
 30
0
 40
3.5
  1
3
 41
0.9
 72
1
 73
2
 11
172.497606321303
 21
226.9497263487578
 31
0
  0
TEXT
  8
1
 62
2
 10
181.497606321303
 20
225.1997263487576
 30
0
 40
3.5
  1
VR
 41
0.54
 73
2
 11
181.497606321303
 21
226.9497263487576
 31
0
  0
TEXT
  8
1
 62
2
 10
200.497606321303
 20
225.1997263487574
 30
0
 40
3.5
  1
×%%dü@ORANGE
 41
0.72
 73
2
 11
200.497606321303
 21
226.9497263487574
 31
0
  0
TEXT
  8
1
 62
2
 10
168.007606321303
 20
168.9916455336235
 30
0
 40
2.2
  1
1
 41
0.9
 72
1
 73
2
 11
168.997606321303
 21
170.0916455336235
 31
0
  0
TEXT
  8
1
 62
2
 10
168.480648962924
 20
256.0897415792853
 30
0
 40
2.2
  1
1
 41
0.9
 72
1
 73
2
 11
169.470648962924
 21
257.1897415792852
 31
0
  0
TEXT
  8
1
 62
2
 10
189.9587628934351
 20
174.2588399146775
 30
0
 40
3
  1
ébénémémédébésénéqü@élénécédékü@ébénécéd
 41
0.6300000000000001
 73
2
 11
189.9587628934351
 21
175.7588399146775
 31
0
  0
TEXT
  8
1
 62
2
 10
170.922606321303
 20
231.6997263487576
 30
0
 40
3.5
  1
2
 41
0.9
 72
1
 73
2
 11
172.497606321303
 21
233.4497263487576
 31
0
  0
TEXT
  8
1
 62
2
 10
170.922606321303
 20
238.1997263487576
 30
0
 40
3.5
  1
1
 41
0.9
 72
1
 73
2
 11
172.497606321303
 21
239.9497263487576
 31
0
  0
TEXT
  8
1
 62
2
 10
167.889606321303
 20
245.8497263487578
 30
0
 40
3.200000000000001
  1
PIN#
 41
0.7200000000000001
 72
1
 73
2
 11
172.497606321303
 21
247.4497263487578
 31
0
  0
TEXT
  8
1
 62
2
 10
183.889606321303
 20
244.0247263487578
 30
0
 40
3.2
  1
NAME
 41
0.72
 72
1
 73
2
 11
188.497606321303
 21
245.6247263487578
 31
0
  0
TEXT
  8
1
 62
2
 10
183.457606321303
 20
247.5247263487577
 30
0
 40
3.5
  1
û╝Å╠
 41
0.72
 72
1
 73
2
 11
188.497606321303
 21
249.2747263487577
 31
0
  0
TEXT
  8
1
 62
2
 10
174.874572777184
 20
253.804816753317
 30
0
 40
3.5
  1
CONNECTION GUIDE
 41
0.675
 73
2
 11
174.874572777184
 21
255.554816753317
 31
0
  0
TEXT
  8
1
 62
2
 10
174.874572777184
 20
258.461637214026
 30
0
 40
3.5
  1
âRâlâNâ^É┌æ▒ò\
 41
0.9
 73
2
 11
174.874572777184
 21
260.211637214026
 31
0
  0
TEXT
  8
1
 62
2
 10
198.897606321303
 20
247.5247263487577
 30
0
 40
3.5
  1
âèü[âhÉ³ÉF
 41
0.72
 72
1
 73
2
 11
211.497606321303
 21
249.2747263487577
 31
0
  0
TEXT
  8
1
 62
2
 10
199.617606321303
 20
244.0247263487578
 30
0
 40
3.2
  1
LEAD WIRE COLOR
 41
0.4949999999999999
 72
1
 73
2
 11
211.497606321303
 21
245.6247263487578
 31
0
  0
TEXT
  8
1
 62
2
 10
228.369606321303
 20
244.0247263487578
 30
0
 40
3.2
  1
LEAD WIRE
 41
0.4949999999999999
 72
1
 73
2
 11
235.497606321303
 21
245.6247263487578
 31
0
  0
TEXT
  8
1
 62
2
 10
222.897606321303
 20
247.5247263487577
 30
0
 40
3.5
  1
âèü[âhÉ³ÄÝ
 41
0.72
 72
1
 73
2
 11
235.497606321303
 21
249.2747263487577
 31
0
  0
TEXT
  8
1
 62
2
 10
228.497606321303
 20
211.2997263487583
 30
0
 40
3
  1
UL3265
 41
0.6300000000000001
  0
TEXT
  8
1
 62
2
 10
228.497606321303
 20
207.0997263487583
 30
0
 40
3
  1
AWG28
 41
0.6300000000000001
  0
TEXT
  8
1
 62
2
 10
167.497606321303
 20
174.2588399146775
 30
0
 40
3
  1
âRâlâNâ^î^Ä«
 41
0.9
 73
2
 11
167.497606321303
 21
175.7588399146775
 31
0
  0
TEXT
  8
1
 62
2
 10
181.497606321303
 20
238.1997263487576
 30
0
 40
3.5
  1
SPEED OUT
 41
0.405
 73
2
 11
181.497606321303
 21
239.9497263487576
 31
0
  0
TEXT
  8
1
 62
2
 10
181.497606321303
 20
231.6997263487576
 30
0
 40
3.5
  1
F/R OUT
 41
0.4950000000000001
 73
2
 11
181.497606321303
 21
233.4497263487576
 31
0
  0
TEXT
  8
1
 62
2
 10
200.497606321303
 20
231.6997263487572
 30
0
 40
3.5
  1
ÉÈü@RED
 41
0.72
 73
2
 11
200.497606321303
 21
233.4497263487572
 31
0
  0
TEXT
  8
1
 62
2
 10
200.497606321303
 20
238.1997263487578
 30
0
 40
3.5
  1
Æâü@BROWM
 41
0.72
 73
2
 11
200.497606321303
 21
239.9497263487578
 31
0
  0
TEXT
  8
1
 62
2
 10
172.497606321303
 20
169.9745126217445
 30
0
 40
3.5
  1
ânâEâWâôâOüFéhékü|éxü|éPéOérü|éréPéTébéRü@ü@ü@ü@ü@ü@ô·û{ìqï%%côdÄqìHïã
 41
0.54
  0
TEXT
  8
1
 62
2
 10
172.497606321303
 20
165.4245126217445
 30
0
 40
3.5
  1
égénétéréhéméfü@ü@ü@ü@ü@ü@ü@ü@ü@ü@ü@ü@ü@ü@ü@ü@ü@ü@ü@éié`éd
 41
0.54
  0
TEXT
  8
1
 62
2
 10
172.497606321303
 20
160.8745126217445
 30
0
 40
3.5
  1
âRâôâ^âNâgüFéhékü|éxü|ébéRü|é`ü|éPéOéOéOéOü@ü@ü@ü@ü@ô·û{ìqï%%côdÄqìHïã
 41
0.54
  0
TEXT
  8
1
 62
2
 10
172.497606321303
 20
156.3245126217445
 30
0
 40
3.5
  1
ébénémésé`ébésü@ü@ü@ü@ü@ü@ü@ü@ü@ü@ü@ü@ü@ü@ü@ü@ü@ü@ü@éié`éd
 41
0.54
  0
TEXT
  8
1
 62
2
 10
172.497606321303
 20
151.7745126217445
 30
0
 40
3.5
  1
ôKìçâsâôâwâbâ_üFéhékü|éxü|éPéOéoü|éréPéTéséQü|édéeü@ô·û{ìqï%%côdÄqìHïã
 41
0.54
  0
TEXT
  8
1
 62
2
 10
172.497606321303
 20
147.2245126217445
 30
0
 40
3.5
  1
é`écé`éoéséhéméfü@éoéhémü@égédé`écédéqü@ü@ü@ü@ü@ü@ü@éié`éd
 41
0.54
  0
TEXT
  8
1
 62
2
 10
337.0075150316326
 20
185.5057324198
 30
0
 40
3.5
  1
1
 41
0.9
  0
TEXT
  8
1
 62
2
 10
346.364865366957
 20
158.6628330129649
 30
0
 40
1.600000000000004
  1
10PIN
 50
90
 41
0.9
  0
TEXT
  8
1
 62
2
 10
346.364865366957
 20
173.037833012965
 30
0
 40
1.600000000000002
  1
1PIN
 50
90
 41
0.9
  0
TEXT
  8
1
 62
2
 10
285.6984245871915
 20
219.9141699498905
 30
0
 40
3.200000000000001
  1
MODEL CODE
 41
0.6299999999999999
 72
1
 73
2
 11
295.7784245871915
 21
221.5141699498905
 31
0
  0
TEXT
  8
1
 62
2
 10
286.3284245871915
 20
223.4141699498903
 30
0
 40
3.5
  1
î^ü@Ä«
 41
0.9
 72
1
 73
2
 11
295.7784245871915
 21
225.1641699498903
 31
0
  0
TEXT
  8
1
 62
2
 10
321.8498384296597
 20
221.5891699498903
 30
0
 40
3.5
  1
L1
 41
0.72
 72
1
 73
2
 11
324.3698384296597
 21
223.3391699498903
 31
0
  0
TEXT
  8
1
 62
2
 10
280.3439823221339
 20
214.0891699498904
 30
0
 40
3.5
  1
FED-CNPL03
 41
0.72
 73
2
 11
280.3439823221339
 21
215.8391699498904
 31
0
  0
TEXT
  8
1
 62
2
 10
318.0022734007441
 20
214.0891699498901
 30
0
 40
3.5
  1
300
 41
0.72
 73
2
 11
318.0022734007441
 21
215.8391699498901
 31
0
  0
TEXT
  8
1
 62
2
 10
331.8350608268652
 20
213.6204199498903
 30
0
 40
2
  1
0
 41
0.9
 72
2
 73
2
 11
333.6350608268652
 21
214.6204199498903
 31
0
  0
TEXT
  8
1
 62
2
 10
328.2350608268652
 20
216.0579199498901
 30
0
 40
2
  1
+20
 41
0.9
 72
2
 73
2
 11
333.6350608268652
 21
217.0579199498901
 31
0
  0
TEXT
  8
1
 62
2
 10
280.3439823221339
 20
207.5891699498907
 30
0
 40
3.5
  1
FED-CNPL05
 41
0.72
 73
2
 11
280.3439823221339
 21
209.3391699498907
 31
0
  0
TEXT
  8
1
 62
2
 10
318.0022734007441
 20
207.5891699498904
 30
0
 40
3.5
  1
500
 41
0.72
 73
2
 11
318.0022734007441
 21
209.3391699498904
 31
0
  0
TEXT
  8
1
 62
2
 10
331.8350608268652
 20
207.1204199498906
 30
0
 40
2
  1
0
 41
0.9
 72
2
 73
2
 11
333.6350608268652
 21
208.1204199498906
 31
0
  0
TEXT
  8
1
 62
2
 10
280.3439823221339
 20
201.0891699498909
 30
0
 40
3.5
  1
FED-CNPL10
 41
0.72
 73
2
 11
280.3439823221339
 21
202.8391699498909
 31
0
  0
TEXT
  8
1
 62
2
 10
328.2350608268652
 20
209.5579199498904
 30
0
 40
2
  1
+30
 41
0.9
 72
2
 73
2
 11
333.6350608268652
 21
210.5579199498904
 31
0
  0
TEXT
  8
1
 62
2
 10
331.8350608268652
 20
200.6204199498908
 30
0
 40
2
  1
0
 41
0.9
 72
2
 73
2
 11
333.6350608268652
 21
201.6204199498908
 31
0
  0
TEXT
  8
1
 62
2
 10
328.2350608268652
 20
203.0579199498907
 30
0
 40
2
  1
+50
 41
0.9
 72
2
 73
2
 11
333.6350608268652
 21
204.0579199498907
 31
0
  0
TEXT
  8
1
 62
2
 10
315.2128668522491
 20
201.0891699498907
 30
0
 40
3.5
  1
1000
 41
0.72
 73
2
 11
315.2128668522491
 21
202.8391699498907
 31
0
  0
DIMENSION
  8
1
  6
CONTINUOUS
 62
2
  2
*D0
  3
DMST_1
 10
328.2582608695576
 20
181.643298275042
 30
0
 11
310.701444589942
 21
185.243298275042
 31
0
 12
0
 22
0
 32
0
 70
0
  1
L1
 13
292.4121424699133
 23
174.207833012965
 33
0
 14
328.2582608695576
 24
174.912833012965
 34
0
 53
0
  0
DIMENSION
  8
1
  6
CONTINUOUS
 62
2
  2
*D1
  3
DMST_2
 10
282.4121424699134
 20
181.637833012965
 30
0
 11
287.25082990251
 21
185.237833012965
 31
0
 12
0
 22
0
 32
0
 70
0
  1
10
 13
292.4121424699133
 23
174.207833012965
 33
0
 14
282.4121424699134
 24
173.777833012965
 34
0
 53
0
  0
ENDSEC
  0
EOF
