  0
SECTION
  2
HEADER
  9
$ACADVER
  1
AC1014
  9
$ACADMAINTVER
 70
             0
  9
$DWGCODEPAGE
  3
ANSI_1252
  9
$INSBASE
 10
0.0
 20
0.0
 30
0.0
  9
$EXTMIN
 10
515.26946353858
 20
871.53093796686608
 30
0.0
  9
$EXTMAX
 10
724.19785563219318
 20
1022.544357086956
 30
0.0
  9
$LIMMIN
 10
0.0
 20
0.0
  9
$LIMMAX
 10
0.0
 20
0.0
  9
$ORTHOMODE
 70
             0
  9
$REGENMODE
 70
             1
  9
$FILLMODE
 70
             1
  9
$QTEXTMODE
 70
             0
  9
$MIRRTEXT
 70
             1
  9
$DRAGMODE
 70
             2
  9
$LTSCALE
 40
1.0
  9
$OSMODE
 70
             0
  9
$ATTMODE
 70
             1
  9
$TEXTSIZE
 40
0.2
  9
$TRACEWID
 40
0.05
  9
$TEXTSTYLE
  7
STANDARD
  9
$CLAYER
  8
0
  9
$CELTYPE
  6
CONTINUOUS
  9
$CECOLOR
 62
           256
  9
$CELTSCALE
 40
1.0
  9
$DELOBJ
 70
             1
  9
$DISPSILH
 70
             0
  9
$DIMSCALE
 40
1.0
  9
$DIMASZ
 40
0.18
  9
$DIMEXO
 40
0.0625
  9
$DIMDLI
 40
0.38
  9
$DIMRND
 40
0.0
  9
$DIMDLE
 40
0.0
  9
$DIMEXE
 40
0.18
  9
$DIMTP
 40
0.0
  9
$DIMTM
 40
0.0
  9
$DIMTXT
 40
0.18
  9
$DIMCEN
 40
0.09
  9
$DIMTSZ
 40
0.0
  9
$DIMTOL
 70
             0
  9
$DIMLIM
 70
             0
  9
$DIMTIH
 70
             1
  9
$DIMTOH
 70
             1
  9
$DIMSE1
 70
             0
  9
$DIMSE2
 70
             0
  9
$DIMTAD
 70
             0
  9
$DIMZIN
 70
             0
  9
$DIMBLK
  1

  9
$DIMASO
 70
             1
  9
$DIMSHO
 70
             1
  9
$DIMPOST
  1

  9
$DIMAPOST
  1

  9
$DIMALT
 70
             0
  9
$DIMALTD
 70
             2
  9
$DIMALTF
 40
25.4
  9
$DIMLFAC
 40
1.0
  9
$DIMTOFL
 70
             0
  9
$DIMTVP
 40
0.0
  9
$DIMTIX
 70
             0
  9
$DIMSOXD
 70
             0
  9
$DIMSAH
 70
             0
  9
$DIMBLK1
  1

  9
$DIMBLK2
  1

  9
$DIMSTYLE
  2
STANDARD
  9
$DIMCLRD
 70
             0
  9
$DIMCLRE
 70
             0
  9
$DIMCLRT
 70
             0
  9
$DIMTFAC
 40
1.0
  9
$DIMGAP
 40
0.09
  9
$DIMJUST
 70
             0
  9
$DIMSD1
 70
             0
  9
$DIMSD2
 70
             0
  9
$DIMTOLJ
 70
             1
  9
$DIMTZIN
 70
             0
  9
$DIMALTZ
 70
             0
  9
$DIMALTTZ
 70
             0
  9
$DIMFIT
 70
             3
  9
$DIMUPT
 70
             0
  9
$DIMUNIT
 70
             2
  9
$DIMDEC
 70
             4
  9
$DIMTDEC
 70
             4
  9
$DIMALTU
 70
             2
  9
$DIMALTTD
 70
             2
  9
$DIMTXSTY
  7
STANDARD
  9
$DIMAUNIT
 70
             0
  9
$LUNITS
 70
             2
  9
$LUPREC
 70
             4
  9
$SKETCHINC
 40
0.1
  9
$FILLETRAD
 40
0.0
  9
$AUNITS
 70
             0
  9
$AUPREC
 70
             0
  9
$MENU
  1
acad
  9
$ELEVATION
 40
0.0
  9
$PELEVATION
 40
0.0
  9
$THICKNESS
 40
0.0
  9
$LIMCHECK
 70
             0
  9
$BLIPMODE
 70
             1
  9
$CHAMFERA
 40
0.0
  9
$CHAMFERB
 40
0.0
  9
$CHAMFERC
 40
0.0
  9
$CHAMFERD
 40
0.0
  9
$SKPOLY
 70
             0
  9
$TDCREATE
 40
0.000000000
  9
$TDUPDATE
 40
0.000000000
  9
$TDINDWG
 40
0.0000000000
  9
$TDUSRTIMER
 40
0.0000000000
  9
$USRTIMER
 70
             1
  9
$ANGBASE
 50
0.0
  9
$ANGDIR
 70
             0
  9
$PDMODE
 70
             0
  9
$PDSIZE
 40
0.0
  9
$PLINEWID
 40
0.0
  9
$COORDS
 70
             0
  9
$SPLFRAME
 70
             0
  9
$SPLINETYPE
 70
             6
  9
$SPLINESEGS
 70
             8
  9
$ATTDIA
 70
             0
  9
$ATTREQ
 70
             1
  9
$HANDLING
 70
             1
  9
$HANDSEED
  5
1AB
  9
$SURFTAB1
 70
             6
  9
$SURFTAB2
 70
             6
  9
$SURFTYPE
 70
             6
  9
$SURFU
 70
             6
  9
$SURFV
 70
             6
  9
$UCSNAME
  2

  9
$UCSORG
 10
0.0
 20
0.0
 30
0.0
  9
$UCSXDIR
 10
1.0
 20
0.0
 30
0.0
  9
$UCSYDIR
 10
0.0
 20
1.0
 30
0.0
  9
$PUCSNAME
  2

  9
$PUCSORG
 10
0.0
 20
0.0
 30
0.0
  9
$PUCSXDIR
 10
1.0
 20
0.0
 30
0.0
  9
$PUCSYDIR
 10
0.0
 20
1.0
 30
0.0
  9
$USERI1
 70
             0
  9
$USERI2
 70
             0
  9
$USERI3
 70
             0
  9
$USERI4
 70
             0
  9
$USERI5
 70
             0
  9
$USERR1
 40
12.01
  9
$USERR2
 40
0.0
  9
$USERR3
 40
0.0
  9
$USERR4
 40
0.0
  9
$USERR5
 40
0.0
  9
$WORLDVIEW
 70
             1
  9
$SHADEDGE
 70
             3
  9
$SHADEDIF
 70
            70
  9
$TILEMODE
 70
             1
  9
$MAXACTVP
 70
            16
  9
$PINSBASE
 10
0.0
 20
0.0
 30
0.0
  9
$PLIMCHECK
 70
             0
  9
$PEXTMIN
 10
1.00000000000000E+20
 20
1.00000000000000E+20
 30
1.00000000000000E+20
  9
$PEXTMAX
 10
-1.00000000000000E+20
 20
-1.00000000000000E+20
 30
-1.00000000000000E+20
  9
$PLIMMIN
 10
0.0
 20
0.0
  9
$PLIMMAX
 10
12.0
 20
9.0
  9
$UNITMODE
 70
             0
  9
$VISRETAIN
 70
             0
  9
$PLINEGEN
 70
             1
  9
$PSLTSCALE
 70
             0
  9
$TREEDEPTH
 70
          3020
  9
$PICKSTYLE
 70
             1
  9
$CMLSTYLE
  2
STANDARD
  9
$CMLJUST
 70
             0
  9
$CMLSCALE
 40
1.0
  9
$PROXYGRAPHICS
 70
             0
  9
$MEASUREMENT
 70
             1
  0
ENDSEC
  0
SECTION
  2
CLASSES
  0
CLASS
  1
LWPOLYLINE
  2
AcDbPolyline
  3
"AutoCAD"
 90
        0
280
             0
281
             1
  0
CLASS
  1
IMAGE
  2
AcDbRasterImage
  3
ISM
 90
      127
280
             0
281
             1
  0
CLASS
  1
OLE2FRAME
  2
AcDbOle2Frame
  3
""
 90
        0
280
             0
281
             1
  0
CLASS
  1
HATCH
  2
AcDbHatch
  3
"ACAD_SEDONA"
 90
        0
280
             0
281
             1
  0
CLASS
  1
DICTIONARYVAR
  2
AcDbDictionaryVar
  3
"AutoCAD"
 90
        0
280
             0
281
             0
  0
CLASS
  1
RASTERVARIABLES
  2
AcDbRasterVariables
  3
ISM
 90
        0
280
             0
281
             0
  0
CLASS
  1
IMAGEDEF
  2
AcDbRasterImageDef
  3
ISM
 90
        0
280
             0
281
             0
  0
CLASS
  1
IMAGEDEF_REACTOR
  2
AcDbRasterImageDefReactor
  3
ISM
 90
        1
280
             0
281
             0
  0
CLASS
  1
IDBUFFER
  2
AcDbIdBuffer
  3
"Acad"
 90
        0
280
             0
281
             0
  0
CLASS
  1
SPATIAL_FILTER
  2
AcDbSpatialFilter
  3
"Acad"
 90
        0
280
             0
281
             0
  0
CLASS
  1
XRECORD
  2
AcDbXrecord
  3
"<Built In>"
 90
        0
280
             0
281
             0
  0
CLASS
  1
SORTENTSTABLE
  2
AcDbSortentsTable
  3
"AutoCAD"
 90
        0
280
             0
281
             0
  0
CLASS
  1
LAYER_INDEX
  2
AcDbLayerIndex
  3
"Acad"
 90
        0
280
             0
281
             0
  0
CLASS
  1
SPATIAL_INDEX
  2
AcDbSpatialIndex
  3
"Acad"
 90
        0
280
             0
281
             0
  0
CLASS
  1
OBJECT_PTR
  2
CAseDLPNTableRecord
  3
"ASE-LPNTableRecord"
 90
        1
280
             0
281
             0
  0
CLASS
  1
LAYOUT
  2
AcDbLayout
  3
"AutoCAD 2000"
 90
        0
280
             0
281
             0
  0
CLASS
  1
PLOTSETTINGS
  2
AcDbPlotSettings
  3
"AutoCAD 2000"
 90
        0
280
             0
281
             0
  0
CLASS
  1
ACDBDICTIONARYWDFLT
  2
AcDbDictionaryWithDefault
  3
"AutoCAD 2000"
 90
        0
280
             0
281
             0
  0
CLASS
  1
ACDBPLACEHOLDER
  2
AcDbPlaceHolder
  3
"AutoCAD 2000"
 90
        0
280
             0
281
             0
  0
ENDSEC
  0
SECTION
  2
TABLES
  0
TABLE
  2
VPORT
  5
7
100
AcDbSymbolTable
 70
             1
  0
VPORT
  5
15
100
AcDbSymbolTableRecord
100
AcDbViewportTableRecord
  2
*ACTIVE
 70
             0
 10
0.0
 20
0.0
 11
1.0
 21
1.0
 12
619.73365958538659
 22
947.03764752691109
 13
0.0
 23
0.0
 14
1.0
 24
1.0
 15
0.0
 25
0.0
 16
0.0
 26
0.0
 36
1.0
 17
0.0
 27
0.0
 37
0.0
 40
166.1147610320989
 41
1.60267857142857
 42
50.0
 43
0.0
 44
0.0
 50
0.0
 51
0.0
 71
             0
 72
           100
 73
             1
 74
             1
 75
             0
 76
             0
 77
             0
 78
             0
  0
ENDTAB
  0
TABLE
  2
LTYPE
  5
4
100
AcDbSymbolTable
 70
            10
  0
LTYPE
  5
11
100
AcDbSymbolTableRecord
100
AcDbLinetypeTableRecord
  2
BYBLOCK
 70
            64
  3

 72
            65
 73
             0
 40
0.0
  0
LTYPE
  5
12
100
AcDbSymbolTableRecord
100
AcDbLinetypeTableRecord
  2
BYLAYER
 70
            64
  3

 72
            65
 73
             0
 40
0.0
  0
LTYPE
  5
13
100
AcDbSymbolTableRecord
100
AcDbLinetypeTableRecord
  2
CONTINUOUS
 70
            64
  3
Solid line
 72
            65
 73
             0
 40
0.0
  0
LTYPE
  5
1D
100
AcDbSymbolTableRecord
100
AcDbLinetypeTableRecord
  2
DASHED
 70
            64
  3
Dashed
 72
            65
 73
             2
 40
15.0
 49
7.0
 74
             0
 49
-8.0
 74
             0
  0
LTYPE
  5
1E
100
AcDbSymbolTableRecord
100
AcDbLinetypeTableRecord
  2
DOTTED
 70
            64
  3
Dotted
 72
            65
 73
             2
 40
1.0
 49
0.0
 74
             0
 49
-1.0
 74
             0
  0
LTYPE
  5
1F
100
AcDbSymbolTableRecord
100
AcDbLinetypeTableRecord
  2
DOT_CENTER
 70
            64
  3
Dot_Center
 72
            65
 73
             4
 40
14.0
 49
12.0
 74
             0
 49
-1.0
 74
             0
 49
0.0
 74
             0
 49
-1.0
 74
             0
  0
LTYPE
  5
20
100
AcDbSymbolTableRecord
100
AcDbLinetypeTableRecord
  2
LONG_DASHED
 70
            64
  3
Long_Dashed
 72
            65
 73
             2
 40
15.0
 49
10.0
 74
             0
 49
-5.0
 74
             0
  0
LTYPE
  5
21
100
AcDbSymbolTableRecord
100
AcDbLinetypeTableRecord
  2
DASH_CENTER
 70
            64
  3
Dash_Center
 72
            65
 73
             4
 40
14.0
 49
11.0
 74
             0
 49
-1.0
 74
             0
 49
1.0
 74
             0
 49
-1.0
 74
             0
  0
LTYPE
  5
22
100
AcDbSymbolTableRecord
100
AcDbLinetypeTableRecord
  2
PHANTOM
 70
            64
  3
Phantom
 72
            65
 73
             6
 40
13.0
 49
10.0
 74
             0
 49
-1.0
 74
             0
 49
0.0
 74
             0
 49
-1.0
 74
             0
 49
0.0
 74
             0
 49
-1.0
 74
             0
  0
LTYPE
  5
23
100
AcDbSymbolTableRecord
100
AcDbLinetypeTableRecord
  2
CENTER_DASH_DASH
 70
            64
  3
Center_Dash_Dash
 72
            65
 73
             6
 40
14.0
 49
9.0
 74
             0
 49
-1.0
 74
             0
 49
1.0
 74
             0
 49
-1.0
 74
             0
 49
1.0
 74
             0
 49
-1.0
 74
             0
  0
ENDTAB
  0
TABLE
  2
LAYER
  5
2
100
AcDbSymbolTable
 70
             2
  0
LAYER
  5
14
100
AcDbSymbolTableRecord
100
AcDbLayerTableRecord
  2
0
 70
             0
 62
             7
  6
CONTINUOUS
  0
LAYER
  5
24
100
AcDbSymbolTableRecord
100
AcDbLayerTableRecord
  2
1
 70
             0
 62
             7
  6
CONTINUOUS
  0
ENDTAB
  0
TABLE
  2
STYLE
  5
3
100
AcDbSymbolTable
 70
             2
  0
STYLE
  5
17
100
AcDbSymbolTableRecord
100
AcDbTextStyleTableRecord
  2
STANDARD
 70
             0
 40
0.0
 41
1.0
 50
0.0
 71
             0
 42
0.0
  3
txt
  4

  0
STYLE
  5
180
100
AcDbSymbolTableRecord
100
AcDbTextStyleTableRecord
  2
CONVERTER_1
 70
             0
 40
0.0
 41
0.9
 50
0.0
 71
             0
 42
0.0
  3
txt.shx
  4

  0
ENDTAB
  0
TABLE
  2
VIEW
  5
5
100
AcDbSymbolTable
 70
             0
  0
ENDTAB
  0
TABLE
  2
UCS
  5
6
100
AcDbSymbolTable
 70
             0
  0
ENDTAB
  0
TABLE
  2
APPID
  5
8
100
AcDbSymbolTable
 70
             1
  0
APPID
  5
16
100
AcDbSymbolTableRecord
100
AcDbRegAppTableRecord
  2
ACAD
 70
             0
  0
ENDTAB
  0
TABLE
  2
DIMSTYLE
  5
9
100
AcDbSymbolTable
 70
             4
  0
DIMSTYLE
105
18
100
AcDbSymbolTableRecord
100
AcDbDimStyleTableRecord
  2
STANDARD
 70
             0
  3

  4

  5

  6

  7

 40
1.0
 41
0.18
 42
0.0625
 43
0.38
 44
0.18
 45
0.0
 46
0.0
 47
0.0
 48
0.0
 71
             0
 72
             0
 73
             1
 74
             1
 75
             0
 76
             0
 77
             0
 78
             0
140
0.18
141
0.09
142
0.0
143
25.4
144
1.0
145
0.0
146
1.0
147
0.09
170
             0
171
             2
172
             0
173
             0
174
             0
175
             0
176
             0
177
             0
178
             0
270
             2
271
             4
272
             4
273
             2
274
             2
275
             0
280
             0
281
             0
282
             0
283
             1
284
             0
285
             0
286
             0
287
             3
288
             0
340
17
  0
DIMSTYLE
105
190
100
AcDbSymbolTableRecord
100
AcDbDimStyleTableRecord
  2
ME10_DIM_0
 70
             0
  3

  4

  5

  6

  7

 40
1.0
 41
3.2
 42
1.0
 43
0.38
 44
1.5
 45
0.0
 46
0.0
 47
0.5
 48
0.5
 71
             1
 72
             0
 73
             0
 74
             0
 75
             0
 76
             0
 77
             1
 78
             8
140
3.2
141
0.09
142
0.0
143
25.4
144
1.0
145
0.0
146
0.6
147
0.625
170
             0
171
             2
172
             1
173
             1
174
             0
175
             0
176
             2
177
             2
178
             2
270
             2
271
             4
272
             1
273
             2
274
             2
275
             0
280
             0
281
             0
282
             0
283
             1
284
             0
285
             0
286
             0
287
             3
288
             0
340
180
  0
DIMSTYLE
105
19B
100
AcDbSymbolTableRecord
100
AcDbDimStyleTableRecord
  2
ME10_DIM_1
 70
             0
  3

  4

  5

  6

  7

 40
1.0
 41
3.2
 42
1.0
 43
0.38
 44
1.5
 45
0.0
 46
0.0
 47
0.5
 48
0.5
 71
             1
 72
             0
 73
             0
 74
             0
 75
             0
 76
             0
 77
             1
 78
             8
140
3.2
141
0.09
142
0.0
143
25.4
144
1.0
145
0.0
146
0.6
147
0.625
170
             0
171
             2
172
             1
173
             1
174
             0
175
             0
176
             2
177
             2
178
             2
270
             2
271
             4
272
             1
273
             2
274
             2
275
             0
280
             0
281
             0
282
             0
283
             1
284
             0
285
             0
286
             0
287
             3
288
             0
340
180
  0
DIMSTYLE
105
1A8
100
AcDbSymbolTableRecord
100
AcDbDimStyleTableRecord
  2
ME10_DIM_2
 70
             0
  3
(<>)
  4

  5

  6

  7

 40
1.0
 41
3.2
 42
1.0
 43
0.38
 44
1.5
 45
0.0
 46
0.0
 47
0.0
 48
0.0
 71
             0
 72
             0
 73
             0
 74
             0
 75
             0
 76
             0
 77
             1
 78
             8
140
3.2
141
0.09
142
0.0
143
25.4
144
1.0
145
0.0
146
1.0
147
0.625
170
             0
171
             2
172
             1
173
             1
174
             0
175
             0
176
             2
177
             2
178
             2
270
             2
271
             4
272
             4
273
             2
274
             2
275
             0
280
             0
281
             0
282
             0
283
             1
284
             0
285
             0
286
             0
287
             3
288
             0
340
180
  0
ENDTAB
  0
TABLE
  2
BLOCK_RECORD
  5
1
100
AcDbSymbolTable
 70
             3
  0
BLOCK_RECORD
  5
A
100
AcDbSymbolTableRecord
100
AcDbBlockTableRecord
  2
*MODEL_SPACE
  0
BLOCK_RECORD
  5
B
100
AcDbSymbolTableRecord
100
AcDbBlockTableRecord
  2
*PAPER_SPACE
  0
BLOCK_RECORD
  5
185
100
AcDbSymbolTableRecord
100
AcDbBlockTableRecord
  2
*D0
  0
BLOCK_RECORD
  5
192
100
AcDbSymbolTableRecord
100
AcDbBlockTableRecord
  2
*D1
  0
BLOCK_RECORD
  5
19D
100
AcDbSymbolTableRecord
100
AcDbBlockTableRecord
  2
*D2
  0
ENDTAB
  0
ENDSEC
  0
SECTION
  2
BLOCKS
  0
BLOCK
  5
D
100
AcDbEntity
  8
0
100
AcDbBlockBegin
  2
*MODEL_SPACE
 70
             0
 10
0.0
 20
0.0
 30
0.0
  3
*MODEL_SPACE
  1

  0
ENDBLK
  5
E
100
AcDbEntity
  8
0
100
AcDbBlockEnd
  0
BLOCK
  5
F
100
AcDbEntity
 67
             1
  8
0
100
AcDbBlockBegin
  2
*PAPER_SPACE
 70
             0
 10
0.0
 20
0.0
 30
0.0
  3
*PAPER_SPACE
  1

  0
ENDBLK
  5
10
100
AcDbEntity
 67
             1
  8
0
100
AcDbBlockEnd
  0
BLOCK
  5
186
100
AcDbEntity
  8
0
100
AcDbBlockBegin
  2
*D0
 70
             1
 10
0.0
 20
0.0
 30
0.0
  3
*D0
  1

  0
LINE
  5
187
100
AcDbEntity
  8
0
  6
CONTINUOUS
 62
             2
100
AcDbLine
 10
717.7978556321932
 20
1017.3443570869559
 11
724.19785563219318
 21
1017.3443570869559
  0
LINE
  5
188
100
AcDbEntity
  8
0
  6
CONTINUOUS
 62
             2
100
AcDbLine
 10
711.87785563219325
 20
1017.3443570869559
 11
705.47785563219327
 21
1017.3443570869559
  0
LINE
  5
189
100
AcDbEntity
  8
0
  6
CONTINUOUS
 62
             2
100
AcDbLine
 10
711.87785563219325
 20
1017.3443570869559
 11
717.7978556321932
 21
1017.3443570869559
  0
LINE
  5
18A
100
AcDbEntity
  8
0
  6
CONTINUOUS
 62
             2
100
AcDbLine
 10
717.7978556321932
 20
993.28099978963655
 11
717.7978556321932
 21
1018.8443570869559
  0
LINE
  5
18B
100
AcDbEntity
  8
0
  6
CONTINUOUS
 62
             2
100
AcDbLine
 10
711.87785563219325
 20
986.1658014812009
 11
711.87785563219325
 21
1018.8443570869559
  0
SOLID
  5
18C
100
AcDbEntity
  8
0
 62
             2
100
AcDbTrace
 10
708.6778556321932
 20
1016.9230690946763
 11
708.6778556321932
 21
1017.7656450792356
 12
711.87785563219325
 22
1017.3443570869559
 13
711.87785563219325
 23
1017.3443570869559
  0
SOLID
  5
18D
100
AcDbEntity
  8
0
 62
             2
100
AcDbTrace
 10
720.99785563219325
 20
1017.7656450792356
 11
720.99785563219325
 21
1016.9230690946763
 12
717.7978556321932
 22
1017.3443570869559
 13
717.7978556321932
 23
1017.3443570869559
  0
MTEXT
  5
18E
100
AcDbEntity
  8
0
 62
             2
100
AcDbMText
 10
709.23651827138269
 20
1019.3443570869559
 30
0.0
 40
3.2
 41
0.0
 71
             7
 72
             1
  1
\C2;5.9\C2;\H1.920000;{\Fgdt;`}0.5
  7
CONVERTER_1
 11
0.99999999999706
 21
0.00000242406841
 31
0.0
  0
ENDBLK
  5
18F
100
AcDbEntity
  8
0
100
AcDbBlockEnd
  0
BLOCK
  5
193
100
AcDbEntity
  8
0
100
AcDbBlockBegin
  2
*D1
 70
             1
 10
0.0
 20
0.0
 30
0.0
  3
*D1
  1

  0
LINE
  5
194
100
AcDbEntity
  8
0
  6
CONTINUOUS
 62
             2
100
AcDbLine
 10
675.93749900680314
 20
892.0809997896373
 11
675.93749900680314
 21
1005.3809997896374
  0
LINE
  5
195
100
AcDbEntity
  8
0
  6
CONTINUOUS
 62
             2
100
AcDbLine
 10
652.23093012307197
 20
1005.3809997896374
 11
677.43749900680314
 21
1005.3809997896374
  0
LINE
  5
196
100
AcDbEntity
  8
0
  6
CONTINUOUS
 62
             2
100
AcDbLine
 10
652.23093012307197
 20
892.0809997896373
 11
677.43749900680314
 21
892.0809997896373
  0
SOLID
  5
197
100
AcDbEntity
  8
0
 62
             2
100
AcDbTrace
 10
676.35878699908278
 20
1002.1809997896373
 11
675.51621101452349
 21
1002.1809997896373
 12
675.93749900680314
 22
1005.3809997896374
 13
675.93749900680314
 23
1005.3809997896374
  0
SOLID
  5
198
100
AcDbEntity
  8
0
 62
             2
100
AcDbTrace
 10
675.51621101452349
 20
895.28099978963735
 11
676.35878699908278
 21
895.28099978963735
 12
675.93749900680314
 22
892.0809997896373
 13
675.93749900680314
 23
892.0809997896373
  0
MTEXT
  5
199
100
AcDbEntity
  8
0
 62
             2
100
AcDbMText
 10
673.93749900680314
 20
940.53899978963739
 30
0.0
 40
3.2
 41
0.0
 71
             7
 72
             1
  1
\C2;113.3\C2;\H1.920000;{\Fgdt;`}0.5
  7
CONVERTER_1
 11
0.0
 21
1.0
 31
0.0
  0
ENDBLK
  5
19A
100
AcDbEntity
  8
0
100
AcDbBlockEnd
  0
BLOCK
  5
19E
100
AcDbEntity
  8
0
100
AcDbBlockBegin
  2
*D2
 70
             1
 10
0.0
 20
0.0
 30
0.0
  3
*D2
  1

  0
LINE
  5
19F
100
AcDbEntity
  8
0
  6
CONTINUOUS
 62
             2
100
AcDbLine
 10
662.76701665609619
 20
940.33099978963719
 11
662.76701665609619
 21
946.73099978963717
  0
LINE
  5
1A0
100
AcDbEntity
  8
0
  6
CONTINUOUS
 62
             2
100
AcDbLine
 10
662.76701665609619
 20
946.73099978963717
 11
662.76701665609619
 21
950.73099978963728
  0
LINE
  5
1A1
100
AcDbEntity
  8
0
  6
CONTINUOUS
 62
             2
100
AcDbLine
 10
662.76701665609619
 20
950.73099978963728
 11
662.76701665609619
 21
958.41875783246508
  0
LINE
  5
1A2
100
AcDbEntity
  8
0
  6
CONTINUOUS
 62
             2
100
AcDbLine
 10
585.58093012307199
 20
946.73099978963717
 11
664.26701665609619
 21
946.73099978963717
  0
LINE
  5
1A3
100
AcDbEntity
  8
0
  6
CONTINUOUS
 62
             2
100
AcDbLine
 10
585.58093012307211
 20
950.73099978963728
 11
664.26701665609619
 21
950.73099978963728
  0
SOLID
  5
1A4
100
AcDbEntity
  8
0
 62
             2
100
AcDbTrace
 10
662.34572866381654
 20
953.93099978963733
 11
663.18830464837583
 21
953.93099978963733
 12
662.76701665609619
 22
950.73099978963728
 13
662.76701665609619
 23
950.73099978963728
  0
SOLID
  5
1A5
100
AcDbEntity
  8
0
 62
             2
100
AcDbTrace
 10
663.18830464837583
 20
943.53099978963712
 11
662.34572866381654
 21
943.53099978963712
 12
662.76701665609619
 22
946.73099978963717
 13
662.76701665609619
 23
946.73099978963717
  0
MTEXT
  5
1A6
100
AcDbEntity
  8
0
 62
             2
100
AcDbMText
 10
660.76701665609619
 20
951.79475783246505
 30
0.0
 40
3.2
 41
0.0
 71
             7
 72
             1
  1
\C2;(\C2;4\C2;)
  7
CONVERTER_1
 11
0.0
 21
1.0
 31
0.0
  0
ENDBLK
  5
1A7
100
AcDbEntity
  8
0
100
AcDbBlockEnd
  0
ENDSEC
  0
SECTION
  2
ENTITIES
  0
DIMENSION
  5
1A9
100
AcDbEntity
  8
1
100
AcDbDimension
  2
*D2
 10
662.76701665609619
 20
950.73099978963728
 11
659.16701665609617
 21
955.37875783246511
 31
0.0
 53
90.0
  1
<>
  3
ME10_DIM_2
100
AcDbAlignedDimension
 13
584.58093012307199
 23
946.73099978963717
 14
584.58093012307211
 24
950.73099978963739
 50
90.0
100
AcDbRotatedDimension
  0
DIMENSION
  5
19C
100
AcDbEntity
  8
1
100
AcDbDimension
  2
*D1
 10
675.93749900680314
 20
1005.3809997896374
 11
672.33749900680311
 21
948.73099978963739
 31
0.0
 53
90.0
  1
<>
  3
ME10_DIM_1
100
AcDbAlignedDimension
 13
651.23093012307197
 23
892.0809997896373
 14
651.23093012307197
 24
1005.380999789637
 50
90.0
100
AcDbRotatedDimension
  0
DIMENSION
  5
191
100
AcDbEntity
  8
1
100
AcDbDimension
  2
*D0
 10
711.87785563219325
 20
1017.3443570869559
 11
715.50851827138274
 21
1020.944357086956
 31
0.0
 53
180.0
  1
5.9
  3
ME10_DIM_0
100
AcDbAlignedDimension
 13
717.7978556321932
 23
992.28099978963701
 14
711.87785563219325
 24
985.16580148120136
 50
180.0
100
AcDbRotatedDimension
  0
TEXT
  5
184
100
AcDbEntity
  8
1
 62
             2
100
AcDbText
 10
659.60334719774755
 20
878.37645561281602
 40
3.5
  1
リング　θ1.8
 41
0.9
  7
CONVERTER_1
100
AcDbText
  0
TEXT
  5
183
100
AcDbEntity
  8
1
 62
             2
100
AcDbText
 10
659.60334719774664
 20
871.53093796686608
 40
3.5
  1
リブ　　θ2.3
 41
0.9
  7
CONVERTER_1
100
AcDbText
  0
MTEXT
  5
182
100
AcDbEntity
  8
1
 62
             2
100
AcDbMText
 10
671.63824963222123
 20
1017.413129023692
 30
0.0
 40
2.5
 41
0.0
 71
             4
 72
             1
  1
±0.5
  7
CONVERTER_1
  0
MTEXT
  5
181
100
AcDbEntity
  8
1
 62
             2
100
AcDbMText
 10
651.75153084097519
 20
1018.072448640588
 30
0.0
 40
4.0
 41
0.0
 71
             4
 72
             1
  1
4-θ4.6
  7
CONVERTER_1
  0
LEADER
  5
17F
100
AcDbEntity
  8
1
  6
CONTINUOUS
 62
             2
100
AcDbLeader
  3
Standard
 71
             0
 73
             3
 74
             0
 75
             0
 40
0.0
 76
             2
 10
642.90681830620406
 20
1006.956245420527
 30
0.0
 10
650.32129776787519
 20
1015.386105357195
 30
0.0
 77
             2
  0
ARC
  5
17D
100
AcDbEntity
  8
1
  6
CONTINUOUS
 62
             3
100
AcDbCircle
 10
643.71273732436862
 20
923.37008960657295
 40
1.49999999999991
100
AcDbArc
 50
-26.00000000000604
 51
46.99999999999694
  0
ARC
  5
17C
100
AcDbEntity
  8
1
  6
CONTINUOUS
 62
             3
100
AcDbCircle
 10
636.85094473359493
 20
909.30132989759477
 40
1.50000000000006
100
AcDbArc
 50
-104.21330169937146
 51
-26.00000000000804
  0
ARC
  5
17B
100
AcDbEntity
  8
1
  6
CONTINUOUS
 62
             3
100
AcDbCircle
 10
627.56072322276918
 20
899.33878704018832
 40
1.50000000000002
100
AcDbArc
 50
-60.00000000000054
 51
18.2133016993615
  0
ARC
  5
17A
100
AcDbEntity
  8
1
  6
CONTINUOUS
 62
             3
100
AcDbCircle
 10
614.0048887600434
 20
891.5123223640436
 40
1.50000000000007
100
AcDbArc
 50
-133.00000000000009
 51
-60.00000000000054
  0
ARC
  5
179
100
AcDbEntity
  8
1
  6
CONTINUOUS
 62
             3
100
AcDbCircle
 10
533.71883262754011
 20
907.50115218460019
 40
1.50000000000009
100
AcDbArc
 50
-151.99999999999727
 51
-73.78669830063777
  0
ARC
  5
178
100
AcDbEntity
  8
1
  6
CONTINUOUS
 62
             3
100
AcDbCircle
 10
526.37022742234353
 20
921.32186847739501
 40
1.49999999999993
100
AcDbArc
 50
135.0
 51
-151.99999999999903
  0
ARC
  5
177
100
AcDbEntity
  8
1
  6
CONTINUOUS
 62
             3
100
AcDbCircle
 10
543.35108251803456
 20
897.86890229410528
 40
1.50000000000002
100
AcDbArc
 50
163.78669830063239
 51
-118.0000000000048
  0
ARC
  5
176
100
AcDbEntity
  8
1
  6
CONTINUOUS
 62
             3
100
AcDbCircle
 10
557.17179881082916
 20
890.52029708890814
 40
1.49999999999988
100
AcDbArc
 50
-118.00000000000684
 51
-45.00000000000307
  0
ARC
  5
175
100
AcDbEntity
  8
1
  6
CONTINUOUS
 62
             3
100
AcDbCircle
 10
611.99006143531506
 20
1006.941702490367
 40
1.49999999999968
100
AcDbArc
 50
61.99999999998909
 51
135.00000000001842
  0
ARC
  5
174
100
AcDbEntity
  8
1
  6
CONTINUOUS
 62
             3
100
AcDbCircle
 10
625.81077772810966
 20
999.59309728516939
 40
1.49999999999999
100
AcDbArc
 50
-16.21330169936344
 51
62.00000000000132
  0
ARC
  5
173
100
AcDbEntity
  8
1
  6
CONTINUOUS
 62
             3
100
AcDbCircle
 10
635.44302761860411
 20
989.96084739467449
 40
1.50000000000009
100
AcDbArc
 50
28.00000000000276
 51
106.21330169936223
  0
ARC
  5
172
100
AcDbEntity
  8
1
  6
CONTINUOUS
 62
             3
100
AcDbCircle
 10
642.79163282380068
 20
976.14013110187977
 40
1.49999999999993
100
AcDbArc
 50
-45.0
 51
27.99999999999713
  0
ARC
  5
171
100
AcDbEntity
  8
1
  6
CONTINUOUS
 62
             3
100
AcDbCircle
 10
532.31091551254929
 20
988.16066968167991
 40
1.50000000000006
100
AcDbArc
 50
75.78669830062854
 51
153.99999999998806
  0
ARC
  5
170
100
AcDbEntity
  8
1
  6
CONTINUOUS
 62
             3
100
AcDbCircle
 10
525.4491229217756
 20
974.09190997270173
 40
1.49999999999991
100
AcDbArc
 50
153.99999999999395
 51
-133.00000000000603
  0
ARC
  5
16F
100
AcDbEntity
  8
1
  6
CONTINUOUS
 62
             3
100
AcDbCircle
 10
541.60113702337503
 20
998.12321253908647
 40
1.49999999999993
100
AcDbArc
 50
120.00000000000162
 51
-161.78669830063438
  0
ARC
  5
16E
100
AcDbEntity
  8
1
  6
CONTINUOUS
 62
             3
100
AcDbCircle
 10
555.15697148610082
 20
1005.949677215231
 40
1.50000000000024
100
AcDbArc
 50
47.00000000000583
 51
119.99999999999294
  0
ARC
  5
16D
100
AcDbEntity
  8
1
  6
CONTINUOUS
 62
             3
100
AcDbCircle
 10
630.73369276534561
 20
905.69285235878647
 40
3.49999999999996
100
AcDbArc
 50
149.51347451493638
 51
176.09737385266573
  0
ARC
  5
16C
100
AcDbEntity
  8
1
  6
CONTINUOUS
 62
             3
100
AcDbCircle
 10
630.73369276534561
 20
905.69285235878647
 40
3.49999999999997
100
AcDbArc
 50
97.9026261473342
 51
111.14368551082505
  0
ARC
  5
16B
100
AcDbEntity
  8
1
  6
CONTINUOUS
 62
             3
100
AcDbCircle
 10
539.95829218113886
 20
904.10836184770426
 40
3.50000000000003
100
AcDbArc
 50
65.38068438061153
 51
84.09737385266203
  0
ARC
  5
16A
100
AcDbEntity
  8
1
  6
CONTINUOUS
 62
             3
100
AcDbCircle
 10
539.95829218113886
 20
904.10836184770426
 40
3.49999999999996
100
AcDbArc
 50
5.90262614733796
 51
28.75209397014922
  0
ARC
  5
169
100
AcDbEntity
  8
1
  6
CONTINUOUS
 62
             3
100
AcDbCircle
 10
538.42816748079861
 20
991.76914722048832
 40
3.50000000000004
100
AcDbArc
 50
-30.48652548506939
 51
-3.90262614733427
  0
ARC
  5
168
100
AcDbEntity
  8
1
  6
CONTINUOUS
 62
             3
100
AcDbCircle
 10
538.42816748079861
 20
991.76914722048832
 40
3.50000000000009
100
AcDbArc
 50
-82.09737385266605
 51
-68.85631448917977
  0
ARC
  5
167
100
AcDbEntity
  8
1
  6
CONTINUOUS
 62
             3
100
AcDbCircle
 10
629.20356806500536
 20
993.3536377315703
 40
3.49999999999992
100
AcDbArc
 50
-114.61931561938924
 51
-95.90262614733426
  0
ARC
  5
166
100
AcDbEntity
  8
1
  6
CONTINUOUS
 62
             3
100
AcDbCircle
 10
629.20356806500536
 20
993.3536377315703
 40
3.49999999999994
100
AcDbArc
 50
-174.09737385266575
 51
-151.24790602985078
  0
ARC
  5
165
100
AcDbEntity
  8
1
  6
CONTINUOUS
 62
             3
100
AcDbCircle
 10
640.60198542070054
 20
897.34354941518598
 40
2.99999999999997
100
AcDbArc
 50
-138.71033323387203
 51
-83.18471784371475
  0
ARC
  5
164
100
AcDbEntity
  8
1
  6
CONTINUOUS
 62
             3
100
AcDbCircle
 10
635.93544118902696
 20
1005.599624924071
 40
2.99999999999993
100
AcDbArc
 50
-37.8515804857547
 51
-2.36412313310578
  0
ARC
  5
163
100
AcDbEntity
  8
1
  6
CONTINUOUS
 62
             3
100
AcDbCircle
 10
533.22641905711714
 20
891.86237465520378
 40
3.00000000000002
100
AcDbArc
 50
142.14841951424665
 51
177.63587686690499
  0
ARC
  5
162
100
AcDbEntity
  8
1
  6
CONTINUOUS
 62
             3
100
AcDbCircle
 10
528.55987482544344
 20
1000.118450164089
 40
2.99999999999953
100
AcDbArc
 50
41.28966676611513
 51
96.8152821562831
  0
ARC
  5
161
100
AcDbEntity
  8
1
  6
CONTINUOUS
 62
             3
100
AcDbCircle
 10
613.82181614462115
 20
889.90551464035514
 40
2.00000000000001
100
AcDbArc
 50
-133.00000000000387
 51
-59.99999999999946
  0
ARC
  5
160
100
AcDbEntity
  8
1
  6
CONTINUOUS
 62
             3
100
AcDbCircle
 10
629.12587992080012
 20
898.74131998122732
 40
1.99999999999997
100
AcDbArc
 50
-59.99999999999946
 51
18.21330169936253
  0
ARC
  5
15F
100
AcDbEntity
  8
1
  6
CONTINUOUS
 62
             3
100
AcDbCircle
 10
637.55613620494034
 20
907.781663037827
 40
1.99999999999998
100
AcDbArc
 50
-104.21330169936884
 51
-26.00000000000947
  0
ARC
  5
15E
100
AcDbEntity
  8
1
  6
CONTINUOUS
 62
             3
100
AcDbCircle
 10
645.3028604451091
 20
923.66480150709447
 40
1.99999999999998
100
AcDbArc
 50
-26.00000000000947
 51
47.00000000000996
  0
ARC
  5
15D
100
AcDbEntity
  8
1
  6
CONTINUOUS
 62
             3
100
AcDbCircle
 10
631.18931733319755
 20
905.26797557564953
 40
2.00000000000003
100
AcDbArc
 50
177.85727414929175
 51
-161.78669830063748
  0
ARC
  5
15C
100
AcDbEntity
  8
1
  6
CONTINUOUS
 62
             3
100
AcDbCircle
 10
631.18931733319755
 20
905.26797557564953
 40
1.99999999999998
100
AcDbArc
 50
75.78669830063117
 51
96.14272585071191
  0
ARC
  5
15B
100
AcDbEntity
  8
1
  6
CONTINUOUS
 62
             3
100
AcDbCircle
 10
611.7510235619294
 20
1008.541142248066
 40
2.0000000000002
100
AcDbArc
 50
61.99999999999973
 51
135.0000000000023
  0
ARC
  5
15A
100
AcDbEntity
  8
1
  6
CONTINUOUS
 62
             3
100
AcDbCircle
 10
627.35412967531533
 20
1000.2448235643629
 40
2.00000000000001
100
AcDbArc
 50
-16.21330169936657
 51
61.99999999999973
  0
ARC
  5
159
100
AcDbEntity
  8
1
  6
CONTINUOUS
 62
             3
100
AcDbCircle
 10
636.09475389779755
 20
991.50419934188017
 40
2.00000000000004
100
AcDbArc
 50
27.99999999999892
 51
106.21330169936344
  0
ARC
  5
158
100
AcDbEntity
  8
1
  6
CONTINUOUS
 62
             3
100
AcDbCircle
 10
644.39107258149977
 20
975.90109322849401
 40
2.00000000000002
100
AcDbArc
 50
-45.0
 51
27.99999999999892
  0
ARC
  5
157
100
AcDbEntity
  8
1
  6
CONTINUOUS
 62
             3
100
AcDbCircle
 10
629.64408709278916
 20
993.79415675935422
 40
2.00000000000006
100
AcDbArc
 50
-94.14272585071944
 51
-73.78669830063656
  0
ARC
  5
156
100
AcDbEntity
  8
1
  6
CONTINUOUS
 62
             3
100
AcDbCircle
 10
629.64408709278916
 20
993.79415675935422
 40
1.99999999999998
100
AcDbArc
 50
163.78669830063657
 51
-175.85727414928706
  0
ARC
  5
155
100
AcDbEntity
  8
1
  6
CONTINUOUS
 62
             3
100
AcDbCircle
 10
555.34004410152295
 20
1007.55648493892
 40
1.99999999999976
100
AcDbArc
 50
46.99999999999409
 51
120.00000000001195
  0
ARC
  5
154
100
AcDbEntity
  8
1
  6
CONTINUOUS
 62
             3
100
AcDbCircle
 10
540.0359803253441
 20
998.72067959804735
 40
1.99999999999977
100
AcDbArc
 50
120.00000000000381
 51
-161.78669830063748
  0
ARC
  5
153
100
AcDbEntity
  8
1
  6
CONTINUOUS
 62
             3
100
AcDbCircle
 10
537.97254291294655
 20
992.19402400362515
 40
2.00000000000004
100
AcDbArc
 50
-2.14272585071153
 51
18.21330169936253
  0
ARC
  5
152
100
AcDbEntity
  8
1
  6
CONTINUOUS
 62
             3
100
AcDbCircle
 10
531.60572404120376
 20
989.68033654144745
 40
1.99999999999995
100
AcDbArc
 50
75.78669830063433
 51
153.99999999999054
  0
ARC
  5
151
100
AcDbEntity
  8
1
  6
CONTINUOUS
 62
             3
100
AcDbCircle
 10
523.85899980103522
 20
973.79719807218021
 40
1.99999999999998
100
AcDbArc
 50
153.99999999999054
 51
-132.99999999999005
  0
ARC
  5
150
100
AcDbEntity
  8
1
  6
CONTINUOUS
 62
             3
100
AcDbCircle
 10
537.97254291294655
 20
992.19402400362515
 40
1.99999999999995
100
AcDbArc
 50
-104.21330169936567
 51
-83.85727414929133
  0
ARC
  5
14F
100
AcDbEntity
  8
1
  6
CONTINUOUS
 62
             3
100
AcDbCircle
 10
557.41083668421481
 20
888.92085733120905
 40
2.0
100
AcDbArc
 50
-118.00000000000333
 51
-45.0
  0
ARC
  5
14E
100
AcDbEntity
  8
1
  6
CONTINUOUS
 62
             3
100
AcDbCircle
 10
541.80773057082899
 20
897.21717601491196
 40
1.99999999999998
100
AcDbArc
 50
163.78669830063657
 51
-118.00000000000333
  0
ARC
  5
14D
100
AcDbEntity
  8
1
  6
CONTINUOUS
 62
             3
100
AcDbCircle
 10
539.51777315335505
 20
903.66784281992045
 40
2.00000000000005
100
AcDbArc
 50
85.85727414928381
 51
106.21330169936344
  0
ARC
  5
14C
100
AcDbEntity
  8
1
  6
CONTINUOUS
 62
             3
100
AcDbCircle
 10
533.06710634834667
 20
905.95780023739439
 40
2.00000000000004
100
AcDbArc
 50
-152.00000000000108
 51
-73.78669830063656
  0
ARC
  5
14B
100
AcDbEntity
  8
1
  6
CONTINUOUS
 62
             3
100
AcDbCircle
 10
524.77078766464433
 20
921.5609063507809
 40
2.00000000000002
100
AcDbArc
 50
134.9999999999954
 51
-152.00000000000108
  0
ARC
  5
14A
100
AcDbEntity
  8
1
  6
CONTINUOUS
 62
             3
100
AcDbCircle
 10
539.51777315335505
 20
903.66784281992045
 40
1.99999999999998
100
AcDbArc
 50
-16.21330169936344
 51
4.1427258507162
  0
ARC
  5
149
100
AcDbEntity
  8
1
  6
CONTINUOUS
 62
             3
100
AcDbCircle
 10
716.88785563219312
 20
888.92500676211932
 40
0.925
100
AcDbArc
 50
-169.66760428904377
 51
-10.3323957109134
  0
ARC
  5
148
100
AcDbEntity
  8
1
  6
CONTINUOUS
 62
             3
100
AcDbCircle
 10
716.88785563219312
 20
926.16912045332253
 40
0.92500000000003
100
AcDbArc
 50
10.33239571092725
 51
169.66760428903686
  0
ARC
  5
147
100
AcDbEntity
  8
1
  6
CONTINUOUS
 62
             3
100
AcDbCircle
 10
715.07785563219318
 20
887.40099978963735
 40
0.89999999999998
100
AcDbArc
 50
180.0
 51
-3.18473853670297
  0
ARC
  5
146
100
AcDbEntity
  8
1
  6
CONTINUOUS
 62
             3
100
AcDbCircle
 10
713.02785563219322
 20
944.63352081327105
 40
1.14999999999998
100
AcDbArc
 50
0.0
 51
180.0
  0
ARC
  5
145
100
AcDbEntity
  8
1
  6
CONTINUOUS
 62
             3
100
AcDbCircle
 10
718.94785563219318
 20
888.63099978963771
 40
1.14999999999998
100
AcDbArc
 50
180.0
 51
-90.0
  0
ARC
  5
144
100
AcDbEntity
  8
1
  6
CONTINUOUS
 62
             3
100
AcDbCircle
 10
718.94785563219318
 20
888.63099978963771
 40
1.15000000000009
100
AcDbArc
 50
-90.0
 51
0.0
  0
ARC
  5
143
100
AcDbEntity
  8
1
  6
CONTINUOUS
 62
             3
100
AcDbCircle
 10
716.88785563219312
 20
1008.536992817156
 40
0.92499999999982
100
AcDbArc
 50
10.33239571085798
 51
169.66760428907841
  0
ARC
  5
142
100
AcDbEntity
  8
1
  6
CONTINUOUS
 62
             3
100
AcDbCircle
 10
716.88785563219312
 20
971.29287912595225
 40
0.92500000000004
100
AcDbArc
 50
-169.66760428902992
 51
-10.33239571092725
  0
ARC
  5
141
100
AcDbEntity
  8
1
  6
CONTINUOUS
 62
             3
100
AcDbCircle
 10
715.07785563219318
 20
1010.060999789637
 40
0.90000000000003
100
AcDbArc
 50
3.18473853672465
 51
180.0
  0
ARC
  5
140
100
AcDbEntity
  8
1
  6
CONTINUOUS
 62
             3
100
AcDbCircle
 10
713.02785563219322
 20
952.82847876600374
 40
1.14999999999998
100
AcDbArc
 50
180.0
 51
0.0
  0
ARC
  5
13F
100
AcDbEntity
  8
1
  6
CONTINUOUS
 62
             3
100
AcDbCircle
 10
718.94785563219318
 20
1008.830999789637
 40
1.15000000000009
100
AcDbArc
 50
90.0
 51
180.0
  0
ARC
  5
13E
100
AcDbEntity
  8
1
  6
CONTINUOUS
 62
             3
100
AcDbCircle
 10
718.94785563219318
 20
1008.830999789637
 40
1.14999999999998
100
AcDbArc
 50
0.0
 51
90.0
  0
ARC
  5
13D
100
AcDbEntity
  8
1
  6
CONTINUOUS
 62
             3
100
AcDbCircle
 10
584.58093012307211
 20
948.73099978963739
 40
62.23000000000003
100
AcDbArc
 50
-133.81656705344989
 51
-90.0
  0
ARC
  5
13C
100
AcDbEntity
  8
1
  6
CONTINUOUS
 62
             3
100
AcDbCircle
 10
584.58093012307211
 20
948.73099978963739
 40
58.85887849348533
100
AcDbArc
 50
111.77944079284268
 51
113.70144638329531
  0
ARC
  5
13B
100
AcDbEntity
  8
1
  6
CONTINUOUS
 62
             3
100
AcDbCircle
 10
584.58093012307211
 20
948.73099978963739
 40
58.85887849348527
100
AcDbArc
 50
-68.22055920715719
 51
-66.29855361670145
  0
ARC
  5
13A
100
AcDbEntity
  8
1
  6
CONTINUOUS
 62
             3
100
AcDbCircle
 10
584.58093012307211
 20
948.73099978963739
 40
58.85887849348522
100
AcDbArc
 50
19.77944079284302
 51
21.70144638329855
  0
ARC
  5
139
100
AcDbEntity
  8
1
  6
CONTINUOUS
 62
             3
100
AcDbCircle
 10
584.58093012307211
 20
948.73099978963739
 40
58.85887849348524
100
AcDbArc
 50
-160.22055920715664
 51
-158.29855361670147
  0
ARC
  5
138
100
AcDbEntity
  8
1
  6
CONTINUOUS
 62
             3
100
AcDbCircle
 10
584.58093012307211
 20
948.73099978963739
 40
6.83000000000003
100
AcDbArc
 50
-135.29478951409322
 51
-44.7052104859068
  0
ARC
  5
137
100
AcDbEntity
  8
1
  6
CONTINUOUS
 62
             3
100
AcDbCircle
 10
584.58093012307211
 20
948.73099978963739
 40
8.63000000000002
100
AcDbArc
 50
-142.08280581193645
 51
-37.91719418806353
  0
ARC
  5
136
100
AcDbEntity
  8
1
  6
CONTINUOUS
 62
             3
100
AcDbCircle
 10
584.58093012307211
 20
948.73099978963739
 40
15.32999999999999
100
AcDbArc
 50
-147.75061673938484
 51
-32.24938326061552
  0
ARC
  5
135
100
AcDbEntity
  8
1
  6
CONTINUOUS
 62
             3
100
AcDbCircle
 10
584.58093012307211
 20
948.73099978963739
 40
13.53000000000001
100
AcDbArc
 50
-147.60255917459503
 51
-32.397440825405
  0
ARC
  5
134
100
AcDbEntity
  8
1
  6
CONTINUOUS
 62
             3
100
AcDbCircle
 10
584.58093012307211
 20
948.73099978963739
 40
20.23000000000005
100
AcDbArc
 50
-146.03322166143155
 51
-33.96677833856845
  0
ARC
  5
133
100
AcDbEntity
  8
1
  6
CONTINUOUS
 62
             3
100
AcDbCircle
 10
584.58093012307211
 20
948.73099978963739
 40
22.03000000000004
100
AcDbArc
 50
-144.74895008734271
 51
-35.09894350257058
  0
ARC
  5
132
100
AcDbEntity
  8
1
  6
CONTINUOUS
 62
             3
100
AcDbCircle
 10
584.58093012307211
 20
948.73099978963739
 40
26.92999999999985
100
AcDbArc
 50
-141.62404241825411
 51
-37.61072218556418
  0
ARC
  5
131
100
AcDbEntity
  8
1
  6
CONTINUOUS
 62
             3
100
AcDbCircle
 10
584.58093012307211
 20
948.73099978963739
 40
28.73000000000003
100
AcDbArc
 50
-140.75168171700159
 51
-38.31414078686177
  0
ARC
  5
130
100
AcDbEntity
  8
1
  6
CONTINUOUS
 62
             3
100
AcDbCircle
 10
584.58093012307211
 20
948.73099978963739
 40
35.43000000000001
100
AcDbArc
 50
-138.29912974891815
 51
-40.29608588592434
  0
ARC
  5
12F
100
AcDbEntity
  8
1
  6
CONTINUOUS
 62
             3
100
AcDbCircle
 10
584.58093012307211
 20
948.73099978963739
 40
33.63
100
AcDbArc
 50
-138.86015872259856
 51
-39.84218826193499
  0
ARC
  5
12E
100
AcDbEntity
  8
1
  6
CONTINUOUS
 62
             3
100
AcDbCircle
 10
584.58093012307211
 20
948.73099978963739
 40
42.13
100
AcDbArc
 50
-136.63786533199624
 51
-41.64170674213043
  0
ARC
  5
12D
100
AcDbEntity
  8
1
  6
CONTINUOUS
 62
             3
100
AcDbCircle
 10
584.58093012307211
 20
948.73099978963739
 40
40.32999999999998
100
AcDbArc
 50
-137.02923274137808
 51
-41.32450039777114
  0
ARC
  5
12C
100
AcDbEntity
  8
1
  6
CONTINUOUS
 62
             3
100
AcDbCircle
 10
584.58093012307211
 20
948.73099978963739
 40
48.82999999999999
100
AcDbArc
 50
-135.43716569213129
 51
-42.61556962604662
  0
ARC
  5
12B
100
AcDbEntity
  8
1
  6
CONTINUOUS
 62
             3
100
AcDbCircle
 10
584.58093012307211
 20
948.73099978963739
 40
47.03000000000002
100
AcDbArc
 50
-135.72581024765907
 51
-42.38136644274853
  0
ARC
  5
12A
100
AcDbEntity
  8
1
  6
CONTINUOUS
 62
             3
100
AcDbCircle
 10
584.58093012307211
 20
948.73099978963739
 40
55.52999999999999
100
AcDbArc
 50
-134.52844078371712
 51
-43.35323598849119
  0
ARC
  5
129
100
AcDbEntity
  8
1
  6
CONTINUOUS
 62
             3
100
AcDbCircle
 10
584.58093012307211
 20
948.73099978963739
 40
53.73
100
AcDbArc
 50
-134.75014912610777
 51
-43.17321712246463
  0
ARC
  5
128
100
AcDbEntity
  8
1
  6
CONTINUOUS
 62
             3
100
AcDbCircle
 10
584.58093012307211
 20
948.73099978963739
 40
62.23000000000002
100
AcDbArc
 50
-90.0
 51
-43.93143133887075
  0
ARC
  5
127
100
AcDbEntity
  8
1
  6
CONTINUOUS
 62
             3
100
AcDbCircle
 10
584.58093012307211
 20
948.73099978963739
 40
60.42999999999999
100
AcDbArc
 50
-133.99222024156089
 51
-43.78873841730928
  0
ARC
  5
126
100
AcDbEntity
  8
1
  6
CONTINUOUS
 62
             3
100
AcDbCircle
 10
584.58093012307211
 20
948.73099978963739
 40
6.82999999999995
100
AcDbArc
 50
156.111111866253
 51
-156.11111186625087
  0
ARC
  5
125
100
AcDbEntity
  8
1
  6
CONTINUOUS
 62
             3
100
AcDbCircle
 10
584.58093012307211
 20
948.73099978963739
 40
8.63000000000006
100
AcDbArc
 50
157.76495742150021
 51
-157.76495742149854
  0
ARC
  5
124
100
AcDbEntity
  8
1
  6
CONTINUOUS
 62
             3
100
AcDbCircle
 10
584.58093012307211
 20
948.73099978963739
 40
13.53
100
AcDbArc
 50
157.32598622831733
 51
-156.68781489098149
  0
ARC
  5
123
100
AcDbEntity
  8
1
  6
CONTINUOUS
 62
             3
100
AcDbCircle
 10
584.58093012307211
 20
948.73099978963739
 40
15.33000000000003
100
AcDbArc
 50
156.35431422790293
 51
-156.35431422790279
  0
ARC
  5
122
100
AcDbEntity
  8
1
  6
CONTINUOUS
 62
             3
100
AcDbCircle
 10
584.58093012307211
 20
948.73099978963739
 40
22.03000000000002
100
AcDbArc
 50
151.09261077111026
 51
-150.92450744035327
  0
ARC
  5
121
100
AcDbEntity
  8
1
  6
CONTINUOUS
 62
             3
100
AcDbCircle
 10
584.58093012307211
 20
948.73099978963739
 40
20.22999999999994
100
AcDbArc
 50
152.70250896664618
 51
-152.70250896664589
  0
ARC
  5
120
100
AcDbEntity
  8
1
  6
CONTINUOUS
 62
             3
100
AcDbCircle
 10
584.58093012307211
 20
948.73099978963739
 40
26.92999999999998
100
AcDbArc
 50
147.42588392893927
 51
-146.59638406644021
  0
ARC
  5
11F
100
AcDbEntity
  8
1
  6
CONTINUOUS
 62
             3
100
AcDbCircle
 10
584.58093012307211
 20
948.73099978963739
 40
28.72999999999993
100
AcDbArc
 50
146.38996138570613
 51
-145.38247725301218
  0
ARC
  5
11E
100
AcDbEntity
  8
1
  6
CONTINUOUS
 62
             3
100
AcDbCircle
 10
584.58093012307211
 20
948.73099978963739
 40
33.6299999999999
100
AcDbArc
 50
144.14865878262358
 51
-142.76335077417008
  0
ARC
  5
11D
100
AcDbEntity
  8
1
  6
CONTINUOUS
 62
             3
100
AcDbCircle
 10
584.58093012307211
 20
948.73099978963739
 40
35.42999999999996
100
AcDbArc
 50
143.48503353117454
 51
-141.98955362435461
  0
ARC
  5
11C
100
AcDbEntity
  8
1
  6
CONTINUOUS
 62
             3
100
AcDbCircle
 10
584.58093012307211
 20
948.73099978963739
 40
42.13000000000004
100
AcDbArc
 50
141.52263449908168
 51
-139.70526040217396
  0
ARC
  5
11B
100
AcDbEntity
  8
1
  6
CONTINUOUS
 62
             3
100
AcDbCircle
 10
584.58093012307211
 20
948.73099978963739
 40
40.32999999999998
100
AcDbArc
 50
141.98461017413277
 51
-140.24252750943228
  0
ARC
  5
11A
100
AcDbEntity
  8
1
  6
CONTINUOUS
 62
             3
100
AcDbCircle
 10
584.58093012307211
 20
948.73099978963739
 40
47.02999999999999
100
AcDbArc
 50
140.44675142769444
 51
-138.4550756513533
  0
ARC
  5
119
100
AcDbEntity
  8
1
  6
CONTINUOUS
 62
             3
100
AcDbCircle
 10
584.58093012307211
 20
948.73099978963739
 40
48.82999999999998
100
AcDbArc
 50
140.10645481935791
 51
-138.05993099498079
  0
ARC
  5
118
100
AcDbEntity
  8
1
  6
CONTINUOUS
 62
             3
100
AcDbCircle
 10
584.58093012307211
 20
948.73099978963739
 40
55.53000000000006
100
AcDbArc
 50
139.03567336743438
 51
-136.81736544212089
  0
ARC
  5
117
100
AcDbEntity
  8
1
  6
CONTINUOUS
 62
             3
100
AcDbCircle
 10
584.58093012307211
 20
948.73099978963739
 40
53.73
100
AcDbArc
 50
139.29684555954967
 51
-137.12033041294453
  0
ARC
  5
116
100
AcDbEntity
  8
1
  6
CONTINUOUS
 62
             3
100
AcDbCircle
 10
584.58093012307211
 20
948.73099978963739
 40
60.43000000000006
100
AcDbArc
 50
138.40418993455748
 51
-136.08509551436816
  0
ARC
  5
115
100
AcDbEntity
  8
1
  6
CONTINUOUS
 62
             3
100
AcDbCircle
 10
584.58093012307211
 20
948.73099978963739
 40
62.22999999999997
100
AcDbArc
 50
138.19738458302839
 51
-135.84536036118141
  0
ARC
  5
114
100
AcDbEntity
  8
1
  6
CONTINUOUS
 62
             3
100
AcDbCircle
 10
584.58093012307211
 20
948.73099978963739
 40
6.82999999999993
100
AcDbArc
 50
90.0
 51
135.29478951406622
  0
ARC
  5
113
100
AcDbEntity
  8
1
  6
CONTINUOUS
 62
             3
100
AcDbCircle
 10
584.58093012307211
 20
948.73099978963739
 40
8.63
100
AcDbArc
 50
90.0
 51
142.08280581191715
  0
ARC
  5
112
100
AcDbEntity
  8
1
  6
CONTINUOUS
 62
             3
100
AcDbCircle
 10
584.58093012307211
 20
948.73099978963739
 40
13.52999999999997
100
AcDbArc
 50
90.0
 51
147.60255917458417
  0
ARC
  5
111
100
AcDbEntity
  8
1
  6
CONTINUOUS
 62
             3
100
AcDbCircle
 10
584.58093012307211
 20
948.73099978963739
 40
15.32999999999993
100
AcDbArc
 50
90.0
 51
147.75061673937469
  0
ARC
  5
110
100
AcDbEntity
  8
1
  6
CONTINUOUS
 62
             3
100
AcDbCircle
 10
584.58093012307211
 20
948.73099978963739
 40
20.23000000000002
100
AcDbArc
 50
90.0
 51
146.03322166142414
  0
ARC
  5
10F
100
AcDbEntity
  8
1
  6
CONTINUOUS
 62
             3
100
AcDbCircle
 10
584.58093012307211
 20
948.73099978963739
 40
22.02999999999997
100
AcDbArc
 50
90.0
 51
144.90105649742944
  0
ARC
  5
10E
100
AcDbEntity
  8
1
  6
CONTINUOUS
 62
             3
100
AcDbCircle
 10
584.58093012307211
 20
948.73099978963739
 40
26.92999999999995
100
AcDbArc
 50
90.0
 51
142.38927781443581
  0
ARC
  5
10D
100
AcDbEntity
  8
1
  6
CONTINUOUS
 62
             3
100
AcDbCircle
 10
584.58093012307211
 20
948.73099978963739
 40
28.73000000000002
100
AcDbArc
 50
90.0
 51
141.68585921313823
  0
ARC
  5
10C
100
AcDbEntity
  8
1
  6
CONTINUOUS
 62
             3
100
AcDbCircle
 10
584.58093012307211
 20
948.73099978963739
 40
33.63
100
AcDbArc
 50
90.0
 51
140.15781173806531
  0
ARC
  5
10B
100
AcDbEntity
  8
1
  6
CONTINUOUS
 62
             3
100
AcDbCircle
 10
584.58093012307211
 20
948.73099978963739
 40
35.42999999999995
100
AcDbArc
 50
90.00000000000019
 51
139.70391411407567
  0
ARC
  5
10A
100
AcDbEntity
  8
1
  6
CONTINUOUS
 62
             3
100
AcDbCircle
 10
584.58093012307211
 20
948.73099978963739
 40
40.32999999999993
100
AcDbArc
 50
90.00000000000017
 51
138.67549960222911
  0
ARC
  5
109
100
AcDbEntity
  8
1
  6
CONTINUOUS
 62
             3
100
AcDbCircle
 10
584.58093012307211
 20
948.73099978963739
 40
42.13
100
AcDbArc
 50
90.00000000000016
 51
138.35829325786958
  0
ARC
  5
108
100
AcDbEntity
  8
1
  6
CONTINUOUS
 62
             3
100
AcDbCircle
 10
584.58093012307211
 20
948.73099978963739
 40
48.82999999999993
100
AcDbArc
 50
90.00000000000014
 51
137.38443037395359
  0
ARC
  5
107
100
AcDbEntity
  8
1
  6
CONTINUOUS
 62
             3
100
AcDbCircle
 10
584.58093012307211
 20
948.73099978963739
 40
47.02999999999997
100
AcDbArc
 50
90.00000000000014
 51
137.61863355725148
  0
ARC
  5
106
100
AcDbEntity
  8
1
  6
CONTINUOUS
 62
             3
100
AcDbCircle
 10
584.58093012307211
 20
948.73099978963739
 40
53.72999999999956
100
AcDbArc
 50
90.00000000000013
 51
136.82678287753555
  0
ARC
  5
105
100
AcDbEntity
  8
1
  6
CONTINUOUS
 62
             3
100
AcDbCircle
 10
584.58093012307211
 20
948.73099978963739
 40
55.52999999999963
100
AcDbArc
 50
90.00000000000011
 51
136.64676401150891
  0
ARC
  5
104
100
AcDbEntity
  8
1
  6
CONTINUOUS
 62
             3
100
AcDbCircle
 10
584.58093012307211
 20
948.73099978963739
 40
60.42999999999961
100
AcDbArc
 50
90.00000000000011
 51
136.21126158269087
  0
ARC
  5
103
100
AcDbEntity
  8
1
  6
CONTINUOUS
 62
             3
100
AcDbCircle
 10
584.58093012307211
 20
948.73099978963739
 40
62.22999999999956
100
AcDbArc
 50
90.00000000000011
 51
136.06856866112949
  0
ARC
  5
102
100
AcDbEntity
  8
1
  6
CONTINUOUS
 62
             3
100
AcDbCircle
 10
584.58093012307211
 20
948.73099978963739
 40
6.82999999999994
100
AcDbArc
 50
-23.88888813374915
 51
23.88888813374702
  0
ARC
  5
101
100
AcDbEntity
  8
1
  6
CONTINUOUS
 62
             3
100
AcDbCircle
 10
584.58093012307211
 20
948.73099978963739
 40
8.63000000000004
100
AcDbArc
 50
-22.23504257850146
 51
22.23504257849978
  0
ARC
  5
100
100
AcDbEntity
  8
1
  6
CONTINUOUS
 62
             3
100
AcDbCircle
 10
584.58093012307211
 20
948.73099978963739
 40
13.52999999999994
100
AcDbArc
 50
-22.67401377168331
 51
22.67401377168268
  0
ARC
  5
FF
100
AcDbEntity
  8
1
  6
CONTINUOUS
 62
             3
100
AcDbCircle
 10
584.58093012307211
 20
948.73099978963739
 40
15.33000000000002
100
AcDbArc
 50
-23.64568577209802
 51
23.64568577209707
  0
ARC
  5
FE
100
AcDbEntity
  8
1
  6
CONTINUOUS
 62
             3
100
AcDbCircle
 10
584.58093012307211
 20
948.73099978963739
 40
20.22999999999999
100
AcDbArc
 50
-27.29749103335484
 51
27.29749103335383
  0
ARC
  5
FD
100
AcDbEntity
  8
1
  6
CONTINUOUS
 62
             3
100
AcDbCircle
 10
584.58093012307211
 20
948.73099978963739
 40
22.02999999999997
100
AcDbArc
 50
-28.90738565164929
 51
29.0754925596474
  0
ARC
  5
FC
100
AcDbEntity
  8
1
  6
CONTINUOUS
 62
             3
100
AcDbCircle
 10
584.58093012307211
 20
948.73099978963739
 40
26.92999999999993
100
AcDbArc
 50
-32.57411607106193
 51
33.40361593356101
  0
ARC
  5
FB
100
AcDbEntity
  8
1
  6
CONTINUOUS
 62
             3
100
AcDbCircle
 10
584.58093012307211
 20
948.73099978963739
 40
28.72999999999996
100
AcDbArc
 50
-33.6100386142952
 51
34.61752274698898
  0
ARC
  5
FA
100
AcDbEntity
  8
1
  6
CONTINUOUS
 62
             3
100
AcDbCircle
 10
584.58093012307211
 20
948.73099978963739
 40
33.63000000000005
100
AcDbArc
 50
-35.85134121737741
 51
37.23664922583048
  0
ARC
  5
F9
100
AcDbEntity
  8
1
  6
CONTINUOUS
 62
             3
100
AcDbCircle
 10
584.58093012307211
 20
948.73099978963739
 40
35.42999999999998
100
AcDbArc
 50
-36.51496646882612
 51
38.01044637564575
  0
ARC
  5
F8
100
AcDbEntity
  8
1
  6
CONTINUOUS
 62
             3
100
AcDbCircle
 10
584.58093012307211
 20
948.73099978963739
 40
40.33000000000001
100
AcDbArc
 50
-38.01538982586781
 51
39.75747249056828
  0
ARC
  5
F7
100
AcDbEntity
  8
1
  6
CONTINUOUS
 62
             3
100
AcDbCircle
 10
584.58093012307211
 20
948.73099978963739
 40
42.13000000000005
100
AcDbArc
 50
-38.47736550091911
 51
40.29473959782648
  0
ARC
  5
F6
100
AcDbEntity
  8
1
  6
CONTINUOUS
 62
             3
100
AcDbCircle
 10
584.58093012307211
 20
948.73099978963739
 40
47.02999999999987
100
AcDbArc
 50
-39.55324857230604
 51
41.54492434864697
  0
ARC
  5
F5
100
AcDbEntity
  8
1
  6
CONTINUOUS
 62
             3
100
AcDbCircle
 10
584.58093012307211
 20
948.73099978963739
 40
48.83000000000002
100
AcDbArc
 50
-39.89354518064278
 51
41.9400690050195
  0
ARC
  5
F4
100
AcDbEntity
  8
1
  6
CONTINUOUS
 62
             3
100
AcDbCircle
 10
584.58093012307211
 20
948.73099978963739
 40
53.73000000000005
100
AcDbArc
 50
-40.70315444045075
 51
42.87966958705567
  0
ARC
  5
F3
100
AcDbEntity
  8
1
  6
CONTINUOUS
 62
             3
100
AcDbCircle
 10
584.58093012307211
 20
948.73099978963739
 40
55.53000000000004
100
AcDbArc
 50
-40.96432663256595
 51
43.18263455787919
  0
ARC
  5
F2
100
AcDbEntity
  8
1
  6
CONTINUOUS
 62
             3
100
AcDbCircle
 10
584.58093012307211
 20
948.73099978963739
 40
60.43000000000005
100
AcDbArc
 50
-41.59581006544268
 51
43.91490448563185
  0
ARC
  5
F1
100
AcDbEntity
  8
1
  6
CONTINUOUS
 62
             3
100
AcDbCircle
 10
584.58093012307211
 20
948.73099978963739
 40
62.22999999999996
100
AcDbArc
 50
-41.80261541697177
 51
44.15463963881851
  0
ARC
  5
F0
100
AcDbEntity
  8
1
  6
CONTINUOUS
 62
             3
100
AcDbCircle
 10
584.58093012307211
 20
948.73099978963739
 40
62.23000000000003
100
AcDbArc
 50
46.18343294654998
 51
90.00000000000011
  0
ARC
  5
EF
100
AcDbEntity
  8
1
  6
CONTINUOUS
 62
             3
100
AcDbCircle
 10
584.58093012307211
 20
948.73099978963739
 40
60.42999999999999
100
AcDbArc
 50
46.00777975843895
 51
90.00000000000011
  0
ARC
  5
EE
100
AcDbEntity
  8
1
  6
CONTINUOUS
 62
             3
100
AcDbCircle
 10
584.58093012307211
 20
948.73099978963739
 40
55.52999999999992
100
AcDbArc
 50
45.47155921628281
 51
90.00000000000011
  0
ARC
  5
ED
100
AcDbEntity
  8
1
  6
CONTINUOUS
 62
             3
100
AcDbCircle
 10
584.58093012307211
 20
948.73099978963739
 40
53.73
100
AcDbArc
 50
45.24985087389207
 51
90.00000000000013
  0
ARC
  5
EC
100
AcDbEntity
  8
1
  6
CONTINUOUS
 62
             3
100
AcDbCircle
 10
584.58093012307211
 20
948.73099978963739
 40
48.82999999999991
100
AcDbArc
 50
44.56283430786841
 51
90.00000000000014
  0
ARC
  5
EB
100
AcDbEntity
  8
1
  6
CONTINUOUS
 62
             3
100
AcDbCircle
 10
584.58093012307211
 20
948.73099978963739
 40
47.02999999999986
100
AcDbArc
 50
44.27418975234073
 51
90.00000000000014
  0
ARC
  5
EA
100
AcDbEntity
  8
1
  6
CONTINUOUS
 62
             3
100
AcDbCircle
 10
584.58093012307211
 20
948.73099978963739
 40
42.13
100
AcDbArc
 50
43.36213466800378
 51
90.00000000000016
  0
ARC
  5
E9
100
AcDbEntity
  8
1
  6
CONTINUOUS
 62
             3
100
AcDbCircle
 10
584.58093012307211
 20
948.73099978963739
 40
40.33
100
AcDbArc
 50
42.97076725862149
 51
90.00000000000017
  0
ARC
  5
E8
100
AcDbEntity
  8
1
  6
CONTINUOUS
 62
             3
100
AcDbCircle
 10
584.58093012307211
 20
948.73099978963739
 40
35.42999999999995
100
AcDbArc
 50
41.70087025108121
 51
90.00000000000019
  0
ARC
  5
E7
100
AcDbEntity
  8
1
  6
CONTINUOUS
 62
             3
100
AcDbCircle
 10
584.58093012307211
 20
948.73099978963739
 40
33.63
100
AcDbArc
 50
41.13984127740117
 51
90.0
  0
ARC
  5
E6
100
AcDbEntity
  8
1
  6
CONTINUOUS
 62
             3
100
AcDbCircle
 10
584.58093012307211
 20
948.73099978963739
 40
28.72999999999997
100
AcDbArc
 50
39.24831828299794
 51
90.0
  0
ARC
  5
E5
100
AcDbEntity
  8
1
  6
CONTINUOUS
 62
             3
100
AcDbCircle
 10
584.58093012307211
 20
948.73099978963739
 40
26.92999999999996
100
AcDbArc
 50
38.3759575817454
 51
90.0
  0
ARC
  5
E4
100
AcDbEntity
  8
1
  6
CONTINUOUS
 62
             3
100
AcDbCircle
 10
584.58093012307211
 20
948.73099978963739
 40
22.02999999999991
100
AcDbArc
 50
35.2510499126568
 51
90.0
  0
ARC
  5
E3
100
AcDbEntity
  8
1
  6
CONTINUOUS
 62
             3
100
AcDbCircle
 10
584.58093012307211
 20
948.73099978963739
 40
20.23000000000004
100
AcDbArc
 50
33.96677833857586
 51
90.0
  0
ARC
  5
E2
100
AcDbEntity
  8
1
  6
CONTINUOUS
 62
             3
100
AcDbCircle
 10
584.58093012307211
 20
948.73099978963739
 40
15.32999999999996
100
AcDbArc
 50
32.2493832606253
 51
90.0
  0
ARC
  5
E1
100
AcDbEntity
  8
1
  6
CONTINUOUS
 62
             3
100
AcDbCircle
 10
584.58093012307211
 20
948.73099978963739
 40
13.53000000000002
100
AcDbArc
 50
32.39744082541582
 51
90.0
  0
ARC
  5
E0
100
AcDbEntity
  8
1
  6
CONTINUOUS
 62
             3
100
AcDbCircle
 10
584.58093012307211
 20
948.73099978963739
 40
8.62999999999998
100
AcDbArc
 50
37.91719418808286
 51
90.0
  0
ARC
  5
DF
100
AcDbEntity
  8
1
  6
CONTINUOUS
 62
             3
100
AcDbCircle
 10
584.58093012307211
 20
948.73099978963739
 40
6.83000000000001
100
AcDbArc
 50
44.70521048593377
 51
90.0
  0
ARC
  5
DE
100
AcDbEntity
  8
1
  6
CONTINUOUS
 62
             3
100
AcDbCircle
 10
584.58093012307199
 20
920.88887425080441
 40
25.84212553883411
100
AcDbArc
 50
43.89914832503136
 51
90.0
  0
ARC
  5
DD
100
AcDbEntity
  8
1
  6
CONTINUOUS
 62
             3
100
AcDbCircle
 10
584.58093012307211
 20
976.57312532847038
 40
25.84212553883395
100
AcDbArc
 50
-136.10085167496828
 51
-90.0
  0
ARC
  5
DC
100
AcDbEntity
  8
1
  6
CONTINUOUS
 62
             3
100
AcDbCircle
 10
641.2309301230722
 20
892.0809997896373
 40
4.59999999999998
100
AcDbArc
 50
-146.27763157537075
 51
101.28966676612389
  0
ARC
  5
DB
100
AcDbEntity
  8
1
  6
CONTINUOUS
 62
             3
100
AcDbCircle
 10
641.2309301230722
 20
892.0809997896373
 40
2.30000000000003
100
AcDbArc
 50
-132.70711803579599
 51
-110.97240828159001
  0
ARC
  5
DA
100
AcDbEntity
  8
1
  6
CONTINUOUS
 62
             3
100
AcDbCircle
 10
641.2309301230722
 20
892.0809997896373
 40
2.29999999999992
100
AcDbArc
 50
-110.97240828159001
 51
96.81528215628994
  0
ARC
  5
D9
100
AcDbEntity
  8
1
  6
CONTINUOUS
 62
             3
100
AcDbCircle
 10
527.93093012307213
 20
1005.380999789637
 40
4.60000000000011
100
AcDbArc
 50
33.72236842463672
 51
-78.71033323387695
  0
ARC
  5
D8
100
AcDbEntity
  8
1
  6
CONTINUOUS
 62
             3
100
AcDbCircle
 10
527.93093012307213
 20
1005.380999789637
 40
2.30000000000012
100
AcDbArc
 50
47.29288196420593
 51
69.02759171841203
  0
ARC
  5
D7
100
AcDbEntity
  8
1
  6
CONTINUOUS
 62
             3
100
AcDbCircle
 10
527.93093012307213
 20
1005.380999789637
 40
2.30000000000013
100
AcDbArc
 50
69.02759171841203
 51
-83.18471784371367
  0
ARC
  5
D6
100
AcDbEntity
  8
1
  6
CONTINUOUS
 62
             3
100
AcDbCircle
 10
527.93093012307202
 20
892.0809997896373
 40
4.59999999999988
100
AcDbArc
 50
99.69477670622
 51
113.26529024579757
  0
ARC
  5
D5
100
AcDbEntity
  8
1
  6
CONTINUOUS
 62
             3
100
AcDbCircle
 10
527.93093012307202
 20
892.0809997896373
 40
4.59999999999982
100
AcDbArc
 50
113.26529024579757
 51
134.99999999999901
  0
ARC
  5
D4
100
AcDbEntity
  8
1
  6
CONTINUOUS
 62
             3
100
AcDbCircle
 10
527.93093012307202
 20
892.0809997896373
 40
2.29999999999992
100
AcDbArc
 50
113.2652902457944
 51
134.99999999999801
  0
ARC
  5
D3
100
AcDbEntity
  8
1
  6
CONTINUOUS
 62
             3
100
AcDbCircle
 10
527.93093012307202
 20
892.0809997896373
 40
4.59999999999986
100
AcDbArc
 50
134.99999999999901
 51
2.66588890557098
  0
ARC
  5
D2
100
AcDbEntity
  8
1
  6
CONTINUOUS
 62
             3
100
AcDbCircle
 10
527.93093012307202
 20
892.0809997896373
 40
2.29999999999989
100
AcDbArc
 50
134.99999999999801
 51
-2.36412313309523
  0
ARC
  5
D1
100
AcDbEntity
  8
1
  6
CONTINUOUS
 62
             3
100
AcDbCircle
 10
641.23093012307197
 20
1005.380999789637
 40
4.59999999999981
100
AcDbArc
 50
-80.30522329377699
 51
-66.73470975420244
  0
ARC
  5
D0
100
AcDbEntity
  8
1
  6
CONTINUOUS
 62
             3
100
AcDbCircle
 10
641.23093012307197
 20
1005.380999789637
 40
4.59999999999982
100
AcDbArc
 50
-66.73470975420244
 51
-44.999999999999
  0
ARC
  5
CF
100
AcDbEntity
  8
1
  6
CONTINUOUS
 62
             3
100
AcDbCircle
 10
641.23093012307197
 20
1005.380999789637
 40
2.2999999999999
100
AcDbArc
 50
-66.73470975419927
 51
-44.999999999998
  0
ARC
  5
CE
100
AcDbEntity
  8
1
  6
CONTINUOUS
 62
             3
100
AcDbCircle
 10
641.23093012307197
 20
1005.380999789637
 40
4.60000000000002
100
AcDbArc
 50
-44.999999999999
 51
-177.33411109443597
  0
ARC
  5
CD
100
AcDbEntity
  8
1
  6
CONTINUOUS
 62
             3
100
AcDbCircle
 10
641.23093012307197
 20
1005.380999789637
 40
2.30000000000005
100
AcDbArc
 50
-44.999999999998
 51
177.63587686690738
  0
ARC
  5
CC
100
AcDbEntity
  8
1
  6
CONTINUOUS
 62
             3
100
AcDbCircle
 10
584.58093012307211
 20
948.73099978963739
 40
23.00000000000008
100
AcDbArc
 50
-35.78363631026422
 51
-35.6833261137867
  0
ARC
  5
CB
100
AcDbEntity
  8
1
  6
CONTINUOUS
 62
             3
100
AcDbCircle
 10
584.58093012307211
 20
920.8303091250898
 40
23.60069066454975
100
AcDbArc
 50
42.53021106990315
 51
137.46978892997595
  0
ARC
  5
CA
100
AcDbEntity
  8
1
  6
CONTINUOUS
 62
             3
100
AcDbCircle
 10
584.58093012307199
 20
920.88887425080441
 40
25.84212553883276
100
AcDbArc
 50
90.0
 51
136.10085167496905
  0
ARC
  5
C9
100
AcDbEntity
  8
1
  6
CONTINUOUS
 62
             3
100
AcDbCircle
 10
584.58093012307211
 20
976.63169045418533
 40
23.60069066454786
100
AcDbArc
 50
-137.46978892997652
 51
-42.53021107005664
  0
ARC
  5
C8
100
AcDbEntity
  8
1
  6
CONTINUOUS
 62
             3
100
AcDbCircle
 10
584.58093012307211
 20
976.57312532847038
 40
25.84212553883299
100
AcDbArc
 50
-90.0
 51
-43.89914832503114
  0
ARC
  5
C7
100
AcDbEntity
  8
1
  6
CONTINUOUS
 62
             3
100
AcDbCircle
 10
584.58093012307211
 20
948.73099978963739
 40
58.85887849348519
100
AcDbArc
 50
-19.70144638329846
 51
-17.77944079284368
  0
ARC
  5
C6
100
AcDbEntity
  8
1
  6
CONTINUOUS
 62
             3
100
AcDbCircle
 10
584.58093012307211
 20
948.73099978963739
 40
58.85887849348571
100
AcDbArc
 50
68.29855361670163
 51
70.22055920715708
  0
ARC
  5
C5
100
AcDbEntity
  8
1
  6
CONTINUOUS
 62
             3
100
AcDbCircle
 10
584.58093012307211
 20
948.73099978963739
 40
58.85887849348523
100
AcDbArc
 50
160.29855361669848
 51
162.22055920715633
  0
ARC
  5
C4
100
AcDbEntity
  8
1
  6
CONTINUOUS
 62
             3
100
AcDbCircle
 10
584.58093012307211
 20
948.73099978963739
 40
58.85887849348528
100
AcDbArc
 50
-111.70144638329856
 51
-109.77944079284254
  0
LINE
  5
C3
100
AcDbEntity
  8
1
  6
CONTINUOUS
 62
             3
100
AcDbLine
 10
720.09785563219316
 20
896.57723193718846
 11
717.7978556321932
 21
896.57723193718846
  0
LINE
  5
C2
100
AcDbEntity
  8
1
  6
CONTINUOUS
 62
             3
100
AcDbLine
 10
717.7978556321932
 20
1000.884767642086
 11
720.09785563219316
 21
1000.884767642086
  0
LINE
  5
C1
100
AcDbEntity
  8
1
  6
CONTINUOUS
 62
             3
100
AcDbLine
 10
537.07857014911735
 20
898.16243265212984
 11
535.50701271275273
 21
899.68607328912208
  0
LINE
  5
C0
100
AcDbEntity
  8
1
  6
CONTINUOUS
 62
             3
100
AcDbLine
 10
539.39085378447999
 20
901.12829802032604
 11
537.8234810236338
 21
902.66690130785628
  0
LINE
  5
BF
100
AcDbEntity
  8
1
  6
CONTINUOUS
 62
             3
100
AcDbLine
 10
535.92839273624168
 20
992.78881204863251
 11
537.50939504684663
 21
994.47409545219023
  0
LINE
  5
BE
100
AcDbEntity
  8
1
  6
CONTINUOUS
 62
             3
100
AcDbLine
 10
535.03158164198794
 20
997.29555734487383
 11
533.44256622394278
 21
995.61939838839544
  0
LINE
  5
BD
100
AcDbEntity
  8
1
  6
CONTINUOUS
 62
             3
100
AcDbLine
 10
631.33837922251053
 20
994.79509827141828
 11
629.77100646166434
 21
996.33370155894863
  0
LINE
  5
BC
100
AcDbEntity
  8
1
  6
CONTINUOUS
 62
             3
100
AcDbLine
 10
632.08329009702697
 20
999.29956692714484
 11
633.6548475333916
 21
997.77592629015248
  0
LINE
  5
BB
100
AcDbEntity
  8
1
  6
CONTINUOUS
 62
             3
100
AcDbLine
 10
635.71929402220132
 20
901.84260119087935
 11
634.13027860415616
 21
900.16644223440085
  0
LINE
  5
BA
100
AcDbEntity
  8
1
  6
CONTINUOUS
 62
             3
100
AcDbLine
 10
633.23346750990243
 20
904.67318753064228
 11
631.65246519929747
 21
902.98790412708445
  0
LINE
  5
B9
100
AcDbEntity
  8
1
  6
CONTINUOUS
 62
             3
100
AcDbLine
 10
530.47957159207613
 20
894.35754405818022
 11
530.77916647079485
 21
896.36218019988723
  0
LINE
  5
B8
100
AcDbEntity
  8
1
  6
CONTINUOUS
 62
             3
100
AcDbLine
 10
638.47159415879128
 20
1002.833334154156
 11
638.18037894236704
 21
1000.884767642086
  0
LINE
  5
B7
100
AcDbEntity
  8
1
  6
CONTINUOUS
 62
             3
100
AcDbLine
 10
717.7978556321932
 20
926.33502705355261
 11
717.7978556321932
 21
907.9453504837935
  0
LINE
  5
B6
100
AcDbEntity
  8
1
  6
CONTINUOUS
 62
             3
100
AcDbLine
 10
715.97785563219315
 20
907.36844251283935
 11
715.97785563219315
 21
887.35099978963763
  0
LINE
  5
B5
100
AcDbEntity
  8
1
  6
CONTINUOUS
 62
             3
100
AcDbLine
 10
715.97785563219315
 20
948.73099978963739
 11
715.97785563219315
 21
910.13279320699507
  0
LINE
  5
B4
100
AcDbEntity
  8
1
  6
CONTINUOUS
 62
             3
100
AcDbLine
 10
714.1778556321932
 20
909.53184740391771
 11
714.1778556321932
 21
907.33712048916391
  0
LINE
  5
B3
100
AcDbEntity
  8
1
  6
CONTINUOUS
 62
             3
100
AcDbLine
 10
711.87785563219325
 20
912.29619809807343
 11
717.7978556321932
 21
905.18099978963767
  0
LINE
  5
B2
100
AcDbEntity
  8
1
  6
CONTINUOUS
 62
             3
100
AcDbLine
 10
714.1778556321932
 20
912.29619809807343
 11
720.09785563219316
 21
905.18099978963767
  0
LINE
  5
B1
100
AcDbEntity
  8
1
  6
CONTINUOUS
 62
             3
100
AcDbLine
 10
714.1778556321932
 20
912.29619809807343
 11
714.1778556321932
 21
948.73099978963739
  0
LINE
  5
B0
100
AcDbEntity
  8
1
  6
CONTINUOUS
 62
             3
100
AcDbLine
 10
714.1778556321932
 20
887.39634960458864
 11
714.1778556321932
 21
907.33712048916391
  0
LINE
  5
AF
100
AcDbEntity
  8
1
  6
CONTINUOUS
 62
             3
100
AcDbLine
 10
717.7978556321932
 20
905.18099978963767
 11
717.7978556321932
 21
888.63099978963771
  0
LINE
  5
AE
100
AcDbEntity
  8
1
  6
CONTINUOUS
 62
             3
100
AcDbLine
 10
720.09785563219316
 20
905.18099978963767
 11
720.09785563219316
 21
888.63099978963771
  0
LINE
  5
AD
100
AcDbEntity
  8
1
  6
CONTINUOUS
 62
             3
100
AcDbLine
 10
711.87785563219325
 20
944.63352081327105
 11
711.87785563219325
 21
912.29619809807343
  0
LINE
  5
AC
100
AcDbEntity
  8
1
  6
CONTINUOUS
 62
             3
100
AcDbLine
 10
717.7978556321932
 20
989.51664909548128
 11
717.7978556321932
 21
971.12697252572218
  0
LINE
  5
AB
100
AcDbEntity
  8
1
  6
CONTINUOUS
 62
             3
100
AcDbLine
 10
715.97785563219315
 20
1010.110999789637
 11
715.97785563219315
 21
990.09355706643544
  0
LINE
  5
AA
100
AcDbEntity
  8
1
  6
CONTINUOUS
 62
             3
100
AcDbLine
 10
715.97785563219315
 20
987.32920637227971
 11
715.97785563219315
 21
948.73099978963739
  0
LINE
  5
A9
100
AcDbEntity
  8
1
  6
CONTINUOUS
 62
             3
100
AcDbLine
 10
714.1778556321932
 20
990.12487909011088
 11
714.1778556321932
 21
987.93015217535697
  0
LINE
  5
A8
100
AcDbEntity
  8
1
  6
CONTINUOUS
 62
             3
100
AcDbLine
 10
717.7978556321932
 20
992.28099978963701
 11
711.87785563219325
 21
985.16580148120136
  0
LINE
  5
A7
100
AcDbEntity
  8
1
  6
CONTINUOUS
 62
             3
100
AcDbLine
 10
720.09785563219316
 20
992.28099978963701
 11
714.1778556321932
 21
985.16580148120136
  0
LINE
  5
A6
100
AcDbEntity
  8
1
  6
DASH_CENTER
 62
             1
100
AcDbLine
 10
723.17785563219331
 20
892.08099978963764
 11
707.17785563219331
 21
892.08099978963764
  0
LINE
  5
A5
100
AcDbEntity
  8
1
  6
CONTINUOUS
 62
             3
100
AcDbLine
 10
714.1778556321932
 20
948.73099978963739
 11
714.1778556321932
 21
985.16580148120136
  0
LINE
  5
A4
100
AcDbEntity
  8
1
  6
CONTINUOUS
 62
             3
100
AcDbLine
 10
714.1778556321932
 20
990.12487909011088
 11
714.1778556321932
 21
1010.065649974686
  0
LINE
  5
A3
100
AcDbEntity
  8
1
  6
CONTINUOUS
 62
             3
100
AcDbLine
 10
717.7978556321932
 20
1008.830999789637
 11
717.7978556321932
 21
992.28099978963701
  0
LINE
  5
A2
100
AcDbEntity
  8
1
  6
CONTINUOUS
 62
             3
100
AcDbLine
 10
720.09785563219316
 20
1008.830999789637
 11
720.09785563219316
 21
992.28099978963701
  0
LINE
  5
A1
100
AcDbEntity
  8
1
  6
CONTINUOUS
 62
             3
100
AcDbLine
 10
711.87785563219325
 20
985.16580148120136
 11
711.87785563219325
 21
952.82847876600374
  0
LINE
  5
A0
100
AcDbEntity
  8
1
  6
DASH_CENTER
 62
             1
100
AcDbLine
 10
707.17785563219331
 20
1005.380999789637
 11
723.17785563219331
 21
1005.380999789637
  0
LINE
  5
9F
100
AcDbEntity
  8
1
  6
DASH_CENTER
 62
             1
100
AcDbLine
 10
723.42809590308968
 20
948.73099978963739
 11
704.9276153612966
 21
948.73099978963739
  0
LINE
  5
9E
100
AcDbEntity
  8
1
  6
CONTINUOUS
 62
             3
100
AcDbLine
 10
612.9818912199496
 20
890.41529181161479
 11
610.91151013947751
 21
892.34595340320914
  0
LINE
  5
9D
100
AcDbEntity
  8
1
  6
CONTINUOUS
 62
             3
100
AcDbLine
 10
628.98557249487044
 20
899.80762022138663
 11
627.66341247818718
 21
903.8258484802252
  0
LINE
  5
9C
100
AcDbEntity
  8
1
  6
CONTINUOUS
 62
             3
100
AcDbLine
 10
644.73573486446242
 20
924.46712015900164
 11
642.66535378398748
 21
926.3977817505978
  0
LINE
  5
9B
100
AcDbEntity
  8
1
  6
CONTINUOUS
 62
             3
100
AcDbLine
 10
638.19913580304365
 20
908.64377317741094
 11
645.06092839381722
 21
922.71253288638923
  0
LINE
  5
9A
100
AcDbEntity
  8
1
  6
CONTINUOUS
 62
             3
100
AcDbLine
 10
614.7548887600434
 20
890.21328425836691
 11
628.31072322276918
 21
898.03974893451164
  0
LINE
  5
99
100
AcDbEntity
  8
1
  6
CONTINUOUS
 62
             3
100
AcDbLine
 10
614.7548887600434
 20
890.21328425836691
 11
628.31072322276918
 21
898.03974893451164
  0
LINE
  5
98
100
AcDbEntity
  8
1
  6
CONTINUOUS
 62
             3
100
AcDbLine
 10
614.7548887600434
 20
890.21328425836691
 11
628.31072322276918
 21
898.03974893451164
  0
LINE
  5
97
100
AcDbEntity
  8
1
  6
CONTINUOUS
 62
             3
100
AcDbLine
 10
525.30956725056376
 20
922.38252864917479
 11
527.31130799297205
 21
924.38426939158273
  0
LINE
  5
96
100
AcDbEntity
  8
1
  6
CONTINUOUS
 62
             3
100
AcDbLine
 10
558.23245898260882
 20
889.45963691712836
 11
560.23419972501767
 21
891.46137765953711
  0
LINE
  5
95
100
AcDbEntity
  8
1
  6
CONTINUOUS
 62
             3
100
AcDbLine
 10
534.13765368575866
 20
906.06080885011602
 11
538.19957686765326
 21
907.24192929877142
  0
LINE
  5
94
100
AcDbEntity
  8
1
  6
CONTINUOUS
 62
             3
100
AcDbLine
 10
525.04580603305521
 20
920.61766113321619
 11
532.39441123825168
 21
906.79694484042125
  0
LINE
  5
93
100
AcDbEntity
  8
1
  6
CONTINUOUS
 62
             3
100
AcDbLine
 10
525.04580603305521
 20
920.61766113321619
 11
532.39441123825168
 21
906.79694484042125
  0
LINE
  5
92
100
AcDbEntity
  8
1
  6
CONTINUOUS
 62
             3
100
AcDbLine
 10
542.64687517385562
 20
896.54448090481696
 11
556.46759146665022
 21
889.19587569961993
  0
LINE
  5
91
100
AcDbEntity
  8
1
  6
CONTINUOUS
 62
             3
100
AcDbLine
 10
610.9294012635354
 20
1008.002362662146
 11
608.92766052112654
 21
1006.000621919738
  0
LINE
  5
90
100
AcDbEntity
  8
1
  6
CONTINUOUS
 62
             3
100
AcDbLine
 10
626.5149850722886
 20
1000.9175186744581
 11
612.694268779494
 21
1008.266123879655
  0
LINE
  5
8F
100
AcDbEntity
  8
1
  6
CONTINUOUS
 62
             3
100
AcDbLine
 10
635.02420656038555
 20
991.40119072915866
 11
630.96228337849095
 21
990.22007028050336
  0
LINE
  5
8E
100
AcDbEntity
  8
1
  6
CONTINUOUS
 62
             3
100
AcDbLine
 10
643.85229299558046
 20
975.0794709301
 11
641.85055225317217
 21
973.07773018769183
  0
LINE
  5
8D
100
AcDbEntity
  8
1
  6
CONTINUOUS
 62
             3
100
AcDbLine
 10
644.116054213089
 20
976.84433844605849
 11
636.76744900789254
 21
990.66505473885343
  0
LINE
  5
8C
100
AcDbEntity
  8
1
  6
CONTINUOUS
 62
             3
100
AcDbLine
 10
524.4261253816818
 20
972.99487942027315
 11
526.49650646215673
 21
971.06421782867699
  0
LINE
  5
8B
100
AcDbEntity
  8
1
  6
CONTINUOUS
 62
             3
100
AcDbLine
 10
530.96272444310057
 20
988.81822640186385
 11
524.10093185232699
 21
974.74946669288545
  0
LINE
  5
8A
100
AcDbEntity
  8
1
  6
CONTINUOUS
 62
             3
100
AcDbLine
 10
554.40697148610082
 20
1007.248715320908
 11
540.85113702337503
 21
999.42225064476304
  0
LINE
  5
89
100
AcDbEntity
  8
1
  6
DASH_CENTER
 62
             1
100
AcDbLine
 10
584.58093012307199
 20
1010.960999789637
 11
584.58093012307199
 21
1018.04246637413
  0
LINE
  5
88
100
AcDbEntity
  8
1
  6
DASH_CENTER
 62
             1
100
AcDbLine
 10
584.58093012307211
 20
886.50099978963738
 11
584.58093012307211
 21
879.41953320514529
  0
LINE
  5
87
100
AcDbEntity
  8
1
  6
CONTINUOUS
 62
             3
100
AcDbLine
 10
527.91947060210191
 20
969.73728230114932
 11
529.1675306088722
 21
968.57344751643075
  0
LINE
  5
86
100
AcDbEntity
  8
1
  6
CONTINUOUS
 62
             3
100
AcDbLine
 10
560.92137425338399
 20
1002.625275863818
 11
559.67331424661359
 21
1003.7891106485361
  0
LINE
  5
85
100
AcDbEntity
  8
1
  6
CONTINUOUS
 62
             3
100
AcDbLine
 10
639.99432963727304
 20
928.888552062847
 11
641.24238964404344
 21
927.72471727812842
  0
LINE
  5
84
100
AcDbEntity
  8
1
  6
CONTINUOUS
 62
             3
100
AcDbLine
 10
608.24048599276318
 20
894.83672371545833
 11
609.48854599953347
 21
893.67288893073987
  0
LINE
  5
83
100
AcDbEntity
  8
1
  6
CONTINUOUS
 62
             3
100
AcDbLine
 10
529.8937783936459
 20
926.96673979225682
 11
528.68709591954178
 21
925.76005731815269
  0
LINE
  5
82
100
AcDbEntity
  8
1
  6
CONTINUOUS
 62
             3
100
AcDbLine
 10
561.6099876515874
 20
892.83716558610706
 11
562.81667012569153
 21
894.04384806021119
  0
LINE
  5
81
100
AcDbEntity
  8
1
  6
CONTINUOUS
 62
             3
100
AcDbLine
 10
606.34519012045268
 20
1003.4181515190641
 11
607.55187259455681
 21
1004.624833993168
  0
LINE
  5
80
100
AcDbEntity
  8
1
  6
CONTINUOUS
 62
             3
100
AcDbLine
 10
639.26808185249831
 20
970.49525978701797
 11
640.47476432660244
 21
971.7019422611221
  0
LINE
  5
7F
100
AcDbEntity
  8
1
  6
CONTINUOUS
 62
             3
100
AcDbLine
 10
632.38197679005566
 20
908.88588920451207
 11
636.48264606730095
 21
907.84724733721305
  0
LINE
  5
7E
100
AcDbEntity
  8
1
  6
CONTINUOUS
 62
             3
100
AcDbLine
 10
543.09185963220591
 20
902.34964653421866
 11
541.9107391835505
 21
898.28772335232395
  0
LINE
  5
7D
100
AcDbEntity
  8
1
  6
CONTINUOUS
 62
             3
100
AcDbLine
 10
536.77988345608856
 20
988.57611037476261
 11
532.58600324337306
 21
989.63836126135163
  0
LINE
  5
7C
100
AcDbEntity
  8
1
  6
CONTINUOUS
 62
             3
100
AcDbLine
 10
626.07000061393819
 20
995.11235304505601
 11
627.25112106259371
 21
999.17427622695084
  0
LINE
  5
7B
100
AcDbEntity
  8
1
  6
CONTINUOUS
 62
             3
100
AcDbLine
 10
627.66598522809659
 20
993.6336826337282
 11
601.97277486162466
 21
960.67812231305345
  0
LINE
  5
7A
100
AcDbEntity
  8
1
  6
CONTINUOUS
 62
             3
100
AcDbLine
 10
556.17996902619461
 20
1007.04670776766
 11
558.2503501066667
 21
1005.116046176066
  0
LINE
  5
79
100
AcDbEntity
  8
1
  6
CONTINUOUS
 62
             3
100
AcDbLine
 10
540.17628775127378
 20
997.65437935788805
 11
541.49844776795703
 21
993.63615109904947
  0
LINE
  5
78
100
AcDbEntity
  8
1
  6
DASH_CENTER
 62
             1
100
AcDbLine
 10
642.08093012307222
 20
948.73099978963739
 11
653.89239670756422
 21
948.73099978963739
  0
LINE
  5
77
100
AcDbEntity
  8
1
  6
DASH_CENTER
 62
             1
100
AcDbLine
 10
527.08093012307211
 20
948.73099978963739
 11
515.26946353858
 21
948.73099978963728
  0
LINE
  5
76
100
AcDbEntity
  8
1
  6
DASH_CENTER
 62
             1
100
AcDbLine
 10
584.58093012307211
 20
948.73099978963739
 11
584.58093012307211
 21
886.50099978963738
  0
LINE
  5
75
100
AcDbEntity
  8
1
  6
DASH_CENTER
 62
             1
100
AcDbLine
 10
584.58093012307211
 20
948.73099978963739
 11
527.08093012307211
 21
948.73099978963739
  0
LINE
  5
74
100
AcDbEntity
  8
1
  6
DASH_CENTER
 62
             1
100
AcDbLine
 10
584.58093012307211
 20
948.73099978963739
 11
584.58093012307199
 21
1010.960999789637
  0
LINE
  5
73
100
AcDbEntity
  8
1
  6
DASH_CENTER
 62
             1
100
AcDbLine
 10
584.58093012307211
 20
948.73099978963739
 11
642.08093012307222
 21
948.73099978963739
  0
LINE
  5
72
100
AcDbEntity
  8
1
  6
CONTINUOUS
 62
             2
100
AcDbLine
 10
650.32129776787519
 20
1015.386105357195
 11
681.63052546278118
 21
1015.386105357195
  0
LINE
  5
71
100
AcDbEntity
  8
1
  6
DASH_CENTER
 62
             1
100
AcDbLine
 10
641.23093012307197
 20
995.38099978963726
 11
641.23093012307186
 21
1015.380999789637
  0
LINE
  5
70
100
AcDbEntity
  8
1
  6
DASH_CENTER
 62
             1
100
AcDbLine
 10
527.93093012307213
 20
995.38099978963749
 11
527.93093012307213
 21
1015.380999789637
  0
LINE
  5
6F
100
AcDbEntity
  8
1
  6
DASH_CENTER
 62
             1
100
AcDbLine
 10
527.93093012307179
 20
902.0809997896373
 11
527.93093012307179
 21
882.0809997896373
  0
LINE
  5
6E
100
AcDbEntity
  8
1
  6
DASH_CENTER
 62
             1
100
AcDbLine
 10
641.23093012307231
 20
882.08099978963753
 11
641.2309301230722
 21
902.08099978963708
  0
LINE
  5
6D
100
AcDbEntity
  8
1
  6
CONTINUOUS
 62
             3
100
AcDbLine
 10
640.33039139721711
 20
896.59198970352952
 11
636.53735566737464
 21
900.91108239563971
  0
LINE
  5
6C
100
AcDbEntity
  8
1
  6
CONTINUOUS
 62
             3
100
AcDbLine
 10
638.34783596501484
 20
895.36395091260226
 11
634.63226844779354
 21
899.59483130859041
  0
LINE
  5
6B
100
AcDbEntity
  8
1
  6
CONTINUOUS
 62
             3
100
AcDbLine
 10
638.52608031152647
 20
894.10016464816363
 11
636.25135770383474
 21
894.44021914093685
  0
LINE
  5
6A
100
AcDbEntity
  8
1
  6
CONTINUOUS
 62
             3
100
AcDbLine
 10
637.40493787149171
 20
889.52722155125286
 11
636.25135770383474
 21
894.44021914093685
  0
LINE
  5
69
100
AcDbEntity
  8
1
  6
CONTINUOUS
 62
             3
100
AcDbLine
 10
639.67095290265752
 20
890.39089000865044
 11
638.52608031152647
 21
894.10016464816363
  0
LINE
  5
68
100
AcDbEntity
  8
1
  6
CONTINUOUS
 62
             3
100
AcDbLine
 10
528.8314688489271
 20
1000.870009875745
 11
532.62450457876957
 21
996.55091718363508
  0
LINE
  5
67
100
AcDbEntity
  8
1
  6
CONTINUOUS
 62
             3
100
AcDbLine
 10
530.81402428112926
 20
1002.098048666672
 11
534.52959179835068
 21
997.86716827068437
  0
LINE
  5
66
100
AcDbEntity
  8
1
  6
CONTINUOUS
 62
             3
100
AcDbLine
 10
532.62450457876957
 20
996.55091718363508
 11
559.85537027730732
 21
965.54339671314301
  0
LINE
  5
65
100
AcDbEntity
  8
1
  6
CONTINUOUS
 62
             3
100
AcDbLine
 10
534.52959179835068
 20
997.86716827068437
 11
567.18908538452058
 21
960.67812231305254
  0
LINE
  5
64
100
AcDbEntity
  8
1
  6
CONTINUOUS
 62
             3
100
AcDbLine
 10
530.92092140930561
 20
1003.037147122384
 11
533.19564401699733
 21
1002.697092629611
  0
LINE
  5
63
100
AcDbEntity
  8
1
  6
CONTINUOUS
 62
             3
100
AcDbLine
 10
531.75692237465239
 20
1007.934778028022
 11
533.19564401699733
 21
1002.697092629611
  0
LINE
  5
62
100
AcDbEntity
  8
1
  6
CONTINUOUS
 62
             3
100
AcDbLine
 10
529.49090734348681
 20
1007.071109570624
 11
530.92092140930561
 21
1003.037147122384
  0
LINE
  5
61
100
AcDbEntity
  8
1
  6
CONTINUOUS
 62
             3
100
AcDbLine
 10
527.15629233790298
 20
896.61530638511442
 11
530.77916647079485
 21
896.36218019988723
  0
LINE
  5
60
100
AcDbEntity
  8
1
  6
CONTINUOUS
 62
             3
100
AcDbLine
 10
527.02245534104668
 20
894.1939772079794
 11
530.47957159207613
 21
894.35754405818022
  0
LINE
  5
5F
100
AcDbEntity
  8
1
  6
CONTINUOUS
 62
             3
100
AcDbLine
 10
536.44090067560694
 20
897.33270438862132
 11
532.52595173997031
 21
892.29495385068287
  0
LINE
  5
5E
100
AcDbEntity
  8
1
  6
CONTINUOUS
 62
             3
100
AcDbLine
 10
535.05249793369421
 20
899.10120433927204
 11
530.85761028778609
 21
893.70322908028481
  0
LINE
  5
5D
100
AcDbEntity
  8
1
  6
DASH_CENTER
 62
             1
100
AcDbLine
 10
537.93093012307202
 20
892.08099978963742
 11
517.93093012307202
 21
892.08099978963742
  0
LINE
  5
5C
100
AcDbEntity
  8
1
  6
CONTINUOUS
 62
             3
100
AcDbLine
 10
642.00556790824123
 20
1000.84669319416
 11
638.18037894236704
 21
1000.884767642086
  0
LINE
  5
5B
100
AcDbEntity
  8
1
  6
CONTINUOUS
 62
             3
100
AcDbLine
 10
642.13940490509754
 20
1003.268022371295
 11
638.47159415879128
 21
1002.833334154156
  0
LINE
  5
5A
100
AcDbEntity
  8
1
  6
CONTINUOUS
 62
             3
100
AcDbLine
 10
632.72095957053727
 20
1000.129295190653
 11
636.63590850617391
 21
1005.167045728592
  0
LINE
  5
59
100
AcDbEntity
  8
1
  6
CONTINUOUS
 62
             3
100
AcDbLine
 10
634.10936231245
 20
998.36079524000252
 11
638.3042499583579
 21
1003.75877049899
  0
LINE
  5
58
100
AcDbEntity
  8
1
  6
CONTINUOUS
 62
             3
100
AcDbLine
 10
632.72503220114197
 20
1000.122701534336
 11
627.66598522809659
 21
993.6336826337282
  0
LINE
  5
57
100
AcDbEntity
  8
1
  6
CONTINUOUS
 62
             3
100
AcDbLine
 10
634.10936231245
 20
998.36079524000252
 11
604.49027197723217
 21
960.2469933175181
  0
LINE
  5
56
100
AcDbEntity
  8
1
  6
DASH_CENTER
 62
             1
100
AcDbLine
 10
631.23093012307231
 20
892.08099978963719
 11
651.23093012307197
 21
892.0809997896373
  0
LINE
  5
55
100
AcDbEntity
  8
1
  6
DASH_CENTER
 62
             1
100
AcDbLine
 10
631.23093012307197
 20
1005.380999789637
 11
651.23093012307197
 21
1005.380999789637
  0
LINE
  5
54
100
AcDbEntity
  8
1
  6
DASH_CENTER
 62
             1
100
AcDbLine
 10
517.93093012307224
 20
1005.380999789637
 11
537.93093012307202
 21
1005.380999789637
  0
LINE
  5
53
100
AcDbEntity
  8
1
  6
CONTINUOUS
 62
             3
100
AcDbLine
 10
564.67158826891171
 20
937.21500626175737
 11
565.96009148272549
 21
938.80757455788512
  0
LINE
  5
52
100
AcDbEntity
  8
1
  6
CONTINUOUS
 62
             3
100
AcDbLine
 10
542.86652398921933
 20
909.1562815859661
 11
564.67158826891171
 21
937.21500626175737
  0
LINE
  5
51
100
AcDbEntity
  8
1
  6
CONTINUOUS
 62
             3
100
AcDbLine
 10
533.17771552108718
 20
896.68873708544459
 11
542.86652398921933
 21
909.1562815859661
  0
LINE
  5
50
100
AcDbEntity
  8
1
  6
CONTINUOUS
 62
             3
100
AcDbLine
 10
603.2017687634193
 20
938.80757455788614
 11
604.55541095574335
 21
937.32861007582903
  0
LINE
  5
4F
100
AcDbEntity
  8
1
  6
CONTINUOUS
 62
             3
100
AcDbLine
 10
638.66642962847379
 20
898.48672669711652
 11
604.55541095574335
 21
937.32861007582903
  0
LINE
  5
4E
100
AcDbEntity
  8
1
  6
CONTINUOUS
 62
             3
100
AcDbLine
 10
604.49027197723217
 20
960.2469933175181
 11
603.20176876341873
 21
958.65442502138944
  0
LINE
  5
4D
100
AcDbEntity
  8
1
  6
CONTINUOUS
 62
             3
100
AcDbLine
 10
564.60636396640007
 20
960.13348666104969
 11
565.96009148272503
 21
958.65442502138865
  0
LINE
  5
4C
100
AcDbEntity
  8
1
  6
CONTINUOUS
 62
             3
100
AcDbLine
 10
559.85537027730732
 20
965.54339671314301
 11
561.15329298013512
 21
964.06546482428644
  0
LINE
  5
4B
100
AcDbEntity
  8
1
  6
CONTINUOUS
 62
             3
100
AcDbLine
 10
561.15329298013512
 20
964.06546482428644
 11
564.60636396640007
 21
960.13348666104969
  0
LINE
  5
4A
100
AcDbEntity
  8
1
  6
CONTINUOUS
 62
             3
100
AcDbLine
 10
601.97277486162454
 20
936.78387726622111
 11
636.62319282726469
 21
897.32778518765235
  0
LINE
  5
49
100
AcDbEntity
  8
1
  6
CONTINUOUS
 62
             3
100
AcDbLine
 10
567.18908538452035
 20
936.78387726622225
 11
534.33665703055124
 21
894.64550028423571
  0
LINE
  5
48
100
AcDbEntity
  8
1
  6
CONTINUOUS
 62
             3
100
AcDbLine
 10
534.13765368575866
 20
906.06080885011602
 11
538.19957686765326
 21
907.24192929877142
  0
LINE
  5
47
100
AcDbEntity
  8
1
  6
CONTINUOUS
 62
             3
100
AcDbLine
 10
640.62865106417951
 20
930.75822719277267
 11
641.89512984935743
 21
929.57721661932146
  0
LINE
  5
46
100
AcDbEntity
  8
1
  6
CONTINUOUS
 62
             3
100
AcDbLine
 10
647.10044853770728
 20
922.78805921351602
 11
639.35372429753852
 21
906.90492074424856
  0
LINE
  5
45
100
AcDbEntity
  8
1
  6
CONTINUOUS
 62
             3
100
AcDbLine
 10
637.06507131654848
 20
905.84288629065145
 11
631.68038222158941
 21
907.20675232282508
  0
LINE
  5
44
100
AcDbEntity
  8
1
  6
CONTINUOUS
 62
             3
100
AcDbLine
 10
629.28951830372921
 20
904.64286466738508
 11
631.02567895026846
 21
899.36643088949177
  0
LINE
  5
43
100
AcDbEntity
  8
1
  6
CONTINUOUS
 62
             3
100
AcDbLine
 10
630.12587992080012
 20
897.00926917365848
 11
614.82181614462115
 21
888.1734638327863
  0
LINE
  5
42
100
AcDbEntity
  8
1
  6
CONTINUOUS
 62
             3
100
AcDbLine
 10
612.45781942449605
 20
888.44280723711688
 11
609.12869967359791
 21
891.54726162838847
  0
LINE
  5
41
100
AcDbEntity
  8
1
  6
CONTINUOUS
 62
             3
100
AcDbLine
 10
643.33773741433299
 20
928.2319633016059
 11
646.66685716523386
 21
925.12750891033306
  0
LINE
  5
40
100
AcDbEntity
  8
1
  6
CONTINUOUS
 62
             3
100
AcDbLine
 10
607.68609210862257
 20
892.89251494610437
 11
606.41961332344488
 21
894.07352551955591
  0
LINE
  5
3F
100
AcDbEntity
  8
1
  6
CONTINUOUS
 62
             3
100
AcDbLine
 10
604.49879144464489
 20
1004.117337255527
 11
605.72328205055203
 21
1005.341827861435
  0
LINE
  5
3E
100
AcDbEntity
  8
1
  6
CONTINUOUS
 62
             3
100
AcDbLine
 10
612.68996668750128
 20
1010.307037433784
 11
628.29307280088722
 21
1002.010718750081
  0
LINE
  5
3D
100
AcDbEntity
  8
1
  6
CONTINUOUS
 62
             3
100
AcDbLine
 10
629.27458745462741
 20
999.68639548673809
 11
627.72362931347709
 21
994.35258483697896
  0
LINE
  5
3C
100
AcDbEntity
  8
1
  6
CONTINUOUS
 62
             3
100
AcDbLine
 10
630.2025151704139
 20
991.87369898004215
 11
635.53632582017281
 21
993.42465712119224
  0
LINE
  5
3B
100
AcDbEntity
  8
1
  6
CONTINUOUS
 62
             3
100
AcDbLine
 10
637.86064908351545
 20
992.44314246745193
 11
646.15696776721768
 21
976.84003635406577
  0
LINE
  5
3A
100
AcDbEntity
  8
1
  6
CONTINUOUS
 62
             3
100
AcDbLine
 10
645.80528614387288
 20
974.4868796661209
 11
642.58653829856837
 21
971.26813182081651
  0
LINE
  5
39
100
AcDbEntity
  8
1
  6
CONTINUOUS
 62
             3
100
AcDbLine
 10
607.11806215425111
 20
1006.736607965134
 11
610.33680999955629
 21
1009.955355810439
  0
LINE
  5
38
100
AcDbEntity
  8
1
  6
CONTINUOUS
 62
             3
100
AcDbLine
 10
641.19175819486929
 20
969.87335171711754
 11
639.96726758896205
 21
968.64886111121041
  0
LINE
  5
37
100
AcDbEntity
  8
1
  6
CONTINUOUS
 62
             3
100
AcDbLine
 10
562.74224692269945
 20
1003.388474059719
 11
561.47576813752164
 21
1004.56948463317
  0
LINE
  5
36
100
AcDbEntity
  8
1
  6
CONTINUOUS
 62
             3
100
AcDbLine
 10
554.34004410152295
 20
1009.288535746488
 11
539.0359803253441
 21
1000.452730405616
  0
LINE
  5
35
100
AcDbEntity
  8
1
  6
CONTINUOUS
 62
             3
100
AcDbLine
 10
538.13618129587576
 20
998.09556868978291
 11
539.87234194241489
 21
992.81913491188959
  0
LINE
  5
34
100
AcDbEntity
  8
1
  6
CONTINUOUS
 62
             3
100
AcDbLine
 10
537.4814780245548
 20
990.25524725644959
 11
532.0967889295955
 21
991.619113288623
  0
LINE
  5
33
100
AcDbEntity
  8
1
  6
CONTINUOUS
 62
             3
100
AcDbLine
 10
529.80813594860558
 20
990.55707883502589
 11
522.06141170843705
 21
974.67394036575865
  0
LINE
  5
32
100
AcDbEntity
  8
1
  6
CONTINUOUS
 62
             3
100
AcDbLine
 10
522.49500308091046
 20
972.33449066894161
 11
525.82412283181134
 21
969.23003627766877
  0
LINE
  5
31
100
AcDbEntity
  8
1
  6
CONTINUOUS
 62
             3
100
AcDbLine
 10
560.03316057254631
 20
1005.914737950886
 11
556.70404082164794
 21
1009.019192342158
  0
LINE
  5
30
100
AcDbEntity
  8
1
  6
CONTINUOUS
 62
             3
100
AcDbLine
 10
527.26673039678678
 20
967.88478295995333
 11
528.53320918196471
 21
966.70377238650212
  0
LINE
  5
2F
100
AcDbEntity
  8
1
  6
CONTINUOUS
 62
             3
100
AcDbLine
 10
564.66306880149955
 20
893.34466232374723
 11
563.4385781955923
 21
892.12017171784009
  0
LINE
  5
2E
100
AcDbEntity
  8
1
  6
CONTINUOUS
 62
             3
100
AcDbLine
 10
556.47189355864293
 20
887.15496214549125
 11
540.86878744525711
 21
895.45128082919416
  0
LINE
  5
2D
100
AcDbEntity
  8
1
  6
CONTINUOUS
 62
             3
100
AcDbLine
 10
539.88727279151692
 20
897.7756040925367
 11
541.43823093266712
 21
903.10941474229571
  0
LINE
  5
2C
100
AcDbEntity
  8
1
  6
CONTINUOUS
 62
             3
100
AcDbLine
 10
538.95934507573031
 20
905.58830059923253
 11
533.62553442597141
 21
904.03734245808232
  0
LINE
  5
2B
100
AcDbEntity
  8
1
  6
CONTINUOUS
 62
             3
100
AcDbLine
 10
531.30121116262876
 20
905.01885711182263
 11
523.00489247892642
 21
920.62196322520913
  0
LINE
  5
2A
100
AcDbEntity
  8
1
  6
CONTINUOUS
 62
             3
100
AcDbLine
 10
523.35657410227134
 20
922.97511991315412
 11
526.57532194757573
 21
926.1938677584584
  0
LINE
  5
29
100
AcDbEntity
  8
1
  6
CONTINUOUS
 62
             3
100
AcDbLine
 10
527.97010205127492
 20
927.58864786215747
 11
529.19459265718228
 21
928.81313846806404
  0
LINE
  5
28
100
AcDbEntity
  8
1
  6
CONTINUOUS
 62
             3
100
AcDbLine
 10
562.0437980918897
 20
890.72539161414238
 11
558.82505024658792
 21
887.50664376883594
  0
SOLID
  5
17E
100
AcDbEntity
  8
1
 62
             2
100
AcDbTrace
 10
644.70388026238754
 20
1009.6372996717643
 11
645.33655476229649
 21
1009.0808311039897
 12
642.90681830620406
 22
1006.956245420527
 13
642.90681830620406
 23
1006.956245420527
  0
ENDSEC
  0
SECTION
  2
OBJECTS
  0
DICTIONARY
  5
19
100
AcDbDictionary
  3
ACAD_GROUP
350
1A
  3
ACAD_MLINESTYLE
350
1B
  0
DICTIONARY
  5
1A
102
{ACAD_REACTORS
330
19
102
}
100
AcDbDictionary
  0
DICTIONARY
  5
1B
102
{ACAD_REACTORS
330
19
102
}
100
AcDbDictionary
  3
STANDARD
350
1C
  0
MLINESTYLE
  5
1C
102
{ACAD_REACTORS
330
1B
102
}
100
AcDbMlineStyle
  2
STANDARD
 70
             0
  3

 62
             0
 51
90.0
 52
90.0
 71
             2
 49
0.5
 62
           256
  6
BYLAYER
 49
-0.5
 62
           256
  6
BYLAYER
  0
ENDSEC
  0
EOF
