  0
SECTION
  2
HEADER
  9
$ACADVER
  1
AC1009
  9
$INSBASE
 10
0
 20
0
  9
$EXTMIN
 10
104.719162412794
 20
-1285.017323644182
  9
$EXTMAX
 10
365.1873633536428
 20
-1104.27277049067
  9
$LIMMIN
 10
104.719162412794
 20
-1285.017323644182
  9
$LIMMAX
 10
365.1873633536428
 20
-1104.27277049067
  9
$VIEWCTR
 10
10
 20
10
  9
$VIEWSIZE
 40
10
  9
$SNAPMODE
 70
0
  9
$SNAPUNIT
 10
1
 20
1
  9
$SNAPBASE
 10
0
 20
0
  9
$SNAPANG
 50
0
  9
$SNAPSTYLE
 70
0
  9
$SNAPISOPAIR
 70
0
  9
$GRIDMODE
 70
0
  9
$GRIDUNIT
 10
0
 20
0
  9
$ORTHOMODE
 70
0
  9
$REGENMODE
 70
1
  9
$FILLMODE
 70
1
  9
$QTEXTMODE
 70
0
  9
$DRAGMODE
 70
2
  9
$LTSCALE
 40
1
  9
$OSMODE
 70
0
  9
$ATTMODE
 70
1
  9
$TEXTSIZE
 40
3.5
  9
$TRACEWID
 40
0.5
  9
$TEXTSTYLE
  7
STANDARD
  9
$CLAYER
  8
0
  9
$CELTYPE
  6
BYLAYER
  9
$CECOLOR
 62
256
  9
$DIMSCALE
 40
1
  9
$DIMASZ
 40
0.18
  9
$DIMEXO
 40
0.0625
  9
$DIMDLI
 40
0.38
  9
$DIMRND
 40
0
  9
$DIMDLE
 40
0
  9
$DIMEXE
 40
0.18
  9
$DIMTP
 40
0
  9
$DIMTM
 40
0
  9
$DIMTXT
 40
0.18
  9
$DIMCEN
 40
0.09
  9
$DIMTSZ
 40
0
  9
$DIMTOL
 70
0
  9
$DIMLIM
 70
0
  9
$DIMTIH
 70
1
  9
$DIMTOH
 70
1
  9
$DIMSE1
 70
0
  9
$DIMSE2
 70
0
  9
$DIMTAD
 70
0
  9
$DIMZIN
 70
0
  9
$DIMBLK
  1

  9
$DIMASO
 70
1
  9
$DIMSHO
 70
1
  9
$DIMPOST
  1

  9
$DIMAPOST
  1

  9
$DIMALT
 70
0
  9
$DIMALTD
 70
2
  9
$DIMALTF
 40
25.4
  9
$DIMLFAC
 40
1
  9
$DIMTOFL
 70
0
  9
$DIMTVP
 40
0
  9
$DIMTIX
 70
0
  9
$DIMSOXD
 70
0
  9
$DIMSAH
 70
0
  9
$DIMBLK1
  1

  9
$DIMBLK2
  1

  9
$DIMSTYLE
  2
*UNNAMED
  9
$DIMCLRD
 70
0
  9
$DIMCLRE
 70
0
  9
$DIMCLRT
 70
0
  9
$DIMTFAC
 40
1
  9
$DIMGAP
 40
0.09
  9
$LUNITS
 70
2
  9
$LUPREC
 70
4
  9
$AXISMODE
 70
0
  9
$AXISUNIT
 10
0
 20
0
  9
$SKETCHINC
 40
0.1
  9
$FILLETRAD
 40
2
  9
$AUNITS
 70
0
  9
$AUPREC
 70
0
  9
$MENU
  1
ACAD
  9
$ELEVATION
 40
0
  9
$THICKNESS
 40
0
  9
$VIEWDIR
 10
0
 20
0
 30
1
  9
$LIMCHECK
 70
0
  9
$BLIPMODE
 70
1
  9
$CHAMFERA
 40
0
  9
$CHAMFERB
 40
0
  9
$FASTZOOM
 70
1
  9
$SKPOLY
 70
0
  9
$ANGBASE
 50
0
  9
$ANGDIR
 70
0
  9
$PDMODE
 70
0
  9
$PDSIZE
 40
0
  9
$PLINEWID
 40
0
  9
$COORDS
 70
2
  0
ENDSEC
  0
SECTION
  2
TABLES
  0
TABLE
  2
DIMSTYLE
 70
5
  0
DIMSTYLE
  2
DMST_1
 70
0
  3

  4

  5

  6

  7

 40
1
 41
3.2
 42
1
 43
7
 44
1.5
 45
0
 46
0
 47
0
 48
0
140
3.2
141
0
142
0
143
25.4
144
1
145
0
146
1
147
0.09
 71
0
 72
0
 73
0
 74
0
 75
0
 76
0
 77
1
 78
9
170
0
171
2
172
0
173
0
174
0
175
0
176
2
177
2
178
2
  0
DIMSTYLE
  2
DMST_2
 70
0
  3

  4

  5

  6

  7

 40
1
 41
3.2
 42
1
 43
7
 44
1.5
 45
0
 46
0
 47
0.3
 48
0.3
140
3.2
141
0
142
0
143
25.4
144
1
145
0
146
0.6
147
0.09
 71
1
 72
0
 73
0
 74
0
 75
0
 76
0
 77
1
 78
9
170
0
171
2
172
0
173
0
174
0
175
0
176
2
177
2
178
2
  0
DIMSTYLE
  2
DMST_3
 70
0
  3

  4

  5

  6

  7

 40
1
 41
4.800000000000001
 42
1
 43
7
 44
1.5
 45
0
 46
0
 47
0
 48
0
140
3.2
141
0
142
0
143
25.4
144
1
145
0
146
1
147
0.09
 71
0
 72
0
 73
0
 74
0
 75
0
 76
0
 77
1
 78
9
170
0
171
2
172
0
173
0
174
0
175
0
176
2
177
2
178
2
  0
DIMSTYLE
  2
DMST_4
 70
0
  3
üièÐÆ╩îèüj
  4

  5

  6

  7

 40
1
 41
4.800000000000001
 42
1
 43
7
 44
1.5
 45
0
 46
0
 47
0
 48
0
140
3.2
141
0
142
0
143
25.4
144
1
145
0
146
1
147
0.09
 71
0
 72
0
 73
1
 74
1
 75
0
 76
0
 77
1
 78
9
170
0
171
2
172
0
173
0
174
0
175
0
176
2
177
2
178
2
  0
DIMSTYLE
  2
DMST_5
 70
0
  3
(ïzì×ôÓîa)
  4

  5

  6

  7

 40
1
 41
4.800000000000001
 42
1
 43
7
 44
1.5
 45
0
 46
0
 47
0
 48
0
140
3.2
141
0
142
0
143
25.4
144
1
145
0
146
1
147
0.09
 71
0
 72
0
 73
0
 74
0
 75
0
 76
0
 77
1
 78
9
170
0
171
2
172
1
173
0
174
0
175
0
176
2
177
2
178
2
  0
ENDTAB
  0
TABLE
  2
LTYPE
 70
9
  0
LTYPE
  2
CONTINUOUS
 70
64
  3
Solid line
 72
65
 73
0
 40
0
  0
LTYPE
  2
BORDER
 70
64
  3
__ __ . __ __ .
 72
65
 73
6
 40
11.99524609596014
 49
3.427213170274327
 49
-1.713606585137163
 49
3.427213170274327
 49
-1.713606585137163
 49
0
 49
-1.713606585137163
  0
LTYPE
  2
CENTER
 70
64
  3
____ _ ____ _
 72
65
 73
4
 40
13.70885268109731
 49
8.568032925685817
 49
-1.713606585137163
 49
1.713606585137163
 49
-1.713606585137163
  0
LTYPE
  2
DASHDOT
 70
64
  3
__ . __ . __ .
 72
65
 73
4
 40
6.854426340548653
 49
3.427213170274327
 49
-1.713606585137163
 49
0
 49
-1.713606585137163
  0
LTYPE
  2
DASHED
 70
64
  3
__ __ __ __ __
 72
65
 73
2
 40
5.14081975541149
 49
3.427213170274327
 49
-1.713606585137163
  0
LTYPE
  2
DIVIDE
 70
64
  3
__ . . __ . . 
 72
65
 73
6
 40
8.568032925685817
 49
3.427213170274327
 49
-1.713606585137163
 49
0
 49
-1.713606585137163
 49
0
 49
-1.713606585137163
  0
LTYPE
  2
DOT
 70
64
  3
..............
 72
65
 73
4
 40
3.427213170274327
 49
0
 49
-1.713606585137163
 49
0
 49
-1.713606585137163
  0
LTYPE
  2
HIDDEN
 70
64
  3
_ _ _ _ _ _ _
 72
65
 73
2
 40
2.570409877705745
 49
1.713606585137163
 49
-0.8568032925685817
  0
LTYPE
  2
PHANTOM
 70
64
  3
_____ _ _ _____ _ _ 
 72
65
 73
6
 40
17.13606585137163
 49
8.568032925685817
 49
-1.713606585137163
 49
1.713606585137163
 49
-1.713606585137163
 49
1.713606585137163
 49
-1.713606585137163
  0
ENDTAB
  0
TABLE
  2
LAYER
 70
7
  0
LAYER
  2
30
 70
0
 62
7
  6
CONTINUOUS
  0
LAYER
  2
31
 70
0
 62
7
  6
CONTINUOUS
  0
LAYER
  2
35
 70
0
 62
7
  6
CONTINUOUS
  0
LAYER
  2
10
 70
0
 62
7
  6
CONTINUOUS
  0
LAYER
  2
1
 70
0
 62
7
  6
CONTINUOUS
  0
LAYER
  2
0
 70
0
 62
7
  6
CONTINUOUS
  0
ENDTAB
  0
TABLE
  2
STYLE
 70
4
  0
STYLE
  2
STANDARD
 70
0
 40
0
 41
1
 50
0
 71
0
 42
3.5
  3
txt
  4

  0
STYLE
  2
SIMPLEX
 70
0
 40
0
 41
1
 50
0
 71
0
 42
3.5
  3
simplex
  4

  0
STYLE
  2
COMPLEX
 70
0
 40
0
 41
1
 50
0
 71
0
 42
3.5
  3
complex
  4

  0
STYLE
  2
ITALIC
 70
0
 40
0
 41
1
 50
0
 71
0
 42
3.5
  3
italic
  4

  0
ENDTAB
  0
TABLE
  2
VIEW
 70
0
  0
ENDTAB
  0
ENDSEC
  0
SECTION
  2
BLOCKS
  0
BLOCK
  8
1
  2
*X0
 70
1
 10
0
 20
0
 30
0
  0
LINE
  8
1
 62
2
 10
303.9206479705948
 20
-1185.803166741537
 30
0
 11
303.9304646220705
 21
-1185.793350090062
 31
0
  0
LINE
  8
1
 62
2
 10
303.9206479705948
 20
-1185.944588097775
 30
0
 11
304.0718859783078
 21
-1185.793350090062
 31
0
  0
LINE
  8
1
 62
2
 10
303.9206479705948
 20
-1186.086009454012
 30
0
 11
304.2133073345451
 21
-1185.793350090062
 31
0
  0
LINE
  8
1
 62
2
 10
303.9206479705948
 20
-1186.227430810249
 30
0
 11
304.3547286907824
 21
-1185.793350090062
 31
0
  0
LINE
  8
1
 62
2
 10
303.9206479705948
 20
-1186.368852166487
 30
0
 11
304.4961500470197
 21
-1185.793350090062
 31
0
  0
LINE
  8
1
 62
2
 10
303.9206479705948
 20
-1186.510273522724
 30
0
 11
304.637571403257
 21
-1185.793350090062
 31
0
  0
LINE
  8
1
 62
2
 10
303.9206479705948
 20
-1186.651694878961
 30
0
 11
304.7789927594943
 21
-1185.793350090062
 31
0
  0
LINE
  8
1
 62
2
 10
303.9206479705948
 20
-1186.793116235198
 30
0
 11
304.9204141157316
 21
-1185.793350090062
 31
0
  0
LINE
  8
1
 62
2
 10
304.0618354719691
 20
-1186.793350090062
 30
0
 11
305.0618354719688
 21
-1185.793350090062
 31
0
  0
LINE
  8
1
 62
2
 10
304.2032568282064
 20
-1186.793350090062
 30
0
 11
305.2032568282061
 21
-1185.793350090062
 31
0
  0
LINE
  8
1
 62
2
 10
304.3446781844436
 20
-1186.793350090062
 30
0
 11
305.3446781844434
 21
-1185.793350090062
 31
0
  0
LINE
  8
1
 62
2
 10
304.4860995406809
 20
-1186.793350090062
 30
0
 11
305.4860995406807
 21
-1185.793350090062
 31
0
  0
LINE
  8
1
 62
2
 10
304.6275208969182
 20
-1186.793350090062
 30
0
 11
305.627520896918
 21
-1185.793350090062
 31
0
  0
LINE
  8
1
 62
2
 10
304.7689422531555
 20
-1186.793350090062
 30
0
 11
305.7689422531553
 21
-1185.793350090062
 31
0
  0
LINE
  8
1
 62
2
 10
304.9103636093928
 20
-1186.793350090062
 30
0
 11
305.9103636093926
 21
-1185.793350090062
 31
0
  0
LINE
  8
1
 62
2
 10
305.0517849656301
 20
-1186.793350090062
 30
0
 11
306.0517849656299
 21
-1185.793350090062
 31
0
  0
LINE
  8
1
 62
2
 10
305.1932063218674
 20
-1186.793350090062
 30
0
 11
306.1932063218671
 21
-1185.793350090062
 31
0
  0
LINE
  8
1
 62
2
 10
307.4206479705948
 20
-1184.707329797572
 30
0
 11
307.4314259168389
 21
-1184.696551851328
 31
0
  0
LINE
  8
1
 62
2
 10
305.3346276781047
 20
-1186.793350090062
 30
0
 11
306.3346276781044
 21
-1185.793350090062
 31
0
  0
LINE
  8
1
 62
2
 10
307.4206479705948
 20
-1184.848751153809
 30
0
 11
307.521083464055
 21
-1184.748315660349
 31
0
  0
LINE
  8
1
 62
2
 10
305.4760490343419
 20
-1186.793350090062
 30
0
 11
306.4760490343417
 21
-1185.793350090062
 31
0
  0
LINE
  8
1
 62
2
 10
307.4206479705948
 20
-1184.990172510046
 30
0
 11
307.6107410112711
 21
-1184.800079469371
 31
0
  0
LINE
  8
1
 62
2
 10
305.6174703905792
 20
-1186.793350090062
 30
0
 11
306.617470390579
 21
-1185.793350090062
 31
0
  0
LINE
  8
1
 62
2
 10
307.4206479705948
 20
-1185.131593866284
 30
0
 11
307.7003985584872
 21
-1184.851843278392
 31
0
  0
LINE
  8
1
 62
2
 10
305.7588917468165
 20
-1186.793350090062
 30
0
 11
306.7588917468163
 21
-1185.793350090062
 31
0
  0
LINE
  8
1
 62
2
 10
307.4206479705948
 20
-1185.273015222521
 30
0
 11
307.7900561057033
 21
-1184.903607087413
 31
0
  0
LINE
  8
1
 62
2
 10
305.9003131030538
 20
-1186.793350090062
 30
0
 11
306.9003131030536
 21
-1185.793350090062
 31
0
  0
LINE
  8
1
 62
2
 10
307.4206479705948
 20
-1185.414436578758
 30
0
 11
307.8797136529195
 21
-1184.955370896434
 31
0
  0
LINE
  8
1
 62
2
 10
306.0417344592911
 20
-1186.793350090062
 30
0
 11
307.0417344592909
 21
-1185.793350090062
 31
0
  0
LINE
  8
1
 62
2
 10
307.4206479705948
 20
-1185.555857934995
 30
0
 11
307.9693712001356
 21
-1185.007134705455
 31
0
  0
LINE
  8
1
 62
2
 10
306.1831558155284
 20
-1186.793350090062
 30
0
 11
307.1831558155282
 21
-1185.793350090062
 31
0
  0
LINE
  8
1
 62
2
 10
307.4206479705948
 20
-1185.697279291233
 30
0
 11
308.0590287473517
 21
-1185.058898514476
 31
0
  0
LINE
  8
1
 62
2
 10
306.3245771717657
 20
-1186.793350090062
 30
0
 11
307.3245771717654
 21
-1185.793350090062
 31
0
  0
LINE
  8
1
 62
2
 10
306.465998528003
 20
-1186.793350090062
 30
0
 11
308.1486862945678
 21
-1185.110662323498
 31
0
  0
LINE
  8
1
 62
2
 10
306.6074198842402
 20
-1186.793350090062
 30
0
 11
308.2383438417839
 21
-1185.162426132519
 31
0
  0
LINE
  8
1
 62
2
 10
306.7488412404775
 20
-1186.793350090062
 30
0
 11
308.3280013890001
 21
-1185.21418994154
 31
0
  0
LINE
  8
1
 62
2
 10
306.8902625967148
 20
-1186.793350090062
 30
0
 11
308.4176589362162
 21
-1185.265953750561
 31
0
  0
LINE
  8
1
 62
2
 10
307.0316839529521
 20
-1186.793350090062
 30
0
 11
308.5073164834323
 21
-1185.317717559582
 31
0
  0
LINE
  8
1
 62
2
 10
307.1731053091894
 20
-1186.793350090062
 30
0
 11
308.5969740306484
 21
-1185.369481368603
 31
0
  0
LINE
  8
1
 62
2
 10
307.3145266654267
 20
-1186.793350090062
 30
0
 11
308.6866315778646
 21
-1185.421245177625
 31
0
  0
LINE
  8
1
 62
2
 10
307.4206479705949
 20
-1186.828650141131
 30
0
 11
308.7762891250807
 21
-1185.473008986646
 31
0
  0
LINE
  8
1
 62
2
 10
307.4206479705949
 20
-1186.970071497369
 30
0
 11
308.8659466722968
 21
-1185.524772795667
 31
0
  0
LINE
  8
1
 62
2
 10
307.4206479705949
 20
-1187.111492853606
 30
0
 11
308.9556042195129
 21
-1185.576536604688
 31
0
  0
LINE
  8
1
 62
2
 10
307.4206479705949
 20
-1187.252914209843
 30
0
 11
309.045261766729
 21
-1185.628300413709
 31
0
  0
LINE
  8
1
 62
2
 10
307.4206479705949
 20
-1187.394335566081
 30
0
 11
309.1349193139452
 21
-1185.68006422273
 31
0
  0
LINE
  8
1
 62
2
 10
307.4206479705949
 20
-1187.535756922318
 30
0
 11
309.2245768611613
 21
-1185.731828031752
 31
0
  0
LINE
  8
1
 62
2
 10
307.4206479705949
 20
-1187.677178278555
 30
0
 11
309.3142344083774
 21
-1185.783591840773
 31
0
  0
LINE
  8
1
 62
2
 10
307.4206479705949
 20
-1187.818599634793
 30
0
 11
309.4038919555935
 21
-1185.835355649794
 31
0
  0
LINE
  8
1
 62
2
 10
307.5712455161072
 20
-1187.809423445518
 30
0
 11
309.4935495028096
 21
-1185.887119458815
 31
0
  0
LINE
  8
1
 62
2
 10
307.9058520376113
 20
-1187.616238280251
 30
0
 11
309.5832070500258
 21
-1185.938883267836
 31
0
  0
LINE
  8
1
 62
2
 10
308.2404585591154
 20
-1187.423053114984
 30
0
 11
309.6728645972419
 21
-1185.990647076857
 31
0
  0
LINE
  8
1
 62
2
 10
308.5750650806195
 20
-1187.229867949717
 30
0
 11
309.762522144458
 21
-1186.042410885879
 31
0
  0
LINE
  8
1
 62
2
 10
308.9096716021236
 20
-1187.036682784451
 30
0
 11
309.8521796916741
 21
-1186.0941746949
 31
0
  0
LINE
  8
1
 62
2
 10
309.2442781236277
 20
-1186.843497619184
 30
0
 11
309.9418372388902
 21
-1186.145938503921
 31
0
  0
LINE
  8
1
 62
2
 10
309.5788846451318
 20
-1186.650312453917
 30
0
 11
310.0314947861064
 21
-1186.197702312942
 31
0
  0
LINE
  8
1
 62
2
 10
309.9134911666359
 20
-1186.45712728865
 30
0
 11
310.1211523333225
 21
-1186.249466121963
 31
0
  0
ENDBLK
  8
0
  0
BLOCK
  8
1
  2
*X1
 70
1
 10
0
 20
0
 30
0
  0
LINE
  8
1
 62
2
 10
267.8119716350642
 20
-1212.719454921643
 30
0
 11
267.8902076001278
 21
-1212.64121895658
 31
0
  0
LINE
  8
1
 62
2
 10
267.8119716350642
 20
-1212.86087627788
 30
0
 11
268.0316289563651
 21
-1212.64121895658
 31
0
  0
LINE
  8
1
 62
2
 10
267.8119716350642
 20
-1213.002297634118
 30
0
 11
268.1730503126024
 21
-1212.64121895658
 31
0
  0
LINE
  8
1
 62
2
 10
267.8119716350642
 20
-1213.143718990355
 30
0
 11
268.3144716688397
 21
-1212.64121895658
 31
0
  0
LINE
  8
1
 62
2
 10
267.8119716350642
 20
-1213.285140346592
 30
0
 11
268.455893025077
 21
-1212.64121895658
 31
0
  0
LINE
  8
1
 62
2
 10
267.8119716350642
 20
-1213.42656170283
 30
0
 11
268.5973143813143
 21
-1212.64121895658
 31
0
  0
LINE
  8
1
 62
2
 10
267.8119716350642
 20
-1213.567983059067
 30
0
 11
268.7387357375516
 21
-1212.64121895658
 31
0
  0
LINE
  8
1
 62
2
 10
267.880157093789
 20
-1213.64121895658
 30
0
 11
268.8801570937889
 21
-1212.64121895658
 31
0
  0
LINE
  8
1
 62
2
 10
268.0215784500263
 20
-1213.64121895658
 30
0
 11
269.0215784500261
 21
-1212.64121895658
 31
0
  0
LINE
  8
1
 62
2
 10
268.1629998062635
 20
-1213.64121895658
 30
0
 11
269.1629998062634
 21
-1212.64121895658
 31
0
  0
LINE
  8
1
 62
2
 10
268.3044211625008
 20
-1213.64121895658
 30
0
 11
269.3044211625007
 21
-1212.64121895658
 31
0
  0
LINE
  8
1
 62
2
 10
268.4458425187381
 20
-1213.64121895658
 30
0
 11
269.445842518738
 21
-1212.64121895658
 31
0
  0
LINE
  8
1
 62
2
 10
268.5872638749754
 20
-1213.64121895658
 30
0
 11
269.5872638749753
 21
-1212.64121895658
 31
0
  0
LINE
  8
1
 62
2
 10
268.7286852312127
 20
-1213.64121895658
 30
0
 11
269.7286852312126
 21
-1212.64121895658
 31
0
  0
LINE
  8
1
 62
2
 10
268.87010658745
 20
-1213.64121895658
 30
0
 11
269.8701065874499
 21
-1212.64121895658
 31
0
  0
LINE
  8
1
 62
2
 10
269.0115279436873
 20
-1213.64121895658
 30
0
 11
270.0115279436872
 21
-1212.64121895658
 31
0
  0
LINE
  8
1
 62
2
 10
269.1529492999246
 20
-1213.64121895658
 30
0
 11
270.1529492999244
 21
-1212.64121895658
 31
0
  0
LINE
  8
1
 62
2
 10
271.3119716350642
 20
-1211.623617977677
 30
0
 11
271.3661256879389
 21
-1211.569463924805
 31
0
  0
LINE
  8
1
 62
2
 10
269.2943706561619
 20
-1213.64121895658
 30
0
 11
270.2943706561617
 21
-1212.64121895658
 31
0
  0
LINE
  8
1
 62
2
 10
271.3119716350642
 20
-1211.765039333915
 30
0
 11
271.4557832351574
 21
-1211.621227733824
 31
0
  0
LINE
  8
1
 62
2
 10
269.4357920123991
 20
-1213.64121895658
 30
0
 11
270.435792012399
 21
-1212.64121895658
 31
0
  0
LINE
  8
1
 62
2
 10
271.3119716350642
 20
-1211.906460690152
 30
0
 11
271.545440782376
 21
-1211.672991542842
 31
0
  0
LINE
  8
1
 62
2
 10
269.5772133686364
 20
-1213.64121895658
 30
0
 11
270.5772133686363
 21
-1212.64121895658
 31
0
  0
LINE
  8
1
 62
2
 10
271.3119716350642
 20
-1212.047882046389
 30
0
 11
271.6350983295945
 21
-1211.724755351861
 31
0
  0
LINE
  8
1
 62
2
 10
269.7186347248737
 20
-1213.64121895658
 30
0
 11
270.7186347248736
 21
-1212.64121895658
 31
0
  0
LINE
  8
1
 62
2
 10
271.3119716350642
 20
-1212.189303402627
 30
0
 11
271.7247558768131
 21
-1211.77651916088
 31
0
  0
LINE
  8
1
 62
2
 10
269.860056081111
 20
-1213.64121895658
 30
0
 11
270.8600560811109
 21
-1212.64121895658
 31
0
  0
LINE
  8
1
 62
2
 10
271.3119716350642
 20
-1212.330724758864
 30
0
 11
271.8144134240317
 21
-1211.828282969898
 31
0
  0
LINE
  8
1
 62
2
 10
270.0014774373483
 20
-1213.64121895658
 30
0
 11
271.0014774373482
 21
-1212.64121895658
 31
0
  0
LINE
  8
1
 62
2
 10
271.3119716350642
 20
-1212.472146115101
 30
0
 11
271.9040709712502
 21
-1211.880046778917
 31
0
  0
LINE
  8
1
 62
2
 10
270.1428987935856
 20
-1213.64121895658
 30
0
 11
271.1428987935855
 21
-1212.64121895658
 31
0
  0
LINE
  8
1
 62
2
 10
271.3119716350642
 20
-1212.613567471339
 30
0
 11
271.9937285184688
 21
-1211.931810587936
 31
0
  0
LINE
  8
1
 62
2
 10
270.2843201498229
 20
-1213.64121895658
 30
0
 11
271.2843201498228
 21
-1212.64121895658
 31
0
  0
LINE
  8
1
 62
2
 10
270.4257415060602
 20
-1213.64121895658
 30
0
 11
272.0833860656874
 21
-1211.983574396954
 31
0
  0
LINE
  8
1
 62
2
 10
270.5671628622974
 20
-1213.64121895658
 30
0
 11
272.1730436129059
 21
-1212.035338205973
 31
0
  0
LINE
  8
1
 62
2
 10
270.7085842185347
 20
-1213.64121895658
 30
0
 11
272.2627011601245
 21
-1212.087102014992
 31
0
  0
LINE
  8
1
 62
2
 10
270.850005574772
 20
-1213.64121895658
 30
0
 11
272.3523587073431
 21
-1212.13886582401
 31
0
  0
LINE
  8
1
 62
2
 10
270.9914269310093
 20
-1213.64121895658
 30
0
 11
272.4420162545616
 21
-1212.190629633029
 31
0
  0
LINE
  8
1
 62
2
 10
271.1328482872466
 20
-1213.64121895658
 30
0
 11
272.5316738017802
 21
-1212.242393442048
 31
0
  0
LINE
  8
1
 62
2
 10
271.2742696434839
 20
-1213.64121895658
 30
0
 11
272.6213313489988
 21
-1212.294157251066
 31
0
  0
LINE
  8
1
 62
2
 10
271.3119716350641
 20
-1213.744938321237
 30
0
 11
272.7109888962173
 21
-1212.345921060085
 31
0
  0
LINE
  8
1
 62
2
 10
271.3119716350641
 20
-1213.886359677474
 30
0
 11
272.8006464434359
 21
-1212.397684869104
 31
0
  0
LINE
  8
1
 62
2
 10
271.3119716350641
 20
-1214.027781033712
 30
0
 11
272.8903039906544
 21
-1212.449448678122
 31
0
  0
LINE
  8
1
 62
2
 10
271.3119716350641
 20
-1214.169202389949
 30
0
 11
272.979961537873
 21
-1212.501212487141
 31
0
  0
LINE
  8
1
 62
2
 10
271.3119716350641
 20
-1214.310623746186
 30
0
 11
273.0696190850916
 21
-1212.55297629616
 31
0
  0
LINE
  8
1
 62
2
 10
271.3119716350641
 20
-1214.452045102423
 30
0
 11
273.1592766323101
 21
-1212.604740105178
 31
0
  0
LINE
  8
1
 62
2
 10
271.3119716350641
 20
-1214.593466458661
 30
0
 11
273.2489341795287
 21
-1212.656503914197
 31
0
  0
LINE
  8
1
 62
2
 10
271.3119716350641
 20
-1214.734887814898
 30
0
 11
273.3385917267473
 21
-1212.708267723216
 31
0
  0
LINE
  8
1
 62
2
 10
271.6244510146381
 20
-1214.563829791561
 30
0
 11
273.4282492739658
 21
-1212.760031532234
 31
0
  0
LINE
  8
1
 62
2
 10
271.9590575361423
 20
-1214.370644626295
 30
0
 11
273.5179068211844
 21
-1212.811795341253
 31
0
  0
LINE
  8
1
 62
2
 10
272.2936640576464
 20
-1214.177459461028
 30
0
 11
273.607564368403
 21
-1212.863559150272
 31
0
  0
LINE
  8
1
 62
2
 10
272.6282705791506
 20
-1213.984274295761
 30
0
 11
273.6972219156215
 21
-1212.91532295929
 31
0
  0
LINE
  8
1
 62
2
 10
272.9628771006547
 20
-1213.791089130494
 30
0
 11
273.7868794628401
 21
-1212.967086768309
 31
0
  0
LINE
  8
1
 62
2
 10
273.2974836221589
 20
-1213.597903965227
 30
0
 11
273.8765370100587
 21
-1213.018850577328
 31
0
  0
LINE
  8
1
 62
2
 10
273.6320901436631
 20
-1213.40471879996
 30
0
 11
273.9661945572772
 21
-1213.070614386346
 31
0
  0
LINE
  8
1
 62
2
 10
273.9666966651672
 20
-1213.211533634693
 30
0
 11
274.0558521044958
 21
-1213.122378195365
 31
0
  0
ENDBLK
  8
0
  0
BLOCK
  8
1
  2
*D0
 70
1
 10
0
 20
0
 30
0
  0
LINE
  8
1
 62
2
 10
299.876549608931
 20
-1235.842787887728
 30
0
 11
299.876549608931
 21
-1177.842787887728
 31
0
  0
LINE
  8
1
 62
2
 10
313.3376909930844
 20
-1235.842787887728
 30
0
 11
298.376549608931
 21
-1235.842787887728
 31
0
  0
LINE
  8
1
 62
2
 10
313.3376909930844
 20
-1177.842787887728
 30
0
 11
298.376549608931
 21
-1177.842787887728
 31
0
  0
SOLID
  8
1
 62
2
 10
299.876549608931
 20
-1235.842787887728
 30
0
 11
299.4605496089311
 21
-1232.642787887728
 31
0
 12
300.292549608931
 22
-1232.642787887728
 32
0
 13
300.292549608931
 23
-1232.642787887728
 33
0
  0
SOLID
  8
1
 62
2
 10
299.876549608931
 20
-1177.842787887728
 30
0
 11
300.292549608931
 21
-1181.042787887728
 31
0
 12
299.4605496089311
 22
-1181.042787887728
 32
0
 13
299.4605496089311
 23
-1181.042787887728
 33
0
  0
TEXT
  8
1
 62
2
 10
297.876549608931
 20
-1208.62946065798
 30
0
 40
3.2
  1
58
 50
90
 41
0.9
  0
ENDBLK
  8
0
  0
BLOCK
  8
1
  2
*D1
 70
1
 10
0
 20
0
 30
0
  0
LINE
  8
1
 62
2
 10
312.837690993084
 20
-1245.02664136465
 30
0
 11
345.837690993084
 21
-1245.02664136465
 31
0
  0
LINE
  8
1
 62
2
 10
312.837690993084
 20
-1235.342787887728
 30
0
 11
312.837690993084
 21
-1246.52664136465
 31
0
  0
LINE
  8
1
 62
2
 10
345.837690993084
 20
-1235.34278788773
 30
0
 11
345.837690993084
 21
-1246.52664136465
 31
0
  0
SOLID
  8
1
 62
2
 10
345.837690993084
 20
-1245.02664136465
 30
0
 11
342.637690993084
 21
-1245.44264136465
 31
0
 12
342.637690993084
 22
-1244.61064136465
 32
0
 13
342.637690993084
 23
-1244.61064136465
 33
0
  0
SOLID
  8
1
 62
2
 10
312.837690993084
 20
-1245.02664136465
 30
0
 11
316.037690993084
 21
-1244.61064136465
 31
0
 12
316.037690993084
 22
-1245.44264136465
 32
0
 13
316.037690993084
 23
-1245.44264136465
 33
0
  0
TEXT
  8
1
 62
2
 10
325.208502843414
 20
-1243.02664136465
 30
0
 40
3.2
  1
33
 41
0.9
  0
ENDBLK
  8
0
  0
BLOCK
  8
1
  2
*D2
 70
1
 10
0
 20
0
 30
0
  0
LINE
  8
1
 62
2
 10
285
 20
-1235.842787887726
 30
0
 11
285
 21
-1183.842787887726
 31
0
  0
LINE
  8
1
 62
2
 10
263.9297349327672
 20
-1235.842787887726
 30
0
 11
286.5
 21
-1235.842787887726
 31
0
  0
LINE
  8
1
 62
2
 10
268.618443177045
 20
-1183.842787887726
 30
0
 11
286.5
 21
-1183.842787887726
 31
0
  0
SOLID
  8
1
 62
2
 10
285
 20
-1183.842787887726
 30
0
 11
285.416
 21
-1187.042787887726
 31
0
 12
284.584
 22
-1187.042787887726
 32
0
 13
284.584
 23
-1187.042787887726
 33
0
  0
SOLID
  8
1
 62
2
 10
285
 20
-1235.842787887726
 30
0
 11
284.584
 21
-1232.642787887726
 31
0
 12
285.416
 22
-1232.642787887726
 32
0
 13
285.416
 23
-1232.642787887726
 33
0
  0
TEXT
  8
1
 62
2
 10
283
 20
-1212.4
 30
0
 40
3.2
  1
52
 50
90
 41
0.9
  0
ENDBLK
  8
0
  0
BLOCK
  8
1
  2
*D3
 70
1
 10
0
 20
0
 30
0
  0
LINE
  8
1
 62
2
 10
109.919162412794
 20
-1235.842787887726
 30
0
 11
109.919162412794
 21
-1140.843880985626
 31
0
  0
LINE
  8
1
 62
2
 10
211.8658765288566
 20
-1235.842787887726
 30
0
 11
108.419162412794
 21
-1235.842787887726
 31
0
  0
LINE
  8
1
 62
2
 10
209.0395297045461
 20
-1140.843880985626
 30
0
 11
108.419162412794
 21
-1140.843880985626
 31
0
  0
SOLID
  8
1
 62
2
 10
109.919162412794
 20
-1140.843880985626
 30
0
 11
110.335162412794
 21
-1144.043880985626
 31
0
 12
109.503162412794
 22
-1144.043880985626
 32
0
 13
109.503162412794
 23
-1144.043880985626
 33
0
  0
SOLID
  8
1
 62
2
 10
109.919162412794
 20
-1235.842787887726
 30
0
 11
109.503162412794
 21
-1232.642787887726
 31
0
 12
110.335162412794
 22
-1232.642787887726
 32
0
 13
110.335162412794
 23
-1232.642787887726
 33
0
  0
TEXT
  8
1
 62
2
 10
107.919162412794
 20
-1189.43441634376
 30
0
 40
3.2
  1
95
 50
90
 41
0.9
  0
ENDBLK
  8
0
  0
BLOCK
  8
1
  2
*D4
 70
1
 10
0
 20
0
 30
0
  0
LINE
  8
1
 62
2
 10
125
 20
-1228.842787887724
 30
0
 11
125
 21
-1183.842787887726
 31
0
  0
LINE
  8
1
 62
2
 10
177.5047349327668
 20
-1228.842787887724
 30
0
 11
123.5
 21
-1228.842787887724
 31
0
  0
LINE
  8
1
 62
2
 10
158.2625183940954
 20
-1183.842787887726
 30
0
 11
123.5
 21
-1183.842787887726
 31
0
  0
SOLID
  8
1
 62
2
 10
125
 20
-1183.842787887726
 30
0
 11
125.416
 21
-1187.042787887726
 31
0
 12
124.584
 22
-1187.042787887726
 32
0
 13
124.584
 23
-1187.042787887726
 33
0
  0
SOLID
  8
1
 62
2
 10
125
 20
-1228.842787887724
 30
0
 11
124.584
 21
-1225.642787887724
 31
0
 12
125.416
 22
-1225.642787887724
 32
0
 13
125.416
 23
-1225.642787887724
 33
0
  0
TEXT
  8
1
 62
2
 10
123
 20
-1210.672
 30
0
 40
3.2
  1
45
 50
90
 41
0.9
  0
TEXT
  8
1
 62
2
 10
122.36
 20
-1204.272
 30
0
 40
1.92
  1
%%p0.3
 50
90
 41
0.9
  0
ENDBLK
  8
0
  0
BLOCK
  8
1
  2
*D5
 70
1
 10
0
 20
0
 30
0
  0
LINE
  8
1
 62
2
 10
138.44850990075
 20
-1222.842787887726
 30
0
 11
138.44850990075
 21
-1183.842787887726
 31
0
  0
LINE
  8
1
 62
2
 10
158.2625183940954
 20
-1183.842787887726
 30
0
 11
136.94850990075
 21
-1183.842787887726
 31
0
  0
LINE
  8
1
 62
2
 10
169.8843917514744
 20
-1222.842787887726
 30
0
 11
136.94850990075
 21
-1222.842787887726
 31
0
  0
SOLID
  8
1
 62
2
 10
138.44850990075
 20
-1222.842787887726
 30
0
 11
138.03250990075
 21
-1219.642787887726
 31
0
 12
138.86450990075
 22
-1219.642787887726
 32
0
 13
138.86450990075
 23
-1219.642787887726
 33
0
  0
SOLID
  8
1
 62
2
 10
138.44850990075
 20
-1183.842787887726
 30
0
 11
138.86450990075
 21
-1187.042787887726
 31
0
 12
138.03250990075
 22
-1187.042787887726
 32
0
 13
138.03250990075
 23
-1187.042787887726
 33
0
  0
TEXT
  8
1
 62
2
 10
136.44850990075
 20
-1211.28453103586
 30
0
 40
3.2
  1
39
 50
90
 41
0.9
  0
TEXT
  8
1
 62
2
 10
135.80850990075
 20
-1204.88453103586
 30
0
 40
1.92
  1
%%p0.3
 50
90
 41
0.9
  0
ENDBLK
  8
0
  0
BLOCK
  8
1
  2
*D6
 70
1
 10
0
 20
0
 30
0
  0
LINE
  8
1
 62
2
 10
165.8297349327672
 20
-1274.68554669949
 30
0
 11
262.9297349327672
 21
-1274.68554669949
 31
0
  0
LINE
  8
1
 62
2
 10
165.8297349327672
 20
-1185.742787887728
 30
0
 11
165.8297349327672
 21
-1276.18554669949
 31
0
  0
LINE
  8
1
 62
2
 10
262.9297349327672
 20
-1236.842787887726
 30
0
 11
262.9297349327672
 21
-1276.18554669949
 31
0
  0
SOLID
  8
1
 62
2
 10
262.9297349327672
 20
-1274.68554669949
 30
0
 11
259.7297349327672
 21
-1275.10154669949
 31
0
 12
259.7297349327672
 22
-1274.26954669949
 32
0
 13
259.7297349327672
 23
-1274.26954669949
 33
0
  0
SOLID
  8
1
 62
2
 10
165.8297349327672
 20
-1274.68554669949
 30
0
 11
169.0297349327672
 21
-1274.26954669949
 31
0
 12
169.0297349327672
 22
-1275.10154669949
 32
0
 13
169.0297349327672
 23
-1275.10154669949
 33
0
  0
TEXT
  8
1
 62
2
 10
209.430216912528
 20
-1272.68554669949
 30
0
 40
3.2
  1
97.1
 41
0.9
  0
ENDBLK
  8
0
  0
BLOCK
  8
1
  2
*D7
 70
1
 10
0
 20
0
 30
0
  0
LINE
  8
1
 62
2
 10
173.9297349327676
 20
-1260
 30
0
 11
212.9297349327674
 21
-1260
 31
0
  0
LINE
  8
1
 62
2
 10
173.9297349327676
 20
-1226.777321794656
 30
0
 11
173.9297349327676
 21
-1261.5
 31
0
  0
LINE
  8
1
 62
2
 10
212.9297349327674
 20
-1246.194183296538
 30
0
 11
212.9297349327674
 21
-1261.5
 31
0
  0
SOLID
  8
1
 62
2
 10
212.9297349327674
 20
-1260
 30
0
 11
209.7297349327674
 21
-1260.416
 31
0
 12
209.7297349327674
 22
-1259.584
 32
0
 13
209.7297349327674
 23
-1259.584
 33
0
  0
SOLID
  8
1
 62
2
 10
173.9297349327676
 20
-1260
 30
0
 11
177.1297349327676
 21
-1259.584
 31
0
 12
177.1297349327676
 22
-1260.416
 32
0
 13
177.1297349327676
 23
-1260.416
 33
0
  0
TEXT
  8
1
 62
2
 10
184.328
 20
-1258
 30
0
 40
3.2
  1
39
 41
0.9
  0
TEXT
  8
1
 62
2
 10
190.728
 20
-1257.36
 30
0
 40
1.92
  1
%%p0.3
 41
0.9
  0
ENDBLK
  8
0
  0
BLOCK
  8
1
  2
*D8
 70
1
 10
0
 20
0
 30
0
  0
LINE
  8
1
 62
2
 10
181.429734932767
 20
-1245
 30
0
 11
212.9297349327674
 21
-1245
 31
0
  0
LINE
  8
1
 62
2
 10
181.429734932767
 20
-1232.767787887726
 30
0
 11
181.429734932767
 21
-1246.5
 31
0
  0
LINE
  8
1
 62
2
 10
212.9297349327674
 20
-1244.194183296538
 30
0
 11
212.9297349327674
 21
-1243.5
 31
0
  0
SOLID
  8
1
 62
2
 10
212.9297349327674
 20
-1245
 30
0
 11
209.7297349327674
 21
-1245.416
 31
0
 12
209.7297349327674
 22
-1244.584
 32
0
 13
209.7297349327674
 23
-1244.584
 33
0
  0
SOLID
  8
1
 62
2
 10
181.429734932767
 20
-1245
 30
0
 11
184.629734932767
 21
-1244.584
 31
0
 12
184.629734932767
 22
-1245.416
 32
0
 13
184.629734932767
 23
-1245.416
 33
0
  0
TEXT
  8
1
 62
2
 10
189.883995045003
 20
-1242.9432384831
 30
0
 40
3.2
  1
31.5
 41
0.9
  0
TEXT
  8
1
 62
2
 10
199.403995045003
 20
-1242.3032384831
 30
0
 40
1.92
  1
%%p0.3
 41
0.9
  0
ENDBLK
  8
0
  0
BLOCK
  8
1
  2
*D9
 70
1
 10
0
 20
0
 30
0
  0
LINE
  8
1
 62
2
 10
212.9297349327674
 20
-1260
 30
0
 11
262.9297349327672
 21
-1260
 31
0
  0
LINE
  8
1
 62
2
 10
212.9297349327674
 20
-1246.194183296538
 30
0
 11
212.9297349327674
 21
-1261.5
 31
0
  0
LINE
  8
1
 62
2
 10
262.9297349327672
 20
-1236.842787887726
 30
0
 11
262.9297349327672
 21
-1261.5
 31
0
  0
SOLID
  8
1
 62
2
 10
212.9297349327674
 20
-1260
 30
0
 11
216.1297349327674
 21
-1259.584
 31
0
 12
216.1297349327674
 22
-1260.416
 32
0
 13
216.1297349327674
 23
-1260.416
 33
0
  0
SOLID
  8
1
 62
2
 10
262.9297349327672
 20
-1260
 30
0
 11
259.7297349327672
 21
-1260.416
 31
0
 12
259.7297349327672
 22
-1259.584
 32
0
 13
259.7297349327672
 23
-1259.584
 33
0
  0
TEXT
  8
1
 62
2
 10
232.6
 20
-1258
 30
0
 40
3.2
  1
50
 41
0.9
  0
ENDBLK
  8
0
  0
BLOCK
  8
1
  2
*D10
 70
1
 10
0
 20
0
 30
0
  0
LINE
  8
1
 62
2
 10
284.774965893052
 20
-1183.842787887726
 30
0
 11
284.774965893052
 21
-1144.842787887728
 31
0
  0
LINE
  8
1
 62
2
 10
268.618443177045
 20
-1183.842787887726
 30
0
 11
286.274965893052
 21
-1183.842787887726
 31
0
  0
LINE
  8
1
 62
2
 10
242.854734932767
 20
-1144.842787887728
 30
0
 11
286.274965893052
 21
-1144.842787887728
 31
0
  0
SOLID
  8
1
 62
2
 10
284.774965893052
 20
-1183.842787887726
 30
0
 11
284.358965893052
 21
-1180.642787887726
 31
0
 12
285.190965893052
 22
-1180.642787887726
 32
0
 13
285.190965893052
 23
-1180.642787887726
 33
0
  0
SOLID
  8
1
 62
2
 10
284.774965893052
 20
-1144.842787887728
 30
0
 11
285.190965893052
 21
-1148.042787887728
 31
0
 12
284.358965893052
 22
-1148.042787887728
 32
0
 13
284.358965893052
 23
-1148.042787887728
 33
0
  0
TEXT
  8
1
 62
2
 10
282.774965893052
 20
-1172.27558085618
 30
0
 40
3.2
  1
39
 50
90
 41
0.9
  0
TEXT
  8
1
 62
2
 10
282.134965893052
 20
-1165.87558085618
 30
0
 40
1.92
  1
%%p0.3
 50
90
 41
0.9
  0
ENDBLK
  8
0
  0
BLOCK
  8
1
  2
*D11
 70
1
 10
0
 20
0
 30
0
  0
LINE
  8
1
 62
2
 10
270.377385908181
 20
-1183.842787887726
 30
0
 11
270.377385908181
 21
-1151.842787887728
 31
0
  0
LINE
  8
1
 62
2
 10
268.618443177045
 20
-1183.842787887726
 30
0
 11
271.877385908181
 21
-1183.842787887726
 31
0
  0
LINE
  8
1
 62
2
 10
249.3688784554284
 20
-1151.842787887728
 30
0
 11
271.877385908181
 21
-1151.842787887728
 31
0
  0
SOLID
  8
1
 62
2
 10
270.377385908181
 20
-1183.842787887726
 30
0
 11
269.961385908181
 21
-1180.642787887726
 31
0
 12
270.793385908181
 22
-1180.642787887726
 32
0
 13
270.793385908181
 23
-1180.642787887726
 33
0
  0
SOLID
  8
1
 62
2
 10
270.377385908181
 20
-1151.842787887728
 30
0
 11
270.793385908181
 21
-1155.042787887728
 31
0
 12
269.961385908181
 22
-1155.042787887728
 32
0
 13
269.961385908181
 23
-1155.042787887728
 33
0
  0
TEXT
  8
1
 62
2
 10
268.377385908181
 20
-1174.05505703409
 30
0
 40
3.2
  1
32
 50
90
 41
0.9
  0
TEXT
  8
1
 62
2
 10
267.737385908181
 20
-1167.65505703409
 30
0
 40
1.92
  1
%%p0.3
 50
90
 41
0.9
  0
ENDBLK
  8
0
  0
BLOCK
  8
1
  2
*D12
 70
1
 10
0
 20
0
 30
0
  0
LINE
  8
1
 62
2
 10
212.9297349327676
 20
-1115.09955527366
 30
0
 11
244.9297349327676
 21
-1115.09955527366
 31
0
  0
LINE
  8
1
 62
2
 10
212.9297349327676
 20
-1131.570410272684
 30
0
 11
212.9297349327676
 21
-1113.59955527366
 31
0
  0
LINE
  8
1
 62
2
 10
244.9297349327676
 20
-1147.02562590039
 30
0
 11
244.9297349327676
 21
-1113.59955527366
 31
0
  0
SOLID
  8
1
 62
2
 10
244.9297349327676
 20
-1115.09955527366
 30
0
 11
241.7297349327676
 21
-1115.51555527366
 31
0
 12
241.7297349327676
 22
-1114.68355527366
 32
0
 13
241.7297349327676
 23
-1114.68355527366
 33
0
  0
SOLID
  8
1
 62
2
 10
212.9297349327676
 20
-1115.09955527366
 30
0
 11
216.1297349327676
 21
-1114.68355527366
 31
0
 12
216.1297349327676
 22
-1115.51555527366
 32
0
 13
216.1297349327676
 23
-1115.51555527366
 33
0
  0
TEXT
  8
1
 62
2
 10
223.306335199985
 20
-1113.09955527366
 30
0
 40
3.2
  1
32
 41
0.9
  0
TEXT
  8
1
 62
2
 10
229.706335199985
 20
-1112.45955527366
 30
0
 40
1.92
  1
%%p0.3
 41
0.9
  0
ENDBLK
  8
0
  0
BLOCK
  8
1
  2
*D13
 70
1
 10
0
 20
0
 30
0
  0
LINE
  8
1
 62
2
 10
212.9297349327676
 20
-1130.04033289518
 30
0
 11
238.929734932767
 21
-1130.04033289518
 31
0
  0
LINE
  8
1
 62
2
 10
212.9297349327676
 20
-1131.570410272684
 30
0
 11
212.9297349327676
 21
-1128.54033289518
 31
0
  0
LINE
  8
1
 62
2
 10
238.929734932767
 20
-1140.917787887726
 30
0
 11
238.929734932767
 21
-1128.54033289518
 31
0
  0
SOLID
  8
1
 62
2
 10
212.9297349327676
 20
-1130.04033289518
 30
0
 11
216.1297349327676
 21
-1129.62433289518
 31
0
 12
216.1297349327676
 22
-1130.45633289518
 32
0
 13
216.1297349327676
 23
-1130.45633289518
 33
0
  0
SOLID
  8
1
 62
2
 10
238.929734932767
 20
-1130.04033289518
 30
0
 11
235.729734932767
 21
-1130.45633289518
 31
0
 12
235.729734932767
 22
-1129.62433289518
 32
0
 13
235.729734932767
 23
-1129.62433289518
 33
0
  0
TEXT
  8
1
 62
2
 10
220.543314680937
 20
-1128.04033289518
 30
0
 40
3.2
  1
26
 41
0.9
  0
TEXT
  8
1
 62
2
 10
226.943314680937
 20
-1127.40033289518
 30
0
 40
1.92
  1
%%p0.3
 41
0.9
  0
ENDBLK
  8
0
  0
BLOCK
  8
1
  2
*D14
 70
1
 10
0
 20
0
 30
0
  0
LINE
  8
1
 62
2
 10
355.4376909930862
 20
-1130
 30
0
 11
345.8376909930862
 21
-1130
 31
0
  0
LINE
  8
1
 62
2
 10
340.8376909930851
 20
-1130
 30
0
 11
345.8376909930862
 21
-1130
 31
0
  0
LINE
  8
1
 62
2
 10
340.8376909930851
 20
-1130
 30
0
 11
329.04
 21
-1130
 31
0
  0
LINE
  8
1
 62
2
 10
340.8376909930851
 20
-1139.84278788773
 30
0
 11
340.8376909930851
 21
-1128.5
 31
0
  0
LINE
  8
1
 62
2
 10
345.8376909930862
 20
-1140.34278788773
 30
0
 11
345.8376909930862
 21
-1128.5
 31
0
  0
SOLID
  8
1
 62
2
 10
340.8376909930851
 20
-1130
 30
0
 11
336.0376909930851
 21
-1130.624
 31
0
 12
336.0376909930851
 22
-1129.376
 32
0
 13
336.0376909930851
 23
-1129.376
 33
0
  0
SOLID
  8
1
 62
2
 10
345.8376909930862
 20
-1130
 30
0
 11
350.6376909930862
 21
-1129.376
 31
0
 12
350.6376909930862
 22
-1130.624
 32
0
 13
350.6376909930862
 23
-1130.624
 33
0
  0
TEXT
  8
1
 62
2
 10
329.04
 20
-1128
 30
0
 40
3.2
  1
5
 41
0.9
  0
ENDBLK
  8
0
  0
BLOCK
  8
1
  2
*D15
 70
1
 10
0
 20
0
 30
0
  0
LINE
  8
1
 62
2
 10
172.8707742035096
 20
-1224.828008826032
 30
0
 11
162.1105882352941
 21
-1245
 31
0
  0
LINE
  8
1
 62
2
 10
162.1105882352941
 20
-1245
 30
0
 11
123.0894117647059
 21
-1245
 31
0
  0
SOLID
  8
1
 62
2
 10
172.8707742035096
 20
-1224.828008826032
 30
0
 11
171.1622259213162
 21
-1229.356831936666
 31
0
 12
170.061090040869
 22
-1228.769461718838
 32
0
 13
170.061090040869
 23
-1228.769461718838
 33
0
  0
TEXT
  8
1
 62
2
 10
132.3694117647059
 20
-1243
 30
0
 40
3.2
  1
4.5
 41
0.9
  0
TEXT
  8
1
 62
2
 10
123.0894117647059
 20
-1243
 30
0
 40
3.2
  1
4-%%c
 41
0.9
  0
TEXT
  8
1
 62
2
 10
139.9694117647059
 20
-1243
 30
0
 40
3.2
  1
üièÐÆ╩îèüj
 41
0.9
  0
ENDBLK
  8
0
  0
BLOCK
  8
1
  2
*D16
 70
1
 10
0
 20
0
 30
0
  0
LINE
  8
1
 62
2
 10
237.591386369404
 20
-1192.077042463445
 30
0
 11
135.6914031857174
 21
-1158.053757163511
 31
0
  0
SOLID
  8
1
 62
2
 10
188.2680834961333
 20
-1175.608533312003
 30
0
 11
193.018625871176
 21
-1176.536823753042
 31
0
 12
192.6233816515414
 22
-1177.720583022
 32
0
 13
192.6233816515414
 23
-1177.720583022
 33
0
  0
SOLID
  8
1
 62
2
 10
237.591386369404
 20
-1192.077042463445
 30
0
 11
232.8408439943613
 21
-1191.148752022406
 31
0
 12
233.236088213996
 22
-1189.964992753448
 32
0
 13
233.236088213996
 23
-1189.964992753448
 33
0
  0
TEXT
  8
1
 62
2
 10
139.9671435960301
 20
-1157.372843113415
 30
0
 40
3.2
  1
52
 50
341.5364014178676
 41
0.9
  0
TEXT
  8
1
 62
2
 10
136.3248073838498
 20
-1156.156707053
 30
0
 40
3.2
  1
%%c
 50
341.5364014178676
 41
0.9
  0
TEXT
  8
1
 62
2
 10
146.037703949664
 20
-1159.399736547439
 30
0
 40
3.2
  1
(ïzì×ôÓîa)
 50
341.5364014178676
 41
0.9
  0
ENDBLK
  8
0
  0
ENDSEC
  0
SECTION
  2
ENTITIES
  0
INSERT
  8
1
  2
*X0
 10
0
 20
0
 30
0
  0
INSERT
  8
1
  2
*X1
 10
0
 20
0
 30
0
  0
LINE
  8
1
 62
3
 10
258.5739039128746
 20
-1156.5042831481
 30
0
 11
251.624511890097
 21
-1160.35639404842
 31
0
  0
LINE
  8
1
 62
3
 10
259.5875719797074
 20
-1155.713726948578
 30
0
 11
271.6660016243548
 21
-1149.018544069216
 31
0
  0
LINE
  8
1
 62
3
 10
259.2244553621939
 20
-1154.542980894984
 30
0
 11
271.0842300799861
 21
-1147.96900042065
 31
0
  0
LINE
  8
1
 62
3
 10
272.5386589412674
 20
-1150.592859542968
 30
0
 11
260.8975391502162
 21
-1157.04563761239
 31
0
  0
LINE
  8
1
 62
3
 10
261.2606557677084
 20
-1158.21638366607
 30
0
 11
273.1204304854591
 21
-1151.642403191468
 31
0
  0
LINE
  8
1
 62
3
 10
271.0842300799861
 20
-1147.96900042065
 30
0
 11
271.666001624375
 21
-1149.018544069252
 31
0
  0
LINE
  8
1
 62
3
 10
273.1204304853796
 20
-1151.642403191326
 30
0
 11
272.5386589412319
 21
-1150.592859542902
 31
0
  0
LINE
  8
1
 62
2
 10
281.7211846708546
 20
-1146.53192107677
 30
0
 11
272.9749875991318
 21
-1151.38001727884
 31
0
  0
LINE
  8
1
 62
2
 10
281.4302988987312
 20
-1146.007149252472
 30
0
 11
281.7211846708546
 21
-1146.53192107677
 31
0
  0
LINE
  8
1
 62
2
 10
272.6841018270121
 20
-1150.855245454546
 30
0
 11
281.4302988987312
 21
-1146.007149252472
 31
0
  0
LINE
  8
1
 62
2
 10
280.266755809736
 20
-1143.908061954462
 30
0
 11
271.5205587384788
 21
-1148.756158157464
 31
0
  0
LINE
  8
1
 62
2
 10
279.9758700376127
 20
-1143.383290130164
 30
0
 11
280.266755809736
 21
-1143.908061954462
 31
0
  0
LINE
  8
1
 62
2
 10
271.2296729662953
 20
-1148.231386333184
 30
0
 11
279.9758700376127
 21
-1143.383290130164
 31
0
  0
LINE
  8
1
 62
1
 10
338.869625176899
 20
-1144.842787887728
 30
0
 11
349.035873019928
 21
-1144.842787887728
 31
0
  0
LINE
  8
30
 62
3
 10
329.0376909930839
 20
-1216.268060388748
 30
0
 11
329.0376909930849
 21
-1234.34278788773
 31
0
  0
LINE
  8
1
 62
3
 10
240.4297349327672
 20
-1235.842787887726
 30
0
 11
240.4297349327672
 21
-1237.342787887726
 31
0
  0
LINE
  8
1
 62
3
 10
245.4297349327672
 20
-1235.842787887726
 30
0
 11
245.4297349327672
 21
-1237.342787887726
 31
0
  0
LINE
  8
30
 62
3
 10
169.6237355571814
 20
-1204.723815983492
 30
0
 11
168.2626275418746
 21
-1205.358511074606
 31
0
  0
LINE
  8
30
 62
3
 10
171.7368268658848
 20
-1209.255354918674
 30
0
 11
170.375718850578
 21
-1209.89005000979
 31
0
  0
LINE
  8
30
 62
3
 10
184.8991138524002
 20
-1146.734890593042
 30
0
 11
185.6502925820056
 21
-1148.035970318282
 31
0
  0
LINE
  8
30
 62
3
 10
189.2292408713222
 20
-1144.234890593042
 30
0
 11
189.9804196009278
 21
-1145.535970318282
 31
0
  0
LINE
  8
30
 62
3
 10
237.9297349327672
 20
-1237.342787887726
 30
0
 11
237.9297349327672
 21
-1235.842787887726
 31
0
  0
LINE
  8
30
 62
3
 10
247.9297349327672
 20
-1237.342787887726
 30
0
 11
247.9297349327672
 21
-1235.842787887726
 31
0
  0
LINE
  8
30
 62
3
 10
237.9297349327672
 20
-1237.342787887726
 30
0
 11
247.9297349327672
 21
-1237.342787887726
 31
0
  0
LINE
  8
30
 62
3
 10
171.5974135362172
 20
-1212.078809219356
 30
0
 11
172.9634966871982
 21
-1211.441794184376
 31
0
  0
LINE
  8
30
 62
3
 10
167.3712309188102
 20
-1203.01573134899
 30
0
 11
168.7373140697914
 21
-1202.37871631401
 31
0
  0
LINE
  8
30
 62
3
 10
182.8376931014876
 20
-1148.164405116686
 30
0
 11
183.5924416605222
 21
-1149.471667967872
 31
0
  0
LINE
  8
30
 62
3
 10
191.4979471393318
 20
-1143.164405116686
 30
0
 11
192.2526956983664
 21
-1144.471667967872
 31
0
  0
LINE
  8
30
 62
3
 10
262.9297349327672
 20
-1178.692787887726
 30
0
 11
262.9297349327672
 21
-1235.842787887726
 31
0
  0
LINE
  8
30
 62
3
 10
262.9297349327672
 20
-1177.842787887726
 30
0
 11
262.9297349327672
 21
-1178.692787887726
 31
0
  0
LINE
  8
30
 62
3
 10
212.8658765288566
 20
-1235.842787887726
 30
0
 11
262.9297349327672
 21
-1235.842787887726
 31
0
  0
LINE
  8
30
 62
1
  6
CENTER
 10
168.4020154836718
 20
-1208.051958207298
 30
0
 11
172.8663493162248
 21
-1205.970205152618
 31
0
  0
LINE
  8
30
 62
1
  6
CENTER
 10
186.891244070114
 20
-1145.185361345416
 30
0
 11
188.8338161342906
 21
-1148.549994857932
 31
0
  0
LINE
  8
30
 62
1
 10
242.9297349327672
 20
-1233.597742373764
 30
0
 11
242.9297349327672
 21
-1238.285102321006
 31
0
  0
LINE
  8
30
 62
1
  6
CENTER
 10
173.9297349327676
 20
-1225.777321794656
 30
0
 11
173.9297349327676
 21
-1222.842787887726
 31
0
  0
LINE
  8
30
 62
1
  6
CENTER
 10
176.9887863412836
 20
-1222.842787887726
 30
0
 11
173.9297349327676
 21
-1222.842787887726
 31
0
  0
LINE
  8
30
 62
1
  6
CENTER
 10
173.9297349327676
 20
-1222.842787887726
 30
0
 11
170.8843917514744
 21
-1222.842787887726
 31
0
  0
LINE
  8
30
 62
1
  6
CENTER
 10
173.9297349327676
 20
-1222.842787887726
 30
0
 11
173.9297349327676
 21
-1219.978146934338
 31
0
  0
LINE
  8
30
 62
1
 10
244.9297349327676
 20
-1155.579561430168
 30
0
 11
244.9297349327676
 21
-1151.842787887728
 31
0
  0
LINE
  8
30
 62
1
 10
248.3688784554284
 20
-1151.842787887728
 30
0
 11
244.9297349327676
 21
-1151.842787887728
 31
0
  0
LINE
  8
30
 62
1
 10
244.9297349327676
 20
-1151.842787887728
 30
0
 11
241.6660905909765
 21
-1151.842787887728
 31
0
  0
LINE
  8
30
 62
1
 10
244.9297349327676
 20
-1151.842787887728
 30
0
 11
244.9297349327676
 21
-1148.02562590039
 31
0
  0
LINE
  8
30
 62
3
 10
253.6191283424238
 20
-1177.842787887728
 30
0
 11
262.9297349327672
 21
-1177.842787887726
 31
0
  0
LINE
  8
30
 62
3
 10
253.9482628683408
 20
-1175.38606409288
 30
0
 11
252.4867596369538
 21
-1175.772209903032
 31
0
  0
LINE
  8
30
 62
3
 10
251.3938052889831
 20
-1165.717830206834
 30
0
 11
249.9323020575958
 21
-1166.103976016988
 31
0
  0
LINE
  8
30
 62
1
 10
255.5438985076826
 20
-1169.792903626326
 30
0
 11
247.654384663054
 21
-1171.877403099074
 31
0
  0
LINE
  8
30
 62
3
 10
253.5312109651645
 20
-1172.910466285972
 30
0
 11
252.0781833062017
 21
-1173.294372753296
 31
0
  0
LINE
  8
30
 62
3
 10
252.2539821754859
 20
-1168.076349342952
 30
0
 11
250.8009545165224
 21
-1168.460255810274
 31
0
  0
LINE
  8
30
 62
1
 10
267.618443177045
 20
-1183.842787887726
 30
0
 11
159.2625183940954
 21
-1183.842787887726
 31
0
  0
LINE
  8
30
 62
1
 10
212.9297349327674
 20
-1245.194183296538
 30
0
 11
212.9297349327676
 21
-1132.570410272684
 31
0
  0
LINE
  8
35
 62
3
 10
316.8376909930836
 20
-1213.152188964488
 30
0
 11
316.8376909930835
 21
-1213.84278788773
 31
0
  0
LINE
  8
35
 62
3
 10
314.8376909930843
 20
-1215.84278788773
 30
0
 11
316.8376909930835
 21
-1213.84278788773
 31
0
  0
LINE
  8
35
 62
1
 10
347.846387524285
 20
-1151.84278788773
 30
0
 11
311.586154973962
 21
-1151.84278788773
 31
0
  0
LINE
  8
35
 62
3
 10
340.8376909930851
 20
-1147.344800118212
 30
0
 11
312.8376909930843
 21
-1147.344800118212
 31
0
  0
LINE
  8
35
 62
3
 10
345.837690993083
 20
-1157.750794167036
 30
0
 11
339.8376909930812
 21
-1157.750794167036
 31
0
  0
LINE
  8
35
 62
3
 10
315.3376909930843
 20
-1194.18278788773
 30
0
 11
341.337690993084
 21
-1194.18278788773
 31
0
  0
LINE
  8
35
 62
3
 10
330.2376909930838
 20
-1235.84278788773
 30
0
 11
330.2376909930838
 21
-1235.04278788773
 31
0
  0
LINE
  8
35
 62
3
 10
329.0376909930842
 20
-1235.04278788773
 30
0
 11
329.0376909930842
 21
-1233.84278788773
 31
0
  0
LINE
  8
35
 62
3
 10
330.2376909930838
 20
-1178.642787887728
 30
0
 11
330.2376909930838
 21
-1177.842787887728
 31
0
  0
LINE
  8
35
 62
3
 10
329.0376909930842
 20
-1194.18278788773
 30
0
 11
329.0376909930842
 21
-1178.642787887728
 31
0
  0
LINE
  8
35
 62
3
 10
315.3376909930843
 20
-1233.842787887728
 30
0
 11
343.3376909930851
 21
-1233.84278788773
 31
0
  0
LINE
  8
35
 62
3
 10
314.8376909930843
 20
-1182.842787887728
 30
0
 11
314.8376909930843
 21
-1233.342787887728
 31
0
  0
LINE
  8
35
 62
3
 10
329.0376909930842
 20
-1235.04278788773
 30
0
 11
330.2376909930838
 21
-1235.04278788773
 31
0
  0
LINE
  8
35
 62
3
 10
330.8376909930882
 20
-1178.642787887728
 30
0
 11
329.0376909930842
 21
-1178.642787887728
 31
0
  0
LINE
  8
35
 62
3
 10
312.837690993084
 20
-1179.342787887728
 30
0
 11
312.837690993084
 21
-1234.342787887728
 31
0
  0
LINE
  8
35
 62
3
 10
330.2376909930838
 20
-1177.842787887728
 30
0
 11
314.3376909930843
 21
-1177.842787887728
 31
0
  0
LINE
  8
35
 62
3
 10
314.3376909930843
 20
-1235.842787887728
 30
0
 11
330.2376909930838
 21
-1235.84278788773
 31
0
  0
LINE
  8
35
 62
3
 10
327.0376909930842
 20
-1235.842787887728
 30
0
 11
327.0376909930841
 21
-1237.342787887728
 31
0
  0
LINE
  8
35
 62
3
 10
327.0376909930841
 20
-1237.342787887728
 30
0
 11
332.2376909930838
 21
-1237.342787887728
 31
0
  0
LINE
  8
35
 62
3
 10
332.2376909930838
 20
-1237.342787887728
 30
0
 11
332.2376909930838
 21
-1235.84278788773
 31
0
  0
LINE
  8
35
 62
3
 10
312.8376909930843
 20
-1142.342787887734
 30
0
 11
312.837690993084
 21
-1179.342787887728
 31
0
  0
LINE
  8
35
 62
1
 10
353.6155649543942
 20
-1183.84278788773
 30
0
 11
307.259342408963
 21
-1183.84278788773
 31
0
  0
LINE
  8
35
 62
3
 10
330.2376909930838
 20
-1140.842787887734
 30
0
 11
314.3376909930838
 21
-1140.842787887734
 31
0
  0
LINE
  8
35
 62
3
 10
316.8376909930836
 20
-1213.152188964488
 30
0
 11
316.8376909930836
 21
-1194.18278788773
 31
0
  0
LINE
  8
30
 62
3
 10
345.8376909930786
 20
-1179.342787887728
 30
0
 11
345.8376909930812
 21
-1164.894712766272
 31
0
  0
LINE
  8
30
 62
3
 10
329.0376909930849
 20
-1234.34278788773
 30
0
 11
329.0376909930842
 21
-1235.04278788773
 31
0
  0
LINE
  8
30
 62
3
 10
330.8376909930882
 20
-1140.842787887732
 30
0
 11
345.3376909930862
 21
-1140.84278788773
 31
0
  0
LINE
  8
30
 62
3
 10
330.8376909930851
 20
-1235.04278788773
 30
0
 11
330.8376909930851
 21
-1235.84278788773
 31
0
  0
LINE
  8
30
 62
3
 10
329.0376909930842
 20
-1235.04278788773
 30
0
 11
330.8376909930851
 21
-1235.04278788773
 31
0
  0
LINE
  8
30
 62
3
 10
330.8376909930882
 20
-1141.642787887732
 30
0
 11
330.8376909930882
 21
-1140.842787887732
 31
0
  0
LINE
  8
30
 62
3
 10
330.2376909930838
 20
-1141.642787887732
 30
0
 11
330.8376909930882
 21
-1141.642787887732
 31
0
  0
LINE
  8
30
 62
3
 10
344.337690993084
 20
-1235.84278788773
 30
0
 11
330.8376909930851
 21
-1235.84278788773
 31
0
  0
LINE
  8
30
 62
3
 10
345.837690993084
 20
-1234.34278788773
 30
0
 11
345.837690993084
 21
-1179.342787887728
 31
0
  0
LINE
  8
30
 62
3
 10
329.037690993082
 20
-1187.192787887728
 30
0
 11
329.0376909930842
 21
-1194.18278788773
 31
0
  0
LINE
  8
35
 62
3
 10
344.337690993084
 20
-1177.842787887728
 30
0
 11
330.8376909930882
 21
-1177.842787887728
 31
0
  0
LINE
  8
1
 62
3
 10
343.8376909930851
 20
-1233.34278788773
 30
0
 11
343.8376909930844
 21
-1188.842787887728
 31
0
  0
LINE
  8
1
 62
3
 10
330.8376909930882
 20
-1177.842787887728
 30
0
 11
330.8376909930882
 21
-1178.642787887728
 31
0
  0
LINE
  8
1
 62
3
 10
330.2376909930838
 20
-1140.842787887734
 30
0
 11
330.2376909930838
 21
-1165.717830206834
 31
0
  0
LINE
  8
1
 62
3
 10
330.8376909930882
 20
-1141.642787887732
 30
0
 11
330.8376909930882
 21
-1147.344800118212
 31
0
  0
LINE
  8
1
 62
3
 10
340.8376909930851
 20
-1151.84278788773
 30
0
 11
340.8376909930851
 21
-1140.84278788773
 31
0
  0
LINE
  8
1
 62
3
 10
330.8376909930882
 20
-1157.750794167036
 30
0
 11
330.8376909930882
 21
-1165.717830206834
 31
0
  0
LINE
  8
1
 62
3
 10
259.9297349327674
 20
-1222.842787887726
 30
0
 11
236.9297349327674
 21
-1222.842787887726
 31
0
  0
LINE
  8
1
 62
3
 10
236.9297349327674
 20
-1222.842787887726
 30
0
 11
236.9297349327674
 21
-1232.842787887726
 31
0
  0
LINE
  8
1
 62
3
 10
236.9297349327674
 20
-1232.842787887726
 30
0
 11
259.9297349327674
 21
-1232.842787887726
 31
0
  0
LINE
  8
1
 62
3
 10
259.9297349327674
 20
-1232.842787887726
 30
0
 11
259.9297349327674
 21
-1222.842787887726
 31
0
  0
LINE
  8
1
 62
3
 10
332.5376909930841
 20
-1165.717830206834
 30
0
 11
332.5376909930841
 21
-1175.38606409288
 31
0
  0
LINE
  8
1
 62
3
 10
332.5376909930841
 20
-1165.717830206834
 30
0
 11
327.0376909930841
 21
-1165.717830206834
 31
0
  0
LINE
  8
1
 62
3
 10
327.0376909930841
 20
-1165.717830206834
 30
0
 11
327.0376909930841
 21
-1168.076349342952
 31
0
  0
LINE
  8
1
 62
3
 10
332.5376909930841
 20
-1175.38606409288
 30
0
 11
327.0376909930841
 21
-1175.38606409288
 31
0
  0
LINE
  8
1
 62
3
 10
327.0376909930841
 20
-1175.38606409288
 30
0
 11
327.0376909930841
 21
-1172.910466285972
 31
0
  0
LINE
  8
1
 62
3
 10
327.0376909930841
 20
-1168.076349342952
 30
0
 11
331.0376909930841
 21
-1168.076349342952
 31
0
  0
LINE
  8
1
 62
3
 10
331.0376909930841
 20
-1168.076349342952
 30
0
 11
331.0376909930841
 21
-1172.910466285972
 31
0
  0
LINE
  8
1
 62
3
 10
331.0376909930841
 20
-1172.910466285972
 30
0
 11
327.0376909930841
 21
-1172.910466285972
 31
0
  0
LINE
  8
1
 62
3
 10
329.2376909930838
 20
-1168.365524962396
 30
0
 11
329.2376909930838
 21
-1172.716230211116
 31
0
  0
LINE
  8
1
 62
3
 10
329.2376909930838
 20
-1168.365524962396
 30
0
 11
331.0376909930841
 21
-1168.365524962396
 31
0
  0
LINE
  8
1
 62
3
 10
329.2376909930838
 20
-1172.716230211116
 30
0
 11
331.0376909930841
 21
-1172.716230211116
 31
0
  0
LINE
  8
1
 62
3
 10
330.2376909930838
 20
-1175.38606409288
 30
0
 11
330.2376909930838
 21
-1178.642787887728
 31
0
  0
LINE
  8
1
 62
3
 10
330.8376909930882
 20
-1175.38606409288
 30
0
 11
330.8376909930882
 21
-1177.842787887728
 31
0
  0
LINE
  8
1
 62
3
 10
330.5376909930841
 20
-1168.365524962396
 30
0
 11
330.5376909930841
 21
-1172.716230211116
 31
0
  0
LINE
  8
1
 62
1
 10
184.354734932767
 20
-1228.842787887724
 30
0
 11
178.5047349327668
 21
-1228.842787887724
 31
0
  0
LINE
  8
1
 62
1
 10
181.429734932767
 20
-1225.917787887726
 30
0
 11
181.429734932767
 21
-1231.767787887726
 31
0
  0
LINE
  8
1
 62
3
 10
238.4150290504114
 20
-1140.842787887726
 30
0
 11
239.2714093222922
 21
-1140.842787887728
 31
0
  0
LINE
  8
1
 62
1
 10
241.854734932767
 20
-1144.842787887728
 30
0
 11
236.0047349327672
 21
-1144.842787887728
 31
0
  0
LINE
  8
1
 62
1
 10
238.929734932767
 20
-1141.917787887726
 30
0
 11
238.929734932767
 21
-1147.767787887728
 31
0
  0
LINE
  8
30
 62
3
 10
343.8376909930846
 20
-1213.639301621668
 30
0
 11
339.3376909930844
 21
-1209.139301621668
 31
0
  0
LINE
  8
30
 62
3
 10
339.3376909930844
 20
-1194.18278788773
 30
0
 11
339.3376909930844
 21
-1209.139301621668
 31
0
  0
LINE
  8
1
 62
3
 10
341.337690993084
 20
-1182.842787887728
 30
0
 11
341.337690993084
 21
-1195.692787887726
 31
0
  0
LINE
  8
10
 62
3
 10
336.9076909930892
 20
-1216.12887967853
 30
0
 11
319.1576909930892
 21
-1216.442787887726
 31
0
  0
LINE
  8
10
 62
3
 10
336.9076909930892
 20
-1194.18278788773
 30
0
 11
336.9076909930892
 21
-1216.093686589162
 31
0
  0
LINE
  8
10
 62
3
 10
319.7076909930919
 20
-1194.18278788773
 30
0
 11
319.7076909930838
 21
-1216.442787887726
 31
0
  0
LINE
  8
10
 62
3
 10
318.9076909930839
 20
-1194.18278788773
 30
0
 11
318.9076909930839
 21
-1213.442787887726
 31
0
  0
LINE
  8
1
 62
3
 10
337.8376909930893
 20
-1199.942772377524
 30
0
 11
337.8376909930893
 21
-1194.18278788773
 31
0
  0
LINE
  8
1
 62
3
 10
337.8376909930893
 20
-1204.942787887726
 30
0
 11
337.8376909930893
 21
-1199.942787887726
 31
0
  0
LINE
  8
1
 62
3
 10
337.8376909930893
 20
-1204.942787887726
 30
0
 11
336.9076909930892
 21
-1204.942787887726
 31
0
  0
LINE
  8
10
 62
3
 10
319.7076909930838
 20
-1216.442787887726
 30
0
 11
318.9076909930839
 21
-1216.442787887726
 31
0
  0
LINE
  8
10
 62
3
 10
318.9076909930839
 20
-1213.442787887726
 30
0
 11
318.9076909930839
 21
-1216.442787887726
 31
0
  0
LINE
  8
1
 62
2
 10
319.7076909930909
 20
-1196.453766484156
 30
0
 11
336.9076909930892
 21
-1196.453766484156
 31
0
  0
LINE
  8
1
 62
2
 10
319.7076909930909
 20
-1197.158463038292
 30
0
 11
336.9076909930892
 21
-1197.158463038292
 31
0
  0
LINE
  8
1
 62
2
 10
319.7076909930909
 20
-1199.10043984812
 30
0
 11
336.9076909930892
 21
-1199.10043984812
 31
0
  0
LINE
  8
1
 62
2
 10
319.7076909930909
 20
-1199.773826508688
 30
0
 11
336.9076909930892
 21
-1199.773826508688
 31
0
  0
LINE
  8
1
 62
2
 10
319.7076909930909
 20
-1201.6203384225
 30
0
 11
336.9076909930892
 21
-1201.6203384225
 31
0
  0
LINE
  8
1
 62
2
 10
319.7076909930909
 20
-1202.214830552764
 30
0
 11
336.9076909930892
 21
-1202.214830552764
 31
0
  0
LINE
  8
1
 62
2
 10
319.7076909930909
 20
-1204.589953784378
 30
0
 11
336.9076909930892
 21
-1204.589953784378
 31
0
  0
LINE
  8
1
 62
2
 10
319.7076909930909
 20
-1206.204210192156
 30
0
 11
336.9076909930892
 21
-1206.204210192156
 31
0
  0
LINE
  8
1
 62
2
 10
319.7076909930909
 20
-1206.754063953044
 30
0
 11
336.9076909930892
 21
-1206.754063953044
 31
0
  0
LINE
  8
1
 62
2
 10
319.7076909930909
 20
-1208.233297355444
 30
0
 11
336.9076909930892
 21
-1208.233297355444
 31
0
  0
LINE
  8
1
 62
2
 10
319.7076909930909
 20
-1208.733150631302
 30
0
 11
336.9076909930892
 21
-1208.733150631302
 31
0
  0
LINE
  8
1
 62
2
 10
319.7076909930909
 20
-1210.066103168948
 30
0
 11
336.9076909930892
 21
-1210.066103168948
 31
0
  0
LINE
  8
1
 62
2
 10
319.7076909930909
 20
-1210.512151774528
 30
0
 11
336.9076909930892
 21
-1210.512151774528
 31
0
  0
LINE
  8
1
 62
2
 10
319.7076909930909
 20
-1211.68867887375
 30
0
 11
336.9076909930892
 21
-1211.68867887375
 31
0
  0
LINE
  8
1
 62
2
 10
319.7076909930909
 20
-1212.07752810983
 30
0
 11
336.9076909930892
 21
-1212.07752810983
 31
0
  0
LINE
  8
1
 62
2
 10
319.7076909930909
 20
-1213.417366178096
 30
0
 11
336.9076909930892
 21
-1213.417366178096
 31
0
  0
LINE
  8
1
 62
2
 10
319.7076909930909
 20
-1213.088675688994
 30
0
 11
336.9076909930892
 21
-1213.088675688994
 31
0
  0
LINE
  8
1
 62
2
 10
319.7076909930909
 20
-1214.52146900261
 30
0
 11
336.9076909930892
 21
-1214.52146900261
 31
0
  0
LINE
  8
1
 62
2
 10
319.7076909930909
 20
-1214.25543879358
 30
0
 11
336.9076909930892
 21
-1214.25543879358
 31
0
  0
LINE
  8
1
 62
2
 10
319.7076909930909
 20
-1215.180088415766
 30
0
 11
336.9076909930892
 21
-1215.180088415766
 31
0
  0
LINE
  8
1
 62
2
 10
319.7076909930909
 20
-1215.381433694204
 30
0
 11
336.9076909930892
 21
-1215.381433694204
 31
0
  0
LINE
  8
1
 62
2
 10
319.7076909930909
 20
-1215.990715402312
 30
0
 11
336.9076909930892
 21
-1215.990715402312
 31
0
  0
LINE
  8
1
 62
2
 10
319.7076909930909
 20
-1203.99428425759
 30
0
 11
336.9076909930892
 21
-1203.99428425759
 31
0
  0
LINE
  8
1
 62
2
 10
165.8297349327672
 20
-1184.742787887728
 30
0
 11
165.8297349327672
 21
-1181.339733351688
 31
0
  0
LINE
  8
1
 62
3
 10
314.8376909930843
 20
-1182.842787887728
 30
0
 11
341.337690993084
 21
-1182.842787887728
 31
0
  0
LINE
  8
1
 62
3
 10
341.337690993084
 20
-1182.842787887728
 30
0
 11
343.8376909930844
 21
-1188.842787887728
 31
0
  0
LINE
  8
31
 62
3
 10
231.6393683355406
 20
-1145.192743255492
 30
0
 11
234.6713042186432
 21
-1142.16080737239
 31
0
  0
LINE
  8
31
 62
3
 10
245.9351435319784
 20
-1157.201340319194
 30
0
 11
248.1117154481069
 21
-1155.024768403066
 31
0
  0
LINE
  8
31
 62
3
 10
242.7749610719844
 20
-1142.414226707178
 30
0
 11
248.346389643411
 21
-1148.914226707174
 31
0
  0
LINE
  8
31
 62
3
 10
241.7477544174282
 20
-1148.660807372388
 30
0
 11
239.9229403096591
 21
-1150.485621480158
 31
0
  0
LINE
  8
31
 62
3
 10
246.7551825915166
 20
-1158.253420267398
 30
0
 11
250.0256213383514
 21
-1156.440586467806
 31
0
  0
LINE
  8
31
 62
3
 10
254.8737175408152
 20
-1165.1867835392
 30
0
 11
252.2119172043152
 21
-1166.662243558884
 31
0
  0
LINE
  8
31
 62
3
 10
253.2718834033062
 20
-1164.359663598738
 30
0
 11
251.0473929203754
 21
-1165.592718808296
 31
0
  0
LINE
  8
31
 62
3
 10
247.8510311991821
 20
-1159.70401878732
 30
0
 11
250.0236589476556
 21
-1158.499711560902
 31
0
  0
LINE
  8
31
 62
3
 10
171.118607218773
 20
-1226.35669753022
 30
0
 11
178.661079551431
 21
-1232.390675396346
 31
0
  0
LINE
  8
31
 62
3
 10
184.6541877807642
 20
-1232.05874626919
 30
0
 11
188.2426715080062
 21
-1228.47026254195
 31
0
  0
LINE
  8
31
 62
3
 10
170.7477544174278
 20
-1219.660807372388
 30
0
 11
174.7429635336704
 21
-1215.665598256146
 31
0
  0
LINE
  8
31
 62
3
 10
177.1117154481066
 20
-1226.024768403068
 30
0
 11
180.5533806040264
 21
-1222.583103247148
 31
0
  0
LINE
  8
31
 62
3
 10
254.2939083875016
 20
-1162.07811479805
 30
0
 11
255.2635276277077
 21
-1163.827354211812
 31
0
  0
LINE
  8
31
 62
3
 10
252.9819788267931
 20
-1162.80532922842
 30
0
 11
253.466788446753
 21
-1163.679948935044
 31
0
  0
LINE
  8
31
 62
3
 10
251.624511890097
 20
-1160.35639404842
 30
0
 11
252.4002072824908
 21
-1161.755785579844
 31
0
  0
LINE
  8
31
 62
3
 10
252.9364414508066
 20
-1159.62917961805
 30
0
 11
253.7121368432012
 21
-1161.028571149474
 31
0
  0
LINE
  8
31
 62
3
 10
251.3850506657374
 20
-1156.8303965547
 30
0
 11
252.3546699065216
 21
-1158.579635969502
 31
0
  0
LINE
  8
1
 62
3
 10
251.0427403458119
 20
-1159.306850399872
 30
0
 11
247.5596963787962
 21
-1161.237533197396
 31
0
  0
LINE
  8
1
 62
3
 10
252.9819788267931
 20
-1162.80532922842
 30
0
 11
249.3704167182894
 21
-1164.807250795046
 31
0
  0
LINE
  8
1
 62
3
 10
258.170531394552
 20
-1155.355851304692
 30
0
 11
251.0427403458119
 21
-1159.306850399872
 31
0
  0
LINE
  8
1
 62
3
 10
259.8097377011982
 20
-1159.0206406832
 30
0
 11
252.9819788267931
 21
-1162.80532922842
 31
0
  0
LINE
  8
1
 62
3
 10
251.624511890097
 20
-1160.35639404842
 30
0
 11
248.1445784177956
 21
-1162.28535267057
 31
0
  0
LINE
  8
1
 62
3
 10
259.4466210837063
 20
-1157.849894629522
 30
0
 11
252.4002072824908
 21
-1161.755785579844
 31
0
  0
LINE
  8
1
 62
3
 10
252.4002072824908
 20
-1161.755785579844
 30
0
 11
248.8652580529646
 21
-1163.715239934196
 31
0
  0
LINE
  8
31
 62
3
 10
250.7033736113485
 20
-1158.694616604348
 30
0
 11
251.0427403458119
 21
-1159.306850399872
 31
0
  0
LINE
  8
30
 62
3
 10
345.8376909930812
 20
-1163.694712766272
 30
0
 11
345.8376909930817
 21
-1162.197890699346
 31
0
  0
LINE
  8
1
 62
3
 10
345.8376909930814
 20
-1160.375782212166
 30
0
 11
342.8376909930814
 21
-1160.375782212166
 31
0
  0
LINE
  8
1
 62
3
 10
342.8376909930814
 20
-1160.375782212166
 30
0
 11
342.8376909930814
 21
-1160.99789069934
 31
0
  0
LINE
  8
1
 62
3
 10
342.8376909930814
 20
-1165.72542018356
 30
0
 11
345.8376909930812
 21
-1165.72542018356
 31
0
  0
LINE
  8
1
 62
3
 10
336.3376909930812
 20
-1156.32272991966
 30
0
 11
339.8376909930812
 21
-1156.32272991966
 31
0
  0
LINE
  8
1
 62
3
 10
339.8376909930812
 20
-1156.32272991966
 30
0
 11
339.8376909930812
 21
-1166.78762385174
 31
0
  0
LINE
  8
1
 62
3
 10
339.8376909930812
 20
-1166.78762385174
 30
0
 11
336.3376909930812
 21
-1166.78762385174
 31
0
  0
LINE
  8
1
 62
3
 10
336.3376909930812
 20
-1166.78762385174
 30
0
 11
336.3376909930812
 21
-1156.32272991966
 31
0
  0
LINE
  8
1
 62
3
 10
342.8376909930814
 20
-1162.197890699346
 30
0
 11
342.8376909930814
 21
-1163.694712766272
 31
0
  0
LINE
  8
1
 62
3
 10
342.8376909930814
 20
-1164.894712766272
 30
0
 11
342.8376909930814
 21
-1165.72542018356
 31
0
  0
LINE
  8
1
 62
3
 10
345.8376909930812
 20
-1164.894712766272
 30
0
 11
339.8376909930812
 21
-1164.894712766272
 31
0
  0
LINE
  8
1
 62
3
 10
345.8376909930812
 20
-1163.694712766272
 30
0
 11
339.8376909930812
 21
-1163.694712766272
 31
0
  0
LINE
  8
1
 62
3
 10
345.8376909930817
 20
-1162.197890699346
 30
0
 11
339.8376909930812
 21
-1162.197890699346
 31
0
  0
LINE
  8
1
 62
3
 10
345.8376909930817
 20
-1160.997890699346
 30
0
 11
339.8376909930812
 21
-1160.997890699346
 31
0
  0
LINE
  8
1
 62
3
 10
336.3376909930812
 20
-1162.197890699346
 30
0
 11
334.3400349352237
 21
-1162.197890699346
 31
0
  0
LINE
  8
1
 62
3
 10
336.3376909930812
 20
-1160.997890699346
 30
0
 11
333.8090124623673
 21
-1160.997890699346
 31
0
  0
LINE
  8
1
 62
3
 10
336.3376909930812
 20
-1164.894712766272
 30
0
 11
333.3161425960689
 21
-1164.894712766272
 31
0
  0
LINE
  8
1
 62
3
 10
336.3376909930812
 20
-1163.694712766272
 30
0
 11
333.2442938616672
 21
-1163.694712766272
 31
0
  0
LINE
  8
30
 62
3
 10
345.8376909930812
 20
-1163.694712766272
 30
0
 11
345.8376909930817
 21
-1163.546301732808
 31
0
  0
LINE
  8
30
 62
3
 10
345.8376909930817
 20
-1162.346301732808
 30
0
 11
345.8376909930817
 21
-1162.197890699346
 31
0
  0
LINE
  8
30
 62
3
 10
345.8376909930812
 20
-1163.694712766272
 30
0
 11
345.8376909930817
 21
-1163.546301732808
 31
0
  0
LINE
  8
30
 62
3
 10
345.8376909930817
 20
-1162.346301732808
 30
0
 11
345.8376909930817
 21
-1162.197890699346
 31
0
  0
LINE
  8
30
 62
3
 10
345.8376909930812
 20
-1163.694712766272
 30
0
 11
345.8376909930817
 21
-1162.197890699346
 31
0
  0
LINE
  8
35
 62
3
 10
345.837690993083
 20
-1157.750794167036
 30
0
 11
339.8376909930812
 21
-1157.750794167036
 31
0
  0
LINE
  8
30
 62
3
 10
345.8376909930812
 20
-1163.694712766272
 30
0
 11
345.8376909930817
 21
-1162.197890699346
 31
0
  0
LINE
  8
35
 62
3
 10
336.3376909930812
 20
-1157.750794167036
 30
0
 11
312.837690993084
 21
-1157.750794167036
 31
0
  0
LINE
  8
30
 62
3
 10
345.8376909930817
 20
-1160.997890699346
 30
0
 11
345.8376909930862
 21
-1141.34278788773
 31
0
  0
LINE
  8
30
 62
3
 10
345.8376909930812
 20
-1163.694712766272
 30
0
 11
345.8376909930817
 21
-1162.197890699346
 31
0
  0
LINE
  8
1
 62
2
 10
307.420647970595
 20
-1187.89637097896
 30
0
 11
310.197161595706
 21
-1186.293350090062
 31
0
  0
LINE
  8
1
 62
2
 10
307.420647970595
 20
-1186.793350090062
 30
0
 11
307.420647970595
 21
-1187.89637097896
 31
0
  0
LINE
  8
1
 62
2
 10
303.920647970595
 20
-1186.793350090062
 30
0
 11
307.420647970595
 21
-1186.793350090062
 31
0
  0
LINE
  8
1
 62
2
 10
303.920647970595
 20
-1185.793350090062
 30
0
 11
303.920647970595
 21
-1186.793350090062
 31
0
  0
LINE
  8
1
 62
2
 10
307.420647970595
 20
-1185.793350090062
 30
0
 11
303.920647970595
 21
-1185.793350090062
 31
0
  0
LINE
  8
1
 62
2
 10
307.420647970595
 20
-1184.690329201163
 30
0
 11
307.420647970595
 21
-1185.793350090062
 31
0
  0
LINE
  8
1
 62
2
 10
310.197161595706
 20
-1186.293350090062
 30
0
 11
307.420647970595
 21
-1184.690329201163
 31
0
  0
LINE
  8
1
 62
2
 10
274.088485260175
 20
-1213.14121895658
 30
0
 11
271.311971635064
 21
-1211.538198067798
 31
0
  0
LINE
  8
1
 62
2
 10
271.311971635064
 20
-1211.538198067798
 30
0
 11
271.311971635064
 21
-1212.64121895658
 31
0
  0
LINE
  8
1
 62
2
 10
271.311971635064
 20
-1212.64121895658
 30
0
 11
267.811971635064
 21
-1212.64121895658
 31
0
  0
LINE
  8
1
 62
2
 10
267.811971635064
 20
-1212.64121895658
 30
0
 11
267.811971635064
 21
-1213.64121895658
 31
0
  0
LINE
  8
1
 62
2
 10
267.811971635064
 20
-1213.64121895658
 30
0
 11
271.311971635064
 21
-1213.64121895658
 31
0
  0
LINE
  8
1
 62
2
 10
271.311971635064
 20
-1213.64121895658
 30
0
 11
271.311971635064
 21
-1214.744239845478
 31
0
  0
LINE
  8
1
 62
2
 10
271.311971635064
 20
-1214.744239845478
 30
0
 11
274.088485260175
 21
-1213.14121895658
 31
0
  0
ARC
  8
30
 62
3
 10
216.0297349327662
 20
-1185.842787887728
 30
0
 40
51.59999999999872
 50
199.4393582143155
 51
210.5606417856858
  0
ARC
  8
30
 62
3
 10
209.7297349327657
 20
-1184.742787887724
 30
0
 40
45.39999999999723
 50
113.6770660137578
 51
126.3229339862466
  0
ARC
  8
30
 62
3
 10
216.0297349327662
 20
-1185.842787887728
 30
0
 40
50.09999999999888
 50
227.0627591180823
 51
266.3793125914417
  0
ARC
  8
30
 62
3
 10
216.0297349327662
 20
-1185.842787887728
 30
0
 40
50.09999999999857
 50
183.3658138934721
 51
214.6617357114894
  0
ARC
  8
30
 62
3
 10
213.2297349327673
 20
-1180.972787887726
 30
0
 40
41.09999999999977
 50
7.812401828537401
 51
21.78759817145911
  0
ARC
  8
30
 62
3
 10
213.2297349327673
 20
-1180.972787887726
 30
0
 40
39.60000000000004
 50
50.25821824375716
 51
59.51724256490601
  0
ARC
  8
30
 62
3
 10
210.3597349327674
 20
-1187.742787887728
 30
0
 40
46.90000000000023
 50
60.69129591365643
 51
90.39118444967214
  0
ARC
  8
30
 62
3
 10
209.7297349327658
 20
-1184.742787887728
 30
0
 40
43.90000000000046
 50
89.59567015347359
 51
185.2820953841074
  0
ARC
  8
30
 62
3
 10
213.2297349327673
 20
-1180.972787887726
 30
0
 40
39.60000000000002
 50
5.838462665344585
 51
34.67995066269086
  0
ARC
  8
31
 62
3
 10
230.9322615543541
 20
-1144.485636474306
 30
0
 40
0.9999999999956452
 50
244.5648601631018
 51
315.0000000000207
  0
ARC
  8
31
 62
3
 10
246.642250313165
 20
-1157.908447100382
 30
0
 40
1.000000000001073
 50
134.9999999999413
 51
214.616948618342
  0
ARC
  8
31
 62
3
 10
244.9297349327676
 20
-1151.842787887728
 30
0
 40
4.49999999999883
 50
315.0000000000122
 51
0
  0
ARC
  8
31
 62
3
 10
244.9297349327676
 20
-1151.842787887728
 30
0
 40
4.499999999999801
 50
0
 51
134.9999999999944
  0
ARC
  8
31
 62
3
 10
246.27037297127
 20
-1157.37880056026
 30
0
 40
0.999999999999422
 50
233.9532163383593
 51
299.0000000000514
  0
ARC
  8
31
 62
3
 10
239.2158335284723
 20
-1149.778514698972
 30
0
 40
1.000000000004021
 50
230.2043260330289
 51
315.0000000000334
  0
ARC
  8
31
 62
3
 10
248.3358408194288
 20
-1160.57863849446
 30
0
 40
1.000000000000725
 50
119.0000000000003
 51
210.1535394941031
  0
ARC
  8
31
 62
3
 10
188.9497782891928
 20
-1229.177369323138
 30
0
 40
1.000000000000341
 50
57.99856910184289
 51
134.9999999999424
  0
ARC
  8
31
 62
3
 10
173.9297349327676
 20
-1222.842787887726
 30
0
 40
4.499999999999152
 50
135.0000000000164
 51
314.9999999999726
  0
ARC
  8
1
 62
3
 10
345.8376909930812
 20
-1164.29471276627
 30
0
 40
0.6000000000019554
 50
270
 51
90
  0
ARC
  8
1
 62
3
 10
345.8376909930817
 20
-1161.597890699344
 30
0
 40
0.6000000000021828
 50
270
 51
90
  0
CIRCLE
  8
30
 62
3
 10
212.9297349327687
 20
-1183.842787887724
 30
0
 40
25.99999999999795
  0
CIRCLE
  8
30
 62
3
 10
173.9297349327676
 20
-1222.842787887726
 30
0
 40
2.25
  0
CIRCLE
  8
30
 62
3
 10
244.9297349327676
 20
-1151.842787887728
 30
0
 40
2.25
  0
CIRCLE
  8
1
 62
3
 10
181.429734932767
 20
-1228.842787887724
 30
0
 40
2.25
  0
CIRCLE
  8
1
 62
3
 10
238.929734932767
 20
-1144.842787887728
 30
0
 40
2.250000000000398
  0
POLYLINE
  8
1
 62
2
 66
1
  0
VERTEX
  8
1
 10
258.2075572443824
 20
-1155.34075177182
 30
0
 42
0.06103457365032856
  0
VERTEX
  8
1
 10
258.1654814357258
 20
-1155.460122195102
 30
0
 42
0.07468491377839648
  0
VERTEX
  8
1
 10
258.1602214568588
 20
-1155.565032838528
 30
0
 42
0.07181535116924298
  0
VERTEX
  8
1
 10
258.1847926676209
 20
-1155.658337515523
 30
0
 42
0.05307139288188691
  0
VERTEX
  8
1
 10
258.2322104278512
 20
-1155.742890039512
 30
0
 42
0.03111308256838779
  0
VERTEX
  8
1
 10
258.2954900973892
 20
-1155.821544223919
 30
0
 42
0.01206177719896524
  0
VERTEX
  8
1
 10
258.3676470360744
 20
-1155.89715388217
 30
0
 42
-0.004745685335842144
  0
VERTEX
  8
1
 10
258.4416966037462
 20
-1155.972572827691
 30
0
 42
-0.02179334594201703
  0
VERTEX
  8
1
 10
258.5106541602436
 20
-1156.050654873905
 30
0
 42
-0.04111766256051576
  0
VERTEX
  8
1
 10
258.5675350654064
 20
-1156.134253834237
 30
0
 42
-0.06168617763783003
  0
VERTEX
  8
1
 10
258.6053546790739
 20
-1156.226223522114
 30
0
 42
-0.07541426870610105
  0
VERTEX
  8
1
 10
258.6171283610853
 20
-1156.32941775096
 30
0
 42
-0.07259025851359792
  0
VERTEX
  8
1
 10
258.5958714712802
 20
-1156.4466903342
 30
0
  0
VERTEX
  8
1
 10
258.5706738618961
 20
-1156.511497825412
 30
0
  0
SEQEND
  8
1
  0
POLYLINE
  8
1
 62
2
 66
1
  0
VERTEX
  8
1
 10
259.4466210837063
 20
-1157.849894629522
 30
0
 42
0.0279849963540359
  0
VERTEX
  8
1
 10
259.348444292311
 20
-1157.950283006354
 30
0
 42
0.04581275056697094
  0
VERTEX
  8
1
 10
259.2893048526975
 20
-1158.03340559702
 30
0
 42
0.07596826527076413
  0
VERTEX
  8
1
 10
259.2636819997978
 20
-1158.101816146356
 30
0
 42
0.1081632664939122
  0
VERTEX
  8
1
 10
259.2660549685441
 20
-1158.158068399197
 30
0
 42
0.1008803012202165
  0
VERTEX
  8
1
 10
259.2909029938685
 20
-1158.204716100379
 30
0
 42
0.06209452548319653
  0
VERTEX
  8
1
 10
259.3327053107031
 20
-1158.244312994737
 30
0
 42
0.0298765830958991
  0
VERTEX
  8
1
 10
259.3859411539801
 20
-1158.279412827106
 30
0
 42
0.007896605891972656
  0
VERTEX
  8
1
 10
259.4450897586315
 20
-1158.312569342322
 30
0
 42
-0.01022015368912292
  0
VERTEX
  8
1
 10
259.5046303595896
 20
-1158.346336285219
 30
0
 42
-0.0303238479923658
  0
VERTEX
  8
1
 10
259.5590421917864
 20
-1158.383267400634
 30
0
 42
-0.05751158842320093
  0
VERTEX
  8
1
 10
259.6028044901539
 20
-1158.4259164334
 30
0
 42
-0.1039913250510389
  0
VERTEX
  8
1
 10
259.6325450086097
 20
-1158.482626410396
 30
0
 42
-0.06723377967790772
  0
VERTEX
  8
1
 10
259.6436090026289
 20
-1158.555853297911
 30
0
 42
-0.02716032041989308
  0
VERTEX
  8
1
 10
259.6411295102807
 20
-1158.636582211023
 30
0
 42
0.002307558791209108
  0
VERTEX
  8
1
 10
259.6346021448273
 20
-1158.720470788727
 30
0
 42
0.03033786550096173
  0
VERTEX
  8
1
 10
259.6335225195309
 20
-1158.803176670014
 30
0
 42
0.06504446261110941
  0
VERTEX
  8
1
 10
259.6473862476531
 20
-1158.880357493878
 30
0
 42
0.1015339330263958
  0
VERTEX
  8
1
 10
259.6856889424563
 20
-1158.947670899311
 30
0
 42
0.106091917667352
  0
VERTEX
  8
1
 10
259.7579262172023
 20
-1159.000774525306
 30
0
  0
VERTEX
  8
1
 10
259.8097377011982
 20
-1159.0206406832
 30
0
  0
SEQEND
  8
1
  0
POLYLINE
  8
1
 62
2
 66
1
  0
VERTEX
  8
1
 10
259.2244553621939
 20
-1154.542980894984
 30
0
 42
0.06103457365062859
  0
VERTEX
  8
1
 10
259.1823795535373
 20
-1154.662351318266
 30
0
 42
0.07468491377899406
  0
VERTEX
  8
1
 10
259.1771195746703
 20
-1154.767261961692
 30
0
 42
0.07181535116782428
  0
VERTEX
  8
1
 10
259.2016907854322
 20
-1154.860566638687
 30
0
 42
0.05307139288086244
  0
VERTEX
  8
1
 10
259.2491085456626
 20
-1154.945119162676
 30
0
 42
0.03111308257026636
  0
VERTEX
  8
1
 10
259.3123882152005
 20
-1155.023773347083
 30
0
 42
0.01206177720124716
  0
VERTEX
  8
1
 10
259.3845451538857
 20
-1155.099383005335
 30
0
 42
-0.004745685336225855
  0
VERTEX
  8
1
 10
259.4585947215574
 20
-1155.174801950855
 30
0
 42
-0.02179334594196567
  0
VERTEX
  8
1
 10
259.5275522780549
 20
-1155.252883997069
 30
0
 42
-0.04111766255962267
  0
VERTEX
  8
1
 10
259.5844331832176
 20
-1155.336482957402
 30
0
 42
-0.06168617763819841
  0
VERTEX
  8
1
 10
259.6222527968851
 20
-1155.428452645279
 30
0
 42
-0.07541426870606219
  0
VERTEX
  8
1
 10
259.6340264788965
 20
-1155.531646874125
 30
0
 42
-0.07259025851338838
  0
VERTEX
  8
1
 10
259.6127695890914
 20
-1155.648919457365
 30
0
  0
VERTEX
  8
1
 10
259.5875719797074
 20
-1155.713726948578
 30
0
  0
SEQEND
  8
1
  0
POLYLINE
  8
1
 62
2
 66
1
  0
VERTEX
  8
1
 10
260.8975391502162
 20
-1157.04563761239
 30
0
 42
0.02798499635306133
  0
VERTEX
  8
1
 10
260.799362358821
 20
-1157.146025989222
 30
0
 42
0.04581275056830943
  0
VERTEX
  8
1
 10
260.7402229192074
 20
-1157.229148579889
 30
0
 42
0.07596826527256877
  0
VERTEX
  8
1
 10
260.7146000663079
 20
-1157.297559129225
 30
0
 42
0.108163266492347
  0
VERTEX
  8
1
 10
260.7169730350542
 20
-1157.353811382067
 30
0
 42
0.1008803012202165
  0
VERTEX
  8
1
 10
260.7418210603786
 20
-1157.400459083249
 30
0
 42
0.06209452548504216
  0
VERTEX
  8
1
 10
260.7836233772133
 20
-1157.440055977607
 30
0
 42
0.02987658309188014
  0
VERTEX
  8
1
 10
260.8368592204903
 20
-1157.475155809976
 30
0
 42
0.007896605888182895
  0
VERTEX
  8
1
 10
260.8960078251417
 20
-1157.508312325191
 30
0
 42
-0.01022015368581529
  0
VERTEX
  8
1
 10
260.9555484260998
 20
-1157.542079268088
 30
0
 42
-0.03032384799767733
  0
VERTEX
  8
1
 10
261.0099602582965
 20
-1157.579010383503
 30
0
 42
-0.05751158842438952
  0
VERTEX
  8
1
 10
261.0537225566641
 20
-1157.62165941627
 30
0
 42
-0.1039913250494425
  0
VERTEX
  8
1
 10
261.0834630751199
 20
-1157.678369393266
 30
0
 42
-0.0672337796804602
  0
VERTEX
  8
1
 10
261.094527069139
 20
-1157.751596280781
 30
0
 42
-0.02716032042138948
  0
VERTEX
  8
1
 10
261.0920475767908
 20
-1157.832325193893
 30
0
 42
0.002307558792769263
  0
VERTEX
  8
1
 10
261.0855202113374
 20
-1157.916213771597
 30
0
 42
0.03033786550043948
  0
VERTEX
  8
1
 10
261.084440586041
 20
-1157.998919652884
 30
0
 42
0.06504446261117387
  0
VERTEX
  8
1
 10
261.0983043141632
 20
-1158.076100476748
 30
0
 42
0.101533933028843
  0
VERTEX
  8
1
 10
261.1366070089664
 20
-1158.143413882181
 30
0
 42
0.1060919176687153
  0
VERTEX
  8
1
 10
261.2088442837124
 20
-1158.196517508176
 30
0
  0
VERTEX
  8
1
 10
261.2606557677084
 20
-1158.21638366607
 30
0
  0
SEQEND
  8
1
  0
POLYLINE
  8
1
 62
2
 66
1
  0
VERTEX
  8
1
 10
333.2042907369927
 20
-1160.675443952278
 30
0
 42
-0.0364942125994069
  0
VERTEX
  8
1
 10
333.8053083649017
 20
-1160.995460577393
 30
0
 42
-0.05967263420239929
  0
VERTEX
  8
1
 10
334.1847280135952
 20
-1161.310670673862
 30
0
 42
-0.09260246153582261
  0
VERTEX
  8
1
 10
334.3755573364495
 20
-1161.621950299175
 30
0
 42
-0.1084099720997723
  0
VERTEX
  8
1
 10
334.4108039868407
 20
-1161.930175510819
 30
0
 42
-0.08181040266010638
  0
VERTEX
  8
1
 10
334.3234756181454
 20
-1162.236222366282
 30
0
 42
-0.04623834832431155
  0
VERTEX
  8
1
 10
334.1465798837397
 20
-1162.540966923054
 30
0
 42
-0.02103732292669924
  0
VERTEX
  8
1
 10
333.913124437
 20
-1162.845285238621
 30
0
 42
-0.003029806812146538
  0
VERTEX
  8
1
 10
333.6561169313026
 20
-1163.150053370473
 30
0
 42
0.01339339024208343
  0
VERTEX
  8
1
 10
333.4085650200238
 20
-1163.456147376099
 30
0
 42
0.03341603490610894
  0
VERTEX
  8
1
 10
333.2034763565401
 20
-1163.764443312986
 30
0
 42
0.06225287525897077
  0
VERTEX
  8
1
 10
333.0738585942275
 20
-1164.075817238622
 30
0
 42
0.09777992422672396
  0
VERTEX
  8
1
 10
333.0527193864624
 20
-1164.391145210497
 30
0
 42
0.1105380699286797
  0
VERTEX
  8
1
 10
333.1730663866214
 20
-1164.711303286098
 30
0
 42
0.08411372185292382
  0
VERTEX
  8
1
 10
333.4679072480803
 20
-1165.037167522913
 30
0
 42
0.05295270876217968
  0
VERTEX
  8
1
 10
333.970249624216
 20
-1165.369613978432
 30
0
  0
VERTEX
  8
1
 10
334.3095487719675
 20
-1165.53857930617
 30
0
  0
SEQEND
  8
1
  0
ARC
  8
30
 62
3
 10
253.6191283424238
 20
-1176.842787887728
 30
0
 40
0.9999999999998516
 50
185.8384626652859
 51
270
  0
ARC
  8
35
 62
3
 10
314.3376909930843
 20
-1234.342787887728
 30
0
 40
1.500000000000341
 50
180
 51
270
  0
ARC
  8
35
 62
3
 10
314.3376909930843
 20
-1179.342787887728
 30
0
 40
1.5
 50
90
 51
180
  0
ARC
  8
35
 62
3
 10
315.3376909930843
 20
-1233.342787887728
 30
0
 40
0.5
 50
180
 51
270
  0
ARC
  8
35
 62
3
 10
314.3376909930838
 20
-1142.342787887734
 30
0
 40
1.5
 50
90
 51
180
  0
ARC
  8
35
 62
3
 10
315.3376909930843
 20
-1194.68278788773
 30
0
 40
0.5
 50
90
 51
180
  0
ARC
  8
1
 62
3
 10
344.337690993084
 20
-1179.342787887728
 30
0
 40
1.5
 50
0
 51
90
  0
ARC
  8
1
 62
3
 10
344.337690993084
 20
-1234.34278788773
 30
0
 40
1.5
 50
270
 51
0
  0
ARC
  8
1
 62
3
 10
345.3376909930862
 20
-1141.34278788773
 30
0
 40
0.5
 50
0
 51
90
  0
ARC
  8
1
 62
3
 10
343.3376909930851
 20
-1233.34278788773
 30
0
 40
0.5
 50
270
 51
0
  0
ARC
  8
31
 62
3
 10
237.8532847339828
 20
-1145.34278788773
 30
0
 40
4.5
 50
90
 51
134.9999999999964
  0
ARC
  8
31
 62
3
 10
239.358306361341
 20
-1145.34278788773
 30
0
 40
4.499999999999861
 50
40.60129464501091
 51
90
  0
ARC
  8
31
 62
3
 10
253.0294785931832
 20
-1163.922353745168
 30
0
 40
0.5000000000001903
 50
298.9999999999647
 51
29.00000000008559
  0
ARC
  8
31
 62
3
 10
250.5104309585979
 20
-1157.315206174944
 30
0
 40
0.9999999999989715
 50
28.99999999988286
 51
119.0000000000472
  0
ARC
  8
31
 62
3
 10
254.3889079205688
 20
-1164.31216383206
 30
0
 40
1.000000000000574
 50
298.9999999999847
 51
29.00000000009313
  0
ARC
  8
31
 62
3
 10
250.266063757779
 20
-1158.937021414472
 30
0
 40
0.5000000000001562
 50
29.00000000007859
 51
119.0000000000046
  0
ARC
  8
31
 62
3
 10
251.7271075840686
 20
-1165.787623851744
 30
0
 40
1.000000000000031
 50
274.3615678940461
 51
298.9999999999961
  0
ARC
  8
31
 62
3
 10
251.2897977304988
 20
-1166.030028661866
 30
0
 40
0.500000000000397
 50
119.0000000000074
 51
161.3955926541543
  0
ARC
  8
31
 62
3
 10
181.4722072654254
 20
-1228.87676575385
 30
0
 40
4.500000000001669
 50
231.3401917459351
 51
314.9999999999893
  0
ARC
  8
31
 62
3
 10
181.260487385213
 20
-1223.290210028334
 30
0
 40
0.999999999999595
 50
47.12385607136903
 51
135.0000000000254
  0
ARC
  8
31
 62
3
 10
174.0358567524838
 20
-1214.95849147496
 30
0
 40
0.9999999999996464
 50
315.0000000000254
 51
34.7348116700749
  0
POLYLINE
  8
1
 62
2
 66
1
 70
1
  0
VERTEX
  8
1
 10
131.33678933538
 20
-1112.27277049067
 30
0
  0
VERTEX
  8
1
 10
168.03678933538
 20
-1112.27277049067
 30
0
  0
VERTEX
  8
1
 10
168.03678933538
 20
-1104.27277049067
 30
0
  0
VERTEX
  8
1
 10
131.33678933538
 20
-1104.27277049067
 30
0
  0
SEQEND
  8
1
  0
LINE
  8
1
 62
2
 10
311.963320272766
 20
-1135.25301288203
 30
0
 11
258.178947656999
 21
-1135.25301288203
 31
0
  0
LINE
  8
1
 62
2
 10
258.178947656999
 20
-1135.25301288203
 30
0
 11
267.9461287159315
 21
-1149.708478411141
 31
0
  0
SOLID
  8
1
 62
2
 10
265.8055133285984
 20
-1147.292852335783
 30
0
 11
266.5036630633037
 21
-1146.821130767814
 31
0
 12
267.9461287159315
 22
-1149.708478411141
 32
0
 13
267.9461287159315
 23
-1149.708478411141
 33
0
  0
TEXT
  8
1
 62
2
 10
261.540470945485
 20
-1139.62299315706
 30
0
 40
4
  1
üiéPéPüDéWü}éPüDéQüj
 41
0.9
  0
TEXT
  8
1
 62
2
 10
261.876623274333
 20
-1134.41263205991
 30
0
 40
4
  1
âèü[âhÉ³ÆÀé%%déRéOéOü}éRéO
 41
0.9
  0
TEXT
  8
1
 62
2
 10
129.783538626099
 20
-1217.68638708456
 30
0
 40
3
  1
(1.772ü}0.012)
 50
90
 41
0.9
  0
TEXT
  8
1
 62
2
 10
142.239534438227
 20
-1218.17011507727
 30
0
 40
3
  1
(1.535ü}0.012)
 50
90
 41
0.9
  0
TEXT
  8
1
 62
2
 10
207.154406885904
 20
-1279.683315237
 30
0
 40
3
  1
(3.82)
 41
0.9
  0
TEXT
  8
1
 62
2
 10
228.608004635784
 20
-1265.6849074181
 30
0
 40
3
  1
(1.97)
 41
0.9
  0
TEXT
  8
1
 62
2
 10
178.474421826219
 20
-1265.9908065424
 30
0
 40
3
  1
(1.535ü}0.012)
 41
0.9
  0
TEXT
  8
1
 62
2
 10
186.585921238212
 20
-1249.53840076494
 30
0
 40
3
  1
(1.240ü}0.012)
 41
0.72
  0
TEXT
  8
1
 62
2
 10
289.729338389297
 20
-1216.67585610729
 30
0
 40
3
  1
(2.05)
 50
90
 41
0.9
  0
TEXT
  8
1
 62
2
 10
275.0595214498549
 20
-1177.16369837725
 30
0
 40
3
  1
(1.260ü}0.012)
 50
90
 41
0.72
  0
TEXT
  8
1
 62
2
 10
289.849631370009
 20
-1177.85034887223
 30
0
 40
3
  1
(1.535ü}0.012)
 50
90
 41
0.9
  0
TEXT
  8
1
 62
2
 10
214.485995266578
 20
-1135.03085320009
 30
0
 40
3
  1
(1.024ü}0.012)
 41
0.72
  0
TEXT
  8
1
 62
2
 10
217.464193533135
 20
-1118.82946914028
 30
0
 40
3
  1
(1.260ü}0.012)
 41
0.72
  0
TEXT
  8
1
 62
2
 10
133.33678933538
 20
-1110.27277049067
 30
0
 40
4
  1
E1033H/Y
 41
0.9
  0
TEXT
  8
1
 62
2
 10
256.8442363106396
 20
-1231.350362239092
 30
0
 40
3.5
  1
<
 41
0.9
  0
TEXT
  8
1
 62
2
 10
237.2319515384497
 20
-1226.628752909062
 30
0
 40
3.5
  1
>
 41
0.9
  0
TEXT
  8
1
 62
2
 10
239.9735977124412
 20
-1227.013645948468
 30
0
 40
3
  1
ABS+PBT
 41
0.9
  0
TEXT
  8
1
 62
2
 10
239.9735977124412
 20
-1231.513645948468
 30
0
 40
3
  1
 -GF30
 41
0.9
  0
TEXT
  8
1
 62
2
 10
113.763397797137
 20
-1193.65910581374
 30
0
 40
3
  1
(3.74)
 50
90
 41
0.9
  0
TEXT
  8
1
 62
2
 10
121.917476476391
 20
-1249.69335381435
 30
0
 40
3
  1
(4-0.18dia. HOLES)
 41
0.9
  0
TEXT
  8
1
 62
2
 10
304.595483398045
 20
-1211.84157925209
 30
0
 40
3
  1
(2.28)
 50
90
 41
0.9
  0
TEXT
  8
1
 62
2
 10
322.154406885904
 20
-1249.683315237
 30
0
 40
3
  1
(1.30)
 41
0.9
  0
TEXT
  8
1
 62
2
 10
327.154406885904
 20
-1134.683315237
 30
0
 40
3
  1
(0.20)
 41
0.9
  0
TEXT
  8
1
 62
2
 10
135.0369848466559
 20
-1162.431529411969
 30
0
 40
2.999999999999999
  1
(2.05dia. Intake)
 50
342
 41
0.72
  0
TEXT
  8
1
 62
2
 10
301.1318459732225
 20
-1192.415241993549
 30
0
 40
3.5
  1
ïzì×î¹
 41
0.9
  0
TEXT
  8
1
 62
2
 10
265.344991478497
 20
-1210.258190013983
 30
0
 40
3.5
  1
ôfÅoî¹
 41
0.9
  0
TEXT
  8
1
 62
2
 10
271.159585575865
 20
-1267.517323644182
 30
0
 40
5
  1
âèü[âhÉ³Ädùlü@é`évéféQéSü@étékéRéQéUéU
 41
0.9
  0
TEXT
  8
1
 62
2
 10
271.159585575865
 20
-1276.267323644182
 30
0
 40
5
  1
ü@ü@ÉFüiü{üjÉÈ
 41
0.9
  0
TEXT
  8
1
 62
2
 10
271.159585575865
 20
-1285.017323644182
 30
0
 40
5
  1
ü@ü@ü@üiü|üjìò
 41
0.9
  0
DIMENSION
  8
1
  6
CONTINUOUS
 62
2
  2
*D0
  3
DMST_1
 10
299.876549608931
 20
-1177.842787887728
 30
0
 11
296.276549608931
 21
-1206.22946065798
 31
0
 12
0
 22
0
 32
0
 70
1
 13
314.3376909930843
 23
-1235.842787887728
 33
0
 14
314.3376909930843
 24
-1177.842787887728
 34
0
 53
0
  0
DIMENSION
  8
1
  6
CONTINUOUS
 62
2
  2
*D1
  3
DMST_1
 10
312.837690993084
 20
-1245.02664136465
 30
0
 11
327.608502843414
 21
-1241.42664136465
 31
0
 12
0
 22
0
 32
0
 70
1
 13
345.837690993084
 23
-1234.34278788773
 33
0
 14
312.837690993084
 24
-1234.342787887728
 34
0
 53
0
  0
DIMENSION
  8
1
  6
CONTINUOUS
 62
2
  2
*D2
  3
DMST_1
 10
285
 20
-1235.842787887726
 30
0
 11
281.4
 21
-1210
 31
0
 12
0
 22
0
 32
0
 70
0
 13
267.618443177045
 23
-1183.842787887726
 33
0
 14
262.9297349327672
 24
-1235.842787887726
 34
0
 50
90
 53
0
  0
DIMENSION
  8
1
  6
CONTINUOUS
 62
2
  2
*D3
  3
DMST_1
 10
109.919162412794
 20
-1140.843880985626
 30
0
 11
106.319162412794
 21
-1187.03441634376
 31
0
 12
0
 22
0
 32
0
 70
0
 13
212.8658765288566
 23
-1235.842787887726
 33
0
 14
210.0395297045461
 24
-1140.843880985626
 34
0
 50
90
 53
0
  0
DIMENSION
  8
1
  6
CONTINUOUS
 62
2
  2
*D4
  3
DMST_2
 10
125
 20
-1183.842787887726
 30
0
 11
121.4
 21
-1205
 31
0
 12
0
 22
0
 32
0
 70
0
 13
178.5047349327668
 23
-1228.842787887724
 33
0
 14
159.2625183940954
 24
-1183.842787887726
 34
0
 50
90
 53
0
  0
DIMENSION
  8
1
  6
CONTINUOUS
 62
2
  2
*D5
  3
DMST_2
 10
138.44850990075
 20
-1222.842787887726
 30
0
 11
134.84850990075
 21
-1205.61253103586
 31
0
 12
0
 22
0
 32
0
 70
0
 13
159.2625183940954
 23
-1183.842787887726
 33
0
 14
170.8843917514744
 24
-1222.842787887726
 34
0
 50
90
 53
0
  0
DIMENSION
  8
1
  6
CONTINUOUS
 62
2
  2
*D6
  3
DMST_1
 10
165.8297349327672
 20
-1274.68554669949
 30
0
 11
213.390216912528
 21
-1271.08554669949
 31
0
 12
0
 22
0
 32
0
 70
0
 13
262.9297349327672
 23
-1235.842787887726
 33
0
 14
165.8297349327672
 24
-1184.742787887728
 34
0
 53
0
  0
DIMENSION
  8
1
  6
CONTINUOUS
 62
2
  2
*D7
  3
DMST_2
 10
173.9297349327676
 20
-1260
 30
0
 11
190
 21
-1256.4
 31
0
 12
0
 22
0
 32
0
 70
0
 13
212.9297349327674
 23
-1245.194183296538
 33
0
 14
173.9297349327676
 24
-1225.777321794656
 34
0
 53
0
  0
DIMENSION
  8
1
  6
CONTINUOUS
 62
2
  2
*D8
  3
DMST_2
 10
181.429734932767
 20
-1245
 30
0
 11
197.115995045003
 21
-1241.3432384831
 31
0
 12
0
 22
0
 32
0
 70
0
 13
212.9297349327674
 23
-1245.194183296538
 33
0
 14
181.429734932767
 24
-1231.767787887726
 34
0
 53
0
  0
DIMENSION
  8
1
  6
CONTINUOUS
 62
2
  2
*D9
  3
DMST_1
 10
212.9297349327674
 20
-1260
 30
0
 11
235
 21
-1256.4
 31
0
 12
0
 22
0
 32
0
 70
0
 13
262.9297349327672
 23
-1235.842787887726
 33
0
 14
212.9297349327674
 24
-1245.194183296538
 34
0
 53
0
  0
DIMENSION
  8
1
  6
CONTINUOUS
 62
2
  2
*D10
  3
DMST_2
 10
284.774965893052
 20
-1183.842787887726
 30
0
 11
281.174965893052
 21
-1166.60358085618
 31
0
 12
0
 22
0
 32
0
 70
0
 13
241.854734932767
 23
-1144.842787887728
 33
0
 14
267.618443177045
 24
-1183.842787887726
 34
0
 50
90
 53
0
  0
DIMENSION
  8
1
  6
CONTINUOUS
 62
2
  2
*D11
  3
DMST_2
 10
270.377385908181
 20
-1183.842787887726
 30
0
 11
266.777385908181
 21
-1168.38305703409
 31
0
 12
0
 22
0
 32
0
 70
0
 13
248.3688784554284
 23
-1151.842787887728
 33
0
 14
267.618443177045
 24
-1183.842787887726
 34
0
 50
90
 53
0
  0
DIMENSION
  8
1
  6
CONTINUOUS
 62
2
  2
*D12
  3
DMST_2
 10
244.9297349327676
 20
-1115.09955527366
 30
0
 11
228.978335199985
 21
-1111.49955527366
 31
0
 12
0
 22
0
 32
0
 70
0
 13
212.9297349327676
 23
-1132.570410272684
 33
0
 14
244.9297349327676
 24
-1148.02562590039
 34
0
 53
0
  0
DIMENSION
  8
1
  6
CONTINUOUS
 62
2
  2
*D13
  3
DMST_2
 10
238.929734932767
 20
-1130.04033289518
 30
0
 11
226.215314680937
 21
-1126.44033289518
 31
0
 12
0
 22
0
 32
0
 70
0
 13
212.9297349327676
 23
-1132.570410272684
 33
0
 14
238.929734932767
 24
-1141.917787887726
 34
0
 53
0
  0
DIMENSION
  8
1
  6
CONTINUOUS
 62
2
  2
*D14
  3
DMST_3
 10
340.8376909930851
 20
-1130
 30
0
 11
330
 21
-1126.4
 31
0
 12
0
 22
0
 32
0
 70
0
 13
345.8376909930862
 23
-1141.34278788773
 33
0
 14
340.8376909930851
 24
-1140.84278788773
 34
0
 53
0
  0
DIMENSION
  8
1
  6
CONTINUOUS
 62
2
  2
*D15
  3
DMST_4
 10
174.9886956620255
 20
-1220.85756694942
 30
0
 11
140
 21
-1241.4
 31
0
 12
0
 22
0
 32
0
 70
3
  1
4-%%c<>
 15
172.8707742035096
 25
-1224.828008826032
 35
0
 40
0
 53
0
  0
DIMENSION
  8
1
  6
CONTINUOUS
 62
2
  2
*D16
  3
DMST_5
 10
237.5913863694043
 20
-1192.077042463445
 30
0
 11
149.7403987884654
 21
-1158.949196237531
 31
0
 12
0
 22
0
 32
0
 70
3
 15
188.2680834961331
 25
-1175.608533312003
 35
0
 40
0
 53
0
  0
ENDSEC
  0
EOF
