  0
SECTION
  2
HEADER
  9
$ACADVER
  1
AC1009
  9
$INSBASE
 10
0
 20
0
  9
$EXTMIN
 10
368.4921108011311
 20
314.160095898253
  9
$EXTMAX
 10
640.4321614913313
 20
510.015528805077
  9
$LIMMIN
 10
368.4921108011311
 20
314.160095898253
  9
$LIMMAX
 10
640.4321614913313
 20
510.015528805077
  9
$VIEWCTR
 10
10
 20
10
  9
$VIEWSIZE
 40
10
  9
$SNAPMODE
 70
0
  9
$SNAPUNIT
 10
1
 20
1
  9
$SNAPBASE
 10
0
 20
0
  9
$SNAPANG
 50
0
  9
$SNAPSTYLE
 70
0
  9
$SNAPISOPAIR
 70
0
  9
$GRIDMODE
 70
0
  9
$GRIDUNIT
 10
0
 20
0
  9
$ORTHOMODE
 70
0
  9
$REGENMODE
 70
1
  9
$FILLMODE
 70
1
  9
$QTEXTMODE
 70
0
  9
$DRAGMODE
 70
2
  9
$LTSCALE
 40
1
  9
$OSMODE
 70
0
  9
$ATTMODE
 70
1
  9
$TEXTSIZE
 40
3.5
  9
$TRACEWID
 40
0.5
  9
$TEXTSTYLE
  7
STANDARD
  9
$CLAYER
  8
0
  9
$CELTYPE
  6
BYLAYER
  9
$CECOLOR
 62
256
  9
$DIMSCALE
 40
1
  9
$DIMASZ
 40
0.18
  9
$DIMEXO
 40
0.0625
  9
$DIMDLI
 40
0.38
  9
$DIMRND
 40
0
  9
$DIMDLE
 40
0
  9
$DIMEXE
 40
0.18
  9
$DIMTP
 40
0
  9
$DIMTM
 40
0
  9
$DIMTXT
 40
0.18
  9
$DIMCEN
 40
0.09
  9
$DIMTSZ
 40
0
  9
$DIMTOL
 70
0
  9
$DIMLIM
 70
0
  9
$DIMTIH
 70
1
  9
$DIMTOH
 70
1
  9
$DIMSE1
 70
0
  9
$DIMSE2
 70
0
  9
$DIMTAD
 70
0
  9
$DIMZIN
 70
0
  9
$DIMBLK
  1

  9
$DIMASO
 70
1
  9
$DIMSHO
 70
1
  9
$DIMPOST
  1

  9
$DIMAPOST
  1

  9
$DIMALT
 70
0
  9
$DIMALTD
 70
2
  9
$DIMALTF
 40
25.4
  9
$DIMLFAC
 40
1
  9
$DIMTOFL
 70
0
  9
$DIMTVP
 40
0
  9
$DIMTIX
 70
0
  9
$DIMSOXD
 70
0
  9
$DIMSAH
 70
0
  9
$DIMBLK1
  1

  9
$DIMBLK2
  1

  9
$DIMSTYLE
  2
*UNNAMED
  9
$DIMCLRD
 70
0
  9
$DIMCLRE
 70
0
  9
$DIMCLRT
 70
0
  9
$DIMTFAC
 40
1
  9
$DIMGAP
 40
0.09
  9
$LUNITS
 70
2
  9
$LUPREC
 70
4
  9
$AXISMODE
 70
0
  9
$AXISUNIT
 10
0
 20
0
  9
$SKETCHINC
 40
0.1
  9
$FILLETRAD
 40
2
  9
$AUNITS
 70
0
  9
$AUPREC
 70
0
  9
$MENU
  1
ACAD
  9
$ELEVATION
 40
0
  9
$THICKNESS
 40
0
  9
$VIEWDIR
 10
0
 20
0
 30
1
  9
$LIMCHECK
 70
0
  9
$BLIPMODE
 70
1
  9
$CHAMFERA
 40
0
  9
$CHAMFERB
 40
0
  9
$FASTZOOM
 70
1
  9
$SKPOLY
 70
0
  9
$ANGBASE
 50
0
  9
$ANGDIR
 70
0
  9
$PDMODE
 70
0
  9
$PDSIZE
 40
0
  9
$PLINEWID
 40
0
  9
$COORDS
 70
2
  0
ENDSEC
  0
SECTION
  2
TABLES
  0
TABLE
  2
DIMSTYLE
 70
5
  0
DIMSTYLE
  2
DMST_1
 70
0
  3
)
  4

  5

  6

  7

 40
1
 41
4.800000000000001
 42
1
 43
7
 44
1.5
 45
0
 46
0
 47
0
 48
0
140
3.2
141
0
142
0
143
25.4
144
1
145
0
146
1
147
0.09
 71
0
 72
0
 73
0
 74
0
 75
0
 76
0
 77
1
 78
1
170
0
171
2
172
0
173
0
174
0
175
0
176
2
177
2
178
2
  0
DIMSTYLE
  2
DMST_2
 70
0
  3

  4

  5

  6

  7

 40
1
 41
4.800000000000001
 42
1
 43
7
 44
1.5
 45
0
 46
0
 47
0
 48
0
140
3.2
141
0
142
0
143
25.4
144
1
145
0
146
1
147
0.09
 71
0
 72
0
 73
0
 74
0
 75
0
 76
0
 77
1
 78
1
170
0
171
2
172
0
173
0
174
0
175
0
176
2
177
2
178
2
  0
DIMSTYLE
  2
DMST_3
 70
0
  3

  4

  5

  6

  7

 40
1
 41
4.800000000000001
 42
1
 43
7
 44
1.5
 45
0
 46
0
 47
0.3
 48
0.3
140
3.2
141
0
142
0
143
25.4
144
1
145
0
146
0.6
147
0.09
 71
1
 72
0
 73
0
 74
0
 75
0
 76
0
 77
1
 78
1
170
0
171
2
172
0
173
0
174
0
175
0
176
2
177
2
178
2
  0
DIMSTYLE
  2
DMST_4
 70
0
  3

  4

  5

  6

  7

 40
1
 41
4.800000000000001
 42
1
 43
7
 44
1.5
 45
0
 46
0
 47
0
 48
0
140
3.2
141
0
142
0
143
25.4
144
1
145
0
146
1
147
0.09
 71
0
 72
0
 73
0
 74
0
 75
0
 76
0
 77
1
 78
1
170
0
171
2
172
1
173
0
174
0
175
0
176
2
177
2
178
2
  0
DIMSTYLE
  2
DMST_5
 70
0
  3

  4

  5

  6

  7

 40
1
 41
3.2
 42
1
 43
7
 44
1.5
 45
0
 46
0
 47
0
 48
0
140
3.2
141
0
142
0
143
25.4
144
1
145
0
146
1
147
0.09
 71
0
 72
0
 73
0
 74
0
 75
0
 76
0
 77
1
 78
9
170
0
171
2
172
1
173
0
174
0
175
0
176
2
177
2
178
2
  0
ENDTAB
  0
TABLE
  2
LTYPE
 70
9
  0
LTYPE
  2
CONTINUOUS
 70
64
  3
Solid line
 72
65
 73
0
 40
0
  0
LTYPE
  2
BORDER
 70
64
  3
__ __ . __ __ .
 72
65
 73
6
 40
12.52355496599606
 49
3.57815856171316
 49
-1.78907928085658
 49
3.57815856171316
 49
-1.78907928085658
 49
0
 49
-1.78907928085658
  0
LTYPE
  2
CENTER
 70
64
  3
____ _ ____ _
 72
65
 73
4
 40
14.31263424685264
 49
8.945396404282901
 49
-1.78907928085658
 49
1.78907928085658
 49
-1.78907928085658
  0
LTYPE
  2
DASHDOT
 70
64
  3
__ . __ . __ .
 72
65
 73
4
 40
7.15631712342632
 49
3.57815856171316
 49
-1.78907928085658
 49
0
 49
-1.78907928085658
  0
LTYPE
  2
DASHED
 70
64
  3
__ __ __ __ __
 72
65
 73
2
 40
5.367237842569741
 49
3.57815856171316
 49
-1.78907928085658
  0
LTYPE
  2
DIVIDE
 70
64
  3
__ . . __ . . 
 72
65
 73
6
 40
8.945396404282901
 49
3.57815856171316
 49
-1.78907928085658
 49
0
 49
-1.78907928085658
 49
0
 49
-1.78907928085658
  0
LTYPE
  2
DOT
 70
64
  3
..............
 72
65
 73
4
 40
3.57815856171316
 49
0
 49
-1.78907928085658
 49
0
 49
-1.78907928085658
  0
LTYPE
  2
HIDDEN
 70
64
  3
_ _ _ _ _ _ _
 72
65
 73
2
 40
2.68361892128487
 49
1.78907928085658
 49
-0.89453964042829
  0
LTYPE
  2
PHANTOM
 70
64
  3
_____ _ _ _____ _ _ 
 72
65
 73
6
 40
17.8907928085658
 49
8.945396404282901
 49
-1.78907928085658
 49
1.78907928085658
 49
-1.78907928085658
 49
1.78907928085658
 49
-1.78907928085658
  0
ENDTAB
  0
TABLE
  2
LAYER
 70
7
  0
LAYER
  2
30
 70
0
 62
7
  6
CONTINUOUS
  0
LAYER
  2
31
 70
0
 62
7
  6
CONTINUOUS
  0
LAYER
  2
35
 70
0
 62
7
  6
CONTINUOUS
  0
LAYER
  2
10
 70
0
 62
7
  6
CONTINUOUS
  0
LAYER
  2
1
 70
0
 62
7
  6
CONTINUOUS
  0
LAYER
  2
0
 70
0
 62
7
  6
CONTINUOUS
  0
ENDTAB
  0
TABLE
  2
STYLE
 70
4
  0
STYLE
  2
STANDARD
 70
0
 40
0
 41
1
 50
0
 71
0
 42
3.5
  3
txt
  4

  0
STYLE
  2
SIMPLEX
 70
0
 40
0
 41
1
 50
0
 71
0
 42
3.5
  3
simplex
  4

  0
STYLE
  2
COMPLEX
 70
0
 40
0
 41
1
 50
0
 71
0
 42
3.5
  3
complex
  4

  0
STYLE
  2
ITALIC
 70
0
 40
0
 41
1
 50
0
 71
0
 42
3.5
  3
italic
  4

  0
ENDTAB
  0
TABLE
  2
VIEW
 70
0
  0
ENDTAB
  0
ENDSEC
  0
SECTION
  2
BLOCKS
  0
BLOCK
  8
1
  2
*X0
 70
1
 10
0
 20
0
 30
0
  0
LINE
  8
1
 62
2
 10
509.5831682532669
 20
457.731912057285
 30
0
 11
509.5831682532676
 21
457.7774134512716
 31
0
  0
LINE
  8
1
 62
2
 10
509.6831682532669
 20
457.6549209068426
 30
0
 11
509.6831682532676
 21
457.8774134512716
 31
0
  0
LINE
  8
1
 62
2
 10
509.7831682532669
 20
457.5779297564001
 30
0
 11
509.7831682532676
 21
457.9774134512716
 31
0
  0
LINE
  8
1
 62
2
 10
509.8831682532669
 20
457.5009386059577
 30
0
 11
509.8831682532676
 21
458.0774134512716
 31
0
  0
LINE
  8
1
 62
2
 10
509.983168253267
 20
457.4239474555153
 30
0
 11
509.9831682532677
 21
458.1774134512717
 31
0
  0
LINE
  8
1
 62
2
 10
510.083168253267
 20
457.3469563050728
 30
0
 11
510.0831682532677
 21
458.2774134512717
 31
0
  0
LINE
  8
1
 62
2
 10
510.183168253267
 20
457.2699651546304
 30
0
 11
510.1831682532677
 21
458.3774134512717
 31
0
  0
LINE
  8
1
 62
2
 10
510.283168253267
 20
457.1929740041879
 30
0
 11
510.2831682532677
 21
458.4774134512717
 31
0
  0
LINE
  8
1
 62
2
 10
510.3831682532671
 20
457.1159828537455
 30
0
 11
510.3831682532677
 21
458.5774134512718
 31
0
  0
LINE
  8
1
 62
2
 10
510.4831682532671
 20
457.0389917033031
 30
0
 11
510.4831682532671
 21
458.5780133945339
 31
0
  0
LINE
  8
1
 62
2
 10
510.5831682532671
 20
456.9620005528606
 30
0
 11
510.5831682532671
 21
458.4481283370627
 31
0
  0
LINE
  8
1
 62
2
 10
510.6831682532671
 20
456.8850094024182
 30
0
 11
510.6831682532671
 21
458.3182432795914
 31
0
  0
LINE
  8
1
 62
2
 10
510.7831682532672
 20
456.8080182519757
 30
0
 11
510.7831682532672
 21
458.1883582221201
 31
0
  0
LINE
  8
1
 62
2
 10
510.8831682532672
 20
456.7310271015333
 30
0
 11
510.8831682532672
 21
458.0584731646489
 31
0
  0
LINE
  8
1
 62
2
 10
510.9831682532672
 20
456.6540359510909
 30
0
 11
510.9831682532672
 21
457.9285881071776
 31
0
  0
LINE
  8
1
 62
2
 10
511.0831682532672
 20
456.5770448006484
 30
0
 11
511.0831682532672
 21
457.7987030497064
 31
0
  0
LINE
  8
1
 62
2
 10
511.1831682532672
 20
456.500053650206
 30
0
 11
511.1831682532672
 21
457.6688179922351
 31
0
  0
LINE
  8
1
 62
2
 10
511.2831682532673
 20
456.4230624997636
 30
0
 11
511.2831682532673
 21
457.5389329347639
 31
0
  0
LINE
  8
1
 62
2
 10
511.3831682532673
 20
456.3460713493211
 30
0
 11
511.3831682532673
 21
457.4090478772926
 31
0
  0
LINE
  8
1
 62
2
 10
511.4831682532673
 20
456.2690801988787
 30
0
 11
511.4831682532673
 21
457.2791628198214
 31
0
  0
LINE
  8
1
 62
2
 10
511.5831682532673
 20
456.1920890484362
 30
0
 11
511.5831682532673
 21
457.1492777623501
 31
0
  0
LINE
  8
1
 62
2
 10
511.6831682532674
 20
456.1150978979938
 30
0
 11
511.6831682532674
 21
457.0193927048788
 31
0
  0
LINE
  8
1
 62
2
 10
511.7831682532674
 20
456.0381067475514
 30
0
 11
511.7831682532674
 21
456.8895076474076
 31
0
  0
LINE
  8
1
 62
2
 10
511.8831682532674
 20
455.9611155971089
 30
0
 11
511.8831682532674
 21
456.7596225899363
 31
0
  0
LINE
  8
1
 62
2
 10
511.9831682532674
 20
455.8841244466665
 30
0
 11
511.9831682532674
 21
456.6297375324651
 31
0
  0
LINE
  8
1
 62
2
 10
512.0831682532674
 20
455.807133296224
 30
0
 11
512.0831682532674
 21
456.4998524749938
 31
0
  0
LINE
  8
1
 62
2
 10
512.1831682532675
 20
455.7301421457816
 30
0
 11
512.1831682532675
 21
456.3699674175226
 31
0
  0
LINE
  8
1
 62
2
 10
512.2831682532675
 20
455.6531509953392
 30
0
 11
512.2831682532675
 21
456.2400823600513
 31
0
  0
LINE
  8
1
 62
2
 10
512.3831682532675
 20
455.5761598448967
 30
0
 11
512.3831682532675
 21
456.1101973025801
 31
0
  0
LINE
  8
1
 62
2
 10
512.4831682532675
 20
455.4991686944543
 30
0
 11
512.4831682532675
 21
455.9803122451088
 31
0
  0
LINE
  8
1
 62
2
 10
512.5831682532676
 20
455.4221775440118
 30
0
 11
512.5831682532676
 21
455.8504271876375
 31
0
  0
LINE
  8
1
 62
2
 10
512.6831682532676
 20
455.3451863935694
 30
0
 11
512.6831682532676
 21
455.7205421301663
 31
0
  0
LINE
  8
1
 62
2
 10
512.7831682532676
 20
455.268195243127
 30
0
 11
512.7831682532676
 21
455.590657072695
 31
0
  0
LINE
  8
1
 62
2
 10
512.8831682532676
 20
455.1912040926845
 30
0
 11
512.8831682532676
 21
455.4607720152238
 31
0
  0
LINE
  8
1
 62
2
 10
512.9831682532677
 20
455.1142129422421
 30
0
 11
512.9831682532677
 21
455.3308869577525
 31
0
  0
LINE
  8
1
 62
2
 10
513.0831682532677
 20
455.0372217917997
 30
0
 11
513.0831682532677
 21
455.2010019002813
 31
0
  0
LINE
  8
1
 62
2
 10
513.1831682532677
 20
454.9602306413572
 30
0
 11
513.1831682532677
 21
455.07111684281
 31
0
  0
LINE
  8
1
 62
2
 10
513.2831682532677
 20
454.8832394909148
 30
0
 11
513.2831682532677
 21
454.9412317853387
 31
0
  0
LINE
  8
1
 62
2
 10
513.3831682532677
 20
454.8062483404723
 30
0
 11
513.3831682532677
 21
454.8113467278675
 31
0
  0
ENDBLK
  8
0
  0
BLOCK
  8
1
  2
*X1
 70
1
 10
0
 20
0
 30
0
  0
LINE
  8
1
 62
2
 10
519.8471292839462
 20
448.3175006397192
 30
0
 11
519.847129283946
 21
448.3652961593514
 31
0
  0
LINE
  8
1
 62
2
 10
519.9471292839462
 20
448.1876155822479
 30
0
 11
519.947129283946
 21
448.2883050089089
 31
0
  0
LINE
  8
1
 62
2
 10
520.0471292839462
 20
448.0577305247767
 30
0
 11
520.047129283946
 21
448.2113138584665
 31
0
  0
LINE
  8
1
 62
2
 10
520.1471292839462
 20
447.9278454673054
 30
0
 11
520.147129283946
 21
448.1343227080241
 31
0
  0
LINE
  8
1
 62
2
 10
520.2471292839463
 20
447.7979604098342
 30
0
 11
520.247129283946
 21
448.0573315575816
 31
0
  0
LINE
  8
1
 62
2
 10
520.3471292839463
 20
447.6680753523629
 30
0
 11
520.3471292839461
 21
447.9803404071392
 31
0
  0
LINE
  8
1
 62
2
 10
520.4471292839463
 20
447.5381902948917
 30
0
 11
520.4471292839461
 21
447.9033492566967
 31
0
  0
LINE
  8
1
 62
2
 10
520.5471292839463
 20
447.4083052374204
 30
0
 11
520.5471292839461
 21
447.8263581062543
 31
0
  0
LINE
  8
1
 62
2
 10
520.6471292839464
 20
447.2784201799491
 30
0
 11
520.6471292839461
 21
447.7493669558119
 31
0
  0
LINE
  8
1
 62
2
 10
520.7471292839464
 20
447.1485351224779
 30
0
 11
520.7471292839462
 21
447.6723758053694
 31
0
  0
LINE
  8
1
 62
2
 10
520.8471292839464
 20
447.0186500650066
 30
0
 11
520.8471292839462
 21
447.595384654927
 31
0
  0
LINE
  8
1
 62
2
 10
520.9471292839464
 20
446.8887650075354
 30
0
 11
520.9471292839462
 21
447.5183935044846
 31
0
  0
LINE
  8
1
 62
2
 10
521.0471292839465
 20
446.7588799500641
 30
0
 11
521.0471292839462
 21
447.4414023540421
 31
0
  0
LINE
  8
1
 62
2
 10
521.1471292839465
 20
446.6289948925929
 30
0
 11
521.1471292839462
 21
447.3644112035997
 31
0
  0
LINE
  8
1
 62
2
 10
521.2471292839465
 20
446.4991098351216
 30
0
 11
521.2471292839463
 21
447.2874200531572
 31
0
  0
LINE
  8
1
 62
2
 10
521.3471292839465
 20
446.3692247776504
 30
0
 11
521.3471292839463
 21
447.2104289027148
 31
0
  0
LINE
  8
1
 62
2
 10
521.4471292839465
 20
446.2393397201791
 30
0
 11
521.4471292839463
 21
447.1334377522724
 31
0
  0
LINE
  8
1
 62
2
 10
521.5471292839466
 20
446.1094546627078
 30
0
 11
521.5471292839463
 21
447.0564466018299
 31
0
  0
LINE
  8
1
 62
2
 10
521.6471292839466
 20
445.9795696052366
 30
0
 11
521.6471292839464
 21
446.9794554513875
 31
0
  0
LINE
  8
1
 62
2
 10
521.7471292839466
 20
445.8496845477653
 30
0
 11
521.7471292839464
 21
446.902464300945
 31
0
  0
LINE
  8
1
 62
2
 10
521.8471292839466
 20
445.7197994902941
 30
0
 11
521.8471292839464
 21
446.8254731505026
 31
0
  0
LINE
  8
1
 62
2
 10
521.9471292839467
 20
445.5899144328228
 30
0
 11
521.9471292839464
 21
446.7484820000602
 31
0
  0
LINE
  8
1
 62
2
 10
522.0471292839467
 20
445.4600293753516
 30
0
 11
522.0471292839465
 21
446.6714908496177
 31
0
  0
LINE
  8
1
 62
2
 10
522.1471292839467
 20
445.3301443178803
 30
0
 11
522.1471292839465
 21
446.5944996991753
 31
0
  0
LINE
  8
1
 62
2
 10
522.2471292839467
 20
445.200259260409
 30
0
 11
522.2471292839465
 21
446.5175085487329
 31
0
  0
LINE
  8
1
 62
2
 10
522.3471292839467
 20
445.0703742029378
 30
0
 11
522.3471292839465
 21
446.4405173982904
 31
0
  0
LINE
  8
1
 62
2
 10
522.4471292839468
 20
444.9404891454665
 30
0
 11
522.4471292839465
 21
446.363526247848
 31
0
  0
LINE
  8
1
 62
2
 10
522.5471292839468
 20
444.8106040879953
 30
0
 11
522.5471292839466
 21
446.2865350974055
 31
0
  0
LINE
  8
1
 62
2
 10
522.6471292839468
 20
444.680719030524
 30
0
 11
522.6471292839466
 21
446.2095439469631
 31
0
  0
LINE
  8
1
 62
2
 10
522.7471292839466
 20
444.6370022218121
 30
0
 11
522.7471292839466
 21
446.1325527965207
 31
0
  0
LINE
  8
1
 62
2
 10
522.8471292839466
 20
444.7370022218121
 30
0
 11
522.8471292839466
 21
446.0555616460782
 31
0
  0
LINE
  8
1
 62
2
 10
522.9471292839467
 20
444.8370022218121
 30
0
 11
522.9471292839467
 21
445.9785704956358
 31
0
  0
LINE
  8
1
 62
2
 10
523.0471292839467
 20
444.9370022218121
 30
0
 11
523.0471292839467
 21
445.9015793451933
 31
0
  0
LINE
  8
1
 62
2
 10
523.1471292839467
 20
445.0370022218121
 30
0
 11
523.1471292839467
 21
445.8245881947509
 31
0
  0
LINE
  8
1
 62
2
 10
523.2471292839467
 20
445.1370022218122
 30
0
 11
523.2471292839467
 21
445.7475970443085
 31
0
  0
LINE
  8
1
 62
2
 10
523.3471292839467
 20
445.2370022218122
 30
0
 11
523.3471292839467
 21
445.670605893866
 31
0
  0
LINE
  8
1
 62
2
 10
523.4471292839468
 20
445.3370022218122
 30
0
 11
523.4471292839468
 21
445.5936147434236
 31
0
  0
LINE
  8
1
 62
2
 10
523.5471292839468
 20
445.4370022218122
 30
0
 11
523.5471292839468
 21
445.5166235929812
 31
0
  0
ENDBLK
  8
0
  0
BLOCK
  8
1
  2
*X2
 70
1
 10
0
 20
0
 30
0
  0
LINE
  8
1
 62
2
 10
511.8370787776041
 20
466.449560212637
 30
0
 11
511.8370787776039
 21
466.468870347379
 31
0
  0
LINE
  8
1
 62
2
 10
511.9370787776041
 20
466.3196751551657
 30
0
 11
511.9370787776039
 21
466.3918791969366
 31
0
  0
LINE
  8
1
 62
2
 10
512.0370787776042
 20
466.1897900976945
 30
0
 11
512.0370787776039
 21
466.3148880464942
 31
0
  0
LINE
  8
1
 62
2
 10
512.1370787776042
 20
466.0599050402232
 30
0
 11
512.137078777604
 21
466.2378968960517
 31
0
  0
LINE
  8
1
 62
2
 10
512.2370787776042
 20
465.930019982752
 30
0
 11
512.237078777604
 21
466.1609057456093
 31
0
  0
LINE
  8
1
 62
2
 10
512.3370787776042
 20
465.8001349252807
 30
0
 11
512.337078777604
 21
466.0839145951669
 31
0
  0
LINE
  8
1
 62
2
 10
512.4370787776043
 20
465.6702498678095
 30
0
 11
512.437078777604
 21
466.0069234447244
 31
0
  0
LINE
  8
1
 62
2
 10
512.5370787776043
 20
465.5403648103382
 30
0
 11
512.5370787776041
 21
465.929932294282
 31
0
  0
LINE
  8
1
 62
2
 10
512.6370787776043
 20
465.4104797528669
 30
0
 11
512.6370787776041
 21
465.8529411438395
 31
0
  0
LINE
  8
1
 62
2
 10
512.7370787776043
 20
465.2805946953957
 30
0
 11
512.7370787776041
 21
465.7759499933971
 31
0
  0
LINE
  8
1
 62
2
 10
512.8370787776044
 20
465.1507096379244
 30
0
 11
512.8370787776041
 21
465.6989588429547
 31
0
  0
LINE
  8
1
 62
2
 10
512.9370787776044
 20
465.0208245804532
 30
0
 11
512.9370787776041
 21
465.6219676925122
 31
0
  0
LINE
  8
1
 62
2
 10
513.0370787776044
 20
464.8909395229819
 30
0
 11
513.0370787776042
 21
465.5449765420698
 31
0
  0
LINE
  8
1
 62
2
 10
513.1370787776044
 20
464.7610544655107
 30
0
 11
513.1370787776042
 21
465.4679853916273
 31
0
  0
LINE
  8
1
 62
2
 10
513.2370787776044
 20
464.6311694080394
 30
0
 11
513.2370787776042
 21
465.3909942411849
 31
0
  0
LINE
  8
1
 62
2
 10
513.3370787776045
 20
464.5012843505681
 30
0
 11
513.3370787776042
 21
465.3140030907425
 31
0
  0
LINE
  8
1
 62
2
 10
513.4370787776045
 20
464.3713992930969
 30
0
 11
513.4370787776043
 21
465.2370119403
 31
0
  0
LINE
  8
1
 62
2
 10
513.5370787776045
 20
464.2415142356256
 30
0
 11
513.5370787776043
 21
465.1600207898576
 31
0
  0
LINE
  8
1
 62
2
 10
513.6370787776045
 20
464.1116291781544
 30
0
 11
513.6370787776043
 21
465.0830296394151
 31
0
  0
LINE
  8
1
 62
2
 10
513.7370787776046
 20
463.9817441206831
 30
0
 11
513.7370787776043
 21
465.0060384889727
 31
0
  0
LINE
  8
1
 62
2
 10
513.8370787776046
 20
463.8518590632119
 30
0
 11
513.8370787776044
 21
464.9290473385303
 31
0
  0
LINE
  8
1
 62
2
 10
513.9370787776046
 20
463.7219740057406
 30
0
 11
513.9370787776044
 21
464.8520561880878
 31
0
  0
LINE
  8
1
 62
2
 10
514.0370787776046
 20
463.5920889482694
 30
0
 11
514.0370787776044
 21
464.7750650376454
 31
0
  0
LINE
  8
1
 62
2
 10
514.1370787776046
 20
463.4622038907981
 30
0
 11
514.1370787776044
 21
464.698073887203
 31
0
  0
LINE
  8
1
 62
2
 10
514.2370787776047
 20
463.3323188333268
 30
0
 11
514.2370787776044
 21
464.6210827367605
 31
0
  0
LINE
  8
1
 62
2
 10
514.3370787776047
 20
463.2024337758556
 30
0
 11
514.3370787776045
 21
464.5440915863181
 31
0
  0
LINE
  8
1
 62
2
 10
514.4370787776047
 20
463.0725487183843
 30
0
 11
514.4370787776045
 21
464.4671004358756
 31
0
  0
LINE
  8
1
 62
2
 10
514.5370787776047
 20
462.9426636609131
 30
0
 11
514.5370787776045
 21
464.3901092854332
 31
0
  0
LINE
  8
1
 62
2
 10
514.6370787776048
 20
462.8127786034418
 30
0
 11
514.6370787776045
 21
464.3131181349908
 31
0
  0
LINE
  8
1
 62
2
 10
514.7370787776048
 20
462.6828935459706
 30
0
 11
514.7370787776046
 21
464.2361269845483
 31
0
  0
LINE
  8
1
 62
2
 10
514.8370787776046
 20
462.7452599296304
 30
0
 11
514.8370787776046
 21
464.1591358341059
 31
0
  0
LINE
  8
1
 62
2
 10
514.9370787776046
 20
462.8452599296305
 30
0
 11
514.9370787776046
 21
464.0821446836634
 31
0
  0
LINE
  8
1
 62
2
 10
515.0370787776046
 20
462.9452599296305
 30
0
 11
515.0370787776046
 21
464.005153533221
 31
0
  0
LINE
  8
1
 62
2
 10
515.1370787776046
 20
463.0452599296305
 30
0
 11
515.1370787776046
 21
463.9281623827786
 31
0
  0
LINE
  8
1
 62
2
 10
515.2370787776047
 20
463.1452599296305
 30
0
 11
515.2370787776047
 21
463.8511712323361
 31
0
  0
LINE
  8
1
 62
2
 10
515.3370787776047
 20
463.2452599296306
 30
0
 11
515.3370787776047
 21
463.7741800818937
 31
0
  0
LINE
  8
1
 62
2
 10
515.4370787776047
 20
463.3452599296306
 30
0
 11
515.4370787776047
 21
463.6971889314513
 31
0
  0
LINE
  8
1
 62
2
 10
515.5370787776047
 20
463.4452599296306
 30
0
 11
515.5370787776047
 21
463.6201977810088
 31
0
  0
ENDBLK
  8
0
  0
BLOCK
  8
1
  2
*X3
 70
1
 10
0
 20
0
 30
0
  0
LINE
  8
1
 62
2
 10
521.1892649076751
 20
456.2423479341243
 30
0
 11
521.1892649076758
 21
456.369523998344
 31
0
  0
LINE
  8
1
 62
2
 10
521.2892649076752
 20
456.1653567836818
 30
0
 11
521.2892649076758
 21
456.469523998344
 31
0
  0
LINE
  8
1
 62
2
 10
521.3892649076752
 20
456.0883656332394
 30
0
 11
521.3892649076759
 21
456.569523998344
 31
0
  0
LINE
  8
1
 62
2
 10
521.4892649076752
 20
456.011374482797
 30
0
 11
521.4892649076759
 21
456.6695239983441
 31
0
  0
LINE
  8
1
 62
2
 10
521.5892649076752
 20
455.9343833323545
 30
0
 11
521.5892649076759
 21
456.7695239983441
 31
0
  0
LINE
  8
1
 62
2
 10
521.6892649076752
 20
455.8573921819121
 30
0
 11
521.6892649076759
 21
456.8695239983441
 31
0
  0
LINE
  8
1
 62
2
 10
521.7892649076753
 20
455.7804010314696
 30
0
 11
521.7892649076759
 21
456.9695239983441
 31
0
  0
LINE
  8
1
 62
2
 10
521.8892649076753
 20
455.7034098810272
 30
0
 11
521.889264907676
 21
457.0695239983442
 31
0
  0
LINE
  8
1
 62
2
 10
521.9892649076753
 20
455.6264187305848
 30
0
 11
521.989264907676
 21
457.1695239983442
 31
0
  0
LINE
  8
1
 62
2
 10
522.0892649076753
 20
455.5494275801423
 30
0
 11
522.0892649076753
 21
457.0640407492346
 31
0
  0
LINE
  8
1
 62
2
 10
522.1892649076754
 20
455.4724364296999
 30
0
 11
522.1892649076754
 21
456.9341556917633
 31
0
  0
LINE
  8
1
 62
2
 10
522.2892649076754
 20
455.3954452792574
 30
0
 11
522.2892649076754
 21
456.804270634292
 31
0
  0
LINE
  8
1
 62
2
 10
522.3892649076754
 20
455.318454128815
 30
0
 11
522.3892649076754
 21
456.6743855768208
 31
0
  0
LINE
  8
1
 62
2
 10
522.4892649076754
 20
455.2414629783726
 30
0
 11
522.4892649076754
 21
456.5445005193495
 31
0
  0
LINE
  8
1
 62
2
 10
522.5892649076754
 20
455.1644718279301
 30
0
 11
522.5892649076754
 21
456.4146154618783
 31
0
  0
LINE
  8
1
 62
2
 10
522.6892649076755
 20
455.0874806774877
 30
0
 11
522.6892649076755
 21
456.284730404407
 31
0
  0
LINE
  8
1
 62
2
 10
522.7892649076755
 20
455.0104895270453
 30
0
 11
522.7892649076755
 21
456.1548453469358
 31
0
  0
LINE
  8
1
 62
2
 10
522.8892649076755
 20
454.9334983766028
 30
0
 11
522.8892649076755
 21
456.0249602894645
 31
0
  0
LINE
  8
1
 62
2
 10
522.9892649076755
 20
454.8565072261604
 30
0
 11
522.9892649076755
 21
455.8950752319933
 31
0
  0
LINE
  8
1
 62
2
 10
523.0892649076756
 20
454.7795160757179
 30
0
 11
523.0892649076756
 21
455.765190174522
 31
0
  0
LINE
  8
1
 62
2
 10
523.1892649076756
 20
454.7025249252755
 30
0
 11
523.1892649076756
 21
455.6353051170507
 31
0
  0
LINE
  8
1
 62
2
 10
523.2892649076756
 20
454.6255337748331
 30
0
 11
523.2892649076756
 21
455.5054200595795
 31
0
  0
LINE
  8
1
 62
2
 10
523.3892649076756
 20
454.5485426243906
 30
0
 11
523.3892649076756
 21
455.3755350021082
 31
0
  0
LINE
  8
1
 62
2
 10
523.4892649076757
 20
454.4715514739482
 30
0
 11
523.4892649076757
 21
455.245649944637
 31
0
  0
LINE
  8
1
 62
2
 10
523.5892649076757
 20
454.3945603235057
 30
0
 11
523.5892649076757
 21
455.1157648871657
 31
0
  0
LINE
  8
1
 62
2
 10
523.6892649076757
 20
454.3175691730633
 30
0
 11
523.6892649076757
 21
454.9858798296945
 31
0
  0
LINE
  8
1
 62
2
 10
523.7892649076757
 20
454.2405780226209
 30
0
 11
523.7892649076757
 21
454.8559947722232
 31
0
  0
LINE
  8
1
 62
2
 10
523.8892649076757
 20
454.1635868721784
 30
0
 11
523.8892649076757
 21
454.7261097147519
 31
0
  0
LINE
  8
1
 62
2
 10
523.9892649076758
 20
454.086595721736
 30
0
 11
523.9892649076758
 21
454.5962246572807
 31
0
  0
LINE
  8
1
 62
2
 10
524.0892649076758
 20
454.0096045712936
 30
0
 11
524.0892649076758
 21
454.4663395998094
 31
0
  0
LINE
  8
1
 62
2
 10
524.1892649076758
 20
453.9326134208511
 30
0
 11
524.1892649076758
 21
454.3364545423382
 31
0
  0
LINE
  8
1
 62
2
 10
524.2892649076758
 20
453.8556222704087
 30
0
 11
524.2892649076758
 21
454.2065694848669
 31
0
  0
LINE
  8
1
 62
2
 10
524.3892649076759
 20
453.7786311199662
 30
0
 11
524.3892649076759
 21
454.0766844273957
 31
0
  0
LINE
  8
1
 62
2
 10
524.4892649076759
 20
453.7016399695238
 30
0
 11
524.4892649076759
 21
453.9467993699244
 31
0
  0
LINE
  8
1
 62
2
 10
524.5892649076759
 20
453.6246488190814
 30
0
 11
524.5892649076759
 21
453.8169143124532
 31
0
  0
LINE
  8
1
 62
2
 10
524.6892649076759
 20
453.5476576686389
 30
0
 11
524.6892649076759
 21
453.6870292549819
 31
0
  0
LINE
  8
1
 62
2
 10
524.7892649076759
 20
453.4706665181965
 30
0
 11
524.7892649076759
 21
453.5571441975106
 31
0
  0
LINE
  8
1
 62
2
 10
524.889264907676
 20
453.393675367754
 30
0
 11
524.889264907676
 21
453.4272591400394
 31
0
  0
ENDBLK
  8
0
  0
BLOCK
  8
1
  2
*X4
 70
1
 10
0
 20
0
 30
0
  0
LINE
  8
1
 62
2
 10
412.1491088906602
 20
339.7189248052507
 30
0
 11
412.1491088906599
 21
339.7371984119537
 31
0
  0
LINE
  8
1
 62
2
 10
412.2491088906602
 20
339.5890397477793
 30
0
 11
412.24910889066
 21
339.6602072615112
 31
0
  0
LINE
  8
1
 62
2
 10
412.3491088906602
 20
339.459154690308
 30
0
 11
412.34910889066
 21
339.5832161110687
 31
0
  0
LINE
  8
1
 62
2
 10
412.4491088906602
 20
339.3292696328367
 30
0
 11
412.44910889066
 21
339.5062249606262
 31
0
  0
LINE
  8
1
 62
2
 10
412.5491088906603
 20
339.1993845753654
 30
0
 11
412.54910889066
 21
339.4292338101838
 31
0
  0
LINE
  8
1
 62
2
 10
412.6491088906603
 20
339.0694995178941
 30
0
 11
412.6491088906601
 21
339.3522426597413
 31
0
  0
LINE
  8
1
 62
2
 10
412.7491088906603
 20
338.9396144604228
 30
0
 11
412.7491088906601
 21
339.2752515092988
 31
0
  0
LINE
  8
1
 62
2
 10
412.8491088906603
 20
338.8097294029515
 30
0
 11
412.8491088906601
 21
339.1982603588563
 31
0
  0
LINE
  8
1
 62
2
 10
412.9491088906603
 20
338.6798443454802
 30
0
 11
412.9491088906601
 21
339.1212692084138
 31
0
  0
LINE
  8
1
 62
2
 10
413.0491088906604
 20
338.5499592880088
 30
0
 11
413.0491088906601
 21
339.0442780579713
 31
0
  0
LINE
  8
1
 62
2
 10
413.1491088906604
 20
338.4200742305375
 30
0
 11
413.1491088906602
 21
338.9672869075288
 31
0
  0
LINE
  8
1
 62
2
 10
413.2491088906604
 20
338.2901891730662
 30
0
 11
413.2491088906602
 21
338.8902957570863
 31
0
  0
LINE
  8
1
 62
2
 10
413.3491088906604
 20
338.1603041155949
 30
0
 11
413.3491088906602
 21
338.8133046066438
 31
0
  0
LINE
  8
1
 62
2
 10
413.4491088906605
 20
338.0304190581236
 30
0
 11
413.4491088906602
 21
338.7363134562013
 31
0
  0
LINE
  8
1
 62
2
 10
413.5491088906605
 20
337.9005340006523
 30
0
 11
413.5491088906603
 21
338.6593223057588
 31
0
  0
LINE
  8
1
 62
2
 10
413.6491088906605
 20
337.770648943181
 30
0
 11
413.6491088906603
 21
338.5823311553163
 31
0
  0
LINE
  8
1
 62
2
 10
413.7491088906605
 20
337.6407638857097
 30
0
 11
413.7491088906603
 21
338.5053400048738
 31
0
  0
LINE
  8
1
 62
2
 10
413.8491088906606
 20
337.5108788282383
 30
0
 11
413.8491088906603
 21
338.4283488544313
 31
0
  0
LINE
  8
1
 62
2
 10
413.9491088906606
 20
337.380993770767
 30
0
 11
413.9491088906603
 21
338.3513577039888
 31
0
  0
LINE
  8
1
 62
2
 10
414.0491088906606
 20
337.2511087132957
 30
0
 11
414.0491088906604
 21
338.2743665535463
 31
0
  0
LINE
  8
1
 62
2
 10
414.1491088906606
 20
337.1212236558244
 30
0
 11
414.1491088906604
 21
338.1973754031038
 31
0
  0
LINE
  8
1
 62
2
 10
414.2491088906606
 20
336.9913385983531
 30
0
 11
414.2491088906604
 21
338.1203842526613
 31
0
  0
LINE
  8
1
 62
2
 10
414.3491088906607
 20
336.8614535408818
 30
0
 11
414.3491088906604
 21
338.0433931022188
 31
0
  0
LINE
  8
1
 62
2
 10
414.4491088906607
 20
336.7315684834105
 30
0
 11
414.4491088906605
 21
337.9664019517763
 31
0
  0
LINE
  8
1
 62
2
 10
414.5491088906607
 20
336.6016834259391
 30
0
 11
414.5491088906605
 21
337.8894108013338
 31
0
  0
LINE
  8
1
 62
2
 10
414.6491088906607
 20
336.4717983684678
 30
0
 11
414.6491088906605
 21
337.8124196508913
 31
0
  0
LINE
  8
1
 62
2
 10
414.7491088906608
 20
336.3419133109965
 30
0
 11
414.7491088906605
 21
337.7354285004489
 31
0
  0
LINE
  8
1
 62
2
 10
414.8491088906608
 20
336.2120282535252
 30
0
 11
414.8491088906606
 21
337.6584373500064
 31
0
  0
LINE
  8
1
 62
2
 10
414.9491088906608
 20
336.0821431960539
 30
0
 11
414.9491088906606
 21
337.5814461995639
 31
0
  0
LINE
  8
1
 62
2
 10
415.0491088906608
 20
335.9522581385826
 30
0
 11
415.0491088906606
 21
337.5044550491214
 31
0
  0
LINE
  8
1
 62
2
 10
415.1491088906606
 20
336.0101196119172
 30
0
 11
415.1491088906606
 21
337.4274638986789
 31
0
  0
LINE
  8
1
 62
2
 10
415.2491088906606
 20
336.1101196119171
 30
0
 11
415.2491088906606
 21
337.3504727482364
 31
0
  0
LINE
  8
1
 62
2
 10
415.3491088906607
 20
336.2101196119171
 30
0
 11
415.3491088906607
 21
337.2734815977939
 31
0
  0
LINE
  8
1
 62
2
 10
415.4491088906607
 20
336.3101196119171
 30
0
 11
415.4491088906607
 21
337.1964904473514
 31
0
  0
LINE
  8
1
 62
2
 10
415.5491088906607
 20
336.410119611917
 30
0
 11
415.5491088906607
 21
337.1194992969089
 31
0
  0
LINE
  8
1
 62
2
 10
415.6491088906607
 20
336.510119611917
 30
0
 11
415.6491088906607
 21
337.0425081464664
 31
0
  0
LINE
  8
1
 62
2
 10
415.7491088906608
 20
336.610119611917
 30
0
 11
415.7491088906608
 21
336.9655169960239
 31
0
  0
LINE
  8
1
 62
2
 10
415.8491088906608
 20
336.7101196119169
 30
0
 11
415.8491088906608
 21
336.8885258455814
 31
0
  0
LINE
  8
1
 62
2
 10
415.9491088906608
 20
336.8101196119169
 30
0
 11
415.9491088906608
 21
336.8115346951389
 31
0
  0
ENDBLK
  8
0
  0
BLOCK
  8
1
  2
*X5
 70
1
 10
0
 20
0
 30
0
  0
LINE
  8
1
 62
2
 10
401.9851478599812
 20
349.0268231594488
 30
0
 11
401.9851478599819
 21
349.1505308413791
 31
0
  0
LINE
  8
1
 62
2
 10
402.0851478599813
 20
348.9498320090063
 30
0
 11
402.0851478599819
 21
349.250530841379
 31
0
  0
LINE
  8
1
 62
2
 10
402.1851478599813
 20
348.8728408585638
 30
0
 11
402.185147859982
 21
349.350530841379
 31
0
  0
LINE
  8
1
 62
2
 10
402.2851478599813
 20
348.7958497081213
 30
0
 11
402.285147859982
 21
349.450530841379
 31
0
  0
LINE
  8
1
 62
2
 10
402.3851478599813
 20
348.7188585576788
 30
0
 11
402.385147859982
 21
349.5505308413789
 31
0
  0
LINE
  8
1
 62
2
 10
402.4851478599813
 20
348.6418674072363
 30
0
 11
402.485147859982
 21
349.6505308413789
 31
0
  0
LINE
  8
1
 62
2
 10
402.5851478599814
 20
348.5648762567938
 30
0
 11
402.585147859982
 21
349.7505308413789
 31
0
  0
LINE
  8
1
 62
2
 10
402.6851478599814
 20
348.4878851063513
 30
0
 11
402.6851478599821
 21
349.8505308413788
 31
0
  0
LINE
  8
1
 62
2
 10
402.7851478599814
 20
348.4108939559088
 30
0
 11
402.7851478599821
 21
349.9505308413788
 31
0
  0
LINE
  8
1
 62
2
 10
402.8851478599814
 20
348.3339028054663
 30
0
 11
402.8851478599814
 21
349.8495525025984
 31
0
  0
LINE
  8
1
 62
2
 10
402.9851478599815
 20
348.2569116550238
 30
0
 11
402.9851478599815
 21
349.7196674451271
 31
0
  0
LINE
  8
1
 62
2
 10
403.0851478599815
 20
348.1799205045813
 30
0
 11
403.0851478599815
 21
349.5897823876558
 31
0
  0
LINE
  8
1
 62
2
 10
403.1851478599815
 20
348.1029293541388
 30
0
 11
403.1851478599815
 21
349.4598973301845
 31
0
  0
LINE
  8
1
 62
2
 10
403.2851478599815
 20
348.0259382036963
 30
0
 11
403.2851478599815
 21
349.3300122727132
 31
0
  0
LINE
  8
1
 62
2
 10
403.3851478599815
 20
347.9489470532539
 30
0
 11
403.3851478599815
 21
349.2001272152419
 31
0
  0
LINE
  8
1
 62
2
 10
403.4851478599816
 20
347.8719559028114
 30
0
 11
403.4851478599816
 21
349.0702421577706
 31
0
  0
LINE
  8
1
 62
2
 10
403.5851478599816
 20
347.7949647523689
 30
0
 11
403.5851478599816
 21
348.9403571002993
 31
0
  0
LINE
  8
1
 62
2
 10
403.6851478599816
 20
347.7179736019264
 30
0
 11
403.6851478599816
 21
348.8104720428279
 31
0
  0
LINE
  8
1
 62
2
 10
403.7851478599816
 20
347.6409824514839
 30
0
 11
403.7851478599816
 21
348.6805869853566
 31
0
  0
LINE
  8
1
 62
2
 10
403.8851478599817
 20
347.5639913010414
 30
0
 11
403.8851478599817
 21
348.5507019278853
 31
0
  0
LINE
  8
1
 62
2
 10
403.9851478599817
 20
347.4870001505989
 30
0
 11
403.9851478599817
 21
348.420816870414
 31
0
  0
LINE
  8
1
 62
2
 10
404.0851478599817
 20
347.4100090001564
 30
0
 11
404.0851478599817
 21
348.2909318129427
 31
0
  0
LINE
  8
1
 62
2
 10
404.1851478599817
 20
347.3330178497139
 30
0
 11
404.1851478599817
 21
348.1610467554714
 31
0
  0
LINE
  8
1
 62
2
 10
404.2851478599818
 20
347.2560266992714
 30
0
 11
404.2851478599818
 21
348.0311616980001
 31
0
  0
LINE
  8
1
 62
2
 10
404.3851478599818
 20
347.1790355488289
 30
0
 11
404.3851478599818
 21
347.9012766405288
 31
0
  0
LINE
  8
1
 62
2
 10
404.4851478599818
 20
347.1020443983864
 30
0
 11
404.4851478599818
 21
347.7713915830574
 31
0
  0
LINE
  8
1
 62
2
 10
404.5851478599818
 20
347.0250532479439
 30
0
 11
404.5851478599818
 21
347.6415065255861
 31
0
  0
LINE
  8
1
 62
2
 10
404.6851478599818
 20
346.9480620975014
 30
0
 11
404.6851478599818
 21
347.5116214681148
 31
0
  0
LINE
  8
1
 62
2
 10
404.7851478599819
 20
346.8710709470589
 30
0
 11
404.7851478599819
 21
347.3817364106435
 31
0
  0
LINE
  8
1
 62
2
 10
404.8851478599819
 20
346.7940797966164
 30
0
 11
404.8851478599819
 21
347.2518513531722
 31
0
  0
LINE
  8
1
 62
2
 10
404.9851478599819
 20
346.7170886461739
 30
0
 11
404.9851478599819
 21
347.1219662957009
 31
0
  0
LINE
  8
1
 62
2
 10
405.0851478599819
 20
346.6400974957314
 30
0
 11
405.0851478599819
 21
346.9920812382296
 31
0
  0
LINE
  8
1
 62
2
 10
405.185147859982
 20
346.5631063452889
 30
0
 11
405.185147859982
 21
346.8621961807583
 31
0
  0
LINE
  8
1
 62
2
 10
405.285147859982
 20
346.4861151948464
 30
0
 11
405.285147859982
 21
346.7323111232869
 31
0
  0
LINE
  8
1
 62
2
 10
405.385147859982
 20
346.4091240444039
 30
0
 11
405.385147859982
 21
346.6024260658156
 31
0
  0
LINE
  8
1
 62
2
 10
405.485147859982
 20
346.3321328939614
 30
0
 11
405.485147859982
 21
346.4725410083443
 31
0
  0
LINE
  8
1
 62
2
 10
405.585147859982
 20
346.255141743519
 30
0
 11
405.585147859982
 21
346.342655950873
 31
0
  0
LINE
  8
1
 62
2
 10
405.6851478599821
 20
346.1781505930765
 30
0
 11
405.6851478599821
 21
346.2127708934017
 31
0
  0
ENDBLK
  8
0
  0
BLOCK
  8
1
  2
*X6
 70
1
 10
0
 20
0
 30
0
  0
LINE
  8
1
 62
2
 10
407.9951983663141
 20
328.7105195151618
 30
0
 11
407.9951983663148
 21
328.8562090875772
 31
0
  0
LINE
  8
1
 62
2
 10
408.0951983663142
 20
328.6335283647193
 30
0
 11
408.0951983663148
 21
328.9562090875771
 31
0
  0
LINE
  8
1
 62
2
 10
408.1951983663142
 20
328.5565372142768
 30
0
 11
408.1951983663149
 21
329.0562090875771
 31
0
  0
LINE
  8
1
 62
2
 10
408.2951983663142
 20
328.4795460638343
 30
0
 11
408.2951983663149
 21
329.1562090875771
 31
0
  0
LINE
  8
1
 62
2
 10
408.3951983663142
 20
328.4025549133918
 30
0
 11
408.3951983663149
 21
329.256209087577
 31
0
  0
LINE
  8
1
 62
2
 10
408.4951983663142
 20
328.3255637629493
 30
0
 11
408.4951983663149
 21
329.356209087577
 31
0
  0
LINE
  8
1
 62
2
 10
408.5951983663143
 20
328.2485726125068
 30
0
 11
408.595198366315
 21
329.456209087577
 31
0
  0
LINE
  8
1
 62
2
 10
408.6951983663143
 20
328.1715814620643
 30
0
 11
408.695198366315
 21
329.5562090875769
 31
0
  0
LINE
  8
1
 62
2
 10
408.7951983663143
 20
328.0945903116218
 30
0
 11
408.795198366315
 21
329.6562090875769
 31
0
  0
LINE
  8
1
 62
2
 10
408.8951983663143
 20
328.0175991611793
 30
0
 11
408.8951983663143
 21
329.5266795577068
 31
0
  0
LINE
  8
1
 62
2
 10
408.9951983663144
 20
327.9406080107368
 30
0
 11
408.9951983663144
 21
329.3967945002354
 31
0
  0
LINE
  8
1
 62
2
 10
409.0951983663144
 20
327.8636168602943
 30
0
 11
409.0951983663144
 21
329.2669094427641
 31
0
  0
LINE
  8
1
 62
2
 10
409.1951983663144
 20
327.7866257098518
 30
0
 11
409.1951983663144
 21
329.1370243852928
 31
0
  0
LINE
  8
1
 62
2
 10
409.2951983663144
 20
327.7096345594093
 30
0
 11
409.2951983663144
 21
329.0071393278215
 31
0
  0
LINE
  8
1
 62
2
 10
409.3951983663145
 20
327.6326434089668
 30
0
 11
409.3951983663145
 21
328.8772542703502
 31
0
  0
LINE
  8
1
 62
2
 10
409.4951983663145
 20
327.5556522585243
 30
0
 11
409.4951983663145
 21
328.7473692128789
 31
0
  0
LINE
  8
1
 62
2
 10
409.5951983663145
 20
327.4786611080818
 30
0
 11
409.5951983663145
 21
328.6174841554076
 31
0
  0
LINE
  8
1
 62
2
 10
409.6951983663145
 20
327.4016699576393
 30
0
 11
409.6951983663145
 21
328.4875990979363
 31
0
  0
LINE
  8
1
 62
2
 10
409.7951983663145
 20
327.3246788071969
 30
0
 11
409.7951983663145
 21
328.3577140404649
 31
0
  0
LINE
  8
1
 62
2
 10
409.8951983663146
 20
327.2476876567544
 30
0
 11
409.8951983663146
 21
328.2278289829936
 31
0
  0
LINE
  8
1
 62
2
 10
409.9951983663146
 20
327.1706965063119
 30
0
 11
409.9951983663146
 21
328.0979439255223
 31
0
  0
LINE
  8
1
 62
2
 10
410.0951983663146
 20
327.0937053558694
 30
0
 11
410.0951983663146
 21
327.968058868051
 31
0
  0
LINE
  8
1
 62
2
 10
410.1951983663146
 20
327.0167142054269
 30
0
 11
410.1951983663146
 21
327.8381738105797
 31
0
  0
LINE
  8
1
 62
2
 10
410.2951983663147
 20
326.9397230549844
 30
0
 11
410.2951983663147
 21
327.7082887531084
 31
0
  0
LINE
  8
1
 62
2
 10
410.3951983663147
 20
326.8627319045419
 30
0
 11
410.3951983663147
 21
327.5784036956371
 31
0
  0
LINE
  8
1
 62
2
 10
410.4951983663147
 20
326.7857407540994
 30
0
 11
410.4951983663147
 21
327.4485186381658
 31
0
  0
LINE
  8
1
 62
2
 10
410.5951983663147
 20
326.7087496036569
 30
0
 11
410.5951983663147
 21
327.3186335806944
 31
0
  0
LINE
  8
1
 62
2
 10
410.6951983663147
 20
326.6317584532144
 30
0
 11
410.6951983663147
 21
327.1887485232231
 31
0
  0
LINE
  8
1
 62
2
 10
410.7951983663148
 20
326.5547673027719
 30
0
 11
410.7951983663148
 21
327.0588634657518
 31
0
  0
LINE
  8
1
 62
2
 10
410.8951983663148
 20
326.4777761523294
 30
0
 11
410.8951983663148
 21
326.9289784082805
 31
0
  0
LINE
  8
1
 62
2
 10
410.9951983663148
 20
326.4007850018869
 30
0
 11
410.9951983663148
 21
326.7990933508092
 31
0
  0
LINE
  8
1
 62
2
 10
411.0951983663148
 20
326.3237938514444
 30
0
 11
411.0951983663148
 21
326.6692082933379
 31
0
  0
LINE
  8
1
 62
2
 10
411.1951983663149
 20
326.2468027010019
 30
0
 11
411.1951983663149
 21
326.5393232358666
 31
0
  0
LINE
  8
1
 62
2
 10
411.2951983663149
 20
326.1698115505594
 30
0
 11
411.2951983663149
 21
326.4094381783953
 31
0
  0
LINE
  8
1
 62
2
 10
411.3951983663149
 20
326.0928204001169
 30
0
 11
411.3951983663149
 21
326.2795531209239
 31
0
  0
LINE
  8
1
 62
2
 10
411.4951983663149
 20
326.0158292496744
 30
0
 11
411.4951983663149
 21
326.1496680634526
 31
0
  0
LINE
  8
1
 62
2
 10
411.595198366315
 20
325.9388380992319
 30
0
 11
411.595198366315
 21
326.0197830059813
 31
0
  0
LINE
  8
1
 62
2
 10
411.695198366315
 20
325.8618469487894
 30
0
 11
411.695198366315
 21
325.88989794851
 31
0
  0
ENDBLK
  8
0
  0
BLOCK
  8
1
  2
*X7
 70
1
 10
0
 20
0
 30
0
  0
LINE
  8
1
 62
2
 10
398.6430122362468
 20
338.91219902111
 30
0
 11
398.6430122362465
 21
338.9370419284177
 31
0
  0
LINE
  8
1
 62
2
 10
398.7430122362468
 20
338.7823139636387
 30
0
 11
398.7430122362466
 21
338.8600507779752
 31
0
  0
LINE
  8
1
 62
2
 10
398.8430122362468
 20
338.6524289061674
 30
0
 11
398.8430122362466
 21
338.7830596275327
 31
0
  0
LINE
  8
1
 62
2
 10
398.9430122362468
 20
338.5225438486961
 30
0
 11
398.9430122362466
 21
338.7060684770902
 31
0
  0
LINE
  8
1
 62
2
 10
399.0430122362469
 20
338.3926587912247
 30
0
 11
399.0430122362466
 21
338.6290773266477
 31
0
  0
LINE
  8
1
 62
2
 10
399.1430122362469
 20
338.2627737337534
 30
0
 11
399.1430122362467
 21
338.5520861762052
 31
0
  0
LINE
  8
1
 62
2
 10
399.2430122362469
 20
338.1328886762821
 30
0
 11
399.2430122362467
 21
338.4750950257627
 31
0
  0
LINE
  8
1
 62
2
 10
399.3430122362469
 20
338.0030036188108
 30
0
 11
399.3430122362467
 21
338.3981038753202
 31
0
  0
LINE
  8
1
 62
2
 10
399.4430122362469
 20
337.8731185613395
 30
0
 11
399.4430122362467
 21
338.3211127248777
 31
0
  0
LINE
  8
1
 62
2
 10
399.543012236247
 20
337.7432335038682
 30
0
 11
399.5430122362467
 21
338.2441215744352
 31
0
  0
LINE
  8
1
 62
2
 10
399.643012236247
 20
337.6133484463969
 30
0
 11
399.6430122362468
 21
338.1671304239927
 31
0
  0
LINE
  8
1
 62
2
 10
399.743012236247
 20
337.4834633889255
 30
0
 11
399.7430122362468
 21
338.0901392735502
 31
0
  0
LINE
  8
1
 62
2
 10
399.843012236247
 20
337.3535783314542
 30
0
 11
399.8430122362468
 21
338.0131481231077
 31
0
  0
LINE
  8
1
 62
2
 10
399.9430122362471
 20
337.2236932739829
 30
0
 11
399.9430122362468
 21
337.9361569726652
 31
0
  0
LINE
  8
1
 62
2
 10
400.0430122362471
 20
337.0938082165116
 30
0
 11
400.0430122362469
 21
337.8591658222227
 31
0
  0
LINE
  8
1
 62
2
 10
400.1430122362471
 20
336.9639231590403
 30
0
 11
400.1430122362469
 21
337.7821746717802
 31
0
  0
LINE
  8
1
 62
2
 10
400.2430122362471
 20
336.834038101569
 30
0
 11
400.2430122362469
 21
337.7051835213377
 31
0
  0
LINE
  8
1
 62
2
 10
400.3430122362472
 20
336.7041530440977
 30
0
 11
400.3430122362469
 21
337.6281923708953
 31
0
  0
LINE
  8
1
 62
2
 10
400.4430122362472
 20
336.5742679866264
 30
0
 11
400.4430122362469
 21
337.5512012204528
 31
0
  0
LINE
  8
1
 62
2
 10
400.5430122362472
 20
336.444382929155
 30
0
 11
400.543012236247
 21
337.4742100700103
 31
0
  0
LINE
  8
1
 62
2
 10
400.6430122362472
 20
336.3144978716837
 30
0
 11
400.643012236247
 21
337.3972189195678
 31
0
  0
LINE
  8
1
 62
2
 10
400.7430122362472
 20
336.1846128142124
 30
0
 11
400.743012236247
 21
337.3202277691253
 31
0
  0
LINE
  8
1
 62
2
 10
400.8430122362473
 20
336.0547277567411
 30
0
 11
400.843012236247
 21
337.2432366186828
 31
0
  0
LINE
  8
1
 62
2
 10
400.9430122362473
 20
335.9248426992698
 30
0
 11
400.9430122362471
 21
337.1662454682403
 31
0
  0
LINE
  8
1
 62
2
 10
401.0430122362473
 20
335.7949576417985
 30
0
 11
401.0430122362471
 21
337.0892543177978
 31
0
  0
LINE
  8
1
 62
2
 10
401.1430122362473
 20
335.6650725843272
 30
0
 11
401.1430122362471
 21
337.0122631673553
 31
0
  0
LINE
  8
1
 62
2
 10
401.2430122362474
 20
335.5351875268559
 30
0
 11
401.2430122362471
 21
336.9352720169128
 31
0
  0
LINE
  8
1
 62
2
 10
401.3430122362474
 20
335.4053024693845
 30
0
 11
401.3430122362472
 21
336.8582808664703
 31
0
  0
LINE
  8
1
 62
2
 10
401.4430122362474
 20
335.2754174119132
 30
0
 11
401.4430122362472
 21
336.7812897160278
 31
0
  0
LINE
  8
1
 62
2
 10
401.5430122362474
 20
335.1455323544419
 30
0
 11
401.5430122362472
 21
336.7042985655853
 31
0
  0
LINE
  8
1
 62
2
 10
401.6430122362472
 20
335.231945018866
 30
0
 11
401.6430122362472
 21
336.6273074151428
 31
0
  0
LINE
  8
1
 62
2
 10
401.7430122362472
 20
335.331945018866
 30
0
 11
401.7430122362472
 21
336.5503162647003
 31
0
  0
LINE
  8
1
 62
2
 10
401.8430122362473
 20
335.431945018866
 30
0
 11
401.8430122362473
 21
336.4733251142578
 31
0
  0
LINE
  8
1
 62
2
 10
401.9430122362473
 20
335.5319450188659
 30
0
 11
401.9430122362473
 21
336.3963339638153
 31
0
  0
LINE
  8
1
 62
2
 10
402.0430122362473
 20
335.6319450188659
 30
0
 11
402.0430122362473
 21
336.3193428133728
 31
0
  0
LINE
  8
1
 62
2
 10
402.1430122362473
 20
335.7319450188659
 30
0
 11
402.1430122362473
 21
336.2423516629303
 31
0
  0
LINE
  8
1
 62
2
 10
402.2430122362474
 20
335.8319450188658
 30
0
 11
402.2430122362474
 21
336.1653605124878
 31
0
  0
LINE
  8
1
 62
2
 10
402.3430122362474
 20
335.9319450188658
 30
0
 11
402.3430122362474
 21
336.0883693620453
 31
0
  0
ENDBLK
  8
0
  0
BLOCK
  8
1
  2
*D0
 70
1
 10
0
 20
0
 30
0
  0
LINE
  8
1
 62
2
 10
536.776732768582
 20
353.6905602409238
 30
0
 11
536.776732768582
 21
340.622083215587
 31
0
  0
LINE
  8
1
 62
2
 10
536.776732768582
 20
353.6905602409238
 30
0
 11
536.776732768582
 21
355.1905602409238
 31
0
  0
LINE
  8
1
 62
2
 10
536.776732768582
 20
364.7905602409238
 30
0
 11
536.776732768582
 21
355.1905602409238
 31
0
  0
LINE
  8
1
 62
2
 10
523.4976988796493
 20
355.1905602409238
 30
0
 11
537.776732768582
 21
355.1905602409238
 31
0
  0
LINE
  8
1
 62
2
 10
508.4976988796494
 20
353.6905602409238
 30
0
 11
537.776732768582
 21
353.6905602409238
 31
0
  0
SOLID
  8
1
 62
2
 10
536.776732768582
 20
353.6905602409238
 30
0
 11
537.400732768582
 21
348.8905602409238
 31
0
 12
536.1527327685819
 22
348.8905602409238
 32
0
 13
536.1527327685819
 23
348.8905602409238
 33
0
  0
SOLID
  8
1
 62
2
 10
536.776732768582
 20
355.1905602409238
 30
0
 11
536.1527327685819
 21
359.9905602409238
 31
0
 12
537.400732768582
 22
359.9905602409238
 32
0
 13
537.400732768582
 23
359.9905602409238
 33
0
  0
TEXT
  8
1
 62
2
 10
534.2969504216251
 20
342.697283215587
 30
0
 40
3.2
  1
1.5
 50
90
 41
0.8910000000000001
  0
TEXT
  8
1
 62
2
 10
534.2969504216251
 20
340.622083215587
 30
0
 40
3.2
  1
(
 50
90
 41
0.8910000000000001
  0
TEXT
  8
1
 62
2
 10
534.2969504216251
 20
349.286883215587
 30
0
 40
3.2
  1
)
 50
90
 41
0.8910000000000001
  0
ENDBLK
  8
0
  0
BLOCK
  8
1
  2
*D1
 70
1
 10
0
 20
0
 30
0
  0
LINE
  8
1
 62
2
 10
502.4976988796494
 20
326.048364657826
 30
0
 11
522.4976988796493
 21
326.048364657826
 31
0
  0
LINE
  8
1
 62
2
 10
522.4976988796493
 20
354.1905602409238
 30
0
 11
522.4976988796493
 21
325.048364657826
 31
0
  0
LINE
  8
1
 62
2
 10
502.4976988796494
 20
351.7482458076438
 30
0
 11
502.4976988796494
 21
325.048364657826
 31
0
  0
SOLID
  8
1
 62
2
 10
522.4976988796493
 20
326.048364657826
 30
0
 11
517.6976988796494
 21
325.424364657826
 31
0
 12
517.6976988796494
 22
326.6723646578261
 32
0
 13
517.6976988796494
 23
326.6723646578261
 33
0
  0
SOLID
  8
1
 62
2
 10
502.4976988796494
 20
326.048364657826
 30
0
 11
507.2976988796494
 21
326.6723646578261
 31
0
 12
507.2976988796494
 22
325.424364657826
 32
0
 13
507.2976988796494
 23
325.424364657826
 33
0
  0
TEXT
  8
1
 62
2
 10
510.1736078826141
 20
327.472883757708
 30
0
 40
3.2
  1
20
 41
0.8910000000000001
  0
TEXT
  8
1
 62
2
 10
508.098407882614
 20
327.472883757708
 30
0
 40
3.2
  1
(
 41
0.8910000000000001
  0
TEXT
  8
1
 62
2
 10
516.5256078826141
 20
327.472883757708
 30
0
 40
3.2
  1
)
 41
0.8910000000000001
  0
ENDBLK
  8
0
  0
BLOCK
  8
1
  2
*D2
 70
1
 10
0
 20
0
 30
0
  0
LINE
  8
1
 62
2
 10
497.4976988796494
 20
340.897076468734
 30
0
 11
484.112612136257
 21
340.897076468734
 31
0
  0
LINE
  8
1
 62
2
 10
497.4976988796494
 20
340.897076468734
 30
0
 11
507.4976988796494
 21
340.897076468734
 31
0
  0
LINE
  8
1
 62
2
 10
517.0976988796494
 20
340.897076468734
 30
0
 11
507.4976988796494
 21
340.897076468734
 31
0
  0
LINE
  8
1
 62
2
 10
507.4976988796494
 20
352.6905602409238
 30
0
 11
507.4976988796494
 21
339.897076468734
 31
0
  0
LINE
  8
1
 62
2
 10
497.4976988796494
 20
352.6905602409238
 30
0
 11
497.4976988796494
 21
339.897076468734
 31
0
  0
SOLID
  8
1
 62
2
 10
497.4976988796494
 20
340.897076468734
 30
0
 11
492.6976988796494
 21
340.273076468734
 31
0
 12
492.6976988796494
 22
341.521076468734
 32
0
 13
492.6976988796494
 23
341.521076468734
 33
0
  0
SOLID
  8
1
 62
2
 10
507.4976988796494
 20
340.897076468734
 30
0
 11
512.2976988796494
 21
341.521076468734
 31
0
 12
512.2976988796494
 22
340.273076468734
 32
0
 13
512.2976988796494
 23
340.273076468734
 33
0
  0
TEXT
  8
1
 62
2
 10
486.187812136257
 20
342.827894377185
 30
0
 40
3.2
  1
10
 41
0.8910000000000001
  0
TEXT
  8
1
 62
2
 10
484.112612136257
 20
342.827894377185
 30
0
 40
3.2
  1
(
 41
0.8910000000000001
  0
TEXT
  8
1
 62
2
 10
491.589412136257
 20
342.827894377185
 30
0
 40
3.2
  1
)
 41
0.8910000000000001
  0
ENDBLK
  8
0
  0
BLOCK
  8
1
  2
*D3
 70
1
 10
0
 20
0
 30
0
  0
LINE
  8
1
 62
2
 10
379.905400632251
 20
355.1905602409238
 30
0
 11
379.905400632251
 21
450.190560240922
 31
0
  0
LINE
  8
1
 62
2
 10
467.1694466355582
 20
450.190560240922
 30
0
 11
378.905400632251
 21
450.190560240922
 31
0
  0
LINE
  8
1
 62
2
 10
471.4338404757388
 20
355.1905602409238
 30
0
 11
378.905400632251
 21
355.1905602409238
 31
0
  0
SOLID
  8
1
 62
2
 10
379.905400632251
 20
355.1905602409238
 30
0
 11
379.281400632251
 21
359.9905602409238
 31
0
 12
380.529400632251
 22
359.9905602409238
 32
0
 13
380.529400632251
 23
359.9905602409238
 33
0
  0
SOLID
  8
1
 62
2
 10
379.905400632251
 20
450.190560240922
 30
0
 11
380.529400632251
 21
445.390560240922
 31
0
 12
379.281400632251
 22
445.390560240922
 32
0
 13
379.281400632251
 23
445.390560240922
 33
0
  0
TEXT
  8
1
 62
2
 10
378.683604377767
 20
399.473231213964
 30
0
 40
3.2
  1
95
 50
90
 41
0.8910000000000001
  0
ENDBLK
  8
0
  0
BLOCK
  8
1
  2
*D4
 70
1
 10
0
 20
0
 30
0
  0
LINE
  8
1
 62
2
 10
546.114816973827
 20
408.5905602409239
 30
0
 11
546.114816973827
 21
446.1905602409238
 31
0
  0
LINE
  8
1
 62
2
 10
502.4226988796492
 20
446.1905602409238
 30
0
 11
547.114816973827
 21
446.1905602409238
 31
0
  0
LINE
  8
1
 62
2
 10
528.1864071239272
 20
408.5905602409239
 30
0
 11
547.114816973827
 21
408.5905602409239
 31
0
  0
SOLID
  8
1
 62
2
 10
546.114816973827
 20
408.5905602409239
 30
0
 11
545.490816973827
 21
413.3905602409239
 31
0
 12
546.7388169738271
 22
413.3905602409239
 32
0
 13
546.7388169738271
 23
413.3905602409239
 33
0
  0
SOLID
  8
1
 62
2
 10
546.114816973827
 20
446.1905602409238
 30
0
 11
546.7388169738271
 21
441.3905602409238
 31
0
 12
545.490816973827
 22
441.3905602409238
 32
0
 13
545.490816973827
 23
441.3905602409238
 33
0
  0
TEXT
  8
1
 62
2
 10
544.476021599158
 20
417.568997475273
 30
0
 40
3.2
  1
37.6
 50
90
 41
0.8910000000000001
  0
TEXT
  8
1
 62
2
 10
543.836021599158
 20
427.960197475273
 30
0
 40
1.92
  1
%%p0.3
 50
90
 41
0.9
  0
ENDBLK
  8
0
  0
BLOCK
  8
1
  2
*D5
 70
1
 10
0
 20
0
 30
0
  0
LINE
  8
1
 62
2
 10
472.9976988796498
 20
482.519156185149
 30
0
 11
498.4976988796493
 21
482.519156185149
 31
0
  0
LINE
  8
1
 62
2
 10
498.4976988796493
 20
450.115560240924
 30
0
 11
498.4976988796493
 21
483.519156185149
 31
0
  0
LINE
  8
1
 62
2
 10
472.9976988796498
 20
459.462937855968
 30
0
 11
472.9976988796498
 21
483.519156185149
 31
0
  0
SOLID
  8
1
 62
2
 10
472.9976988796498
 20
482.519156185149
 30
0
 11
477.7976988796498
 21
483.143156185149
 31
0
 12
477.7976988796498
 22
481.895156185149
 32
0
 13
477.7976988796498
 23
481.895156185149
 33
0
  0
SOLID
  8
1
 62
2
 10
498.4976988796493
 20
482.519156185149
 30
0
 11
493.6976988796493
 21
481.895156185149
 31
0
 12
493.6976988796493
 22
483.143156185149
 32
0
 13
493.6976988796493
 23
483.143156185149
 33
0
  0
TEXT
  8
1
 62
2
 10
476.91010485511
 20
483.554311906655
 30
0
 40
3.2
  1
25.5
 41
0.8910000000000001
  0
TEXT
  8
1
 62
2
 10
487.30130485511
 20
484.194311906655
 30
0
 40
1.92
  1
%%p0.3
 41
0.9
  0
ENDBLK
  8
0
  0
BLOCK
  8
1
  2
*D6
 70
1
 10
0
 20
0
 30
0
  0
LINE
  8
1
 62
2
 10
440.9976988796493
 20
324.966869949384
 30
0
 11
472.9976988796498
 21
324.966869949384
 31
0
  0
LINE
  8
1
 62
2
 10
472.9976988796498
 20
344.8391648321117
 30
0
 11
472.9976988796498
 21
323.966869949384
 31
0
  0
LINE
  8
1
 62
2
 10
440.9976988796493
 20
358.2655602409259
 30
0
 11
440.9976988796493
 21
323.966869949384
 31
0
  0
SOLID
  8
1
 62
2
 10
472.9976988796498
 20
324.966869949384
 30
0
 11
468.1976988796498
 21
324.342869949384
 31
0
 12
468.1976988796498
 22
325.590869949384
 32
0
 13
468.1976988796498
 23
325.590869949384
 33
0
  0
SOLID
  8
1
 62
2
 10
440.9976988796493
 20
324.966869949384
 30
0
 11
445.7976988796493
 21
325.590869949384
 31
0
 12
445.7976988796493
 22
324.342869949384
 32
0
 13
445.7976988796493
 23
324.342869949384
 33
0
  0
TEXT
  8
1
 62
2
 10
449.839014198183
 20
326.061441511097
 30
0
 40
3.2
  1
32
 41
0.8910000000000001
  0
TEXT
  8
1
 62
2
 10
456.191014198183
 20
326.701441511097
 30
0
 40
1.92
  1
%%p0.3
 41
0.9
  0
ENDBLK
  8
0
  0
BLOCK
  8
1
  2
*D7
 70
1
 10
0
 20
0
 30
0
  0
LINE
  8
1
 62
2
 10
390.072669978994
 20
362.1905602409261
 30
0
 11
390.072669978994
 21
408.5905602409239
 31
0
  0
LINE
  8
1
 62
2
 10
417.8304823409778
 20
408.5905602409239
 30
0
 11
389.072669978994
 21
408.5905602409239
 31
0
  0
LINE
  8
1
 62
2
 10
437.072698879649
 20
362.1905602409261
 30
0
 11
389.072669978994
 21
362.1905602409261
 31
0
  0
SOLID
  8
1
 62
2
 10
390.072669978994
 20
408.5905602409239
 30
0
 11
390.696669978994
 21
403.7905602409239
 31
0
 12
389.448669978994
 22
403.7905602409239
 32
0
 13
389.448669978994
 23
403.7905602409239
 33
0
  0
SOLID
  8
1
 62
2
 10
390.072669978994
 20
362.1905602409261
 30
0
 11
389.448669978994
 21
366.9905602409261
 31
0
 12
390.696669978994
 22
366.9905602409261
 32
0
 13
390.696669978994
 23
366.9905602409261
 33
0
  0
TEXT
  8
1
 62
2
 10
388.717052915845
 20
378.593952235164
 30
0
 40
3.2
  1
46.4
 50
90
 41
0.8910000000000001
  0
TEXT
  8
1
 62
2
 10
388.077052915845
 20
388.985152235164
 30
0
 40
1.92
  1
%%p0.3
 50
90
 41
0.9
  0
ENDBLK
  8
0
  0
BLOCK
  8
1
  2
*D8
 70
1
 10
0
 20
0
 30
0
  0
LINE
  8
1
 62
2
 10
400.598502899878
 20
368.1905602409238
 30
0
 11
400.598502899878
 21
408.5905602409239
 31
0
  0
LINE
  8
1
 62
2
 10
417.8304823409778
 20
408.5905602409239
 30
0
 11
399.598502899878
 21
408.5905602409239
 31
0
  0
LINE
  8
1
 62
2
 10
429.4523556983568
 20
368.1905602409238
 30
0
 11
399.598502899878
 21
368.1905602409238
 31
0
  0
SOLID
  8
1
 62
2
 10
400.598502899878
 20
368.1905602409238
 30
0
 11
399.974502899878
 21
372.9905602409238
 31
0
 12
401.222502899878
 22
372.9905602409238
 32
0
 13
401.222502899878
 23
372.9905602409238
 33
0
  0
SOLID
  8
1
 62
2
 10
400.598502899878
 20
408.5905602409239
 30
0
 11
401.222502899878
 21
403.7905602409239
 31
0
 12
399.974502899878
 22
403.7905602409239
 32
0
 13
399.974502899878
 23
403.7905602409239
 33
0
  0
TEXT
  8
1
 62
2
 10
399.4671763495001
 20
379.131458406847
 30
0
 40
3.2
  1
40.4
 50
90
 41
0.8910000000000001
  0
TEXT
  8
1
 62
2
 10
398.8271763495
 20
389.522658406847
 30
0
 40
1.92
  1
%%p0.3
 50
90
 41
0.9
  0
ENDBLK
  8
0
  0
BLOCK
  8
1
  2
*D9
 70
1
 10
0
 20
0
 30
0
  0
LINE
  8
1
 62
2
 10
472.9976988796498
 20
490.903742571759
 30
0
 11
504.4976988796498
 21
490.903742571759
 31
0
  0
LINE
  8
1
 62
2
 10
504.4976988796498
 20
444.0077222282598
 30
0
 11
504.4976988796498
 21
491.903742571759
 31
0
  0
LINE
  8
1
 62
2
 10
472.9976988796498
 20
459.462937855968
 30
0
 11
472.9976988796498
 21
491.903742571759
 31
0
  0
SOLID
  8
1
 62
2
 10
504.4976988796498
 20
490.903742571759
 30
0
 11
499.6976988796498
 21
490.279742571759
 31
0
 12
499.6976988796498
 22
491.527742571759
 32
0
 13
499.6976988796498
 23
491.527742571759
 33
0
  0
SOLID
  8
1
 62
2
 10
472.9976988796498
 20
490.903742571759
 30
0
 11
477.7976988796498
 21
491.527742571759
 31
0
 12
477.7976988796498
 22
490.279742571759
 32
0
 13
477.7976988796498
 23
490.279742571759
 33
0
  0
TEXT
  8
1
 62
2
 10
481.697377853937
 20
492.657577126403
 30
0
 40
3.2
  1
31.5
 41
0.8910000000000001
  0
TEXT
  8
1
 62
2
 10
491.138177853937
 20
493.297577126403
 30
0
 40
1.92
  1
%%p0.3
 41
0.9
  0
ENDBLK
  8
0
  0
BLOCK
  8
1
  2
*D10
 70
1
 10
0
 20
0
 30
0
  0
LINE
  8
1
 62
2
 10
536.5909002470841
 20
408.5905602409239
 30
0
 11
536.5909002470841
 21
439.1905602409238
 31
0
  0
LINE
  8
1
 62
2
 10
508.9368424023106
 20
439.1905602409238
 30
0
 11
537.5909002470841
 21
439.1905602409238
 31
0
  0
LINE
  8
1
 62
2
 10
528.1864071239272
 20
408.5905602409239
 30
0
 11
537.5909002470841
 21
408.5905602409239
 31
0
  0
SOLID
  8
1
 62
2
 10
536.5909002470841
 20
439.1905602409238
 30
0
 11
537.2149002470841
 21
434.3905602409238
 31
0
 12
535.966900247084
 22
434.3905602409238
 32
0
 13
535.966900247084
 23
434.3905602409238
 33
0
  0
SOLID
  8
1
 62
2
 10
536.5909002470841
 20
408.5905602409239
 30
0
 11
535.966900247084
 21
413.3905602409239
 31
0
 12
537.2149002470841
 22
413.3905602409239
 32
0
 13
537.2149002470841
 23
413.3905602409239
 33
0
  0
TEXT
  8
1
 62
2
 10
535.453663055436
 20
415.024229680889
 30
0
 40
3.2
  1
30.6
 50
90
 41
0.8910000000000001
  0
TEXT
  8
1
 62
2
 10
534.813663055436
 20
425.415429680889
 30
0
 40
1.92
  1
%%p0.3
 50
90
 41
0.9
  0
ENDBLK
  8
0
  0
BLOCK
  8
1
  2
*D11
 70
1
 10
0
 20
0
 30
0
  0
LINE
  8
1
 62
2
 10
536.776732768582
 20
355.1905602409238
 30
0
 11
536.776732768582
 21
408.5905602409239
 31
0
  0
LINE
  8
1
 62
2
 10
528.1864071239272
 20
408.5905602409239
 30
0
 11
537.776732768582
 21
408.5905602409239
 31
0
  0
LINE
  8
1
 62
2
 10
523.4976988796493
 20
355.1905602409238
 30
0
 11
537.776732768582
 21
355.1905602409238
 31
0
  0
SOLID
  8
1
 62
2
 10
536.776732768582
 20
355.1905602409238
 30
0
 11
536.1527327685819
 21
359.9905602409238
 31
0
 12
537.400732768582
 22
359.9905602409238
 32
0
 13
537.400732768582
 23
359.9905602409238
 33
0
  0
SOLID
  8
1
 62
2
 10
536.776732768582
 20
408.5905602409239
 30
0
 11
537.400732768582
 21
403.7905602409239
 31
0
 12
536.1527327685819
 22
403.7905602409239
 32
0
 13
536.1527327685819
 23
403.7905602409239
 33
0
  0
TEXT
  8
1
 62
2
 10
535.222320528674
 20
376.654574863712
 30
0
 40
3.2
  1
53.4
 50
90
 41
0.8910000000000001
  0
ENDBLK
  8
0
  0
BLOCK
  8
1
  2
*D12
 70
1
 10
0
 20
0
 30
0
  0
LINE
  8
1
 62
2
 10
472.9976988796498
 20
315.160095898253
 30
0
 11
522.4976988796493
 21
315.160095898253
 31
0
  0
LINE
  8
1
 62
2
 10
522.4976988796493
 20
354.1905602409238
 30
0
 11
522.4976988796493
 21
314.160095898253
 31
0
  0
LINE
  8
1
 62
2
 10
472.9976988796498
 20
344.8391648321117
 30
0
 11
472.9976988796498
 21
314.160095898253
 31
0
  0
SOLID
  8
1
 62
2
 10
522.4976988796493
 20
315.160095898253
 30
0
 11
517.6976988796494
 21
314.536095898253
 31
0
 12
517.6976988796494
 22
315.784095898253
 32
0
 13
517.6976988796494
 23
315.784095898253
 33
0
  0
SOLID
  8
1
 62
2
 10
472.9976988796498
 20
315.160095898253
 30
0
 11
477.7976988796498
 21
315.784095898253
 31
0
 12
477.7976988796498
 22
314.536095898253
 32
0
 13
477.7976988796498
 23
314.536095898253
 33
0
  0
TEXT
  8
1
 62
2
 10
492.224873956571
 20
316.382980391476
 30
0
 40
3.2
  1
49.5
 41
0.8910000000000001
  0
ENDBLK
  8
0
  0
BLOCK
  8
1
  2
*D13
 70
1
 10
0
 20
0
 30
0
  0
LINE
  8
1
 62
2
 10
433.4976988796498
 20
315.160095898253
 30
0
 11
472.9976988796498
 21
315.160095898253
 31
0
  0
LINE
  8
1
 62
2
 10
472.9976988796498
 20
344.8391648321117
 30
0
 11
472.9976988796498
 21
314.160095898253
 31
0
  0
LINE
  8
1
 62
2
 10
433.4976988796498
 20
364.2560263339938
 30
0
 11
433.4976988796498
 21
314.160095898253
 31
0
  0
SOLID
  8
1
 62
2
 10
433.4976988796498
 20
315.160095898253
 30
0
 11
438.2976988796498
 21
315.784095898253
 31
0
 12
438.2976988796498
 22
314.536095898253
 32
0
 13
438.2976988796498
 23
314.536095898253
 33
0
  0
SOLID
  8
1
 62
2
 10
472.9976988796498
 20
315.160095898253
 30
0
 11
468.1976988796498
 21
314.536095898253
 31
0
 12
468.1976988796498
 22
315.784095898253
 32
0
 13
468.1976988796498
 23
315.784095898253
 33
0
  0
TEXT
  8
1
 62
2
 10
443.988356671666
 20
316.584614998134
 30
0
 40
3.2
  1
39.5
 41
0.8910000000000001
  0
TEXT
  8
1
 62
2
 10
454.379556671666
 20
317.224614998134
 30
0
 40
1.92
  1
%%p0.3
 41
0.9
  0
ENDBLK
  8
0
  0
BLOCK
  8
1
  2
*D14
 70
1
 10
0
 20
0
 30
0
  0
LINE
  8
1
 62
2
 10
580.765432417359
 20
413.1905602409197
 30
0
 11
580.765432417359
 21
422.7905602409197
 31
0
  0
LINE
  8
1
 62
2
 10
580.765432417359
 20
408.1905602409197
 30
0
 11
580.765432417359
 21
413.1905602409197
 31
0
  0
LINE
  8
1
 62
2
 10
580.765432417359
 20
398.5905602409197
 30
0
 11
580.765432417359
 21
408.1905602409197
 31
0
  0
LINE
  8
1
 62
2
 10
606.3321614913292
 20
413.1905602409197
 30
0
 11
579.765432417359
 21
413.1905602409197
 31
0
  0
LINE
  8
1
 62
2
 10
606.8321614913292
 20
408.1905602409197
 30
0
 11
579.765432417359
 21
408.1905602409197
 31
0
  0
SOLID
  8
1
 62
2
 10
580.765432417359
 20
408.1905602409197
 30
0
 11
581.389432417359
 21
403.3905602409197
 31
0
 12
580.1414324173589
 22
403.3905602409197
 32
0
 13
580.1414324173589
 23
403.3905602409197
 33
0
  0
SOLID
  8
1
 62
2
 10
580.765432417359
 20
413.1905602409197
 30
0
 11
580.1414324173589
 21
417.9905602409197
 31
0
 12
581.389432417359
 22
417.9905602409197
 32
0
 13
581.389432417359
 23
417.9905602409197
 33
0
  0
TEXT
  8
1
 62
2
 10
579.675285439492
 20
418.205243955505
 30
0
 40
3.2
  1
5
 50
90
 41
0.8910000000000001
  0
ENDBLK
  8
0
  0
BLOCK
  8
1
  2
*D15
 70
1
 10
0
 20
0
 30
0
  0
LINE
  8
1
 62
2
 10
580.765432417359
 20
355.1905602409197
 30
0
 11
580.765432417359
 21
345.5905602409197
 31
0
  0
LINE
  8
1
 62
2
 10
580.765432417359
 20
355.1905602409197
 30
0
 11
580.765432417359
 21
357.1905602409197
 31
0
  0
LINE
  8
1
 62
2
 10
580.765432417359
 20
366.7905602409197
 30
0
 11
580.765432417359
 21
357.1905602409197
 31
0
  0
LINE
  8
1
 62
2
 10
607.3321614913292
 20
357.1905602409197
 30
0
 11
579.765432417359
 21
357.1905602409197
 31
0
  0
LINE
  8
1
 62
2
 10
606.3321614913292
 20
355.1905602409197
 30
0
 11
579.765432417359
 21
355.1905602409197
 31
0
  0
SOLID
  8
1
 62
2
 10
580.765432417359
 20
357.1905602409197
 30
0
 11
580.1414324173589
 21
361.9905602409197
 31
0
 12
581.389432417359
 22
361.9905602409197
 32
0
 13
581.389432417359
 23
361.9905602409197
 33
0
  0
SOLID
  8
1
 62
2
 10
580.765432417359
 20
355.1905602409197
 30
0
 11
581.389432417359
 21
350.3905602409197
 31
0
 12
580.1414324173589
 22
350.3905602409197
 32
0
 13
580.1414324173589
 23
350.3905602409197
 33
0
  0
TEXT
  8
1
 62
2
 10
579.3390170672579
 20
346.916349042017
 30
0
 40
3.2
  1
2
 50
90
 41
0.8910000000000001
  0
ENDBLK
  8
0
  0
BLOCK
  8
1
  2
*D16
 70
1
 10
0
 20
0
 30
0
  0
LINE
  8
1
 62
2
 10
572.6949914837569
 20
355.1905602409197
 30
0
 11
572.6949914837569
 21
413.1905602409197
 31
0
  0
LINE
  8
1
 62
2
 10
606.3321614913292
 20
413.1905602409197
 30
0
 11
571.6949914837569
 21
413.1905602409197
 31
0
  0
LINE
  8
1
 62
2
 10
606.3321614913292
 20
355.1905602409197
 30
0
 11
571.6949914837569
 21
355.1905602409197
 31
0
  0
SOLID
  8
1
 62
2
 10
572.6949914837569
 20
413.1905602409197
 30
0
 11
573.3189914837569
 21
408.3905602409197
 31
0
 12
572.0709914837569
 22
408.3905602409197
 32
0
 13
572.0709914837569
 23
408.3905602409197
 33
0
  0
SOLID
  8
1
 62
2
 10
572.6949914837569
 20
355.1905602409197
 30
0
 11
572.0709914837569
 21
359.9905602409197
 31
0
 12
573.3189914837569
 22
359.9905602409197
 32
0
 13
573.3189914837569
 23
359.9905602409197
 33
0
  0
TEXT
  8
1
 62
2
 10
570.596039389189
 20
381.471464870994
 30
0
 40
3.2
  1
58
 50
90
 41
0.8910000000000001
  0
ENDBLK
  8
0
  0
BLOCK
  8
1
  2
*D17
 70
1
 10
0
 20
0
 30
0
  0
LINE
  8
1
 62
2
 10
630.8321614913292
 20
343.158991830749
 30
0
 11
640.4321614913292
 21
343.158991830749
 31
0
  0
LINE
  8
1
 62
2
 10
628.8321614913301
 20
343.158991830749
 30
0
 11
630.8321614913292
 21
343.158991830749
 31
0
  0
LINE
  8
1
 62
2
 10
619.2321614913301
 20
343.158991830749
 30
0
 11
628.8321614913301
 21
343.158991830749
 31
0
  0
LINE
  8
1
 62
2
 10
630.8321614913292
 20
355.6905602409179
 30
0
 11
630.8321614913292
 21
342.158991830749
 31
0
  0
LINE
  8
1
 62
2
 10
628.8321614913301
 20
356.6905602409179
 30
0
 11
628.8321614913301
 21
342.158991830749
 31
0
  0
SOLID
  8
1
 62
2
 10
630.8321614913292
 20
343.158991830749
 30
0
 11
635.6321614913292
 21
343.782991830749
 31
0
 12
635.6321614913292
 22
342.534991830749
 32
0
 13
635.6321614913292
 23
342.534991830749
 33
0
  0
SOLID
  8
1
 62
2
 10
628.8321614913301
 20
343.158991830749
 30
0
 11
624.0321614913302
 21
342.534991830749
 31
0
 12
624.0321614913302
 22
343.782991830749
 32
0
 13
624.0321614913302
 23
343.782991830749
 33
0
  0
TEXT
  8
1
 62
2
 10
638.325729185976
 20
345.257943925317
 30
0
 40
3.2
  1
2
 41
0.8910000000000001
  0
ENDBLK
  8
0
  0
BLOCK
  8
1
  2
*D18
 70
1
 10
0
 20
0
 30
0
  0
LINE
  8
1
 62
2
 10
605.832161491329
 20
342.822723458516
 30
0
 11
596.232161491329
 21
342.822723458516
 31
0
  0
LINE
  8
1
 62
2
 10
605.832161491329
 20
342.822723458516
 30
0
 11
607.8321614913292
 21
342.822723458516
 31
0
  0
LINE
  8
1
 62
2
 10
617.4321614913292
 20
342.822723458516
 30
0
 11
607.8321614913292
 21
342.822723458516
 31
0
  0
LINE
  8
1
 62
2
 10
607.8321614913292
 20
356.6905602409197
 30
0
 11
607.8321614913292
 21
341.822723458516
 31
0
  0
LINE
  8
1
 62
2
 10
605.832161491329
 20
355.6905602409197
 30
0
 11
605.832161491329
 21
341.822723458516
 31
0
  0
SOLID
  8
1
 62
2
 10
607.8321614913292
 20
342.822723458516
 30
0
 11
612.6321614913292
 21
343.446723458516
 31
0
 12
612.6321614913292
 22
342.198723458516
 32
0
 13
612.6321614913292
 23
342.198723458516
 33
0
  0
SOLID
  8
1
 62
2
 10
605.832161491329
 20
342.822723458516
 30
0
 11
601.032161491329
 21
342.198723458516
 31
0
 12
601.032161491329
 22
343.446723458516
 32
0
 13
601.032161491329
 23
343.446723458516
 33
0
  0
TEXT
  8
1
 62
2
 10
596.964719401264
 20
344.921675553084
 30
0
 40
3.2
  1
2
 41
0.8910000000000001
  0
ENDBLK
  8
0
  0
BLOCK
  8
1
  2
*D19
 70
1
 10
0
 20
0
 30
0
  0
LINE
  8
1
 62
2
 10
605.832161491329
 20
332.062135547046
 30
0
 11
630.8321614913292
 21
332.062135547046
 31
0
  0
LINE
  8
1
 62
2
 10
630.8321614913292
 20
355.6905602409179
 30
0
 11
630.8321614913292
 21
331.062135547046
 31
0
  0
LINE
  8
1
 62
2
 10
605.832161491329
 20
355.6905602409197
 30
0
 11
605.832161491329
 21
331.062135547046
 31
0
  0
SOLID
  8
1
 62
2
 10
605.832161491329
 20
332.062135547046
 30
0
 11
610.6321614913289
 21
332.686135547046
 31
0
 12
610.6321614913289
 22
331.438135547046
 32
0
 13
610.6321614913289
 23
331.438135547046
 33
0
  0
SOLID
  8
1
 62
2
 10
630.8321614913292
 20
332.062135547046
 30
0
 11
626.0321614913293
 21
331.438135547046
 31
0
 12
626.0321614913293
 22
332.686135547046
 32
0
 13
626.0321614913293
 23
332.686135547046
 33
0
  0
TEXT
  8
1
 62
2
 10
614.70641661857
 20
333.152282524914
 30
0
 40
3.2
  1
25
 41
0.8910000000000001
  0
ENDBLK
  8
0
  0
BLOCK
  8
1
  2
*D20
 70
1
 10
0
 20
0
 30
0
  0
LINE
  8
1
 62
2
 10
630.8321614913313
 20
460.516653740216
 30
0
 11
640.4321614913313
 21
460.516653740216
 31
0
  0
LINE
  8
1
 62
2
 10
625.8321614913301
 20
460.516653740216
 30
0
 11
630.8321614913313
 21
460.516653740216
 31
0
  0
LINE
  8
1
 62
2
 10
616.2321614913301
 20
460.516653740216
 30
0
 11
625.8321614913301
 21
460.516653740216
 31
0
  0
LINE
  8
1
 62
2
 10
630.8321614913313
 20
450.6905602409197
 30
0
 11
630.8321614913313
 21
461.516653740216
 31
0
  0
LINE
  8
1
 62
2
 10
625.8321614913301
 20
451.1905602409179
 30
0
 11
625.8321614913301
 21
461.516653740216
 31
0
  0
SOLID
  8
1
 62
2
 10
630.8321614913313
 20
460.516653740216
 30
0
 11
635.6321614913312
 21
461.140653740216
 31
0
 12
635.6321614913312
 22
459.892653740216
 32
0
 13
635.6321614913312
 23
459.892653740216
 33
0
  0
SOLID
  8
1
 62
2
 10
625.8321614913301
 20
460.516653740216
 30
0
 11
621.0321614913302
 21
459.892653740216
 31
0
 12
621.0321614913302
 22
461.140653740216
 32
0
 13
621.0321614913302
 23
461.140653740216
 33
0
  0
TEXT
  8
1
 62
2
 10
637.316924069276
 20
462.615605834784
 30
0
 40
3.2
  1
5
 41
0.8910000000000001
  0
ENDBLK
  8
0
  0
BLOCK
  8
1
  2
*D21
 70
1
 10
0
 20
0
 30
0
  0
LINE
  8
1
 62
2
 10
600.5521614913291
 20
468.587094673819
 30
0
 11
630.8321614913313
 21
468.587094673819
 31
0
  0
LINE
  8
1
 62
2
 10
630.8321614913313
 20
450.6905602409197
 30
0
 11
630.8321614913313
 21
469.587094673819
 31
0
  0
LINE
  8
1
 62
2
 10
600.5521614913291
 20
419.7905602409178
 30
0
 11
600.5521614913291
 21
469.587094673819
 31
0
  0
SOLID
  8
1
 62
2
 10
630.8321614913313
 20
468.587094673819
 30
0
 11
626.0321614913313
 21
467.963094673819
 31
0
 12
626.0321614913313
 22
469.2110946738191
 32
0
 13
626.0321614913313
 23
469.2110946738191
 33
0
  0
SOLID
  8
1
 62
2
 10
600.5521614913291
 20
468.587094673819
 30
0
 11
605.3521614913291
 21
469.2110946738191
 31
0
 12
605.3521614913291
 22
467.963094673819
 32
0
 13
605.3521614913291
 23
467.963094673819
 33
0
  0
TEXT
  8
1
 62
2
 10
611.005474757402
 20
470.686046768386
 30
0
 40
3.2
  1
30.3
 41
0.8910000000000001
  0
ENDBLK
  8
0
  0
BLOCK
  8
1
  2
*D22
 70
1
 10
0
 20
0
 30
0
  0
LINE
  8
1
 62
2
 10
425.3976988796493
 20
499.767448180461
 30
0
 11
522.4976988796493
 21
499.767448180461
 31
0
  0
LINE
  8
1
 62
2
 10
522.4976988796493
 20
414.1905602409238
 30
0
 11
522.4976988796493
 21
500.767448180461
 31
0
  0
LINE
  8
1
 62
2
 10
425.3976988796493
 20
410.693614776962
 30
0
 11
425.3976988796493
 21
500.767448180461
 31
0
  0
SOLID
  8
1
 62
2
 10
522.4976988796493
 20
499.767448180461
 30
0
 11
517.6976988796494
 21
499.143448180461
 31
0
 12
517.6976988796494
 22
500.391448180461
 32
0
 13
517.6976988796494
 23
500.391448180461
 33
0
  0
SOLID
  8
1
 62
2
 10
425.3976988796493
 20
499.767448180461
 30
0
 11
430.1976988796493
 21
500.391448180461
 31
0
 12
430.1976988796493
 22
499.143448180461
 32
0
 13
430.1976988796493
 23
499.143448180461
 33
0
  0
TEXT
  8
1
 62
2
 10
470.116681969086
 20
500.802603901967
 30
0
 40
3.2
  1
97.1
 41
0.8910000000000001
  0
ENDBLK
  8
0
  0
BLOCK
  8
1
  2
*D23
 70
1
 10
0
 20
0
 30
0
  0
LINE
  8
1
 62
2
 10
472.9976988796536
 20
408.5905602409357
 30
0
 11
485.1729380927003
 21
478.2620247066557
 31
0
  0
SOLID
  8
1
 62
2
 10
481.5640002209944
 20
457.6102755058589
 30
0
 11
481.3523965443157
 21
452.7745129099475
 31
0
 12
480.1230268219583
 22
452.9893479297904
 32
0
 13
480.1230268219583
 23
452.9893479297904
 33
0
  0
TEXT
  8
1
 62
2
 10
481.674160511835
 20
469.8588731883481
 30
0
 40
3.2
  1
49.8
 50
80.08753305548328
 41
0.8910000000000001
  0
TEXT
  8
1
 62
2
 10
481.0131296815491
 20
466.0761971195562
 30
0
 40
3.2
  1
R
 50
80.08753305548328
 41
0.8910000000000001
  0
ENDBLK
  8
0
  0
BLOCK
  8
1
  2
*D24
 70
1
 10
0
 20
0
 30
0
  0
LINE
  8
1
 62
2
 10
472.9976988796498
 20
408.5905602409257
 30
0
 11
451.6608250830557
 21
332.9627814639545
 31
0
  0
SOLID
  8
1
 62
2
 10
456.4339573941856
 20
349.8809766007212
 30
0
 11
457.1367472933736
 21
354.6700748830286
 31
0
 12
458.3378597477027
 22
354.3312048901769
 32
0
 13
458.3378597477027
 23
354.3312048901769
 33
0
  0
TEXT
  8
1
 62
2
 10
450.7786422816872
 20
337.2015729786399
 30
0
 40
3.2
  1
61
 50
74.24464256201128
 41
0.8910000000000001
  0
TEXT
  8
1
 62
2
 10
449.7359653806051
 20
333.5058423499347
 30
0
 40
3.2
  1
R
 50
74.24464256201128
 41
0.8910000000000001
  0
ENDBLK
  8
0
  0
BLOCK
  8
1
  2
*D25
 70
1
 10
0
 20
0
 30
0
  0
LINE
  8
1
 62
2
 10
493.0217185286588
 20
393.6226399747027
 30
0
 11
426.668054654867
 21
443.2218896580115
 31
0
  0
SOLID
  8
1
 62
2
 10
452.9736792306408
 20
423.5584805071487
 30
0
 11
455.7858199389441
 21
421.9757864000316
 31
0
 12
455.2876875524842
 22
421.3093870261125
 32
0
 13
455.2876875524842
 23
421.3093870261125
 33
0
  0
SOLID
  8
1
 62
2
 10
493.0217185286588
 20
393.6226399747027
 30
0
 11
490.2095778203555
 21
395.2053340818198
 31
0
 12
490.7077102068155
 22
395.8717334557389
 32
0
 13
490.7077102068155
 23
395.8717334557389
 33
0
  0
TEXT
  8
1
 62
2
 10
430.941177694253
 20
442.5247386770403
 30
0
 40
3.2
  1
50
 50
323.2219488491248
 41
0.9
  0
TEXT
  8
1
 62
2
 10
427.865488276165
 20
444.8238112299324
 30
0
 40
3.2
  1
%%c
 50
323.2219488491248
 41
0.9
  0
ENDBLK
  8
0
  0
BLOCK
  8
1
  2
*D26
 70
1
 10
0
 20
0
 30
0
  0
LINE
  8
1
 62
2
 10
425.467898454729
 20
378.491053584485
 30
0
 11
407.13743639556
 21
378.491053584485
 31
0
  0
LINE
  8
1
 62
2
 10
432.1143684155882
 20
369.96507336491
 30
0
 11
425.467898454729
 21
378.491053584485
 31
0
  0
SOLID
  8
1
 62
2
 10
432.1143684155882
 20
369.96507336491
 30
0
 11
428.6711317858714
 21
373.3670577140474
 31
0
 12
429.655395065309
 22
374.1343450114469
 32
0
 13
429.655395065309
 23
374.1343450114469
 33
0
  0
TEXT
  8
1
 62
2
 10
416.34063639556
 20
379.82399669002
 30
0
 40
3.2
  1
4.5
 41
0.8910000000000001
  0
TEXT
  8
1
 62
2
 10
407.13743639556
 20
379.82399669002
 30
0
 40
3.2
  1
4-%%c
 41
0.8910000000000001
  0
ENDBLK
  8
0
  0
ENDSEC
  0
SECTION
  2
ENTITIES
  0
INSERT
  8
1
  2
*X0
 10
0
 20
0
 30
0
  0
INSERT
  8
1
  2
*X1
 10
0
 20
0
 30
0
  0
INSERT
  8
1
  2
*X2
 10
0
 20
0
 30
0
  0
INSERT
  8
1
  2
*X3
 10
0
 20
0
 30
0
  0
INSERT
  8
1
  2
*X4
 10
0
 20
0
 30
0
  0
INSERT
  8
1
  2
*X5
 10
0
 20
0
 30
0
  0
INSERT
  8
1
  2
*X6
 10
0
 20
0
 30
0
  0
INSERT
  8
1
  2
*X7
 10
0
 20
0
 30
0
  0
POLYLINE
  8
1
 62
2
 66
1
  0
VERTEX
  8
1
 10
521.6678672344187
 20
432.6689197413791
 30
0
  0
VERTEX
  8
1
 10
521.3109262872915
 20
432.6461821994554
 30
0
 42
-0.04808430597595178
  0
VERTEX
  8
1
 10
520.7349410129914
 20
432.6747064352583
 30
0
 42
-0.07480610478891378
  0
VERTEX
  8
1
 10
520.3227680210172
 20
432.7910194462081
 30
0
 42
-0.1012017082437721
  0
VERTEX
  8
1
 10
520.0503474582328
 20
432.9820688510413
 30
0
 42
-0.09834245524408521
  0
VERTEX
  8
1
 10
519.8936194715025
 20
433.2348022684948
 30
0
 42
-0.06866743633697456
  0
VERTEX
  8
1
 10
519.82852420769
 20
433.5361673173048
 30
0
 42
-0.04011805320057994
  0
VERTEX
  8
1
 10
519.8310018136596
 20
433.8731116162082
 30
0
 42
-0.01986317537247415
  0
VERTEX
  8
1
 10
519.8769924362749
 20
434.232582783941
 30
0
 42
-0.004520296507946437
  0
VERTEX
  8
1
 10
519.9424362224006
 20
434.60152843924
 30
0
 42
0.01004148159842298
  0
VERTEX
  8
1
 10
520.0032733189001
 20
434.966896200842
 30
0
 42
0.02792591472401222
  0
VERTEX
  8
1
 10
520.0354438726379
 20
435.3156336874833
 30
0
 42
0.05356514433934175
  0
VERTEX
  8
1
 10
520.0148880304777
 20
435.6346885179004
 30
0
 42
0.08616863363360026
  0
VERTEX
  8
1
 10
519.9175459392834
 20
435.91100831083
 30
0
 42
0.1024631338072055
  0
VERTEX
  8
1
 10
519.7193577459195
 20
436.1315406850084
 30
0
 42
0.08271295624432698
  0
VERTEX
  8
1
 10
519.3962635972496
 20
436.2832332591723
 30
0
 42
0.05388919734236362
  0
VERTEX
  8
1
 10
518.9242036401379
 20
436.3530336520582
 30
0
 42
0.03395519739781402
  0
VERTEX
  8
1
 10
518.2791180214483
 20
436.3278894824027
 30
0
  0
SEQEND
  8
1
  0
POLYLINE
  8
1
 62
2
 66
1
  0
VERTEX
  8
1
 10
520.3230914726451
 20
432.0049869302361
 30
0
  0
VERTEX
  8
1
 10
519.9661505255178
 20
431.9822493883125
 30
0
 42
-0.04808430597595133
  0
VERTEX
  8
1
 10
519.3901652512177
 20
432.0107736241153
 30
0
 42
-0.07480610478891088
  0
VERTEX
  8
1
 10
518.9779922592435
 20
432.1270866350651
 30
0
 42
-0.1012017082437858
  0
VERTEX
  8
1
 10
518.7055716964591
 20
432.3181360398984
 30
0
 42
-0.09834245524408521
  0
VERTEX
  8
1
 10
518.5488437097288
 20
432.5708694573519
 30
0
 42
-0.06866743633697524
  0
VERTEX
  8
1
 10
518.4837484459163
 20
432.8722345061619
 30
0
 42
-0.04011805320057327
  0
VERTEX
  8
1
 10
518.4862260518859
 20
433.2091788050652
 30
0
 42
-0.01986317537247415
  0
VERTEX
  8
1
 10
518.5322166745012
 20
433.568649972798
 30
0
 42
-0.004520296507947103
  0
VERTEX
  8
1
 10
518.5976604606269
 20
433.9375956280971
 30
0
 42
0.01004148159842298
  0
VERTEX
  8
1
 10
518.6584975571265
 20
434.3029633896991
 30
0
 42
0.02792591472400778
  0
VERTEX
  8
1
 10
518.6906681108642
 20
434.6517008763403
 30
0
 42
0.05356514433935111
  0
VERTEX
  8
1
 10
518.670112268704
 20
434.9707557067575
 30
0
 42
0.08616863363357107
  0
VERTEX
  8
1
 10
518.5727701775097
 20
435.247075499687
 30
0
 42
0.1024631338072108
  0
VERTEX
  8
1
 10
518.3745819841458
 20
435.4676078738654
 30
0
 42
0.08271295624433445
  0
VERTEX
  8
1
 10
518.0514878354759
 20
435.6193004480293
 30
0
 42
0.05388919734236362
  0
VERTEX
  8
1
 10
517.5794278783642
 20
435.6891008409152
 30
0
 42
0.03395519739781391
  0
VERTEX
  8
1
 10
516.9343422596746
 20
435.6639566712597
 30
0
  0
SEQEND
  8
1
  0
POLYLINE
  8
1
 62
2
 66
1
  0
VERTEX
  8
1
 10
619.304019270213
 20
425.4947688224779
 30
0
  0
VERTEX
  8
1
 10
618.9647201224615
 20
425.6637341502159
 30
0
 42
-0.05295270876215333
  0
VERTEX
  8
1
 10
618.4623777463257
 20
425.9961806057343
 30
0
 42
-0.08411372185383365
  0
VERTEX
  8
1
 10
618.1675368848669
 20
426.3220448425498
 30
0
 42
-0.110538069929351
  0
VERTEX
  8
1
 10
618.0471898847078
 20
426.6422029181504
 30
0
 42
-0.0977799242264205
  0
VERTEX
  8
1
 10
618.0683290924729
 20
426.9575308900249
 30
0
 42
-0.06225287525903765
  0
VERTEX
  8
1
 10
618.1979468547855
 20
427.2689048156614
 30
0
 42
-0.03341603490631329
  0
VERTEX
  8
1
 10
618.4030355182691
 20
427.577200752548
 30
0
 42
-0.01339339024125165
  0
VERTEX
  8
1
 10
618.6505874295477
 20
427.8832947581733
 30
0
 42
0.003029806811389103
  0
VERTEX
  8
1
 10
618.9075949352452
 20
428.1880628900257
 30
0
 42
0.02103732292741307
  0
VERTEX
  8
1
 10
619.141050381985
 20
428.4923812055934
 30
0
 42
0.0462383483248336
  0
VERTEX
  8
1
 10
619.3179461163907
 20
428.7971257623648
 30
0
 42
0.08181040265957049
  0
VERTEX
  8
1
 10
619.4052744850859
 20
429.1031726178281
 30
0
 42
0.1084099720991876
  0
VERTEX
  8
1
 10
619.3700278346947
 20
429.4113978294717
 30
0
 42
0.09260246153609325
  0
VERTEX
  8
1
 10
619.1791985118404
 20
429.7226774547839
 30
0
 42
0.05967263420321708
  0
VERTEX
  8
1
 10
618.7997788631468
 20
430.0378875512532
 30
0
 42
0.03649421259978267
  0
VERTEX
  8
1
 10
618.1987612352378
 20
430.3579041763678
 30
0
  0
SEQEND
  8
1
  0
LINE
  8
1
 62
2
 10
596.2852080715194
 20
403.513666920803
 30
0
 11
596.3838578632995
 21
403.612316712583
 31
0
  0
LINE
  8
1
 62
2
 10
595.9506015500151
 20
403.3204817555359
 30
0
 11
596.2942003160833
 21
403.6640805216042
 31
0
  0
LINE
  8
1
 62
2
 10
595.6159950285107
 20
403.1272965902688
 30
0
 11
596.2045427688672
 21
403.7158443306253
 31
0
  0
LINE
  8
1
 62
2
 10
595.2813885070065
 20
402.9341114250018
 30
0
 11
596.1148852216511
 21
403.7676081396465
 31
0
  0
LINE
  8
1
 62
2
 10
594.9467819855021
 20
402.7409262597349
 30
0
 11
596.025227674435
 21
403.8193719486677
 31
0
  0
LINE
  8
1
 62
2
 10
594.6121754639978
 20
402.5477410944678
 30
0
 11
595.9355701272189
 21
403.8711357576888
 31
0
  0
LINE
  8
1
 62
2
 10
594.2775689424934
 20
402.3545559292007
 30
0
 11
595.8459125800027
 21
403.92289956671
 31
0
  0
LINE
  8
1
 62
2
 10
593.942962420989
 20
402.1613707639336
 30
0
 11
595.7562550327866
 21
403.9746633757312
 31
0
  0
LINE
  8
1
 62
2
 10
593.6083558994848
 20
401.9681855986667
 30
0
 11
595.6665974855705
 21
404.0264271847523
 31
0
  0
LINE
  8
1
 62
2
 10
593.2737493779805
 20
401.7750004333996
 30
0
 11
595.5769399383544
 21
404.0781909937735
 31
0
  0
LINE
  8
1
 62
2
 10
592.9391428564761
 20
401.5818152681325
 30
0
 11
595.4872823911381
 21
404.1299548027947
 31
0
  0
LINE
  8
1
 62
2
 10
592.6045363349717
 20
401.3886301028655
 30
0
 11
595.3976248439221
 21
404.1817186118158
 31
0
  0
LINE
  8
1
 62
2
 10
592.2699298134675
 20
401.1954449375986
 30
0
 11
595.307967296706
 21
404.233482420837
 31
0
  0
LINE
  8
1
 62
2
 10
591.9353232919632
 20
401.0022597723315
 30
0
 11
595.2183097494899
 21
404.2852462298582
 31
0
  0
LINE
  8
1
 62
2
 10
591.792443484649
 20
401.0008013212549
 30
0
 11
595.1286522022738
 21
404.3370100388793
 31
0
  0
LINE
  8
1
 62
2
 10
591.792443484649
 20
401.1422226774922
 30
0
 11
595.0389946550575
 21
404.3887738479005
 31
0
  0
LINE
  8
1
 62
2
 10
591.792443484649
 20
401.2836440337294
 30
0
 11
594.9493371078415
 21
404.4405376569217
 31
0
  0
LINE
  8
1
 62
2
 10
591.792443484649
 20
401.4250653899667
 30
0
 11
594.8596795606254
 21
404.4923014659428
 31
0
  0
LINE
  8
1
 62
2
 10
591.792443484649
 20
401.566486746204
 30
0
 11
594.7700220134093
 21
404.544065274964
 31
0
  0
LINE
  8
1
 62
2
 10
591.792443484649
 20
401.7079081024413
 30
0
 11
594.6803644661932
 21
404.5958290839852
 31
0
  0
LINE
  8
1
 62
2
 10
591.792443484649
 20
401.8493294586786
 30
0
 11
594.5907069189769
 21
404.6475928930063
 31
0
  0
LINE
  8
1
 62
2
 10
591.792443484649
 20
401.9907508149159
 30
0
 11
594.5010493717609
 21
404.6993567020275
 31
0
  0
LINE
  8
1
 62
2
 10
591.792443484649
 20
402.1321721711532
 30
0
 11
594.4113918245448
 21
404.7511205110487
 31
0
  0
LINE
  8
1
 62
2
 10
591.792443484649
 20
402.2735935273905
 30
0
 11
594.3217342773287
 21
404.8028843200698
 31
0
  0
LINE
  8
1
 62
2
 10
591.792443484649
 20
402.4150148836278
 30
0
 11
594.2320767301126
 21
404.854648129091
 31
0
  0
LINE
  8
1
 62
2
 10
591.792443484649
 20
402.556436239865
 30
0
 11
594.1424191828963
 21
404.9064119381122
 31
0
  0
LINE
  8
1
 62
2
 10
591.792443484649
 20
402.6978575961023
 30
0
 11
594.0527616356803
 21
404.9581757471333
 31
0
  0
LINE
  8
1
 62
2
 10
591.7113007575891
 20
402.7581362252802
 30
0
 11
593.9631040884642
 21
405.0099395561545
 31
0
  0
LINE
  8
1
 62
2
 10
591.569879401352
 20
402.7581362252802
 30
0
 11
593.8734465412481
 21
405.0617033651757
 31
0
  0
LINE
  8
1
 62
2
 10
591.4284580451147
 20
402.7581362252802
 30
0
 11
593.783788994032
 21
405.1134671741968
 31
0
  0
LINE
  8
1
 62
2
 10
591.2870366888774
 20
402.7581362252802
 30
0
 11
593.6941314468157
 21
405.165230983218
 31
0
  0
LINE
  8
1
 62
2
 10
591.1456153326401
 20
402.7581362252802
 30
0
 11
593.6044738995997
 21
405.2169947922392
 31
0
  0
LINE
  8
1
 62
2
 10
591.0041939764028
 20
402.7581362252802
 30
0
 11
593.5148163523836
 21
405.2687586012603
 31
0
  0
LINE
  8
1
 62
2
 10
590.8627726201655
 20
402.7581362252802
 30
0
 11
593.4251588051675
 21
405.3205224102815
 31
0
  0
LINE
  8
1
 62
2
 10
590.7213512639282
 20
402.7581362252802
 30
0
 11
593.3355012579514
 21
405.3722862193027
 31
0
  0
LINE
  8
1
 62
2
 10
590.5799299076908
 20
402.7581362252802
 30
0
 11
593.2458437107351
 21
405.4240500283239
 31
0
  0
LINE
  8
1
 62
2
 10
590.4385085514535
 20
402.7581362252802
 30
0
 11
593.1561861635191
 21
405.475813837345
 31
0
  0
LINE
  8
1
 62
2
 10
590.2970871952164
 20
402.7581362252802
 30
0
 11
593.066528616303
 21
405.5275776463662
 31
0
  0
LINE
  8
1
 62
2
 10
590.1556658389791
 20
402.7581362252802
 30
0
 11
592.9768710690869
 21
405.5793414553874
 31
0
  0
LINE
  8
1
 62
2
 10
590.0142444827418
 20
402.7581362252802
 30
0
 11
591.6809111494081
 21
404.4248028919469
 31
0
  0
LINE
  8
1
 62
2
 10
591.792443484649
 20
404.5363352271875
 30
0
 11
592.8872135218708
 21
405.6311052644085
 31
0
  0
LINE
  8
1
 62
2
 10
589.8728231265045
 20
402.7581362252802
 30
0
 11
591.539489793171
 21
404.4248028919469
 31
0
  0
LINE
  8
1
 62
2
 10
591.792443484649
 20
404.6777565834248
 30
0
 11
592.7975559746545
 21
405.6828690734297
 31
0
  0
LINE
  8
1
 62
2
 10
589.7314017702672
 20
402.7581362252802
 30
0
 11
591.3980684369337
 21
404.4248028919469
 31
0
  0
LINE
  8
1
 62
2
 10
591.792443484649
 20
404.8191779396621
 30
0
 11
592.7078984274385
 21
405.7346328824509
 31
0
  0
LINE
  8
1
 62
2
 10
589.5899804140299
 20
402.7581362252802
 30
0
 11
591.2566470806963
 21
404.4248028919469
 31
0
  0
LINE
  8
1
 62
2
 10
591.792443484649
 20
404.9605992958994
 30
0
 11
592.6182408802224
 21
405.786396691472
 31
0
  0
LINE
  8
1
 62
2
 10
589.4485590577925
 20
402.7581362252802
 30
0
 11
591.115225724459
 21
404.4248028919469
 31
0
  0
LINE
  8
1
 62
2
 10
591.792443484649
 20
405.1020206521367
 30
0
 11
592.5285833330063
 21
405.8381605004932
 31
0
  0
LINE
  8
1
 62
2
 10
589.3071377015552
 20
402.7581362252802
 30
0
 11
590.9738043682218
 21
404.4248028919469
 31
0
  0
LINE
  8
1
 62
2
 10
591.792443484649
 20
405.243442008374
 30
0
 11
592.4389257857902
 21
405.8899243095144
 31
0
  0
LINE
  8
1
 62
2
 10
589.1657163453181
 20
402.7581362252802
 30
0
 11
590.8323830119845
 21
404.4248028919469
 31
0
  0
LINE
  8
1
 62
2
 10
591.792443484649
 20
405.3848633646114
 30
0
 11
592.3492682385739
 21
405.9416881185355
 31
0
  0
LINE
  8
1
 62
2
 10
589.0242949890808
 20
402.7581362252802
 30
0
 11
590.6909616557472
 21
404.4248028919469
 31
0
  0
LINE
  8
1
 62
2
 10
591.792443484649
 20
405.5262847208487
 30
0
 11
592.2596106913579
 21
405.9934519275567
 31
0
  0
LINE
  8
1
 62
2
 10
588.8828736328435
 20
402.7581362252802
 30
0
 11
590.5495402995098
 21
404.4248028919469
 31
0
  0
LINE
  8
1
 62
2
 10
591.792443484649
 20
405.6677060770858
 30
0
 11
592.1699531441418
 21
406.0452157365779
 31
0
  0
LINE
  8
1
 62
2
 10
588.7414522766062
 20
402.7581362252802
 30
0
 11
590.4081189432727
 21
404.4248028919469
 31
0
  0
LINE
  8
1
 62
2
 10
591.792443484649
 20
405.8091274333231
 30
0
 11
592.0802955969257
 21
406.096979545599
 31
0
  0
LINE
  8
1
 62
2
 10
588.6000309203689
 20
402.7581362252802
 30
0
 11
590.2666975870354
 21
404.4248028919469
 31
0
  0
LINE
  8
1
 62
2
 10
591.792443484649
 20
405.9505487895604
 30
0
 11
591.9906380497096
 21
406.1487433546202
 31
0
  0
LINE
  8
1
 62
2
 10
588.4586095641316
 20
402.7581362252802
 30
0
 11
590.125276230798
 21
404.4248028919469
 31
0
  0
LINE
  8
1
 62
2
 10
591.792443484649
 20
406.0919701457977
 30
0
 11
591.9009805024933
 21
406.2005071636414
 31
0
  0
LINE
  8
1
 62
2
 10
588.3171882078943
 20
402.7581362252802
 30
0
 11
589.9838548745607
 21
404.4248028919469
 31
0
  0
LINE
  8
1
 62
2
 10
591.792443484649
 20
406.233391502035
 30
0
 11
591.8113229552773
 21
406.2522709726625
 31
0
  0
LINE
  8
1
 62
2
 10
588.1757668516569
 20
402.7581362252802
 30
0
 11
589.8424335183235
 21
404.4248028919469
 31
0
  0
LINE
  8
1
 62
2
 10
588.0343454954198
 20
402.7581362252802
 30
0
 11
589.7010121620862
 21
404.4248028919469
 31
0
  0
LINE
  8
1
 62
2
 10
587.8929241391825
 20
402.7581362252802
 30
0
 11
589.5595908058489
 21
404.4248028919469
 31
0
  0
LINE
  8
1
 62
2
 10
587.7515027829452
 20
402.7581362252802
 30
0
 11
589.4181694496115
 21
404.4248028919469
 31
0
  0
LINE
  8
1
 62
2
 10
587.6100814267079
 20
402.7581362252802
 30
0
 11
589.2767480933742
 21
404.4248028919469
 31
0
  0
LINE
  8
1
 62
2
 10
587.4686600704706
 20
402.7581362252802
 30
0
 11
589.1353267371371
 21
404.4248028919469
 31
0
  0
LINE
  8
1
 62
2
 10
587.3272387142333
 20
402.7581362252802
 30
0
 11
588.9939053808998
 21
404.4248028919469
 31
0
  0
LINE
  8
1
 62
2
 10
587.185817357996
 20
402.7581362252802
 30
0
 11
588.8524840246624
 21
404.4248028919469
 31
0
  0
LINE
  8
1
 62
2
 10
587.0443960017586
 20
402.7581362252802
 30
0
 11
588.7110626684251
 21
404.4248028919469
 31
0
  0
LINE
  8
1
 62
2
 10
586.9029746455215
 20
402.7581362252802
 30
0
 11
588.5696413121879
 21
404.4248028919469
 31
0
  0
LINE
  8
1
 62
2
 10
586.7615532892842
 20
402.7581362252802
 30
0
 11
588.4282199559506
 21
404.4248028919469
 31
0
  0
LINE
  8
1
 62
2
 10
586.6201319330469
 20
402.7581362252802
 30
0
 11
588.2867985997132
 21
404.4248028919469
 31
0
  0
LINE
  8
1
 62
2
 10
586.4787105768096
 20
402.7581362252802
 30
0
 11
588.1453772434759
 21
404.4248028919469
 31
0
  0
LINE
  8
1
 62
2
 10
586.3372892205723
 20
402.7581362252802
 30
0
 11
588.0039558872388
 21
404.4248028919469
 31
0
  0
LINE
  8
1
 62
2
 10
586.195867864335
 20
402.7581362252802
 30
0
 11
587.8625345310015
 21
404.4248028919469
 31
0
  0
LINE
  8
1
 62
2
 10
586.0544465080977
 20
402.7581362252802
 30
0
 11
587.7211131747641
 21
404.4248028919469
 31
0
  0
LINE
  8
1
 62
2
 10
585.9591101513154
 20
402.8042212247361
 30
0
 11
587.5796918185268
 21
404.4248028919469
 31
0
  0
LINE
  8
1
 62
2
 10
585.9591101513154
 20
402.9456425809735
 30
0
 11
587.4382704622896
 21
404.4248028919469
 31
0
  0
LINE
  8
1
 62
2
 10
585.9591101513154
 20
403.0870639372108
 30
0
 11
587.2968491060523
 21
404.4248028919469
 31
0
  0
LINE
  8
1
 62
2
 10
585.9591101513154
 20
403.2284852934479
 30
0
 11
587.155427749815
 21
404.4248028919469
 31
0
  0
LINE
  8
1
 62
2
 10
585.9591101513154
 20
403.3699066496852
 30
0
 11
587.0140063935776
 21
404.4248028919469
 31
0
  0
LINE
  8
1
 62
2
 10
585.9591101513154
 20
403.5113280059225
 30
0
 11
586.8725850373405
 21
404.4248028919469
 31
0
  0
LINE
  8
1
 62
2
 10
585.9591101513154
 20
403.6527493621598
 30
0
 11
586.7311636811032
 21
404.4248028919469
 31
0
  0
LINE
  8
1
 62
2
 10
585.9591101513154
 20
403.7941707183971
 30
0
 11
586.5897423248658
 21
404.4248028919469
 31
0
  0
LINE
  8
1
 62
2
 10
585.9591101513154
 20
403.9355920746344
 30
0
 11
586.4483209686285
 21
404.4248028919469
 31
0
  0
LINE
  8
1
 62
2
 10
585.9591101513154
 20
404.0770134308718
 30
0
 11
586.3068996123913
 21
404.4248028919469
 31
0
  0
LINE
  8
1
 62
2
 10
585.9591101513154
 20
404.2184347871091
 30
0
 11
586.165478256154
 21
404.4248028919469
 31
0
  0
LINE
  8
1
 62
2
 10
585.9591101513154
 20
404.3598561433464
 30
0
 11
586.0240568999167
 21
404.4248028919469
 31
0
  0
LINE
  8
1
 62
2
 10
591.792443484649
 20
400.9197680771155
 30
0
 11
596.4199661931673
 21
403.5914695586135
 31
0
  0
LINE
  8
1
 62
2
 10
591.792443484649
 20
402.75813622528
 30
0
 11
591.792443484649
 21
400.9197680771155
 31
0
  0
LINE
  8
1
 62
2
 10
585.9591101513156
 20
402.75813622528
 30
0
 11
591.792443484649
 21
402.75813622528
 31
0
  0
LINE
  8
1
 62
2
 10
585.9591101513156
 20
404.4248028919469
 30
0
 11
585.9591101513156
 21
402.75813622528
 31
0
  0
LINE
  8
1
 62
2
 10
591.792443484649
 20
404.4248028919469
 30
0
 11
585.9591101513156
 21
404.4248028919469
 31
0
  0
LINE
  8
1
 62
2
 10
591.792443484649
 20
406.2631710401116
 30
0
 11
591.792443484649
 21
404.4248028919469
 31
0
  0
LINE
  8
1
 62
2
 10
596.4199661931673
 20
403.5914695586135
 30
0
 11
591.792443484649
 21
406.2631710401116
 31
0
  0
LINE
  8
1
 62
2
 10
551.9943781684324
 20
376.2724097942075
 30
0
 11
552.2131789535964
 21
376.0536090090426
 31
0
  0
LINE
  8
1
 62
2
 10
551.6597716469612
 20
376.4655949594413
 30
0
 11
552.1235214063803
 21
376.0018452000214
 31
0
  0
LINE
  8
1
 62
2
 10
551.3251651254902
 20
376.6587801246751
 30
0
 11
552.0338638591643
 21
375.9500813910003
 31
0
  0
LINE
  8
1
 62
2
 10
550.990558604019
 20
376.8519652899089
 30
0
 11
551.9442063119479
 21
375.8983175819791
 31
0
  0
LINE
  8
1
 62
2
 10
550.6559520825481
 20
377.0451504551428
 30
0
 11
551.8545487647319
 21
375.8465537729579
 31
0
  0
LINE
  8
1
 62
2
 10
550.3213455610769
 20
377.2383356203765
 30
0
 11
551.7648912175158
 21
375.7947899639368
 31
0
  0
LINE
  8
1
 62
2
 10
549.9867390396059
 20
377.4315207856101
 30
0
 11
551.6752336702997
 21
375.7430261549156
 31
0
  0
LINE
  8
1
 62
2
 10
549.6521325181348
 20
377.624705950844
 30
0
 11
551.5855761230837
 21
375.6912623458944
 31
0
  0
LINE
  8
1
 62
2
 10
549.3175259966638
 20
377.8178911160778
 30
0
 11
551.4959185758673
 21
375.6394985368733
 31
0
  0
LINE
  8
1
 62
2
 10
548.9829194751926
 20
378.0110762813116
 30
0
 11
551.4062610286513
 21
375.5877347278521
 31
0
  0
LINE
  8
1
 62
2
 10
548.6483129537216
 20
378.2042614465454
 30
0
 11
551.3166034814352
 21
375.5359709188309
 31
0
  0
LINE
  8
1
 62
2
 10
548.3137064322505
 20
378.3974466117792
 30
0
 11
551.2269459342191
 21
375.4842071098097
 31
0
  0
LINE
  8
1
 62
2
 10
547.9790999107794
 20
378.5906317770131
 30
0
 11
551.1372883870031
 21
375.4324433007886
 31
0
  0
LINE
  8
1
 62
2
 10
547.6657428908247
 20
378.7625674407299
 30
0
 11
551.0476308397867
 21
375.3806794917674
 31
0
  0
LINE
  8
1
 62
2
 10
547.6657428908247
 20
378.6211460844926
 30
0
 11
550.9579732925707
 21
375.3289156827462
 31
0
  0
LINE
  8
1
 62
2
 10
547.6657428908247
 20
378.4797247282553
 30
0
 11
550.8683157453546
 21
375.2771518737251
 31
0
  0
LINE
  8
1
 62
2
 10
547.6657428908247
 20
378.3383033720181
 30
0
 11
550.7786581981385
 21
375.2253880647039
 31
0
  0
LINE
  8
1
 62
2
 10
547.6657428908247
 20
378.1968820157808
 30
0
 11
550.6890006509225
 21
375.1736242556827
 31
0
  0
LINE
  8
1
 62
2
 10
547.6657428908247
 20
378.0554606595434
 30
0
 11
550.5993431037061
 21
375.1218604466616
 31
0
  0
LINE
  8
1
 62
2
 10
547.6657428908247
 20
377.9140393033061
 30
0
 11
550.5096855564901
 21
375.0700966376404
 31
0
  0
LINE
  8
1
 62
2
 10
547.6657428908247
 20
377.7726179470689
 30
0
 11
550.420028009274
 21
375.0183328286192
 31
0
  0
LINE
  8
1
 62
2
 10
547.6657428908247
 20
377.6311965908316
 30
0
 11
550.3303704620579
 21
374.9665690195981
 31
0
  0
LINE
  8
1
 62
2
 10
547.6657428908247
 20
377.4897752345943
 30
0
 11
550.2407129148419
 21
374.9148052105769
 31
0
  0
LINE
  8
1
 62
2
 10
547.6657428908247
 20
377.348353878357
 30
0
 11
550.1510553676255
 21
374.8630414015557
 31
0
  0
LINE
  8
1
 62
2
 10
547.6657428908247
 20
377.2069325221198
 30
0
 11
550.0613978204095
 21
374.8112775925346
 31
0
  0
LINE
  8
1
 62
2
 10
547.6657428908247
 20
377.0655111658825
 30
0
 11
549.9717402731934
 21
374.7595137835134
 31
0
  0
LINE
  8
1
 62
2
 10
547.6566523116129
 20
376.9331803888564
 30
0
 11
549.8820827259773
 21
374.7077499744922
 31
0
  0
LINE
  8
1
 62
2
 10
547.5152309553756
 20
376.9331803888564
 30
0
 11
549.7924251787611
 21
374.6559861654711
 31
0
  0
LINE
  8
1
 62
2
 10
547.3738095991383
 20
376.9331803888564
 30
0
 11
549.7027676315449
 21
374.6042223564499
 31
0
  0
LINE
  8
1
 62
2
 10
547.2323882429009
 20
376.9331803888564
 30
0
 11
549.6131100843289
 21
374.5524585474287
 31
0
  0
LINE
  8
1
 62
2
 10
547.0909668866636
 20
376.9331803888564
 30
0
 11
549.5234525371128
 21
374.5006947384076
 31
0
  0
LINE
  8
1
 62
2
 10
546.9495455304264
 20
376.9331803888564
 30
0
 11
549.4337949898967
 21
374.4489309293864
 31
0
  0
LINE
  8
1
 62
2
 10
546.8081241741893
 20
376.9331803888564
 30
0
 11
549.3441374426805
 21
374.3971671203652
 31
0
  0
LINE
  8
1
 62
2
 10
546.6667028179519
 20
376.9331803888564
 30
0
 11
549.2544798954643
 21
374.3454033113441
 31
0
  0
LINE
  8
1
 62
2
 10
546.5252814617146
 20
376.9331803888564
 30
0
 11
549.1648223482483
 21
374.2936395023229
 31
0
  0
LINE
  8
1
 62
2
 10
546.3838601054773
 20
376.9331803888564
 30
0
 11
549.0751648010322
 21
374.2418756933017
 31
0
  0
LINE
  8
1
 62
2
 10
546.24243874924
 20
376.9331803888564
 30
0
 11
548.9855072538161
 21
374.1901118842806
 31
0
  0
LINE
  8
1
 62
2
 10
546.1010173930027
 20
376.9331803888564
 30
0
 11
548.8958497065999
 21
374.1383480752594
 31
0
  0
LINE
  8
1
 62
2
 10
545.9595960367653
 20
376.9331803888564
 30
0
 11
547.6262627034319
 21
375.2665137221896
 31
0
  0
LINE
  8
1
 62
2
 10
547.6657428908247
 20
375.2270335347972
 30
0
 11
548.8061921593837
 21
374.0865842662382
 31
0
  0
LINE
  8
1
 62
2
 10
545.8181746805281
 20
376.9331803888564
 30
0
 11
547.4848413471946
 21
375.2665137221896
 31
0
  0
LINE
  8
1
 62
2
 10
547.6657428908247
 20
375.0856121785599
 30
0
 11
548.7165346121677
 21
374.0348204572171
 31
0
  0
LINE
  8
1
 62
2
 10
545.676753324291
 20
376.9331803888564
 30
0
 11
547.3434199909573
 21
375.2665137221896
 31
0
  0
LINE
  8
1
 62
2
 10
547.6657428908247
 20
374.9441908223226
 30
0
 11
548.6268770649516
 21
373.9830566481959
 31
0
  0
LINE
  8
1
 62
2
 10
545.5353319680536
 20
376.9331803888564
 30
0
 11
547.20199863472
 21
375.2665137221896
 31
0
  0
LINE
  8
1
 62
2
 10
547.6657428908247
 20
374.8027694660854
 30
0
 11
548.5372195177356
 21
373.9312928391747
 31
0
  0
LINE
  8
1
 62
2
 10
545.3939106118163
 20
376.9331803888564
 30
0
 11
547.0605772784827
 21
375.2665137221896
 31
0
  0
LINE
  8
1
 62
2
 10
547.6657428908247
 20
374.6613481098481
 30
0
 11
548.4475619705193
 21
373.8795290301536
 31
0
  0
LINE
  8
1
 62
2
 10
545.252489255579
 20
376.9331803888564
 30
0
 11
546.9191559222454
 21
375.2665137221896
 31
0
  0
LINE
  8
1
 62
2
 10
547.6657428908247
 20
374.5199267536108
 30
0
 11
548.3579044233031
 21
373.8277652211324
 31
0
  0
LINE
  8
1
 62
2
 10
545.1110678993417
 20
376.9331803888564
 30
0
 11
546.7777345660081
 21
375.2665137221896
 31
0
  0
LINE
  8
1
 62
2
 10
547.6657428908247
 20
374.3785053973735
 30
0
 11
548.2682468760871
 21
373.7760014121112
 31
0
  0
LINE
  8
1
 62
2
 10
544.9696465431044
 20
376.9331803888564
 30
0
 11
546.6363132097708
 21
375.2665137221896
 31
0
  0
LINE
  8
1
 62
2
 10
547.6657428908247
 20
374.2370840411362
 30
0
 11
548.178589328871
 21
373.7242376030901
 31
0
  0
LINE
  8
1
 62
2
 10
544.828225186867
 20
376.9331803888564
 30
0
 11
546.4948918535336
 21
375.2665137221896
 31
0
  0
LINE
  8
1
 62
2
 10
547.6657428908247
 20
374.0956626848989
 30
0
 11
548.088931781655
 21
373.6724737940689
 31
0
  0
LINE
  8
1
 62
2
 10
544.6868038306297
 20
376.9331803888564
 30
0
 11
546.3534704972963
 21
375.2665137221896
 31
0
  0
LINE
  8
1
 62
2
 10
547.6657428908247
 20
373.9542413286616
 30
0
 11
547.9992742344386
 21
373.6207099850477
 31
0
  0
LINE
  8
1
 62
2
 10
544.5453824743927
 20
376.9331803888564
 30
0
 11
546.212049141059
 21
375.2665137221896
 31
0
  0
LINE
  8
1
 62
2
 10
547.6657428908247
 20
373.8128199724243
 30
0
 11
547.9096166872225
 21
373.5689461760265
 31
0
  0
LINE
  8
1
 62
2
 10
544.4039611181554
 20
376.9331803888564
 30
0
 11
546.0706277848217
 21
375.2665137221896
 31
0
  0
LINE
  8
1
 62
2
 10
547.6657428908247
 20
373.6713986161871
 30
0
 11
547.8199591400065
 21
373.5171823670054
 31
0
  0
LINE
  8
1
 62
2
 10
544.262539761918
 20
376.9331803888564
 30
0
 11
545.9292064285844
 21
375.2665137221896
 31
0
  0
LINE
  8
1
 62
2
 10
547.6657428908247
 20
373.5299772599498
 30
0
 11
547.7303015927904
 21
373.4654185579842
 31
0
  0
LINE
  8
1
 62
2
 10
544.1211184056807
 20
376.9331803888564
 30
0
 11
545.7877850723471
 21
375.2665137221896
 31
0
  0
LINE
  8
1
 62
2
 10
543.9796970494434
 20
376.9331803888564
 30
0
 11
545.6463637161098
 21
375.2665137221896
 31
0
  0
LINE
  8
1
 62
2
 10
543.8382756932061
 20
376.9331803888564
 30
0
 11
545.5049423598725
 21
375.2665137221896
 31
0
  0
LINE
  8
1
 62
2
 10
543.6968543369687
 20
376.9331803888564
 30
0
 11
545.3635210036352
 21
375.2665137221896
 31
0
  0
LINE
  8
1
 62
2
 10
543.5554329807314
 20
376.9331803888564
 30
0
 11
545.222099647398
 21
375.2665137221896
 31
0
  0
LINE
  8
1
 62
2
 10
543.4140116244944
 20
376.9331803888564
 30
0
 11
545.0806782911607
 21
375.2665137221896
 31
0
  0
LINE
  8
1
 62
2
 10
543.2725902682571
 20
376.9331803888564
 30
0
 11
544.9392569349234
 21
375.2665137221896
 31
0
  0
LINE
  8
1
 62
2
 10
543.1311689120197
 20
376.9331803888564
 30
0
 11
544.7978355786861
 21
375.2665137221896
 31
0
  0
LINE
  8
1
 62
2
 10
542.9897475557824
 20
376.9331803888564
 30
0
 11
544.6564142224488
 21
375.2665137221896
 31
0
  0
LINE
  8
1
 62
2
 10
542.8483261995451
 20
376.9331803888564
 30
0
 11
544.5149928662115
 21
375.2665137221896
 31
0
  0
LINE
  8
1
 62
2
 10
542.7069048433078
 20
376.9331803888564
 30
0
 11
544.3735715099742
 21
375.2665137221896
 31
0
  0
LINE
  8
1
 62
2
 10
542.5654834870704
 20
376.9331803888564
 30
0
 11
544.2321501537369
 21
375.2665137221896
 31
0
  0
LINE
  8
1
 62
2
 10
542.4240621308331
 20
376.9331803888564
 30
0
 11
544.0907287974997
 21
375.2665137221896
 31
0
  0
LINE
  8
1
 62
2
 10
542.2826407745959
 20
376.9331803888564
 30
0
 11
543.9493074412624
 21
375.2665137221896
 31
0
  0
LINE
  8
1
 62
2
 10
542.1412194183588
 20
376.9331803888564
 30
0
 11
543.8078860850251
 21
375.2665137221896
 31
0
  0
LINE
  8
1
 62
2
 10
541.9997980621214
 20
376.9331803888564
 30
0
 11
543.6664647287878
 21
375.2665137221896
 31
0
  0
LINE
  8
1
 62
2
 10
541.8583767058841
 20
376.9331803888564
 30
0
 11
543.5250433725505
 21
375.2665137221896
 31
0
  0
LINE
  8
1
 62
2
 10
541.8324095574916
 20
376.8177261810114
 30
0
 11
543.3836220163132
 21
375.2665137221896
 31
0
  0
LINE
  8
1
 62
2
 10
541.8324095574916
 20
376.676304824774
 30
0
 11
543.2422006600759
 21
375.2665137221896
 31
0
  0
LINE
  8
1
 62
2
 10
541.8324095574916
 20
376.5348834685367
 30
0
 11
543.1007793038386
 21
375.2665137221896
 31
0
  0
LINE
  8
1
 62
2
 10
541.8324095574916
 20
376.3934621122994
 30
0
 11
542.9593579476014
 21
375.2665137221896
 31
0
  0
LINE
  8
1
 62
2
 10
541.8324095574916
 20
376.2520407560621
 30
0
 11
542.8179365913641
 21
375.2665137221896
 31
0
  0
LINE
  8
1
 62
2
 10
541.8324095574916
 20
376.1106193998248
 30
0
 11
542.6765152351268
 21
375.2665137221896
 31
0
  0
LINE
  8
1
 62
2
 10
541.8324095574916
 20
375.9691980435874
 30
0
 11
542.5350938788895
 21
375.2665137221896
 31
0
  0
LINE
  8
1
 62
2
 10
541.8324095574916
 20
375.8277766873501
 30
0
 11
542.3936725226522
 21
375.2665137221896
 31
0
  0
LINE
  8
1
 62
2
 10
541.8324095574916
 20
375.6863553311131
 30
0
 11
542.2522511664149
 21
375.2665137221896
 31
0
  0
LINE
  8
1
 62
2
 10
541.8324095574916
 20
375.5449339748758
 30
0
 11
542.1108298101776
 21
375.2665137221896
 31
0
  0
LINE
  8
1
 62
2
 10
541.8324095574916
 20
375.4035126186384
 30
0
 11
541.9694084539403
 21
375.2665137221896
 31
0
  0
LINE
  8
1
 62
2
 10
552.2932655993432
 20
376.099847055523
 30
0
 11
547.6657428908247
 21
378.7715485368267
 31
0
  0
LINE
  8
1
 62
2
 10
547.6657428908247
 20
378.7715485368267
 30
0
 11
547.6657428908247
 21
376.9331803888564
 31
0
  0
LINE
  8
1
 62
2
 10
547.6657428908247
 20
376.9331803888564
 30
0
 11
541.8324095574915
 21
376.9331803888564
 31
0
  0
LINE
  8
1
 62
2
 10
541.8324095574915
 20
376.9331803888564
 30
0
 11
541.8324095574915
 21
375.2665137221896
 31
0
  0
LINE
  8
1
 62
2
 10
541.8324095574915
 20
375.2665137221896
 30
0
 11
547.6657428908247
 21
375.2665137221896
 31
0
  0
LINE
  8
1
 62
2
 10
547.6657428908247
 20
375.2665137221896
 30
0
 11
547.6657428908247
 21
373.4281455740251
 31
0
  0
LINE
  8
1
 62
2
 10
547.6657428908247
 20
373.4281455740251
 30
0
 11
552.2932655993432
 21
376.099847055523
 31
0
  0
LINE
  8
1
 62
3
 10
540.4449085548606
 20
446.3201652789498
 30
0
 11
540.735794326984
 21
445.7953934546517
 31
0
  0
LINE
  8
1
 62
3
 10
531.5532685972337
 20
441.7344549884638
 30
0
 11
532.1350401416025
 21
440.684911339898
 31
0
  0
LINE
  8
1
 62
3
 10
531.6987114835429
 20
441.4720690759318
 30
0
 11
540.4449085548606
 21
446.3201652789498
 31
0
  0
LINE
  8
1
 62
3
 10
540.735794326984
 20
445.7953934546517
 30
0
 11
531.9895972557265
 21
440.9472972516501
 31
0
  0
LINE
  8
1
 62
3
 10
520.0354438726379
 20
435.3156336874833
 30
0
 11
531.5532685972337
 21
441.7344549884638
 31
0
  0
LINE
  8
1
 62
3
 10
519.8310018136596
 20
433.8731116162082
 30
0
 11
532.1350401416025
 21
440.684911339898
 31
0
  0
LINE
  8
1
 62
3
 10
520.0148880304777
 20
435.6346885179004
 30
0
 11
531.4078257109554
 21
441.9968409011099
 31
0
  0
LINE
  8
1
 62
3
 10
518.7543235868975
 20
436.3549150225807
 30
0
 11
530.8260541665868
 21
443.0463845496738
 31
0
  0
LINE
  8
1
 62
3
 10
532.2804830278681
 20
440.4225254273579
 30
0
 11
519.82852420769
 21
433.5361673173048
 31
0
  0
LINE
  8
1
 62
3
 10
520.7349410129914
 20
432.6747064352583
 30
0
 11
532.8622545720598
 21
439.3729817788558
 31
0
  0
LINE
  8
1
 62
3
 10
530.8260541665868
 20
443.0463845496738
 30
0
 11
531.4078257109757
 21
441.9968409010739
 31
0
  0
LINE
  8
1
 62
3
 10
532.8622545720598
 20
439.3729817788558
 30
0
 11
532.2804830278681
 21
440.4225254273579
 31
0
  0
LINE
  8
1
 62
3
 10
541.4630087574553
 20
444.4834638935517
 30
0
 11
532.7168116857324
 21
439.635367691486
 31
0
  0
LINE
  8
1
 62
3
 10
541.1721229853322
 20
445.0082357178499
 30
0
 11
541.4630087574553
 21
444.4834638935517
 31
0
  0
LINE
  8
1
 62
3
 10
532.4259259136127
 20
440.16013951578
 30
0
 11
541.1721229853322
 21
445.0082357178499
 31
0
  0
LINE
  8
1
 62
3
 10
540.0085798963366
 20
447.1073230158618
 30
0
 11
531.2623828250794
 21
442.2592268128601
 31
0
  0
LINE
  8
1
 62
3
 10
539.7176941242135
 20
447.6320948401617
 30
0
 11
540.0085798963366
 21
447.1073230158618
 31
0
  0
LINE
  8
1
 62
3
 10
530.971497052896
 20
442.7839986371419
 30
0
 11
539.7176941242135
 21
447.6320948401617
 31
0
  0
LINE
  8
1
 62
3
 10
539.7176941242135
 20
447.6320948401617
 30
0
 11
540.0085798963366
 21
447.1073230158618
 31
0
  0
LINE
  8
1
 62
3
 10
541.1721229853322
 20
445.0082357178499
 30
0
 11
541.4630087574553
 21
444.4834638935517
 31
0
  0
LINE
  8
1
 62
2
 10
429.6086115831234
 20
370.6654339750756
 30
0
 11
397.5353846372084
 21
337.9125425192179
 31
0
  0
LINE
  8
1
 62
2
 10
443.51504494646
 20
358.2674950782737
 30
0
 11
410.6875707672758
 21
324.7603563891473
 31
0
  0
LINE
  8
1
 62
2
 10
398.5960448089883
 20
338.9732026909977
 30
0
 11
411.7482309390559
 21
325.821016560927
 31
0
  0
LINE
  8
1
 62
2
 10
429.6086115831234
 20
370.6654339750756
 30
0
 11
404.2850770275907
 21
344.901265726917
 31
0
  0
LINE
  8
1
 62
2
 10
435.9725726138022
 20
364.3014729443956
 30
0
 11
411.0539010597457
 21
338.7031368803931
 31
0
  0
LINE
  8
1
 62
2
 10
418.9027863309157
 20
332.9755719527812
 30
0
 11
412.1145612315257
 21
339.7637970521729
 31
0
  0
LINE
  8
1
 62
2
 10
405.750600200847
 20
346.127758082853
 30
0
 11
412.1145612315257
 21
339.7637970521729
 31
0
  0
LINE
  8
1
 62
2
 10
405.750600200847
 20
346.127758082853
 30
0
 11
398.962375101457
 21
352.9159831822447
 31
0
  0
LINE
  8
1
 62
2
 10
494.946374946712
 20
449.5796475374463
 30
0
 11
512.8612316542569
 21
467.5576379056738
 31
0
  0
LINE
  8
1
 62
2
 10
508.3867861761755
 20
436.7156865067704
 30
0
 11
526.0134177843281
 21
454.4054517756056
 31
0
  0
LINE
  8
1
 62
2
 10
511.8005714824773
 20
466.4969777338939
 30
0
 11
524.9527576125485
 21
453.3447916038257
 31
0
  0
LINE
  8
1
 62
2
 10
502.0228251454968
 20
443.0796475374486
 30
0
 11
515.0836749868814
 21
456.1872776872007
 31
0
  0
LINE
  8
1
 62
2
 10
508.3867861761755
 20
436.7156865067704
 30
0
 11
521.4476360175604
 21
449.823316656523
 31
0
  0
LINE
  8
1
 62
2
 10
506.6045820474303
 20
461.5870523448251
 30
0
 11
513.392807146822
 21
454.798827245435
 31
0
  0
LINE
  8
1
 62
2
 10
513.392807146822
 20
454.798827245435
 30
0
 11
519.756768177501
 21
448.4348662147573
 31
0
  0
LINE
  8
1
 62
2
 10
519.756768177501
 20
448.4348662147573
 30
0
 11
525.5618962352072
 21
442.6297381570525
 31
0
  0
LINE
  8
1
 62
3
 10
604.2194792394037
 20
391.14056024092
 30
0
 11
605.832161491329
 21
391.14056024092
 31
0
  0
LINE
  8
1
 62
3
 10
605.8321614913292
 20
426.0405602409178
 30
0
 11
604.2194792394037
 21
426.0405602409178
 31
0
  0
LINE
  8
1
 62
3
 10
600.5521614913291
 20
418.7905602409178
 30
0
 11
600.5521614913291
 21
398.39056024092
 31
0
  0
LINE
  8
1
 62
3
 10
608.7636786434545
 20
373.2905602409219
 30
0
 11
610.763678643446
 21
373.2905602409219
 31
0
  0
LINE
  8
1
 62
3
 10
626.332161491329
 20
408.1905602409197
 30
0
 11
628.8321614913294
 21
402.1905602409197
 31
0
  0
LINE
  8
1
 62
3
 10
607.8321614913292
 20
408.1905602409197
 30
0
 11
626.332161491329
 21
408.1905602409197
 31
0
  0
LINE
  8
1
 62
2
 10
610.7636786434538
 20
387.0390638710578
 30
0
 11
624.8321614913342
 21
387.0390638710578
 31
0
  0
LINE
  8
1
 62
2
 10
610.7636786434538
 20
375.0426327263358
 30
0
 11
624.8321614913342
 21
375.0426327263358
 31
0
  0
LINE
  8
1
 62
2
 10
610.7636786434538
 20
375.6519144344438
 30
0
 11
624.8321614913342
 21
375.6519144344438
 31
0
  0
LINE
  8
1
 62
2
 10
610.7636786434538
 20
375.8532597128819
 30
0
 11
624.8321614913342
 21
375.8532597128819
 31
0
  0
LINE
  8
1
 62
2
 10
610.7636786434538
 20
376.7779093350678
 30
0
 11
624.8321614913342
 21
376.7779093350678
 31
0
  0
LINE
  8
1
 62
2
 10
610.7636786434538
 20
376.5118791260379
 30
0
 11
624.8321614913342
 21
376.5118791260379
 31
0
  0
LINE
  8
1
 62
2
 10
610.7636786434538
 20
377.9446724396539
 30
0
 11
624.8321614913342
 21
377.9446724396539
 31
0
  0
LINE
  8
1
 62
2
 10
610.7636786434538
 20
377.6159819505519
 30
0
 11
624.8321614913342
 21
377.6159819505519
 31
0
  0
LINE
  8
1
 62
2
 10
610.7636786434538
 20
378.9558200188199
 30
0
 11
624.8321614913342
 21
378.9558200188199
 31
0
  0
LINE
  8
1
 62
2
 10
610.7636786434538
 20
379.3446692549001
 30
0
 11
624.8321614913342
 21
379.3446692549001
 31
0
  0
LINE
  8
1
 62
2
 10
610.7636786434538
 20
380.5211963541201
 30
0
 11
624.8321614913342
 21
380.5211963541201
 31
0
  0
LINE
  8
1
 62
2
 10
610.7636786434538
 20
380.9672449597001
 30
0
 11
624.8321614913342
 21
380.9672449597001
 31
0
  0
LINE
  8
1
 62
2
 10
610.7636786434538
 20
382.3001974973458
 30
0
 11
624.8321614913342
 21
382.3001974973458
 31
0
  0
LINE
  8
1
 62
2
 10
610.7636786434538
 20
382.800050773204
 30
0
 11
624.8321614913342
 21
382.800050773204
 31
0
  0
LINE
  8
1
 62
2
 10
610.7636786434538
 20
384.2792841756041
 30
0
 11
624.8321614913342
 21
384.2792841756041
 31
0
  0
LINE
  8
1
 62
2
 10
610.7636786434538
 20
384.8291379364937
 30
0
 11
624.8321614913342
 21
384.8291379364937
 31
0
  0
LINE
  8
1
 62
2
 10
610.7636786434538
 20
386.44339434427
 30
0
 11
624.8321614913342
 21
386.44339434427
 31
0
  0
LINE
  8
1
 62
2
 10
610.7636786434538
 20
388.818517575884
 30
0
 11
624.8321614913342
 21
388.818517575884
 31
0
  0
LINE
  8
1
 62
2
 10
610.7636786434538
 20
389.4130097061479
 30
0
 11
624.8321614913342
 21
389.4130097061479
 31
0
  0
LINE
  8
1
 62
2
 10
610.7636786434538
 20
393.874885090358
 30
0
 11
624.8321614913342
 21
393.874885090358
 31
0
  0
LINE
  8
1
 62
2
 10
610.7636786434538
 20
394.579581644492
 30
0
 11
624.8321614913342
 21
394.579581644492
 31
0
  0
LINE
  8
10
 62
3
 10
608.7636786434542
 20
396.8505602409177
 30
0
 11
608.7636786434545
 21
373.2905602409219
 31
0
  0
LINE
  8
10
 62
3
 10
610.7636786434542
 20
396.8505602409177
 30
0
 11
610.763678643446
 21
373.2905602409219
 31
0
  0
LINE
  8
10
 62
3
 10
624.8321614913342
 20
396.8505602409177
 30
0
 11
624.8321614913342
 21
374.9044684501178
 31
0
  0
LINE
  8
10
 62
3
 10
624.8321614913342
 20
374.9044684501178
 30
0
 11
610.7636786434465
 21
374.6252879307617
 31
0
  0
LINE
  8
1
 62
3
 10
626.332161491329
 20
408.1905602409197
 30
0
 11
626.3321614913292
 21
396.8505602409177
 31
0
  0
LINE
  8
30
 62
3
 10
628.8321614913297
 20
377.3940465069777
 30
0
 11
624.8321614913342
 21
381.3940465069759
 31
0
  0
LINE
  8
1
 62
3
 10
615.532161491329
 20
422.667823166254
 30
0
 11
615.532161491329
 21
418.317117917532
 31
0
  0
LINE
  8
1
 62
3
 10
615.8321614913333
 20
415.6472840357701
 30
0
 11
615.8321614913333
 21
412.39056024092
 31
0
  0
LINE
  8
1
 62
3
 10
615.2321614913288
 20
415.6472840357701
 30
0
 11
615.2321614913288
 21
412.39056024092
 31
0
  0
LINE
  8
1
 62
3
 10
614.2321614913288
 20
418.317117917532
 30
0
 11
616.032161491329
 21
418.317117917532
 31
0
  0
LINE
  8
1
 62
3
 10
614.2321614913288
 20
422.667823166254
 30
0
 11
616.032161491329
 21
422.667823166254
 31
0
  0
LINE
  8
1
 62
3
 10
614.2321614913288
 20
422.667823166254
 30
0
 11
614.2321614913288
 21
418.317117917532
 31
0
  0
LINE
  8
1
 62
3
 10
616.032161491329
 20
418.1228818426757
 30
0
 11
612.032161491329
 21
418.1228818426757
 31
0
  0
LINE
  8
1
 62
3
 10
616.032161491329
 20
422.9569987856958
 30
0
 11
616.032161491329
 21
418.1228818426757
 31
0
  0
LINE
  8
1
 62
3
 10
612.032161491329
 20
422.9569987856958
 30
0
 11
616.032161491329
 21
422.9569987856958
 31
0
  0
LINE
  8
1
 62
3
 10
612.032161491329
 20
415.6472840357701
 30
0
 11
612.032161491329
 21
418.1228818426757
 31
0
  0
LINE
  8
1
 62
3
 10
617.532161491329
 20
415.6472840357701
 30
0
 11
612.032161491329
 21
415.6472840357701
 31
0
  0
LINE
  8
1
 62
3
 10
612.032161491329
 20
425.3155179218138
 30
0
 11
612.032161491329
 21
422.9569987856958
 31
0
  0
LINE
  8
1
 62
3
 10
617.532161491329
 20
425.3155179218138
 30
0
 11
612.032161491329
 21
425.3155179218138
 31
0
  0
LINE
  8
1
 62
3
 10
617.532161491329
 20
425.3155179218138
 30
0
 11
617.532161491329
 21
415.6472840357701
 31
0
  0
LINE
  8
1
 62
3
 10
615.8321614913333
 20
433.2825539616119
 30
0
 11
615.8321614913333
 21
425.3155179218138
 31
0
  0
LINE
  8
1
 62
3
 10
625.8321614913301
 20
439.1905602409179
 30
0
 11
625.8321614913301
 21
450.1905602409179
 31
0
  0
LINE
  8
1
 62
3
 10
615.8321614913333
 20
450.1905602409161
 30
0
 11
615.8321614913333
 21
443.6885480104361
 31
0
  0
LINE
  8
1
 62
3
 10
615.2321614913288
 20
450.1905602409138
 30
0
 11
615.2321614913288
 21
425.3155179218138
 31
0
  0
LINE
  8
1
 62
3
 10
628.8321614913301
 20
357.6905602409179
 30
0
 11
628.8321614913294
 21
402.1905602409197
 31
0
  0
LINE
  8
35
 62
3
 10
629.3321614913292
 20
413.1905602409197
 30
0
 11
615.8321614913333
 21
413.1905602409197
 31
0
  0
LINE
  8
30
 62
3
 10
630.8321614913292
 20
356.6905602409179
 30
0
 11
630.8321614913292
 21
411.6905602409197
 31
0
  0
LINE
  8
30
 62
3
 10
629.3321614913292
 20
355.1905602409179
 30
0
 11
615.8321614913301
 21
355.1905602409179
 31
0
  0
LINE
  8
30
 62
3
 10
615.2321614913288
 20
449.3905602409177
 30
0
 11
615.8321614913333
 21
449.3905602409177
 31
0
  0
LINE
  8
30
 62
3
 10
614.0321614913293
 20
355.9905602409181
 30
0
 11
615.8321614913301
 21
355.9905602409181
 31
0
  0
LINE
  8
30
 62
3
 10
615.8321614913301
 20
355.9905602409181
 30
0
 11
615.8321614913301
 21
355.1905602409179
 31
0
  0
LINE
  8
30
 62
3
 10
615.8321614913333
 20
450.1905602409161
 30
0
 11
630.3321614913313
 21
450.1905602409197
 31
0
  0
LINE
  8
35
 62
3
 10
615.2321614913288
 20
450.1905602409138
 30
0
 11
607.332161491329
 21
450.1905602409138
 31
0
  0
LINE
  8
35
 62
1
 10
635.8321614913292
 20
408.590560240918
 30
0
 11
595.4521614913291
 21
408.590560240918
 31
0
  0
LINE
  8
35
 62
3
 10
617.2321614913288
 20
353.690560240922
 30
0
 11
617.2321614913288
 21
355.1905602409179
 31
0
  0
LINE
  8
35
 62
3
 10
612.032161491329
 20
353.690560240922
 30
0
 11
617.2321614913288
 21
353.690560240922
 31
0
  0
LINE
  8
35
 62
3
 10
612.0321614913293
 20
355.1905602409197
 30
0
 11
612.032161491329
 21
353.690560240922
 31
0
  0
LINE
  8
35
 62
3
 10
607.3321614913292
 20
355.1905602409197
 30
0
 11
615.2321614913288
 21
355.1905602409179
 31
0
  0
LINE
  8
35
 62
3
 10
615.2321614913288
 20
413.1905602409197
 30
0
 11
607.3321614913292
 21
413.1905602409197
 31
0
  0
LINE
  8
35
 62
3
 10
605.8321614913292
 20
448.6905602409138
 30
0
 11
605.832161491329
 21
356.6905602409197
 31
0
  0
LINE
  8
35
 62
3
 10
615.8321614913333
 20
412.39056024092
 30
0
 11
614.0321614913293
 21
412.39056024092
 31
0
  0
LINE
  8
35
 62
3
 10
614.0321614913293
 20
355.9905602409181
 30
0
 11
615.2321614913288
 21
355.9905602409181
 31
0
  0
LINE
  8
35
 62
3
 10
607.8321614913292
 20
408.1905602409197
 30
0
 11
607.8321614913292
 21
357.6905602409197
 31
0
  0
LINE
  8
35
 62
3
 10
608.3321614913292
 20
357.1905602409197
 30
0
 11
628.3321614913301
 21
357.1905602409179
 31
0
  0
LINE
  8
35
 62
3
 10
614.0321614913293
 20
396.8505602409177
 30
0
 11
614.0321614913293
 21
412.39056024092
 31
0
  0
LINE
  8
35
 62
3
 10
615.2321614913288
 20
355.1905602409179
 30
0
 11
615.2321614913288
 21
355.9905602409181
 31
0
  0
LINE
  8
35
 62
3
 10
608.3321614913292
 20
396.8505602409177
 30
0
 11
626.3321614913292
 21
396.8505602409177
 31
0
  0
LINE
  8
35
 62
3
 10
630.8321614913278
 20
433.2825539616119
 30
0
 11
605.8321614913292
 21
433.2825539616119
 31
0
  0
LINE
  8
35
 62
3
 10
625.8321614913301
 20
443.6885480104361
 30
0
 11
605.8321614913292
 21
443.6885480104361
 31
0
  0
LINE
  8
35
 62
1
 10
632.8408580225301
 20
439.1905602409179
 30
0
 11
604.5806254722069
 21
439.1905602409179
 31
0
  0
LINE
  8
30
 62
3
 10
614.032161491329
 20
374.6901489928141
 30
0
 11
614.0321614913293
 21
355.9905602409181
 31
0
  0
LINE
  8
1
 62
1
 10
623.8640956751439
 20
446.190560240922
 30
0
 11
634.030343518173
 21
446.190560240922
 31
0
  0
LINE
  8
1
 62
3
 10
630.8321614913267
 20
430.6575659164801
 30
0
 11
627.8321614913267
 21
430.6575659164801
 31
0
  0
LINE
  8
1
 62
3
 10
627.8321614913267
 20
430.6575659164801
 30
0
 11
627.8321614913267
 21
430.0354574293037
 31
0
  0
LINE
  8
1
 62
3
 10
627.8321614913267
 20
425.3079279450858
 30
0
 11
630.8321614913267
 21
425.3079279450858
 31
0
  0
LINE
  8
1
 62
3
 10
621.3321614913267
 20
434.710618208986
 30
0
 11
624.8321614913267
 21
434.710618208986
 31
0
  0
LINE
  8
1
 62
3
 10
624.8321614913267
 20
434.710618208986
 30
0
 11
624.8321614913267
 21
424.245724276906
 31
0
  0
LINE
  8
1
 62
3
 10
624.8321614913267
 20
424.245724276906
 30
0
 11
621.3321614913267
 21
424.245724276906
 31
0
  0
LINE
  8
1
 62
3
 10
621.3321614913267
 20
424.245724276906
 30
0
 11
621.3321614913267
 21
434.710618208986
 31
0
  0
LINE
  8
1
 62
3
 10
627.8321614913267
 20
428.8354574293021
 30
0
 11
627.8321614913267
 21
428.6870463958358
 31
0
  0
LINE
  8
1
 62
3
 10
627.8321614913267
 20
426.1386353623757
 30
0
 11
627.8321614913267
 21
425.3079279450858
 31
0
  0
LINE
  8
1
 62
3
 10
630.8321614913292
 20
426.1386353623757
 30
0
 11
624.8321614913267
 21
426.1386353623757
 31
0
  0
LINE
  8
1
 62
3
 10
630.8321614913267
 20
427.338635362376
 30
0
 11
624.8321614913267
 21
427.338635362376
 31
0
  0
LINE
  8
1
 62
3
 10
630.8321614913272
 20
428.8354574293021
 30
0
 11
624.8321614913267
 21
428.8354574293021
 31
0
  0
LINE
  8
1
 62
3
 10
630.8321614913272
 20
430.0354574293019
 30
0
 11
624.8321614913267
 21
430.0354574293019
 31
0
  0
LINE
  8
1
 62
3
 10
621.3321614913267
 20
428.8354574293021
 30
0
 11
619.334505433469
 21
428.8354574293021
 31
0
  0
LINE
  8
1
 62
3
 10
621.3321614913267
 20
430.0354574293019
 30
0
 11
618.8034829606125
 21
430.0354574293019
 31
0
  0
LINE
  8
1
 62
3
 10
621.3321614913267
 20
426.1386353623757
 30
0
 11
618.3106130943144
 21
426.1386353623757
 31
0
  0
LINE
  8
1
 62
3
 10
621.3321614913267
 20
427.338635362376
 30
0
 11
618.2387643599128
 21
427.338635362376
 31
0
  0
LINE
  8
30
 62
3
 10
630.8321614913267
 20
427.338635362376
 30
0
 11
630.8321614913272
 21
427.4870463958359
 31
0
  0
LINE
  8
30
 62
3
 10
630.8321614913272
 20
428.6870463958358
 30
0
 11
630.8321614913272
 21
428.8354574293021
 31
0
  0
LINE
  8
30
 62
3
 10
630.8321614913267
 20
427.338635362376
 30
0
 11
630.8321614913272
 21
427.4870463958359
 31
0
  0
LINE
  8
30
 62
3
 10
630.8321614913272
 20
428.6870463958358
 30
0
 11
630.8321614913272
 21
428.8354574293021
 31
0
  0
LINE
  8
30
 62
3
 10
630.8321614913272
 20
430.0354574293019
 30
0
 11
630.8321614913313
 21
449.6905602409197
 31
0
  0
LINE
  8
30
 62
3
 10
630.8321614913267
 20
427.338635362376
 30
0
 11
630.8321614913272
 21
427.4870463958359
 31
0
  0
LINE
  8
31
 62
3
 10
436.6796793949888
 20
365.008579725582
 30
0
 11
440.1213445509087
 21
368.4502448815019
 31
0
  0
LINE
  8
31
 62
3
 10
430.31571836431
 20
371.372540756262
 30
0
 11
434.3109274805526
 21
375.3677498725037
 31
0
  0
LINE
  8
31
 62
3
 10
444.2221517276466
 20
358.9746018594601
 30
0
 11
447.8106354548885
 21
362.5630855866998
 31
0
  0
LINE
  8
31
 62
3
 10
430.6865711656552
 20
364.6766505984301
 30
0
 11
438.2290434983132
 21
358.6426727323037
 31
0
  0
LINE
  8
31
 62
3
 10
507.4189951460645
 20
431.3293293413317
 30
0
 11
509.5916228945378
 21
432.5336365677481
 31
0
  0
LINE
  8
31
 62
3
 10
512.8398473501884
 20
426.6736845299138
 30
0
 11
510.6153568672578
 21
425.4406293203538
 31
0
  0
LINE
  8
31
 62
3
 10
510.2713375582308
 20
432.3387315243017
 30
0
 11
513.0347523936352
 21
427.353399193606
 31
0
  0
LINE
  8
31
 62
3
 10
514.4416814876975
 20
425.8465645894498
 30
0
 11
511.7798811511973
 21
424.3711045697678
 31
0
  0
LINE
  8
31
 62
3
 10
510.9530146126196
 20
434.2029515739519
 30
0
 11
514.8314915745903
 21
427.205993916838
 31
0
  0
LINE
  8
31
 62
3
 10
506.3231465383988
 20
432.779927861252
 30
0
 11
509.5935852852338
 21
434.592761660846
 31
0
  0
LINE
  8
31
 62
3
 10
501.3157183643104
 20
442.372540756262
 30
0
 11
499.4909042565412
 21
440.5477266484941
 31
0
  0
LINE
  8
31
 62
3
 10
502.3429250188667
 20
448.6191214214719
 30
0
 11
507.9143535902932
 21
442.1191214214759
 31
0
  0
LINE
  8
31
 62
3
 10
505.5031074788606
 20
433.8320078094557
 30
0
 11
507.679679394989
 21
436.0085797255838
 31
0
  0
LINE
  8
31
 62
3
 10
491.2073322824228
 20
445.8406048731581
 30
0
 11
494.2392681655256
 21
448.8725407562597
 31
0
  0
LINE
  8
1
 62
2
 10
425.3976988796493
 20
406.2905602409237
 30
0
 11
425.3976988796493
 21
409.693614776962
 31
0
  0
LINE
  8
1
 62
2
 10
468.1694466355582
 20
450.190560240922
 30
0
 11
497.9829929972936
 21
450.1905602409238
 31
0
  0
LINE
  8
1
 62
1
 10
498.4976988796493
 20
449.115560240924
 30
0
 11
498.4976988796493
 21
443.2655602409241
 31
0
  0
LINE
  8
1
 62
1
 10
501.4226988796492
 20
446.1905602409238
 30
0
 11
495.5726988796494
 21
446.1905602409238
 31
0
  0
LINE
  8
1
 62
3
 10
497.9829929972936
 20
450.1905602409238
 30
0
 11
498.8393732691744
 21
450.190560240922
 31
0
  0
LINE
  8
1
 62
1
 10
440.9976988796493
 20
365.115560240924
 30
0
 11
440.9976988796493
 21
359.2655602409259
 31
0
  0
LINE
  8
1
 62
1
 10
443.9226988796492
 20
362.1905602409261
 30
0
 11
438.072698879649
 21
362.1905602409261
 31
0
  0
LINE
  8
30
 62
1
 10
472.9976988796498
 20
345.8391648321117
 30
0
 11
472.9976988796498
 21
458.462937855968
 31
0
  0
LINE
  8
30
 62
1
 10
527.1864071239272
 20
408.5905602409239
 30
0
 11
418.8304823409778
 21
408.5905602409239
 31
0
  0
LINE
  8
30
 62
3
 10
511.8219461223682
 20
422.956998785698
 30
0
 11
510.3689184634046
 21
422.573092318376
 31
0
  0
LINE
  8
30
 62
3
 10
513.0991749120467
 20
418.122881842678
 30
0
 11
511.6461472530838
 21
417.7389753753537
 31
0
  0
LINE
  8
30
 62
1
 10
515.1118624545647
 20
421.240444502324
 30
0
 11
507.2223486099362
 21
419.1559450295758
 31
0
  0
LINE
  8
30
 62
3
 10
510.9617692358652
 20
425.3155179218161
 30
0
 11
509.500266004478
 21
424.9293721116637
 31
0
  0
LINE
  8
30
 62
3
 10
513.516226815223
 20
415.6472840357719
 30
0
 11
512.054723583836
 21
415.2611382256177
 31
0
  0
LINE
  8
30
 62
3
 10
513.1870922893061
 20
413.1905602409238
 30
0
 11
522.4976988796493
 21
413.1905602409238
 31
0
  0
LINE
  8
30
 62
1
 10
504.4976988796498
 20
439.1905602409238
 30
0
 11
504.4976988796498
 21
443.0077222282598
 31
0
  0
LINE
  8
30
 62
1
 10
504.4976988796498
 20
439.1905602409238
 30
0
 11
501.2340545378586
 21
439.1905602409238
 31
0
  0
LINE
  8
30
 62
1
 10
507.9368424023106
 20
439.1905602409238
 30
0
 11
504.4976988796498
 21
439.1905602409238
 31
0
  0
LINE
  8
30
 62
1
 10
504.4976988796498
 20
435.453786698482
 30
0
 11
504.4976988796498
 21
439.1905602409238
 31
0
  0
LINE
  8
30
 62
1
 10
433.4976988796498
 20
368.1905602409238
 30
0
 11
433.4976988796498
 21
371.0552011943119
 31
0
  0
LINE
  8
30
 62
1
 10
433.4976988796498
 20
368.1905602409238
 30
0
 11
430.4523556983568
 21
368.1905602409238
 31
0
  0
LINE
  8
30
 62
1
 10
436.5567502881658
 20
368.1905602409238
 30
0
 11
433.4976988796498
 21
368.1905602409238
 31
0
  0
LINE
  8
30
 62
1
 10
433.4976988796498
 20
365.2560263339938
 30
0
 11
433.4976988796498
 21
368.1905602409238
 31
0
  0
LINE
  8
30
 62
1
 10
502.4976988796494
 20
357.4356057548857
 30
0
 11
502.4976988796494
 21
352.7482458076438
 31
0
  0
LINE
  8
30
 62
2
  6
CENTER
 10
446.4592080169963
 20
445.8479867832357
 30
0
 11
448.4017800811728
 21
442.483353270718
 31
0
  0
LINE
  8
30
 62
2
  6
CENTER
 10
427.969979430554
 20
382.9813899213518
 30
0
 11
432.4343132631072
 21
385.0631429760338
 31
0
  0
LINE
  8
30
 62
3
 10
472.4338404757388
 20
355.1905602409238
 30
0
 11
522.4976988796493
 21
355.1905602409238
 31
0
  0
LINE
  8
30
 62
3
 10
522.4976988796493
 20
413.1905602409238
 30
0
 11
522.4976988796493
 21
355.1905602409238
 31
0
  0
LINE
  8
30
 62
3
 10
451.065911086214
 20
447.8689430119657
 30
0
 11
451.8206596452486
 21
446.561680160778
 31
0
  0
LINE
  8
30
 62
3
 10
442.4056570483699
 20
442.8689430119657
 30
0
 11
443.1604056074044
 21
441.561680160778
 31
0
  0
LINE
  8
30
 62
3
 10
426.9391948656924
 20
388.0176167796617
 30
0
 11
428.3052780166736
 21
388.654631814642
 31
0
  0
LINE
  8
30
 62
3
 10
431.1653774830994
 20
378.9545389092959
 30
0
 11
432.5314606340804
 21
379.591553944274
 31
0
  0
LINE
  8
30
 62
3
 10
497.4976988796494
 20
353.6905602409238
 30
0
 11
507.4976988796494
 21
353.6905602409238
 31
0
  0
LINE
  8
30
 62
3
 10
507.4976988796494
 20
353.6905602409238
 30
0
 11
507.4976988796494
 21
355.1905602409238
 31
0
  0
LINE
  8
30
 62
3
 10
497.4976988796494
 20
353.6905602409238
 30
0
 11
497.4976988796494
 21
355.1905602409238
 31
0
  0
LINE
  8
30
 62
3
 10
448.7972048182047
 20
446.7984575356099
 30
0
 11
449.54838354781
 21
445.4973778103681
 31
0
  0
LINE
  8
30
 62
3
 10
444.4670777992824
 20
444.2984575356099
 30
0
 11
445.2182565288878
 21
442.9973778103681
 31
0
  0
LINE
  8
30
 62
3
 10
431.304790812767
 20
381.7779932099761
 30
0
 11
429.9436827974602
 21
381.1432981188618
 31
0
  0
LINE
  8
30
 62
3
 10
429.1916995040638
 20
386.3095321451579
 30
0
 11
427.8305914887569
 21
385.674837054044
 31
0
  0
LINE
  8
1
 62
3
 10
504.9976988796494
 20
355.1905602409238
 30
0
 11
504.9976988796494
 21
353.6905602409238
 31
0
  0
LINE
  8
1
 62
3
 10
499.9976988796494
 20
355.1905602409238
 30
0
 11
499.9976988796494
 21
353.6905602409238
 31
0
  0
LINE
  8
1
 62
3
 10
510.6107042926944
 20
431.7264977287759
 30
0
 11
507.1276603256789
 21
429.795814931254
 31
0
  0
LINE
  8
1
 62
3
 10
512.5499427736754
 20
428.2280189002299
 30
0
 11
508.938380665172
 21
426.226097333602
 31
0
  0
LINE
  8
1
 62
3
 10
517.7384953414346
 20
435.6774968239579
 30
0
 11
511.9226338534042
 21
432.4537121591479
 31
0
  0
LINE
  8
1
 62
3
 10
519.3777016480806
 20
432.0127074454499
 30
0
 11
513.8618723343841
 21
428.9552333305978
 31
0
  0
LINE
  8
1
 62
3
 10
518.6874405352485
 20
434.831480852798
 30
0
 11
512.504405397689
 21
431.4041685105981
 31
0
  0
LINE
  8
1
 62
3
 10
511.1924758369794
 20
430.6769540802279
 30
0
 11
507.712542364678
 21
428.7479954580799
 31
0
  0
LINE
  8
1
 62
3
 10
518.4824567440949
 20
432.8884899733639
 30
0
 11
513.2801007900832
 21
430.004776979174
 31
0
  0
LINE
  8
1
 62
3
 10
511.9681712293734
 20
429.2775625488057
 30
0
 11
508.4332219998468
 21
427.3181081944517
 31
0
  0
LINE
  8
1
 62
3
 10
430.351760018957
 20
364.97294176062
 30
0
 11
431.1868398457946
 21
365.8270487227519
 31
0
  0
LINE
  8
1
 62
3
 10
630.8321614913272
 20
427.4870463958359
 30
0
 11
624.8321614913267
 21
427.4870463958359
 31
0
  0
LINE
  8
1
 62
3
 10
630.8321614913272
 20
428.6870463958358
 30
0
 11
624.8321614913267
 21
428.6870463958358
 31
0
  0
LINE
  8
1
 62
3
 10
621.3321614913267
 20
427.4870463958359
 30
0
 11
618.3370085662679
 21
427.4870463958359
 31
0
  0
LINE
  8
1
 62
3
 10
621.3321614913267
 20
428.6870463958358
 30
0
 11
619.2627110611555
 21
428.6870463958358
 31
0
  0
LINE
  8
30
 62
3
 10
630.8321614913267
 20
427.338635362376
 30
0
 11
630.8321614913272
 21
427.4870463958359
 31
0
  0
LINE
  8
30
 62
3
 10
630.8321614913267
 20
427.338635362376
 30
0
 11
630.8321614913272
 21
427.4870463958359
 31
0
  0
LINE
  8
1
 62
3
 10
627.8321614913267
 20
427.4870463958359
 30
0
 11
627.8321614913267
 21
427.338635362376
 31
0
  0
LINE
  8
30
 62
3
 10
630.8321614913272
 20
428.6870463958358
 30
0
 11
630.8321614913272
 21
428.8354574293021
 31
0
  0
LINE
  8
1
 62
3
 10
518.6828363916816
 20
434.5157162951018
 30
0
 11
512.6372150040859
 21
431.1645736382998
 31
0
  0
LINE
  8
1
 62
3
 10
518.477984588995
 20
433.030140205206
 30
0
 11
513.218986548387
 21
430.115029989724
 31
0
  0
LINE
  8
1
 62
3
 10
511.325285443376
 20
430.4373592079301
 30
0
 11
507.7903362138493
 21
428.4779048535779
 31
0
  0
LINE
  8
1
 62
3
 10
511.907056987678
 20
429.3878155593561
 30
0
 11
508.2954948791746
 21
427.3858939927277
 31
0
  0
LINE
  8
1
 62
2
 10
610.7636786434538
 20
391.2282117263917
 30
0
 11
624.8321614913342
 21
391.2282117263917
 31
0
  0
LINE
  8
1
 62
2
 10
610.7636786434538
 20
391.932908280528
 30
0
 11
624.8321614913342
 21
391.932908280528
 31
0
  0
LINE
  8
1
 62
3
 10
630.8321614913292
 20
411.6905602409197
 30
0
 11
630.8321614913292
 21
426.1386353623757
 31
0
  0
ARC
  8
1
 62
3
 10
628.3321614913301
 20
357.6905602409179
 30
0
 40
0.5
 50
270
 51
0
  0
ARC
  8
1
 62
3
 10
630.3321614913313
 20
449.6905602409197
 30
0
 40
0.5
 50
0
 51
90
  0
ARC
  8
1
 62
3
 10
629.3321614913292
 20
356.6905602409179
 30
0
 40
1.5
 50
270
 51
0
  0
ARC
  8
1
 62
3
 10
629.3321614913292
 20
411.6905602409197
 30
0
 40
1.5
 50
0
 51
90
  0
ARC
  8
35
 62
3
 10
608.3321614913292
 20
396.3505602409177
 30
0
 40
0.5
 50
90
 51
180
  0
ARC
  8
35
 62
3
 10
607.332161491329
 20
448.6905602409138
 30
0
 40
1.5
 50
90
 51
180
  0
ARC
  8
35
 62
3
 10
608.3321614913292
 20
357.6905602409197
 30
0
 40
0.5
 50
180
 51
270
  0
ARC
  8
35
 62
3
 10
607.3321614913292
 20
411.6905602409197
 30
0
 40
1.5
 50
90
 51
180
  0
ARC
  8
35
 62
3
 10
607.3321614913292
 20
356.6905602409197
 30
0
 40
1.500000000000227
 50
180
 51
270
  0
ARC
  8
31
 62
3
 10
433.6038206993659
 20
376.07485665369
 30
0
 40
0.9999999999999678
 50
315.0000000000161
 51
34.73481167004646
  0
ARC
  8
31
 62
3
 10
440.8284513320952
 20
367.7431381003157
 30
0
 40
0.9999999999996887
 50
47.12385607135847
 51
135.0000000000138
  0
ARC
  8
31
 62
3
 10
441.0401712123062
 20
362.1565823748001
 30
0
 40
4.500000000000941
 50
231.3401917459513
 51
315.0000000000036
  0
ARC
  8
31
 62
3
 10
510.857761677381
 20
425.003319466784
 30
0
 40
0.5000000000001516
 50
118.999999999997
 51
161.3955926539565
  0
ARC
  8
31
 62
3
 10
511.2950715309481
 20
425.2457242769069
 30
0
 40
1.000000000001133
 50
274.3615678941883
 51
299.0000000001495
  0
ARC
  8
31
 62
3
 10
509.834027704661
 20
432.0963267141779
 30
0
 40
0.5000000000003774
 50
29.00000000005709
 51
118.999999999978
  0
ARC
  8
31
 62
3
 10
513.9568718674509
 20
426.7211842965899
 30
0
 40
1.000000000000706
 50
298.9999999999916
 51
29.00000000008905
  0
ARC
  8
31
 62
3
 10
510.07839490548
 20
433.718141953706
 30
0
 40
0.9999999999999555
 50
28.9999999999745
 51
118.9999999999761
  0
ARC
  8
31
 62
3
 10
512.5974425400655
 20
427.110994383484
 30
0
 40
0.500000000000312
 50
298.9999999999496
 51
28.99999999987479
  0
ARC
  8
31
 62
3
 10
498.926270308223
 20
445.690560240922
 30
0
 40
4.499999999998596
 50
40.60129464498657
 51
90
  0
ARC
  8
31
 62
3
 10
497.4212486808666
 20
445.6905602409227
 30
0
 40
4.499999999999318
 50
90
 51
135.0000000000363
  0
ARC
  8
30
 62
3
 10
513.1870922893061
 20
414.1905602409238
 30
0
 40
0.9999999999999235
 50
185.8384626653902
 51
270
  0
ARC
  8
1
 62
3
 10
609.5521614913291
 20
398.39056024092
 30
0
 40
9
 50
180
 51
233.6639424853857
  0
ARC
  8
1
 62
3
 10
609.5521614913291
 20
418.7905602409178
 30
0
 40
9.000000000000046
 50
126.3360575146143
 51
180
  0
ARC
  8
1
 62
3
 10
630.832161491328
 20
426.7386353623758
 30
0
 40
0.6000000000001364
 50
270
 51
90
  0
ARC
  8
1
 62
3
 10
630.8321614913272
 20
429.435457429302
 30
0
 40
0.5999999999999091
 50
270
 51
90
  0
ARC
  8
31
 62
3
 10
433.4976988796494
 20
368.190560240922
 30
0
 40
4.500000000000358
 50
134.9999999999949
 51
314.9999999999943
  0
ARC
  8
31
 62
3
 10
448.517742236075
 20
361.8559788055118
 30
0
 40
1.000000000000244
 50
57.99856910183942
 51
134.9999999999401
  0
ARC
  8
31
 62
3
 10
507.9038047663108
 20
430.4547096341921
 30
0
 40
1.000000000000148
 50
118.9999999999944
 51
210.1535394942204
  0
ARC
  8
31
 62
3
 10
498.7837974753501
 20
441.2548334296796
 30
0
 40
1.000000000002515
 50
230.2043260332749
 51
315.000000000228
  0
ARC
  8
31
 62
3
 10
505.8383369181522
 20
433.654547568392
 30
0
 40
1.000000000001231
 50
233.9532163384328
 51
298.9999999999976
  0
ARC
  8
31
 62
3
 10
504.4976988796498
 20
439.1905602409238
 30
0
 40
4.500000000000171
 50
0
 51
135.0000000000107
  0
ARC
  8
31
 62
3
 10
504.4976988796498
 20
439.1905602409238
 30
0
 40
4.500000000000197
 50
314.9999999999928
 51
0
  0
ARC
  8
31
 62
3
 10
506.2102142600472
 20
433.12490102827
 30
0
 40
0.9999999999994454
 50
135.0000000000369
 51
214.6169486183532
  0
ARC
  8
31
 62
3
 10
490.5002255012395
 20
446.5477116543445
 30
0
 40
0.9999999999975379
 50
244.5648601629496
 51
314.9999999998733
  0
ARC
  8
30
 62
3
 10
472.7976988796494
 20
410.0605602409237
 30
0
 40
39.60000000000033
 50
5.838462665344871
 51
34.67995066269103
  0
ARC
  8
30
 62
3
 10
469.2976988796468
 20
406.2905602409249
 30
0
 40
43.89999999999746
 50
89.59567015347218
 51
185.2820953841085
  0
ARC
  8
30
 62
3
 10
469.9276988796495
 20
403.2905602409237
 30
0
 40
46.90000000000013
 50
60.69129591365652
 51
90.3911844496722
  0
ARC
  8
30
 62
3
 10
472.7976988796494
 20
410.0605602409237
 30
0
 40
39.60000000000007
 50
50.25821824375698
 51
59.51724256490743
  0
ARC
  8
30
 62
3
 10
472.7976988796494
 20
410.0605602409237
 30
0
 40
41.1000000000002
 50
7.8124018285402
 51
21.7875981714594
  0
ARC
  8
30
 62
3
 10
475.5976988796484
 20
405.190560240922
 30
0
 40
50.0999999999986
 50
183.3658138934699
 51
214.7348116700215
  0
ARC
  8
30
 62
3
 10
475.5976988796484
 20
405.190560240922
 30
0
 40
50.09999999999842
 50
227.1238560713794
 51
266.3793125914417
  0
ARC
  8
30
 62
3
 10
469.2976988796478
 20
406.290560240926
 30
0
 40
45.3999999999988
 50
113.6770660137568
 51
126.322933986245
  0
ARC
  8
30
 62
3
 10
475.5976988796474
 20
405.1905602409242
 30
0
 40
51.59999999999798
 50
199.4393582143165
 51
210.5606417856868
  0
ARC
  8
1
 62
2
 10
472.9976988796498
 20
408.5905602409257
 30
0
 40
61.00141591146432
 50
225.6453569565699
 51
260.2893694604206
  0
ARC
  8
1
 62
2
 10
472.9976988796536
 20
408.5905602409357
 30
0
 40
49.76257633327278
 50
55.05094236884018
 51
82.65087416305016
  0
ARC
  8
1
 62
3
 10
630.8321614913272
 20
428.0870463958358
 30
0
 40
0.5999999999999091
 50
270
 51
90
  0
CIRCLE
  8
1
 62
3
 10
472.9976988796498
 20
408.5905602409257
 30
0
 40
4.25
  0
CIRCLE
  8
1
 62
3
 10
472.9976988796498
 20
408.5905602409257
 30
0
 40
1.5
  0
CIRCLE
  8
1
 62
3
 10
472.9976988796498
 20
408.5905602409257
 30
0
 40
17.5
  0
CIRCLE
  8
1
 62
3
 10
498.4976988796493
 20
446.1905602409238
 30
0
 40
2.250000000000512
  0
CIRCLE
  8
1
 62
3
 10
440.9976988796493
 20
362.1905602409261
 30
0
 40
2.25
  0
CIRCLE
  8
30
 62
3
 10
504.4976988796498
 20
439.1905602409238
 30
0
 40
2.25
  0
CIRCLE
  8
30
 62
3
 10
433.4976988796498
 20
368.1905602409238
 30
0
 40
2.25
  0
CIRCLE
  8
30
 62
3
 10
472.9976988796498
 20
408.5905602409257
 30
0
 40
24.99999999999818
  0
POLYLINE
  8
1
 62
2
 66
1
 70
1
  0
VERTEX
  8
1
 10
368.4921108011311
 20
502.015528805077
 30
0
  0
VERTEX
  8
1
 10
413.7921108011311
 20
502.015528805077
 30
0
  0
VERTEX
  8
1
 10
413.7921108011311
 20
510.015528805077
 30
0
  0
VERTEX
  8
1
 10
368.4921108011311
 20
510.015528805077
 30
0
  0
SEQEND
  8
1
  0
LINE
  8
1
 62
2
 10
576.6354587936413
 20
457.604470399472
 30
0
 11
540.1287116518453
 21
457.604470399472
 31
0
  0
LINE
  8
1
 62
2
 10
540.1287116518453
 20
457.604470399472
 30
0
 11
527.4891425724128
 21
441.362666885287
 31
0
  0
SOLID
  8
1
 62
2
 10
529.1219613699202
 20
444.1467980508296
 30
0
 11
529.7869105882813
 21
443.6293264798646
 31
0
 12
527.4891425724128
 22
441.362666885287
 32
0
 13
527.4891425724128
 23
441.362666885287
 33
0
  0
TEXT
  8
1
 62
2
 10
581.3111068223615
 20
393.3883163861348
 30
0
 40
4
  1
ïzì×î¹
 41
0.891
  0
TEXT
  8
1
 62
2
 10
539.5105622653076
 20
381.3471029122322
 30
0
 40
4
  1
ôfÅoî¹
 41
0.891
  0
TEXT
  8
1
 62
2
 10
370.4921108011311
 20
504.015528805077
 30
0
 40
4
  1
E1027H12BA
 41
0.9
  0
TEXT
  8
1
 62
2
 10
404.6683852494053
 20
335.7292893753257
 30
0
 40
3.200000000000001
  1
18.6
 50
314.999999999993
 41
0.8910000000000004
  0
TEXT
  8
1
 62
2
 10
409.2870790941715
 20
345.4197063142757
 30
0
 40
3.200000000000001
  1
9
 50
314.999999999993
 41
0.8910000000000004
  0
TEXT
  8
1
 62
2
 10
514.4305467263174
 20
465.6469438565557
 30
0
 40
3.2
  1
18.6
 50
315.0000000000067
 41
0.891
  0
TEXT
  8
1
 62
2
 10
517.4458155401011
 20
453.0951267548141
 30
0
 40
3.2
  1
9
 50
315.0000000000067
 41
0.8910000000000005
  0
TEXT
  8
1
 62
2
 10
542.6531143797353
 20
461.293982078692
 30
0
 40
4
  1
âèü[âhÉ³ÆÀé%%d300ü}30
 41
0.63
  0
DIMENSION
  8
1
  6
CONTINUOUS
 62
2
  2
*D0
  3
DMST_1
 10
536.776732768582
 20
353.6905602409238
 30
0
 11
532.6969504216251
 21
345.192083215587
 31
0
 12
0
 22
0
 32
0
 70
0
  1
1.5
 13
522.4976988796493
 23
355.1905602409238
 33
0
 14
507.4976988796494
 24
353.6905602409238
 34
0
 50
90
 53
0
  0
DIMENSION
  8
1
  6
CONTINUOUS
 62
2
  2
*D1
  3
DMST_1
 10
522.4976988796493
 20
326.048364657826
 30
0
 11
512.5496078826141
 21
329.072883757708
 31
0
 12
0
 22
0
 32
0
 70
0
  1
20
 13
502.4976988796494
 23
352.7482458076438
 33
0
 14
522.4976988796493
 24
355.1905602409238
 34
0
 53
0
  0
DIMENSION
  8
1
  6
CONTINUOUS
 62
2
  2
*D2
  3
DMST_1
 10
497.4976988796494
 20
340.897076468734
 30
0
 11
488.088612136257
 21
344.427894377185
 31
0
 12
0
 22
0
 32
0
 70
0
  1
10
 13
507.4976988796494
 23
353.6905602409238
 33
0
 14
497.4976988796494
 24
353.6905602409238
 34
0
 53
0
  0
DIMENSION
  8
1
  6
CONTINUOUS
 62
2
  2
*D3
  3
DMST_2
 10
379.905400632251
 20
355.1905602409238
 30
0
 11
377.083604377767
 21
401.849231213964
 31
0
 12
0
 22
0
 32
0
 70
0
 13
468.1694466355582
 23
450.190560240922
 33
0
 14
472.4338404757388
 24
355.1905602409238
 34
0
 50
90
 53
0
  0
DIMENSION
  8
1
  6
CONTINUOUS
 62
2
  2
*D4
  3
DMST_3
 10
546.114816973827
 20
408.5905602409239
 30
0
 11
542.876021599158
 21
425.236597475273
 31
0
 12
0
 22
0
 32
0
 70
0
 13
501.4226988796492
 23
446.1905602409238
 33
0
 14
527.1864071239272
 24
408.5905602409239
 34
0
 50
90
 53
0
  0
DIMENSION
  8
1
  6
CONTINUOUS
 62
2
  2
*D5
  3
DMST_3
 10
472.9976988796498
 20
482.519156185149
 30
0
 11
484.57770485511
 21
485.154311906655
 31
0
 12
0
 22
0
 32
0
 70
0
 13
498.4976988796493
 23
449.115560240924
 33
0
 14
472.9976988796498
 24
458.462937855968
 34
0
 53
0
  0
DIMENSION
  8
1
  6
CONTINUOUS
 62
2
  2
*D6
  3
DMST_3
 10
440.9976988796493
 20
324.966869949384
 30
0
 11
455.487014198183
 21
327.661441511097
 31
0
 12
0
 22
0
 32
0
 70
0
 13
472.9976988796498
 23
345.8391648321117
 33
0
 14
440.9976988796493
 24
359.2655602409259
 34
0
 53
0
  0
DIMENSION
  8
1
  6
CONTINUOUS
 62
2
  2
*D7
  3
DMST_3
 10
390.072669978994
 20
408.5905602409239
 30
0
 11
387.117052915845
 21
386.261552235164
 31
0
 12
0
 22
0
 32
0
 70
0
 13
438.072698879649
 23
362.1905602409261
 33
0
 14
418.8304823409778
 24
408.5905602409239
 34
0
 50
90
 53
0
  0
DIMENSION
  8
1
  6
CONTINUOUS
 62
2
  2
*D8
  3
DMST_3
 10
400.598502899878
 20
368.1905602409238
 30
0
 11
397.8671763495
 21
386.799058406847
 31
0
 12
0
 22
0
 32
0
 70
0
 13
418.8304823409778
 23
408.5905602409239
 33
0
 14
430.4523556983568
 24
368.1905602409238
 34
0
 50
90
 53
0
  0
DIMENSION
  8
1
  6
CONTINUOUS
 62
2
  2
*D9
  3
DMST_3
 10
504.4976988796498
 20
490.903742571759
 30
0
 11
488.889777853937
 21
494.257577126403
 31
0
 12
0
 22
0
 32
0
 70
0
 13
472.9976988796498
 23
458.462937855968
 33
0
 14
504.4976988796498
 24
443.0077222282598
 34
0
 53
0
  0
DIMENSION
  8
1
  6
CONTINUOUS
 62
2
  2
*D10
  3
DMST_3
 10
536.5909002470841
 20
408.5905602409239
 30
0
 11
533.853663055436
 21
422.691829680889
 31
0
 12
0
 22
0
 32
0
 70
0
 13
507.9368424023106
 23
439.1905602409238
 33
0
 14
527.1864071239272
 24
408.5905602409239
 34
0
 50
90
 53
0
  0
DIMENSION
  8
1
  6
CONTINUOUS
 62
2
  2
*D11
  3
DMST_2
 10
536.776732768582
 20
355.1905602409238
 30
0
 11
533.622320528674
 21
381.050174863712
 31
0
 12
0
 22
0
 32
0
 70
0
 13
527.1864071239272
 23
408.5905602409239
 33
0
 14
522.4976988796493
 24
355.1905602409238
 34
0
 50
90
 53
0
  0
DIMENSION
  8
1
  6
CONTINUOUS
 62
2
  2
*D12
  3
DMST_2
 10
472.9976988796498
 20
315.160095898253
 30
0
 11
496.620473956571
 21
317.982980391476
 31
0
 12
0
 22
0
 32
0
 70
0
 13
522.4976988796493
 23
355.1905602409238
 33
0
 14
472.9976988796498
 24
345.8391648321117
 34
0
 53
0
  0
DIMENSION
  8
1
  6
CONTINUOUS
 62
2
  2
*D13
  3
DMST_3
 10
433.4976988796498
 20
315.160095898253
 30
0
 11
451.655956671666
 21
318.184614998134
 31
0
 12
0
 22
0
 32
0
 70
0
 13
472.9976988796498
 23
345.8391648321117
 33
0
 14
433.4976988796498
 24
365.2560263339938
 34
0
 53
0
  0
DIMENSION
  8
1
  6
CONTINUOUS
 62
2
  2
*D14
  3
DMST_2
 10
580.765432417359
 20
413.1905602409197
 30
0
 11
578.075285439492
 21
419.155643955505
 31
0
 12
0
 22
0
 32
0
 70
0
 13
607.8321614913292
 23
408.1905602409197
 33
0
 14
607.3321614913292
 24
413.1905602409197
 34
0
 50
90
 53
0
  0
DIMENSION
  8
1
  6
CONTINUOUS
 62
2
  2
*D15
  3
DMST_2
 10
580.765432417359
 20
355.1905602409197
 30
0
 11
577.7390170672579
 21
347.866749042017
 31
0
 12
0
 22
0
 32
0
 70
0
 13
608.3321614913292
 23
357.1905602409197
 33
0
 14
607.3321614913292
 24
355.1905602409197
 34
0
 50
90
 53
0
  0
DIMENSION
  8
1
  6
CONTINUOUS
 62
2
  2
*D16
  3
DMST_2
 10
572.6949914837569
 20
355.1905602409197
 30
0
 11
568.9960393891889
 21
383.847464870994
 31
0
 12
0
 22
0
 32
0
 70
0
 13
607.3321614913292
 23
413.1905602409197
 33
0
 14
607.3321614913292
 24
355.1905602409197
 34
0
 50
90
 53
0
  0
DIMENSION
  8
1
  6
CONTINUOUS
 62
2
  2
*D17
  3
DMST_2
 10
630.8321614913292
 20
343.158991830749
 30
0
 11
639.276129185976
 21
346.857943925317
 31
0
 12
0
 22
0
 32
0
 70
0
 13
628.8321614913301
 23
357.6905602409179
 33
0
 14
630.8321614913292
 24
356.6905602409179
 34
0
 53
0
  0
DIMENSION
  8
1
  6
CONTINUOUS
 62
2
  2
*D18
  3
DMST_2
 10
605.832161491329
 20
342.822723458516
 30
0
 11
597.915119401264
 21
346.521675553084
 31
0
 12
0
 22
0
 32
0
 70
0
 13
607.8321614913292
 23
357.6905602409197
 33
0
 14
605.832161491329
 24
356.6905602409197
 34
0
 53
0
  0
DIMENSION
  8
1
  6
CONTINUOUS
 62
2
  2
*D19
  3
DMST_2
 10
605.832161491329
 20
332.062135547046
 30
0
 11
617.0824166185699
 21
334.752282524914
 31
0
 12
0
 22
0
 32
0
 70
0
 13
630.8321614913292
 23
356.6905602409179
 33
0
 14
605.832161491329
 24
356.6905602409197
 34
0
 53
0
  0
DIMENSION
  8
1
  6
CONTINUOUS
 62
2
  2
*D20
  3
DMST_2
 10
630.8321614913313
 20
460.516653740216
 30
0
 11
638.2673240692759
 21
464.215605834784
 31
0
 12
0
 22
0
 32
0
 70
0
 13
625.8321614913301
 23
450.1905602409179
 33
0
 14
630.8321614913313
 24
449.6905602409197
 34
0
 53
0
  0
DIMENSION
  8
1
  6
CONTINUOUS
 62
2
  2
*D21
  3
DMST_2
 10
600.5521614913291
 20
468.587094673819
 30
0
 11
615.4010747574019
 21
472.286046768386
 31
0
 12
0
 22
0
 32
0
 70
0
  1
30.3
 13
630.8321614913313
 23
449.6905602409197
 33
0
 14
600.5521614913291
 24
418.7905602409178
 34
0
 53
0
  0
DIMENSION
  8
1
  6
CONTINUOUS
 62
2
  2
*D22
  3
DMST_2
 10
522.4976988796493
 20
499.767448180461
 30
0
 11
474.037081969086
 21
502.402603901967
 31
0
 12
0
 22
0
 32
0
 70
0
 13
425.3976988796493
 23
409.693614776962
 33
0
 14
522.4976988796493
 24
413.1905602409238
 34
0
 53
0
  0
DIMENSION
  8
1
  6
CONTINUOUS
 62
2
  2
*D23
  3
DMST_4
 10
472.9976988796536
 20
408.5905602409357
 30
0
 11
480.5318469655468
 21
472.616683871112
 31
0
 12
0
 22
0
 32
0
 70
4
  1
49.8
 15
481.5640002209944
 25
457.6102755058589
 35
0
 40
0
 53
0
  0
DIMENSION
  8
1
  6
CONTINUOUS
 62
2
  2
*D24
  3
DMST_4
 10
472.9976988796536
 20
408.5905602409357
 30
0
 11
449.2387545197266
 21
337.6360216874241
 31
0
 12
0
 22
0
 32
0
 70
4
  1
61
 15
459.4856444835497
 25
360.6975713039156
 35
0
 40
0
 53
0
  0
DIMENSION
  8
1
  6
CONTINUOUS
 62
2
  2
*D25
  3
DMST_5
 10
493.0217185286588
 20
393.6226399747027
 30
0
 11
432.2835857685523
 21
443.5188918654655
 31
0
 12
0
 22
0
 32
0
 70
3
 15
452.9736792306408
 25
423.5584805071487
 35
0
 40
0
 53
0
  0
INSERT
  8
1
  2
*D26
 10
0
 20
0
 30
0
  0
ENDSEC
  0
EOF
