  0
SECTION
  2
HEADER
  9
$ACADVER
  1
AC1009
  9
$INSBASE
 10
0
 20
0
  9
$EXTMIN
 10
253.467218876619
 20
236.0981501657826
  9
$EXTMAX
 10
448.2247159996534
 20
387.149136533489
  9
$LIMMIN
 10
253.467218876619
 20
236.0981501657826
  9
$LIMMAX
 10
448.2247159996534
 20
387.149136533489
  9
$VIEWCTR
 10
10
 20
10
  9
$VIEWSIZE
 40
10
  9
$SNAPMODE
 70
0
  9
$SNAPUNIT
 10
1
 20
1
  9
$SNAPBASE
 10
0
 20
0
  9
$SNAPANG
 50
0
  9
$SNAPSTYLE
 70
0
  9
$SNAPISOPAIR
 70
0
  9
$GRIDMODE
 70
0
  9
$GRIDUNIT
 10
0
 20
0
  9
$ORTHOMODE
 70
0
  9
$REGENMODE
 70
1
  9
$FILLMODE
 70
1
  9
$QTEXTMODE
 70
0
  9
$DRAGMODE
 70
2
  9
$LTSCALE
 40
1
  9
$OSMODE
 70
0
  9
$ATTMODE
 70
1
  9
$TEXTSIZE
 40
3.5
  9
$TRACEWID
 40
0.5
  9
$TEXTSTYLE
  7
STANDARD
  9
$CLAYER
  8
0
  9
$CELTYPE
  6
BYLAYER
  9
$CECOLOR
 62
256
  9
$DIMSCALE
 40
1
  9
$DIMASZ
 40
0.18
  9
$DIMEXO
 40
0.0625
  9
$DIMDLI
 40
0.38
  9
$DIMRND
 40
0
  9
$DIMDLE
 40
0
  9
$DIMEXE
 40
0.18
  9
$DIMTP
 40
0
  9
$DIMTM
 40
0
  9
$DIMTXT
 40
0.18
  9
$DIMCEN
 40
0.09
  9
$DIMTSZ
 40
0
  9
$DIMTOL
 70
0
  9
$DIMLIM
 70
0
  9
$DIMTIH
 70
1
  9
$DIMTOH
 70
1
  9
$DIMSE1
 70
0
  9
$DIMSE2
 70
0
  9
$DIMTAD
 70
0
  9
$DIMZIN
 70
0
  9
$DIMBLK
  1

  9
$DIMASO
 70
1
  9
$DIMSHO
 70
1
  9
$DIMPOST
  1

  9
$DIMAPOST
  1

  9
$DIMALT
 70
0
  9
$DIMALTD
 70
2
  9
$DIMALTF
 40
25.4
  9
$DIMLFAC
 40
1
  9
$DIMTOFL
 70
0
  9
$DIMTVP
 40
0
  9
$DIMTIX
 70
0
  9
$DIMSOXD
 70
0
  9
$DIMSAH
 70
0
  9
$DIMBLK1
  1

  9
$DIMBLK2
  1

  9
$DIMSTYLE
  2
*UNNAMED
  9
$DIMCLRD
 70
0
  9
$DIMCLRE
 70
0
  9
$DIMCLRT
 70
0
  9
$DIMTFAC
 40
1
  9
$DIMGAP
 40
0.09
  9
$LUNITS
 70
2
  9
$LUPREC
 70
4
  9
$AXISMODE
 70
0
  9
$AXISUNIT
 10
0
 20
0
  9
$SKETCHINC
 40
0.1
  9
$FILLETRAD
 40
2
  9
$AUNITS
 70
0
  9
$AUPREC
 70
0
  9
$MENU
  1
ACAD
  9
$ELEVATION
 40
0
  9
$THICKNESS
 40
0
  9
$VIEWDIR
 10
0
 20
0
 30
1
  9
$LIMCHECK
 70
0
  9
$BLIPMODE
 70
1
  9
$CHAMFERA
 40
0
  9
$CHAMFERB
 40
0
  9
$FASTZOOM
 70
1
  9
$SKPOLY
 70
0
  9
$ANGBASE
 50
0
  9
$ANGDIR
 70
0
  9
$PDMODE
 70
0
  9
$PDSIZE
 40
0
  9
$PLINEWID
 40
0
  9
$COORDS
 70
2
  0
ENDSEC
  0
SECTION
  2
TABLES
  0
TABLE
  2
DIMSTYLE
 70
7
  0
DIMSTYLE
  2
DMST_1
 70
0
  3

  4

  5

  6

  7

 40
1
 41
3.2
 42
1
 43
7
 44
1.5
 45
0
 46
0
 47
0.3
 48
0.3
140
3.2
141
0
142
0
143
25.4
144
1
145
0
146
0.6
147
0.09
 71
1
 72
0
 73
0
 74
0
 75
0
 76
0
 77
1
 78
9
170
0
171
2
172
0
173
0
174
0
175
0
176
2
177
2
178
2
  0
DIMSTYLE
  2
DMST_2
 70
0
  3

  4

  5

  6

  7

 40
1
 41
3.2
 42
1
 43
7
 44
1.5
 45
0
 46
0
 47
0
 48
0
140
3.2
141
0
142
0
143
25.4
144
1
145
0
146
1
147
0.09
 71
0
 72
0
 73
0
 74
0
 75
0
 76
0
 77
1
 78
9
170
0
171
2
172
0
173
0
174
0
175
0
176
2
177
2
178
2
  0
DIMSTYLE
  2
DMST_3
 70
0
  3

  4

  5

  6

  7

 40
1
 41
3.2
 42
0
 43
7
 44
1.5
 45
0
 46
0
 47
0
 48
0
140
3.200000000000001
141
0
142
0
143
25.4
144
1
145
0
146
1
147
0.09
 71
0
 72
0
 73
0
 74
0
 75
0
 76
0
 77
1
 78
1
170
0
171
2
172
0
173
0
174
0
175
0
176
2
177
2
178
2
  0
DIMSTYLE
  2
DMST_4
 70
0
  3

  4

  5

  6

  7

 40
1
 41
3.200000000000001
 42
0
 43
7
 44
1.5
 45
0
 46
0
 47
0.3
 48
0.3
140
3.200000000000001
141
0
142
0
143
25.4
144
1
145
0
146
0.6
147
0.09
 71
1
 72
0
 73
0
 74
0
 75
0
 76
0
 77
1
 78
1
170
0
171
2
172
0
173
0
174
0
175
0
176
2
177
2
178
2
  0
DIMSTYLE
  2
DMST_5
 70
0
  3

  4

  5

  6

  7

 40
1
 41
3.200000000000001
 42
1
 43
7
 44
1.5
 45
0
 46
0
 47
0
 48
0
140
3.200000000000001
141
0
142
0
143
25.4
144
1
145
0
146
1
147
0.09
 71
0
 72
0
 73
0
 74
0
 75
0
 76
0
 77
1
 78
1
170
0
171
2
172
0
173
0
174
0
175
0
176
2
177
2
178
2
  0
DIMSTYLE
  2
DMST_6
 70
0
  3

  4

  5

  6

  7

 40
1
 41
3.200000000000001
 42
1
 43
7
 44
1.5
 45
0
 46
0
 47
0
 48
0
140
3.200000000000001
141
0
142
0
143
25.4
144
1
145
0
146
1
147
0.09
 71
0
 72
0
 73
1
 74
1
 75
0
 76
0
 77
1
 78
1
170
0
171
2
172
1
173
0
174
0
175
0
176
2
177
2
178
2
  0
DIMSTYLE
  2
DMST_7
 70
0
  3

  4

  5

  6

  7

 40
1
 41
3.2
 42
1
 43
7
 44
1.5
 45
0
 46
0
 47
0.3
 48
0.3
140
3.2
141
-1.5
142
0
143
25.4
144
1
145
0
146
0.6
147
0.09
 71
1
 72
0
 73
1
 74
1
 75
0
 76
0
 77
1
 78
9
170
0
171
2
172
0
173
0
174
0
175
0
176
2
177
2
178
2
  0
ENDTAB
  0
TABLE
  2
LTYPE
 70
9
  0
LTYPE
  2
CONTINUOUS
 70
64
  3
Solid line
 72
65
 73
0
 40
0
  0
LTYPE
  2
BORDER
 70
64
  3
__ __ . __ __ .
 72
65
 73
6
 40
8.969095262245006
 49
2.562598646355716
 49
-1.281299323177858
 49
2.562598646355716
 49
-1.281299323177858
 49
0
 49
-1.281299323177858
  0
LTYPE
  2
CENTER
 70
64
  3
____ _ ____ _
 72
65
 73
4
 40
10.25039458542286
 49
6.40649661588929
 49
-1.281299323177858
 49
1.281299323177858
 49
-1.281299323177858
  0
LTYPE
  2
DASHDOT
 70
64
  3
__ . __ . __ .
 72
65
 73
4
 40
5.125197292711432
 49
2.562598646355716
 49
-1.281299323177858
 49
0
 49
-1.281299323177858
  0
LTYPE
  2
DASHED
 70
64
  3
__ __ __ __ __
 72
65
 73
2
 40
3.843897969533574
 49
2.562598646355716
 49
-1.281299323177858
  0
LTYPE
  2
DIVIDE
 70
64
  3
__ . . __ . . 
 72
65
 73
6
 40
6.40649661588929
 49
2.562598646355716
 49
-1.281299323177858
 49
0
 49
-1.281299323177858
 49
0
 49
-1.281299323177858
  0
LTYPE
  2
DOT
 70
64
  3
..............
 72
65
 73
4
 40
2.562598646355716
 49
0
 49
-1.281299323177858
 49
0
 49
-1.281299323177858
  0
LTYPE
  2
HIDDEN
 70
64
  3
_ _ _ _ _ _ _
 72
65
 73
2
 40
1.921948984766787
 49
1.281299323177858
 49
-0.640649661588929
  0
LTYPE
  2
PHANTOM
 70
64
  3
_____ _ _ _____ _ _ 
 72
65
 73
6
 40
12.81299323177858
 49
6.40649661588929
 49
-1.281299323177858
 49
1.281299323177858
 49
-1.281299323177858
 49
1.281299323177858
 49
-1.281299323177858
  0
ENDTAB
  0
TABLE
  2
LAYER
 70
3
  0
LAYER
  2
1
 70
0
 62
7
  6
CONTINUOUS
  0
LAYER
  2
0
 70
0
 62
7
  6
CONTINUOUS
  0
ENDTAB
  0
TABLE
  2
STYLE
 70
4
  0
STYLE
  2
STANDARD
 70
0
 40
0
 41
1
 50
0
 71
0
 42
3.5
  3
txt
  4

  0
STYLE
  2
SIMPLEX
 70
0
 40
0
 41
1
 50
0
 71
0
 42
3.5
  3
simplex
  4

  0
STYLE
  2
COMPLEX
 70
0
 40
0
 41
1
 50
0
 71
0
 42
3.5
  3
complex
  4

  0
STYLE
  2
ITALIC
 70
0
 40
0
 41
1
 50
0
 71
0
 42
3.5
  3
italic
  4

  0
ENDTAB
  0
TABLE
  2
VIEW
 70
0
  0
ENDTAB
  0
ENDSEC
  0
SECTION
  2
BLOCKS
  0
BLOCK
  8
0
  2
_X10
 70
0
 10
851.8862907546943
 20
0
 30
0
  0
LINE
  8
1
 62
2
 10
376.3045679785527
 20
299.3707129044536
 30
0
 11
376.5233687637168
 21
299.1519121192887
 31
0
  0
LINE
  8
1
 62
2
 10
375.9699614570816
 20
299.5638980696874
 30
0
 11
376.4337112165007
 21
299.1001483102675
 31
0
  0
LINE
  8
1
 62
2
 10
375.6353549356106
 20
299.7570832349212
 30
0
 11
376.3440536692846
 21
299.0483845012464
 31
0
  0
LINE
  8
1
 62
2
 10
375.3007484141395
 20
299.950268400155
 30
0
 11
376.2543961220684
 21
298.9966206922252
 31
0
  0
LINE
  8
1
 62
2
 10
374.9661418926684
 20
300.1434535653888
 30
0
 11
376.1647385748523
 21
298.944856883204
 31
0
  0
LINE
  8
1
 62
2
 10
374.6315353711973
 20
300.3366387306226
 30
0
 11
376.0750810276362
 21
298.8930930741828
 31
0
  0
LINE
  8
1
 62
2
 10
374.2969288497263
 20
300.5298238958563
 30
0
 11
375.9854234804201
 21
298.8413292651617
 31
0
  0
LINE
  8
1
 62
2
 10
373.9623223282552
 20
300.7230090610901
 30
0
 11
375.895765933204
 21
298.7895654561405
 31
0
  0
LINE
  8
1
 62
2
 10
373.6277158067841
 20
300.9161942263239
 30
0
 11
375.8061083859878
 21
298.7378016471193
 31
0
  0
LINE
  8
1
 62
2
 10
373.293109285313
 20
301.1093793915577
 30
0
 11
375.7164508387717
 21
298.6860378380982
 31
0
  0
LINE
  8
1
 62
2
 10
372.958502763842
 20
301.3025645567915
 30
0
 11
375.6267932915556
 21
298.634274029077
 31
0
  0
LINE
  8
1
 62
2
 10
372.6238962423709
 20
301.4957497220253
 30
0
 11
375.5371357443395
 21
298.5825102200558
 31
0
  0
LINE
  8
1
 62
2
 10
372.2892897208998
 20
301.6889348872591
 30
0
 11
375.4474781971234
 21
298.5307464110347
 31
0
  0
LINE
  8
1
 62
2
 10
371.9759327009452
 20
301.860870550976
 30
0
 11
375.3578206499072
 21
298.4789826020135
 31
0
  0
LINE
  8
1
 62
2
 10
371.9759327009452
 20
301.7194491947387
 30
0
 11
375.2681631026911
 21
298.4272187929923
 31
0
  0
LINE
  8
1
 62
2
 10
371.9759327009452
 20
301.5780278385014
 30
0
 11
375.178505555475
 21
298.3754549839712
 31
0
  0
LINE
  8
1
 62
2
 10
371.9759327009452
 20
301.4366064822642
 30
0
 11
375.0888480082589
 21
298.32369117495
 31
0
  0
LINE
  8
1
 62
2
 10
371.9759327009452
 20
301.2951851260269
 30
0
 11
374.9991904610428
 21
298.2719273659288
 31
0
  0
LINE
  8
1
 62
2
 10
371.9759327009452
 20
301.1537637697896
 30
0
 11
374.9095329138266
 21
298.2201635569077
 31
0
  0
LINE
  8
1
 62
2
 10
371.9759327009452
 20
301.0123424135523
 30
0
 11
374.8198753666105
 21
298.1683997478865
 31
0
  0
LINE
  8
1
 62
2
 10
371.9759327009452
 20
300.870921057315
 30
0
 11
374.7302178193944
 21
298.1166359388653
 31
0
  0
LINE
  8
1
 62
2
 10
371.9759327009452
 20
300.7294997010777
 30
0
 11
374.6405602721783
 21
298.0648721298442
 31
0
  0
LINE
  8
1
 62
2
 10
371.9759327009452
 20
300.5880783448404
 30
0
 11
374.5509027249622
 21
298.013108320823
 31
0
  0
LINE
  8
1
 62
2
 10
371.9759327009452
 20
300.4466569886031
 30
0
 11
374.461245177746
 21
297.9613445118018
 31
0
  0
LINE
  8
1
 62
2
 10
371.9759327009452
 20
300.3052356323659
 30
0
 11
374.3715876305299
 21
297.9095807027807
 31
0
  0
LINE
  8
1
 62
2
 10
371.9759327009452
 20
300.1638142761286
 30
0
 11
374.2819300833138
 21
297.8578168937595
 31
0
  0
LINE
  8
1
 62
2
 10
371.9668421217333
 20
300.0314834991024
 30
0
 11
374.1922725360977
 21
297.8060530847383
 31
0
  0
LINE
  8
1
 62
2
 10
371.825420765496
 20
300.0314834991024
 30
0
 11
374.1026149888815
 21
297.7542892757172
 31
0
  0
LINE
  8
1
 62
2
 10
371.6839994092587
 20
300.0314834991024
 30
0
 11
374.0129574416654
 21
297.702525466696
 31
0
  0
LINE
  8
1
 62
2
 10
371.5425780530214
 20
300.0314834991024
 30
0
 11
373.9232998944493
 21
297.6507616576748
 31
0
  0
LINE
  8
1
 62
2
 10
371.4011566967841
 20
300.0314834991024
 30
0
 11
373.8336423472332
 21
297.5989978486537
 31
0
  0
LINE
  8
1
 62
2
 10
371.2597353405468
 20
300.0314834991024
 30
0
 11
373.7439848000171
 21
297.5472340396325
 31
0
  0
LINE
  8
1
 62
2
 10
371.1183139843096
 20
300.0314834991024
 30
0
 11
373.6543272528009
 21
297.4954702306113
 31
0
  0
LINE
  8
1
 62
2
 10
370.9768926280723
 20
300.0314834991024
 30
0
 11
373.5646697055848
 21
297.4437064215902
 31
0
  0
LINE
  8
1
 62
2
 10
370.835471271835
 20
300.0314834991024
 30
0
 11
373.4750121583687
 21
297.391942612569
 31
0
  0
LINE
  8
1
 62
2
 10
370.6940499155977
 20
300.0314834991024
 30
0
 11
373.3853546111526
 21
297.3401788035478
 31
0
  0
LINE
  8
1
 62
2
 10
370.5526285593604
 20
300.0314834991024
 30
0
 11
373.2956970639365
 21
297.2884149945267
 31
0
  0
LINE
  8
1
 62
2
 10
370.4112072031231
 20
300.0314834991024
 30
0
 11
373.2060395167203
 21
297.2366511855055
 31
0
  0
LINE
  8
1
 62
2
 10
370.2697858468858
 20
300.0314834991024
 30
0
 11
371.9364525135522
 21
298.3648168324357
 31
0
  0
LINE
  8
1
 62
2
 10
371.9759327009452
 20
298.3253366450433
 30
0
 11
373.1163819695042
 21
297.1848873764843
 31
0
  0
LINE
  8
1
 62
2
 10
370.1283644906485
 20
300.0314834991024
 30
0
 11
371.7950311573149
 21
298.3648168324357
 31
0
  0
LINE
  8
1
 62
2
 10
371.9759327009452
 20
298.183915288806
 30
0
 11
373.0267244222881
 21
297.1331235674631
 31
0
  0
LINE
  8
1
 62
2
 10
369.9869431344113
 20
300.0314834991024
 30
0
 11
371.6536098010777
 21
298.3648168324357
 31
0
  0
LINE
  8
1
 62
2
 10
371.9759327009452
 20
298.0424939325687
 30
0
 11
372.937066875072
 21
297.081359758442
 31
0
  0
LINE
  8
1
 62
2
 10
369.845521778174
 20
300.0314834991024
 30
0
 11
371.5121884448404
 21
298.3648168324357
 31
0
  0
LINE
  8
1
 62
2
 10
371.9759327009452
 20
297.9010725763314
 30
0
 11
372.8474093278559
 21
297.0295959494208
 31
0
  0
LINE
  8
1
 62
2
 10
369.7041004219367
 20
300.0314834991024
 30
0
 11
371.3707670886031
 21
298.3648168324357
 31
0
  0
LINE
  8
1
 62
2
 10
371.9759327009452
 20
297.7596512200942
 30
0
 11
372.7577517806397
 21
296.9778321403996
 31
0
  0
LINE
  8
1
 62
2
 10
369.5626790656994
 20
300.0314834991024
 30
0
 11
371.2293457323658
 21
298.3648168324357
 31
0
  0
LINE
  8
1
 62
2
 10
371.9759327009452
 20
297.6182298638569
 30
0
 11
372.6680942334236
 21
296.9260683313785
 31
0
  0
LINE
  8
1
 62
2
 10
369.4212577094621
 20
300.0314834991024
 30
0
 11
371.0879243761285
 21
298.3648168324357
 31
0
  0
LINE
  8
1
 62
2
 10
371.9759327009452
 20
297.4768085076196
 30
0
 11
372.5784366862075
 21
296.8743045223573
 31
0
  0
LINE
  8
1
 62
2
 10
369.2798363532248
 20
300.0314834991024
 30
0
 11
370.9465030198912
 21
298.3648168324357
 31
0
  0
LINE
  8
1
 62
2
 10
371.9759327009452
 20
297.3353871513823
 30
0
 11
372.4887791389914
 21
296.8225407133361
 31
0
  0
LINE
  8
1
 62
2
 10
369.1384149969875
 20
300.0314834991024
 30
0
 11
370.8050816636539
 21
298.3648168324357
 31
0
  0
LINE
  8
1
 62
2
 10
371.9759327009452
 20
297.193965795145
 30
0
 11
372.3991215917753
 21
296.770776904315
 31
0
  0
LINE
  8
1
 62
2
 10
368.9969936407502
 20
300.0314834991024
 30
0
 11
370.6636603074166
 21
298.3648168324357
 31
0
  0
LINE
  8
1
 62
2
 10
371.9759327009452
 20
297.0525444389077
 30
0
 11
372.3094640445591
 21
296.7190130952938
 31
0
  0
LINE
  8
1
 62
2
 10
368.855572284513
 20
300.0314834991024
 30
0
 11
370.5222389511794
 21
298.3648168324357
 31
0
  0
LINE
  8
1
 62
2
 10
371.9759327009452
 20
296.9111230826704
 30
0
 11
372.219806497343
 21
296.6672492862726
 31
0
  0
LINE
  8
1
 62
2
 10
368.7141509282757
 20
300.0314834991024
 30
0
 11
370.3808175949421
 21
298.3648168324357
 31
0
  0
LINE
  8
1
 62
2
 10
371.9759327009452
 20
296.7697017264331
 30
0
 11
372.1301489501269
 21
296.6154854772515
 31
0
  0
LINE
  8
1
 62
2
 10
368.5727295720384
 20
300.0314834991024
 30
0
 11
370.2393962387048
 21
298.3648168324357
 31
0
  0
LINE
  8
1
 62
2
 10
371.9759327009452
 20
296.6282803701959
 30
0
 11
372.0404914029108
 21
296.5637216682303
 31
0
  0
LINE
  8
1
 62
2
 10
368.4313082158011
 20
300.0314834991024
 30
0
 11
370.0979748824675
 21
298.3648168324357
 31
0
  0
LINE
  8
1
 62
2
 10
368.2898868595638
 20
300.0314834991024
 30
0
 11
369.9565535262302
 21
298.3648168324357
 31
0
  0
LINE
  8
1
 62
2
 10
368.1484655033265
 20
300.0314834991024
 30
0
 11
369.8151321699929
 21
298.3648168324357
 31
0
  0
LINE
  8
1
 62
2
 10
368.0070441470892
 20
300.0314834991024
 30
0
 11
369.6737108137556
 21
298.3648168324357
 31
0
  0
LINE
  8
1
 62
2
 10
367.8656227908519
 20
300.0314834991024
 30
0
 11
369.5322894575183
 21
298.3648168324357
 31
0
  0
LINE
  8
1
 62
2
 10
367.7242014346147
 20
300.0314834991024
 30
0
 11
369.3908681012811
 21
298.3648168324357
 31
0
  0
LINE
  8
1
 62
2
 10
367.5827800783774
 20
300.0314834991024
 30
0
 11
369.2494467450438
 21
298.3648168324357
 31
0
  0
LINE
  8
1
 62
2
 10
367.4413587221401
 20
300.0314834991024
 30
0
 11
369.1080253888065
 21
298.3648168324357
 31
0
  0
LINE
  8
1
 62
2
 10
367.2999373659028
 20
300.0314834991024
 30
0
 11
368.9666040325692
 21
298.3648168324357
 31
0
  0
LINE
  8
1
 62
2
 10
367.1585160096655
 20
300.0314834991024
 30
0
 11
368.8251826763319
 21
298.3648168324357
 31
0
  0
LINE
  8
1
 62
2
 10
367.0170946534282
 20
300.0314834991024
 30
0
 11
368.6837613200946
 21
298.3648168324357
 31
0
  0
LINE
  8
1
 62
2
 10
366.8756732971909
 20
300.0314834991024
 30
0
 11
368.5423399638573
 21
298.3648168324357
 31
0
  0
LINE
  8
1
 62
2
 10
366.7342519409536
 20
300.0314834991024
 30
0
 11
368.40091860762
 21
298.3648168324357
 31
0
  0
LINE
  8
1
 62
2
 10
366.5928305847163
 20
300.0314834991024
 30
0
 11
368.2594972513827
 21
298.3648168324357
 31
0
  0
LINE
  8
1
 62
2
 10
366.4514092284791
 20
300.0314834991024
 30
0
 11
368.1180758951455
 21
298.3648168324357
 31
0
  0
LINE
  8
1
 62
2
 10
366.3099878722418
 20
300.0314834991024
 30
0
 11
367.9766545389082
 21
298.3648168324357
 31
0
  0
LINE
  8
1
 62
2
 10
366.1685665160045
 20
300.0314834991024
 30
0
 11
367.8352331826709
 21
298.3648168324357
 31
0
  0
LINE
  8
1
 62
2
 10
366.142599367612
 20
299.9160292912574
 30
0
 11
367.6938118264336
 21
298.3648168324357
 31
0
  0
LINE
  8
1
 62
2
 10
366.142599367612
 20
299.7746079350201
 30
0
 11
367.5523904701963
 21
298.3648168324357
 31
0
  0
LINE
  8
1
 62
2
 10
366.142599367612
 20
299.6331865787828
 30
0
 11
367.410969113959
 21
298.3648168324357
 31
0
  0
LINE
  8
1
 62
2
 10
366.142599367612
 20
299.4917652225455
 30
0
 11
367.2695477577217
 21
298.3648168324357
 31
0
  0
LINE
  8
1
 62
2
 10
366.142599367612
 20
299.3503438663082
 30
0
 11
367.1281264014844
 21
298.3648168324357
 31
0
  0
LINE
  8
1
 62
2
 10
366.142599367612
 20
299.2089225100709
 30
0
 11
366.9867050452472
 21
298.3648168324357
 31
0
  0
LINE
  8
1
 62
2
 10
366.142599367612
 20
299.0675011538336
 30
0
 11
366.8452836890099
 21
298.3648168324357
 31
0
  0
LINE
  8
1
 62
2
 10
366.142599367612
 20
298.9260797975963
 30
0
 11
366.7038623327726
 21
298.3648168324357
 31
0
  0
LINE
  8
1
 62
2
 10
366.142599367612
 20
298.7846584413591
 30
0
 11
366.5624409765353
 21
298.3648168324357
 31
0
  0
LINE
  8
1
 62
2
 10
366.142599367612
 20
298.6432370851218
 30
0
 11
366.421019620298
 21
298.3648168324357
 31
0
  0
LINE
  8
1
 62
2
 10
366.142599367612
 20
298.5018157288845
 30
0
 11
366.2795982640607
 21
298.3648168324357
 31
0
  0
ENDBLK
  8
0
  0
BLOCK
  8
0
  2
_X9
 70
0
 10
0
 20
0
 30
0
  0
LINE
  8
1
 62
2
 10
417.2755999321042
 20
324.2203475279545
 30
0
 11
417.3742497238843
 21
324.3189973197345
 31
0
  0
LINE
  8
1
 62
2
 10
416.9409934105999
 20
324.0271623626875
 30
0
 11
417.2845921766681
 21
324.3707611287557
 31
0
  0
LINE
  8
1
 62
2
 10
416.6063868890956
 20
323.8339771974204
 30
0
 11
417.194934629452
 21
324.4225249377769
 31
0
  0
LINE
  8
1
 62
2
 10
416.2717803675913
 20
323.6407920321534
 30
0
 11
417.1052770822359
 21
324.474288746798
 31
0
  0
LINE
  8
1
 62
2
 10
415.9371738460869
 20
323.4476068668864
 30
0
 11
417.0156195350198
 21
324.5260525558192
 31
0
  0
LINE
  8
1
 62
2
 10
415.6025673245826
 20
323.2544217016193
 30
0
 11
416.9259619878037
 21
324.5778163648404
 31
0
  0
LINE
  8
1
 62
2
 10
415.2679608030783
 20
323.0612365363523
 30
0
 11
416.8363044405875
 21
324.6295801738615
 31
0
  0
LINE
  8
1
 62
2
 10
414.9333542815739
 20
322.8680513710852
 30
0
 11
416.7466468933714
 21
324.6813439828827
 31
0
  0
LINE
  8
1
 62
2
 10
414.5987477600696
 20
322.6748662058182
 30
0
 11
416.6569893461553
 21
324.7331077919039
 31
0
  0
LINE
  8
1
 62
2
 10
414.2641412385653
 20
322.4816810405512
 30
0
 11
416.5673317989392
 21
324.784871600925
 31
0
  0
LINE
  8
1
 62
2
 10
413.929534717061
 20
322.2884958752841
 30
0
 11
416.477674251723
 21
324.8366354099462
 31
0
  0
LINE
  8
1
 62
2
 10
413.5949281955566
 20
322.0953107100171
 30
0
 11
416.3880167045069
 21
324.8883992189674
 31
0
  0
LINE
  8
1
 62
2
 10
413.2603216740523
 20
321.9021255447501
 30
0
 11
416.2983591572908
 21
324.9401630279886
 31
0
  0
LINE
  8
1
 62
2
 10
412.925715152548
 20
321.708940379483
 30
0
 11
416.2087016100747
 21
324.9919268370097
 31
0
  0
LINE
  8
1
 62
2
 10
412.7828353452338
 20
321.7074819284064
 30
0
 11
416.1190440628586
 21
325.0436906460309
 31
0
  0
LINE
  8
1
 62
2
 10
412.7828353452338
 20
321.8489032846437
 30
0
 11
416.0293865156424
 21
325.0954544550521
 31
0
  0
LINE
  8
1
 62
2
 10
412.7828353452338
 20
321.990324640881
 30
0
 11
415.9397289684263
 21
325.1472182640732
 31
0
  0
LINE
  8
1
 62
2
 10
412.7828353452338
 20
322.1317459971183
 30
0
 11
415.8500714212102
 21
325.1989820730944
 31
0
  0
LINE
  8
1
 62
2
 10
412.7828353452338
 20
322.2731673533556
 30
0
 11
415.7604138739941
 21
325.2507458821156
 31
0
  0
LINE
  8
1
 62
2
 10
412.7828353452338
 20
322.4145887095929
 30
0
 11
415.670756326778
 21
325.3025096911367
 31
0
  0
LINE
  8
1
 62
2
 10
412.7828353452338
 20
322.5560100658302
 30
0
 11
415.5810987795618
 21
325.3542735001579
 31
0
  0
LINE
  8
1
 62
2
 10
412.7828353452338
 20
322.6974314220674
 30
0
 11
415.4914412323457
 21
325.4060373091791
 31
0
  0
LINE
  8
1
 62
2
 10
412.7828353452338
 20
322.8388527783047
 30
0
 11
415.4017836851296
 21
325.4578011182002
 31
0
  0
LINE
  8
1
 62
2
 10
412.7828353452338
 20
322.980274134542
 30
0
 11
415.3121261379135
 21
325.5095649272214
 31
0
  0
LINE
  8
1
 62
2
 10
412.7828353452338
 20
323.1216954907793
 30
0
 11
415.2224685906974
 21
325.5613287362426
 31
0
  0
LINE
  8
1
 62
2
 10
412.7828353452338
 20
323.2631168470166
 30
0
 11
415.1328110434812
 21
325.6130925452637
 31
0
  0
LINE
  8
1
 62
2
 10
412.7828353452338
 20
323.4045382032539
 30
0
 11
415.0431534962651
 21
325.6648563542849
 31
0
  0
LINE
  8
1
 62
2
 10
412.701692618174
 20
323.4648168324317
 30
0
 11
414.953495949049
 21
325.7166201633061
 31
0
  0
LINE
  8
1
 62
2
 10
412.5602712619368
 20
323.4648168324317
 30
0
 11
414.8638384018329
 21
325.7683839723272
 31
0
  0
LINE
  8
1
 62
2
 10
412.4188499056995
 20
323.4648168324317
 30
0
 11
414.7741808546168
 21
325.8201477813484
 31
0
  0
LINE
  8
1
 62
2
 10
412.2774285494622
 20
323.4648168324317
 30
0
 11
414.6845233074006
 21
325.8719115903696
 31
0
  0
LINE
  8
1
 62
2
 10
412.1360071932249
 20
323.4648168324317
 30
0
 11
414.5948657601845
 21
325.9236753993907
 31
0
  0
LINE
  8
1
 62
2
 10
411.9945858369876
 20
323.4648168324317
 30
0
 11
414.5052082129684
 21
325.9754392084119
 31
0
  0
LINE
  8
1
 62
2
 10
411.8531644807503
 20
323.4648168324317
 30
0
 11
414.4155506657523
 21
326.0272030174331
 31
0
  0
LINE
  8
1
 62
2
 10
411.711743124513
 20
323.4648168324317
 30
0
 11
414.3258931185362
 21
326.0789668264542
 31
0
  0
LINE
  8
1
 62
2
 10
411.5703217682757
 20
323.4648168324317
 30
0
 11
414.23623557132
 21
326.1307306354754
 31
0
  0
LINE
  8
1
 62
2
 10
411.4289004120384
 20
323.4648168324317
 30
0
 11
414.1465780241039
 21
326.1824944444966
 31
0
  0
LINE
  8
1
 62
2
 10
411.2874790558012
 20
323.4648168324317
 30
0
 11
414.0569204768878
 21
326.2342582535177
 31
0
  0
LINE
  8
1
 62
2
 10
411.1460576995639
 20
323.4648168324317
 30
0
 11
413.9672629296717
 21
326.2860220625389
 31
0
  0
LINE
  8
1
 62
2
 10
411.0046363433266
 20
323.4648168324317
 30
0
 11
412.671303009993
 21
325.1314834990984
 31
0
  0
LINE
  8
1
 62
2
 10
412.7828353452338
 20
325.2430158343391
 30
0
 11
413.8776053824556
 21
326.3377858715601
 31
0
  0
LINE
  8
1
 62
2
 10
410.8632149870893
 20
323.4648168324317
 30
0
 11
412.5298816537558
 21
325.1314834990984
 31
0
  0
LINE
  8
1
 62
2
 10
412.7828353452338
 20
325.3844371905764
 30
0
 11
413.7879478352394
 21
326.3895496805812
 31
0
  0
LINE
  8
1
 62
2
 10
410.721793630852
 20
323.4648168324317
 30
0
 11
412.3884602975185
 21
325.1314834990984
 31
0
  0
LINE
  8
1
 62
2
 10
412.7828353452338
 20
325.5258585468137
 30
0
 11
413.6982902880233
 21
326.4413134896024
 31
0
  0
LINE
  8
1
 62
2
 10
410.5803722746147
 20
323.4648168324317
 30
0
 11
412.2470389412812
 21
325.1314834990984
 31
0
  0
LINE
  8
1
 62
2
 10
412.7828353452338
 20
325.667279903051
 30
0
 11
413.6086327408072
 21
326.4930772986236
 31
0
  0
LINE
  8
1
 62
2
 10
410.4389509183774
 20
323.4648168324317
 30
0
 11
412.1056175850439
 21
325.1314834990984
 31
0
  0
LINE
  8
1
 62
2
 10
412.7828353452338
 20
325.8087012592883
 30
0
 11
413.5189751935911
 21
326.5448411076447
 31
0
  0
LINE
  8
1
 62
2
 10
410.2975295621401
 20
323.4648168324317
 30
0
 11
411.9641962288066
 21
325.1314834990984
 31
0
  0
LINE
  8
1
 62
2
 10
412.7828353452338
 20
325.9501226155256
 30
0
 11
413.429317646375
 21
326.5966049166659
 31
0
  0
LINE
  8
1
 62
2
 10
410.1561082059029
 20
323.4648168324317
 30
0
 11
411.8227748725693
 21
325.1314834990984
 31
0
  0
LINE
  8
1
 62
2
 10
412.7828353452338
 20
326.0915439717629
 30
0
 11
413.3396600991588
 21
326.6483687256871
 31
0
  0
LINE
  8
1
 62
2
 10
410.0146868496656
 20
323.4648168324317
 30
0
 11
411.681353516332
 21
325.1314834990984
 31
0
  0
LINE
  8
1
 62
2
 10
412.7828353452338
 20
326.2329653280002
 30
0
 11
413.2500025519427
 21
326.7001325347083
 31
0
  0
LINE
  8
1
 62
2
 10
409.8732654934283
 20
323.4648168324317
 30
0
 11
411.5399321600947
 21
325.1314834990984
 31
0
  0
LINE
  8
1
 62
2
 10
412.7828353452338
 20
326.3743866842374
 30
0
 11
413.1603450047266
 21
326.7518963437294
 31
0
  0
LINE
  8
1
 62
2
 10
409.731844137191
 20
323.4648168324317
 30
0
 11
411.3985108038575
 21
325.1314834990984
 31
0
  0
LINE
  8
1
 62
2
 10
412.7828353452338
 20
326.5158080404747
 30
0
 11
413.0706874575105
 21
326.8036601527506
 31
0
  0
LINE
  8
1
 62
2
 10
409.5904227809537
 20
323.4648168324317
 30
0
 11
411.2570894476202
 21
325.1314834990984
 31
0
  0
LINE
  8
1
 62
2
 10
412.7828353452338
 20
326.657229396712
 30
0
 11
412.9810299102944
 21
326.8554239617718
 31
0
  0
LINE
  8
1
 62
2
 10
409.4490014247164
 20
323.4648168324317
 30
0
 11
411.1156680913829
 21
325.1314834990984
 31
0
  0
LINE
  8
1
 62
2
 10
412.7828353452338
 20
326.7986507529493
 30
0
 11
412.8913723630782
 21
326.9071877707929
 31
0
  0
LINE
  8
1
 62
2
 10
409.3075800684791
 20
323.4648168324317
 30
0
 11
410.9742467351456
 21
325.1314834990984
 31
0
  0
LINE
  8
1
 62
2
 10
412.7828353452338
 20
326.9400721091866
 30
0
 11
412.8017148158621
 21
326.9589515798141
 31
0
  0
LINE
  8
1
 62
2
 10
409.1661587122418
 20
323.4648168324317
 30
0
 11
410.8328253789083
 21
325.1314834990984
 31
0
  0
LINE
  8
1
 62
2
 10
409.0247373560046
 20
323.4648168324317
 30
0
 11
410.691404022671
 21
325.1314834990984
 31
0
  0
LINE
  8
1
 62
2
 10
408.8833159997673
 20
323.4648168324317
 30
0
 11
410.5499826664337
 21
325.1314834990984
 31
0
  0
LINE
  8
1
 62
2
 10
408.74189464353
 20
323.4648168324317
 30
0
 11
410.4085613101964
 21
325.1314834990984
 31
0
  0
LINE
  8
1
 62
2
 10
408.6004732872927
 20
323.4648168324317
 30
0
 11
410.2671399539591
 21
325.1314834990984
 31
0
  0
LINE
  8
1
 62
2
 10
408.4590519310554
 20
323.4648168324317
 30
0
 11
410.1257185977219
 21
325.1314834990984
 31
0
  0
LINE
  8
1
 62
2
 10
408.3176305748181
 20
323.4648168324317
 30
0
 11
409.9842972414846
 21
325.1314834990984
 31
0
  0
LINE
  8
1
 62
2
 10
408.1762092185808
 20
323.4648168324317
 30
0
 11
409.8428758852473
 21
325.1314834990984
 31
0
  0
LINE
  8
1
 62
2
 10
408.0347878623435
 20
323.4648168324317
 30
0
 11
409.70145452901
 21
325.1314834990984
 31
0
  0
LINE
  8
1
 62
2
 10
407.8933665061063
 20
323.4648168324317
 30
0
 11
409.5600331727727
 21
325.1314834990984
 31
0
  0
LINE
  8
1
 62
2
 10
407.751945149869
 20
323.4648168324317
 30
0
 11
409.4186118165354
 21
325.1314834990984
 31
0
  0
LINE
  8
1
 62
2
 10
407.6105237936317
 20
323.4648168324317
 30
0
 11
409.2771904602981
 21
325.1314834990984
 31
0
  0
LINE
  8
1
 62
2
 10
407.4691024373944
 20
323.4648168324317
 30
0
 11
409.1357691040608
 21
325.1314834990984
 31
0
  0
LINE
  8
1
 62
2
 10
407.3276810811571
 20
323.4648168324317
 30
0
 11
408.9943477478236
 21
325.1314834990984
 31
0
  0
LINE
  8
1
 62
2
 10
407.1862597249198
 20
323.4648168324317
 30
0
 11
408.8529263915863
 21
325.1314834990984
 31
0
  0
LINE
  8
1
 62
2
 10
407.0448383686825
 20
323.4648168324317
 30
0
 11
408.711505035349
 21
325.1314834990984
 31
0
  0
LINE
  8
1
 62
2
 10
406.9495020119003
 20
323.5109018318877
 30
0
 11
408.5700836791117
 21
325.1314834990984
 31
0
  0
LINE
  8
1
 62
2
 10
406.9495020119003
 20
323.652323188125
 30
0
 11
408.4286623228744
 21
325.1314834990984
 31
0
  0
LINE
  8
1
 62
2
 10
406.9495020119003
 20
323.7937445443623
 30
0
 11
408.2872409666371
 21
325.1314834990984
 31
0
  0
LINE
  8
1
 62
2
 10
406.9495020119003
 20
323.9351659005995
 30
0
 11
408.1458196103998
 21
325.1314834990984
 31
0
  0
LINE
  8
1
 62
2
 10
406.9495020119003
 20
324.0765872568368
 30
0
 11
408.0043982541625
 21
325.1314834990984
 31
0
  0
LINE
  8
1
 62
2
 10
406.9495020119003
 20
324.2180086130741
 30
0
 11
407.8629768979253
 21
325.1314834990984
 31
0
  0
LINE
  8
1
 62
2
 10
406.9495020119003
 20
324.3594299693114
 30
0
 11
407.721555541688
 21
325.1314834990984
 31
0
  0
LINE
  8
1
 62
2
 10
406.9495020119003
 20
324.5008513255487
 30
0
 11
407.5801341854507
 21
325.1314834990984
 31
0
  0
LINE
  8
1
 62
2
 10
406.9495020119003
 20
324.642272681786
 30
0
 11
407.4387128292134
 21
325.1314834990984
 31
0
  0
LINE
  8
1
 62
2
 10
406.9495020119003
 20
324.7836940380233
 30
0
 11
407.2972914729761
 21
325.1314834990984
 31
0
  0
LINE
  8
1
 62
2
 10
406.9495020119003
 20
324.9251153942606
 30
0
 11
407.1558701167388
 21
325.1314834990984
 31
0
  0
LINE
  8
1
 62
2
 10
406.9495020119003
 20
325.0665367504979
 30
0
 11
407.0144487605015
 21
325.1314834990984
 31
0
  0
ENDBLK
  8
0
  0
BLOCK
  8
1
  2
*D0
 70
1
 10
0
 20
0
 30
0
  0
LINE
  8
1
 62
2
 10
396.65659935426
 20
324.298150165765
 30
0
 11
396.65659935426
 21
350.2981501657749
 31
0
  0
LINE
  8
1
 62
2
 10
355.5436913870865
 20
350.2981501657749
 30
0
 11
398.15659935426
 21
350.2981501657749
 31
0
  0
LINE
  8
1
 62
2
 10
364.5990897891958
 20
324.298150165765
 30
0
 11
398.15659935426
 21
324.298150165765
 31
0
  0
SOLID
  8
1
 62
2
 10
396.65659935426
 20
324.298150165765
 30
0
 11
396.24059935426
 21
327.498150165765
 31
0
 12
397.07259935426
 22
327.498150165765
 32
0
 13
397.07259935426
 23
327.498150165765
 33
0
  0
SOLID
  8
1
 62
2
 10
396.65659935426
 20
350.2981501657749
 30
0
 11
397.07259935426
 21
347.0981501657749
 31
0
 12
396.24059935426
 22
347.0981501657749
 32
0
 13
396.24059935426
 23
347.0981501657749
 33
0
  0
TEXT
  8
1
 62
2
 10
394.65659935426
 20
332.522776650998
 30
0
 40
3.2
  1
26
 50
90
 41
0.9
  0
TEXT
  8
1
 62
2
 10
394.01659935426
 20
338.922776650998
 30
0
 40
1.92
  1
%%p0.3
 50
90
 41
0.9
  0
ENDBLK
  8
0
  0
BLOCK
  8
1
  2
*D1
 70
1
 10
0
 20
0
 30
0
  0
LINE
  8
1
 62
2
 10
363.6805950635102
 20
339.3382883181412
 30
0
 11
365.7838539368256
 21
329.5490930306438
 31
0
  0
LINE
  8
1
 62
2
 10
357.5520390533339
 20
327.7804453340036
 30
0
 11
367.2503862523768
 21
329.8641850290255
 31
0
  0
LINE
  8
1
 62
2
 10
355.4487801800186
 20
337.569640621501
 30
0
 11
365.1471273790614
 21
339.6533803165229
 31
0
  0
SOLID
  8
1
 62
2
 10
365.7838539368256
 20
329.5490930306438
 30
0
 11
364.7049393780984
 21
332.5903097896017
 31
0
 12
365.5183759691241
 22
332.7650808180375
 32
0
 13
365.5183759691241
 23
332.7650808180375
 33
0
  0
SOLID
  8
1
 62
2
 10
363.6805950635102
 20
339.3382883181412
 30
0
 11
364.7595096222375
 21
336.2970715591833
 31
0
 12
363.9460730312118
 22
336.1223005307475
 32
0
 13
363.9460730312118
 23
336.1223005307475
 33
0
  0
TEXT
  8
1
 62
2
 10
366.7149525153802
 20
334.7365108450615
 30
0
 40
3.2
  1
10
 50
282.1259464945859
 41
0.9
  0
ENDBLK
  8
0
  0
BLOCK
  8
1
  2
*D2
 70
1
 10
0
 20
0
 30
0
  0
LINE
  8
1
 62
2
 10
268.1436913870862
 20
282.5981501657826
 30
0
 11
268.1436913870862
 21
357.6981501657787
 31
0
  0
LINE
  8
1
 62
2
 10
316.2365865839553
 20
357.6981501657787
 30
0
 11
266.6436913870862
 21
357.6981501657787
 31
0
  0
LINE
  8
1
 62
2
 10
327.4436913870861
 20
282.5981501657826
 30
0
 11
266.6436913870862
 21
282.5981501657826
 31
0
  0
SOLID
  8
1
 62
2
 10
268.1436913870862
 20
282.5981501657826
 30
0
 11
267.7276913870862
 21
285.7981501657826
 31
0
 12
268.5596913870862
 22
285.7981501657826
 32
0
 13
268.5596913870862
 23
285.7981501657826
 33
0
  0
SOLID
  8
1
 62
2
 10
268.1436913870862
 20
357.6981501657787
 30
0
 11
268.5596913870862
 21
354.4981501657787
 31
0
 12
267.7276913870862
 22
354.4981501657787
 32
0
 13
267.7276913870862
 23
354.4981501657787
 33
0
  0
TEXT
  8
1
 62
2
 10
267.1436913870862
 20
315.161475194444
 30
0
 40
3.200000000000001
  1
75.1
 50
90
 41
0.8910000000000001
  0
ENDBLK
  8
0
  0
BLOCK
  8
1
  2
*D3
 70
1
 10
0
 20
0
 30
0
  0
LINE
  8
1
 62
2
 10
288.1436913870862
 20
237.5981501657826
 30
0
 11
360.7436913870855
 21
237.5981501657826
 31
0
  0
LINE
  8
1
 62
2
 10
288.1436913870862
 20
237.5981501657826
 30
0
 11
360.7436913870855
 21
237.5981501657826
 31
0
  0
LINE
  8
1
 62
2
 10
288.1436913870862
 20
316.8449271697434
 30
0
 11
288.1436913870862
 21
236.0981501657826
 31
0
  0
LINE
  8
1
 62
2
 10
360.7436913870855
 20
283.7981501657845
 30
0
 11
360.7436913870855
 21
236.0981501657826
 31
0
  0
SOLID
  8
1
 62
2
 10
360.7436913870855
 20
237.5981501657826
 30
0
 11
357.5436913870855
 21
237.1821501657826
 31
0
 12
357.5436913870855
 22
238.0141501657826
 32
0
 13
357.5436913870855
 23
238.0141501657826
 33
0
  0
SOLID
  8
1
 62
2
 10
288.1436913870862
 20
237.5981501657826
 30
0
 11
291.3436913870862
 21
238.0141501657826
 31
0
 12
291.3436913870862
 22
237.1821501657826
 32
0
 13
291.3436913870862
 23
237.1821501657826
 33
0
  0
TEXT
  8
1
 62
2
 10
323.051156557778
 20
238.5981501657826
 30
0
 40
3.200000000000001
  1
72.6
 41
0.8910000000000001
  0
ENDBLK
  8
0
  0
BLOCK
  8
1
  2
*D4
 70
1
 10
0
 20
0
 30
0
  0
LINE
  8
1
 62
2
 10
325.0436913870853
 20
368.6081501657787
 30
0
 11
351.0436913870875
 21
368.6081501657787
 31
0
  0
LINE
  8
1
 62
2
 10
325.0436913870853
 20
363.7981501657845
 30
0
 11
325.0436913870853
 21
368.6081501657787
 31
0
  0
LINE
  8
1
 62
2
 10
351.0436913870875
 20
353.2231501657826
 30
0
 11
351.0436913870875
 21
368.6081501657787
 31
0
  0
SOLID
  8
1
 62
2
 10
351.0436913870875
 20
368.6081501657787
 30
0
 11
347.8436913870875
 21
368.1921501657787
 31
0
 12
347.8436913870875
 22
369.0241501657787
 32
0
 13
347.8436913870875
 23
369.0241501657787
 33
0
  0
SOLID
  8
1
 62
2
 10
325.0436913870853
 20
368.6081501657787
 30
0
 11
328.2436913870853
 21
369.0241501657787
 31
0
 12
328.2436913870853
 22
368.1921501657787
 32
0
 13
328.2436913870853
 23
368.1921501657787
 33
0
  0
TEXT
  8
1
 62
2
 10
333.164997614454
 20
369.336438013152
 30
0
 40
3.200000000000001
  1
26
 41
0.8910000000000001
  0
TEXT
  8
1
 62
2
 10
339.516997614454
 20
369.976438013152
 30
0
 40
1.920000000000001
  1
%%p0.3
 41
0.9
  0
ENDBLK
  8
0
  0
BLOCK
  8
1
  2
*D5
 70
1
 10
0
 20
0
 30
0
  0
LINE
  8
1
 62
2
 10
277.2336913870862
 20
293.2981501657554
 30
0
 11
277.2336913870862
 21
324.298150165765
 31
0
  0
LINE
  8
1
 62
2
 10
291.118691387086
 20
293.2981501657554
 30
0
 11
277.2336913870862
 21
293.2981501657554
 31
0
  0
LINE
  8
1
 62
2
 10
281.3611198522848
 20
324.298150165765
 30
0
 11
277.2336913870862
 21
324.298150165765
 31
0
  0
SOLID
  8
1
 62
2
 10
277.2336913870862
 20
324.298150165765
 30
0
 11
277.6496913870862
 21
321.098150165765
 31
0
 12
276.8176913870862
 22
321.098150165765
 32
0
 13
276.8176913870862
 23
321.098150165765
 33
0
  0
SOLID
  8
1
 62
2
 10
277.2336913870862
 20
293.2981501657554
 30
0
 11
276.8176913870862
 21
296.4981501657554
 31
0
 12
277.6496913870862
 22
296.4981501657554
 32
0
 13
277.6496913870862
 23
296.4981501657554
 33
0
  0
TEXT
  8
1
 62
2
 10
276.293910780235
 20
301.644551178933
 30
0
 40
3.200000000000001
  1
31
 50
90
 41
0.8910000000000001
  0
TEXT
  8
1
 62
2
 10
275.653910780235
 20
307.046151178933
 30
0
 40
1.920000000000001
  1
%%p0.3
 50
90
 41
0.9
  0
ENDBLK
  8
0
  0
BLOCK
  8
1
  2
*D6
 70
1
 10
0
 20
0
 30
0
  0
LINE
  8
1
 62
2
 10
396.65659935426
 20
282.5981501657826
 30
0
 11
396.65659935426
 21
324.298150165765
 31
0
  0
LINE
  8
1
 62
2
 10
363.5990897891958
 20
324.298150165765
 30
0
 11
396.65659935426
 21
324.298150165765
 31
0
  0
LINE
  8
1
 62
2
 10
360.7436913870855
 20
282.5981501657826
 30
0
 11
396.65659935426
 21
282.5981501657826
 31
0
  0
SOLID
  8
1
 62
2
 10
396.65659935426
 20
324.298150165765
 30
0
 11
397.07259935426
 21
321.098150165765
 31
0
 12
396.24059935426
 22
321.098150165765
 32
0
 13
396.24059935426
 23
321.098150165765
 33
0
  0
SOLID
  8
1
 62
2
 10
396.65659935426
 20
282.5981501657826
 30
0
 11
396.24059935426
 21
285.7981501657826
 31
0
 12
397.07259935426
 22
285.7981501657826
 32
0
 13
397.07259935426
 23
285.7981501657826
 33
0
  0
TEXT
  8
1
 62
2
 10
394.4367388620091
 20
297.127560440556
 30
0
 40
3.200000000000001
  1
41.7
 50
90
 41
0.8910000000000001
  0
ENDBLK
  8
0
  0
BLOCK
  8
1
  2
*D7
 70
1
 10
0
 20
0
 30
0
  0
LINE
  8
1
 62
2
 10
387.37979530165
 20
282.5981501657826
 30
0
 11
387.37979530165
 21
315.7981501657554
 31
0
  0
LINE
  8
1
 62
2
 10
360.7436913870855
 20
315.7981501657554
 30
0
 11
387.37979530165
 21
315.7981501657554
 31
0
  0
LINE
  8
1
 62
2
 10
360.7436913870855
 20
282.5981501657826
 30
0
 11
387.37979530165
 21
282.5981501657826
 31
0
  0
SOLID
  8
1
 62
2
 10
387.37979530165
 20
315.7981501657554
 30
0
 11
387.79579530165
 21
312.5981501657554
 31
0
 12
386.96379530165
 22
312.5981501657554
 32
0
 13
386.96379530165
 23
312.5981501657554
 33
0
  0
SOLID
  8
1
 62
2
 10
387.37979530165
 20
282.5981501657826
 30
0
 11
386.96379530165
 21
285.7981501657826
 31
0
 12
387.79579530165
 22
285.7981501657826
 32
0
 13
387.79579530165
 23
285.7981501657826
 33
0
  0
TEXT
  8
1
 62
2
 10
385.9784763434521
 20
293.100547126323
 30
0
 40
3.200000000000001
  1
33.2
 50
90
 41
0.8910000000000001
  0
ENDBLK
  8
0
  0
BLOCK
  8
1
  2
*D8
 70
1
 10
0
 20
0
 30
0
  0
LINE
  8
1
 62
2
 10
294.0436913870861
 20
247.609513549037
 30
0
 11
325.0436913870853
 21
247.609513549037
 31
0
  0
LINE
  8
1
 62
2
 10
294.0436913870861
 20
290.3731501657477
 30
0
 11
294.0436913870861
 21
247.609513549037
 31
0
  0
LINE
  8
1
 62
2
 10
325.0436913870853
 20
280.5981501657631
 30
0
 11
325.0436913870853
 21
247.609513549037
 31
0
  0
SOLID
  8
1
 62
2
 10
325.0436913870853
 20
247.609513549037
 30
0
 11
321.8436913870853
 21
247.193513549037
 31
0
 12
321.8436913870853
 22
248.025513549037
 32
0
 13
321.8436913870853
 23
248.025513549037
 33
0
  0
SOLID
  8
1
 62
2
 10
294.0436913870861
 20
247.609513549037
 30
0
 11
297.2436913870861
 21
248.025513549037
 31
0
 12
297.2436913870861
 22
247.193513549037
 32
0
 13
297.2436913870861
 23
247.193513549037
 33
0
  0
TEXT
  8
1
 62
2
 10
304.474525585514
 20
248.704642180386
 30
0
 40
3.200000000000001
  1
31
 41
0.8910000000000001
  0
TEXT
  8
1
 62
2
 10
309.876125585514
 20
249.344642180386
 30
0
 40
1.920000000000001
  1
%%p0.3
 41
0.9
  0
ENDBLK
  8
0
  0
BLOCK
  8
1
  2
*D9
 70
1
 10
0
 20
0
 30
0
  0
LINE
  8
1
 62
2
 10
325.0436913870853
 20
247.5981501657826
 30
0
 11
360.7436913870855
 21
247.5981501657826
 31
0
  0
LINE
  8
1
 62
2
 10
325.0436913870853
 20
247.5981501657826
 30
0
 11
360.7436913870855
 21
247.5981501657826
 31
0
  0
LINE
  8
1
 62
2
 10
325.0436913870853
 20
280.5981501657632
 30
0
 11
325.0436913870853
 21
246.0981501657826
 31
0
  0
LINE
  8
1
 62
2
 10
360.7436913870855
 20
282.5981501657826
 30
0
 11
360.7436913870855
 21
246.0981501657826
 31
0
  0
SOLID
  8
1
 62
2
 10
360.7436913870855
 20
247.5981501657826
 30
0
 11
357.5436913870855
 21
247.1821501657826
 31
0
 12
357.5436913870855
 22
248.0141501657826
 32
0
 13
357.5436913870855
 23
248.0141501657826
 33
0
  0
SOLID
  8
1
 62
2
 10
325.0436913870853
 20
247.5981501657826
 30
0
 11
328.2436913870853
 21
248.0141501657826
 31
0
 12
328.2436913870853
 22
247.1821501657826
 32
0
 13
328.2436913870853
 23
247.1821501657826
 33
0
  0
TEXT
  8
1
 62
2
 10
338.779335089504
 20
248.5981501657826
 30
0
 40
3.200000000000001
  1
35.7
 41
0.8910000000000001
  0
ENDBLK
  8
0
  0
BLOCK
  8
1
  2
*D10
 70
1
 10
0
 20
0
 30
0
  0
LINE
  8
1
 62
2
 10
340.7436913870855
 20
257.5981501657826
 30
0
 11
360.7436913870855
 21
257.5981501657826
 31
0
  0
LINE
  8
1
 62
2
 10
340.7436913870855
 20
257.5981501657826
 30
0
 11
360.7436913870855
 21
257.5981501657826
 31
0
  0
LINE
  8
1
 62
2
 10
340.7436913870855
 20
280.5496102911149
 30
0
 11
340.7436913870855
 21
256.0981501657826
 31
0
  0
LINE
  8
1
 62
2
 10
360.7436913870855
 20
282.5981501657826
 30
0
 11
360.7436913870855
 21
256.0981501657826
 31
0
  0
SOLID
  8
1
 62
2
 10
360.7436913870855
 20
257.5981501657826
 30
0
 11
357.5436913870855
 21
257.1821501657826
 31
0
 12
357.5436913870855
 22
258.0141501657826
 32
0
 13
357.5436913870855
 23
258.0141501657826
 33
0
  0
SOLID
  8
1
 62
2
 10
340.7436913870855
 20
257.5981501657826
 30
0
 11
343.9436913870855
 21
258.0141501657826
 31
0
 12
343.9436913870855
 22
257.1821501657826
 32
0
 13
343.9436913870855
 23
257.1821501657826
 33
0
  0
TEXT
  8
1
 62
2
 10
349.097323790412
 20
258.5981501657826
 30
0
 40
3.200000000000001
  1
20
 41
0.8910000000000001
  0
ENDBLK
  8
0
  0
BLOCK
  8
1
  2
*D11
 70
1
 10
0
 20
0
 30
0
  0
LINE
  8
1
 62
2
 10
425.7436913870855
 20
366.8981501657767
 30
0
 11
445.7436913870855
 21
366.8981501657767
 31
0
  0
LINE
  8
1
 62
2
 10
425.7436913870855
 20
366.8981501657767
 30
0
 11
445.7436913870855
 21
366.8981501657767
 31
0
  0
LINE
  8
1
 62
2
 10
445.7436913870855
 20
356.6981501657592
 30
0
 11
445.7436913870855
 21
368.3981501657767
 31
0
  0
LINE
  8
1
 62
2
 10
425.7436913870855
 20
356.6981501657592
 30
0
 11
425.7436913870855
 21
368.3981501657767
 31
0
  0
SOLID
  8
1
 62
2
 10
445.7436913870855
 20
366.8981501657767
 30
0
 11
442.5436913870855
 21
366.4821501657767
 31
0
 12
442.5436913870855
 22
367.3141501657767
 32
0
 13
442.5436913870855
 23
367.3141501657767
 33
0
  0
SOLID
  8
1
 62
2
 10
425.7436913870855
 20
366.8981501657767
 30
0
 11
428.9436913870855
 21
367.3141501657767
 31
0
 12
428.9436913870855
 22
366.4821501657767
 32
0
 13
428.9436913870855
 23
366.4821501657767
 33
0
  0
TEXT
  8
1
 62
2
 10
432.7458926747491
 20
368.8981501657767
 30
0
 40
3.200000000000001
  1
20
 41
0.8910000000000001
  0
ENDBLK
  8
0
  0
BLOCK
  8
1
  2
*D12
 70
1
 10
0
 20
0
 30
0
  0
LINE
  8
1
 62
2
 10
345.7436913870855
 20
267.5981501657826
 30
0
 11
352.258405372285
 21
267.5981501657826
 31
0
  0
LINE
  8
1
 62
2
 10
335.7436913870855
 20
267.5981501657826
 30
0
 11
345.7436913870855
 21
267.5981501657826
 31
0
  0
LINE
  8
1
 62
2
 10
345.7436913870855
 20
267.5981501657826
 30
0
 11
352.258405372285
 21
267.5981501657826
 31
0
  0
LINE
  8
1
 62
2
 10
335.7436913870855
 20
281.2981501657845
 30
0
 11
335.7436913870855
 21
266.0981501657826
 31
0
  0
LINE
  8
1
 62
2
 10
345.7436913870855
 20
281.2981501657845
 30
0
 11
345.7436913870855
 21
266.0981501657826
 31
0
  0
SOLID
  8
1
 62
2
 10
345.7436913870855
 20
267.5981501657826
 30
0
 11
342.5436913870855
 21
267.1821501657826
 31
0
 12
342.5436913870855
 22
268.0141501657826
 32
0
 13
342.5436913870855
 23
268.0141501657826
 33
0
  0
SOLID
  8
1
 62
2
 10
335.7436913870855
 20
267.5981501657826
 30
0
 11
338.9436913870855
 21
268.0141501657826
 31
0
 12
338.9436913870855
 22
267.1821501657826
 32
0
 13
338.9436913870855
 23
267.1821501657826
 33
0
  0
TEXT
  8
1
 62
2
 10
348.418405372285
 20
268.5981501657826
 30
0
 40
3.2
  1
10
 41
0.8910000000000001
  0
ENDBLK
  8
0
  0
BLOCK
  8
1
  2
*D13
 70
1
 10
0
 20
0
 30
0
  0
LINE
  8
1
 62
2
 10
284.3534887019216
 20
342.6245244898731
 30
0
 11
289.9531948609235
 21
350.9385380153967
 31
0
  0
LINE
  8
1
 62
2
 10
289.8393478062902
 20
338.9296545068206
 30
0
 11
283.1093660760081
 21
343.46247370772
 31
0
  0
LINE
  8
1
 62
2
 10
295.4390539652921
 20
347.2436680323442
 30
0
 11
288.70907223501
 21
351.7764872332436
 31
0
  0
SOLID
  8
1
 62
2
 10
284.3534887019216
 20
342.6245244898731
 30
0
 11
285.796077025075
 21
345.511044008238
 31
0
 12
286.4861503749149
 22
345.0462615087388
 32
0
 13
286.4861503749149
 23
345.0462615087388
 33
0
  0
SOLID
  8
1
 62
2
 10
289.9531948609235
 20
350.9385380153967
 30
0
 11
288.5106065377701
 21
348.0520184970318
 31
0
 12
287.8205331879301
 22
348.5168009965309
 32
0
 13
287.8205331879301
 23
348.5168009965309
 33
0
  0
TEXT
  8
1
 62
2
 10
285.5477056580097
 20
348.9516151558881
 30
0
 40
3.2
  1
10
 50
56.03869978671612
 41
0.9
  0
ENDBLK
  8
0
  0
BLOCK
  8
1
  2
*D14
 70
1
 10
0
 20
0
 30
0
  0
LINE
  8
1
 62
2
 10
287.6636913870862
 20
367.6981501657787
 30
0
 11
273.8236913870862
 21
367.6981501657787
 31
0
  0
LINE
  8
1
 62
2
 10
339.0746151164421
 20
308.0075645623863
 30
0
 11
287.6636913870862
 21
367.6981501657787
 31
0
  0
SOLID
  8
1
 62
2
 10
339.0746151164421
 20
308.0075645623863
 30
0
 11
336.671087695747
 21
310.1607278023583
 31
0
 12
337.3014954735149
 22
310.7036919206292
 32
0
 13
337.3014954735149
 23
310.7036919206292
 33
0
  0
SOLID
  8
1
 62
2
 10
311.0127676577285
 20
340.5887357691436
 30
0
 11
313.4162950784236
 21
338.4355725291716
 31
0
 12
312.7858873006557
 22
337.8926084109007
 32
0
 13
312.7858873006557
 23
337.8926084109007
 33
0
  0
TEXT
  8
1
 62
2
 10
277.6636913870862
 20
369.6981501657787
 30
0
 40
3.200000000000001
  1
43
 41
0.8910000000000001
  0
TEXT
  8
1
 62
2
 10
273.8236913870862
 20
369.6981501657787
 30
0
 40
3.200000000000001
  1
%%c
 41
0.8910000000000001
  0
ENDBLK
  8
0
  0
BLOCK
  8
1
  2
*D15
 70
1
 10
0
 20
0
 30
0
  0
LINE
  8
1
 62
2
 10
290.2936913870869
 20
293.2981501657554
 30
0
 11
297.7936913870854
 21
293.2981501657554
 31
0
  0
LINE
  8
1
 62
2
 10
294.0436913870861
 20
289.5481501657562
 30
0
 11
294.0436913870861
 21
297.0481501657546
 31
0
  0
LINE
  8
1
 62
2
 10
292.9147947468367
 20
291.3518479344382
 30
0
 11
280.491218876619
 21
269.932674048154
 31
0
  0
LINE
  8
1
 62
2
 10
280.491218876619
 20
269.932674048154
 30
0
 11
253.467218876619
 21
269.932674048154
 31
0
  0
SOLID
  8
1
 62
2
 10
292.9147947468367
 20
291.3518479344382
 30
0
 11
291.6691025154718
 21
288.3750532044111
 31
0
 12
290.9494032014912
 22
288.7924940953835
 32
0
 13
290.9494032014912
 23
288.7924940953835
 33
0
  0
TEXT
  8
1
 62
2
 10
262.747218876619
 20
271.932674048154
 30
0
 40
3.2
  1
4.5
 41
0.9
  0
TEXT
  8
1
 62
2
 10
270.347218876619
 20
272.572674048154
 30
0
 40
1.92
  1
%%p0.3
 41
0.9
  0
TEXT
  8
1
 62
2
 10
253.467218876619
 20
271.932674048154
 30
0
 40
3.2
  1
2-%%c
 41
0.9
  0
ENDBLK
  8
0
  0
BLOCK
  8
1
  2
*D16
 70
1
 10
0
 20
0
 30
0
  0
LINE
  8
1
 62
2
 10
357.6585198668703
 20
333.0372671181584
 30
0
 11
370.8694736142228
 21
336.5771315055297
 31
0
  0
LINE
  8
1
 62
2
 10
364.5990897891957
 20
324.298150165765
 30
0
 11
372.4860321752215
 21
324.298150165765
 31
0
  0
LINE
  8
1
 62
2
 10
370.8694736142228
 20
336.5771315055297
 30
0
 11
372.3183623536694
 21
336.9653600731347
 31
0
  0
LINE
  8
1
 62
2
 10
372.4860321752215
 20
324.298150165765
 30
0
 11
373.9860321752215
 21
324.298150165765
 31
0
  0
ARC
  8
1
 62
2
 10
325.0436913828592
 20
324.298150165765
 30
0
 40
47.4423407923623
 50
0
 51
14.99999999807093
  0
SOLID
  8
1
 62
2
 10
372.4860321752215
 20
324.298150165765
 30
0
 11
371.9623687097378
 21
327.4823035186859
 31
0
 12
372.7938956021488
 22
327.5103575236983
 32
0
 13
372.7938956021488
 23
327.5103575236983
 33
0
  0
SOLID
  8
1
 62
2
 10
370.8694736142228
 20
336.5771315055297
 30
0
 11
371.9982272902115
 21
333.5540583772475
 31
0
 12
371.1877730787829
 22
333.3659414689761
 32
0
 13
371.1877730787829
 23
333.3659414689761
 33
0
  0
TEXT
  8
1
 62
2
 10
373.4845075949978
 20
334.6554658281318
 30
0
 40
3.2
  1
15%%d
 50
278.5504584090069
 41
0.9
  0
ENDBLK
  8
0
  0
BLOCK
  8
1
  2
*D17
 70
1
 10
0
 20
0
 30
0
  0
LINE
  8
1
 62
2
 10
283.6467656217255
 20
348.1986763998597
 30
0
 11
282.3477275160353
 21
348.9486763998362
 31
0
  0
LINE
  8
1
 62
2
 10
277.2426389188527
 20
324.298150165765
 30
0
 11
275.7426389188527
 21
324.298150165765
 31
0
  0
LINE
  8
1
 62
2
 10
291.6109259839233
 20
343.6005662710676
 30
0
 11
283.6467656217255
 21
348.1986763998597
 31
0
  0
LINE
  8
1
 62
2
 10
280.3611198522848
 20
324.298150165765
 30
0
 11
277.2426389188527
 21
324.298150165765
 31
0
  0
ARC
  8
1
 62
2
 10
325.0436913885401
 20
324.298150165765
 30
0
 40
47.80105246968731
 50
150.0000000010367
 51
180
  0
SOLID
  8
1
 62
2
 10
283.6467656217255
 20
348.1986763998597
 30
0
 11
282.507430691637
 21
345.1795752228402
 31
0
 12
281.773379373525
 22
345.5712289760178
 32
0
 13
281.773379373525
 23
345.5712289760178
 33
0
  0
SOLID
  8
1
 62
2
 10
277.2426389188527
 20
324.298150165765
 30
0
 11
276.9339625486734
 21
327.5102795060147
 31
0
 12
277.7654965144292
 22
327.4824359467131
 32
0
 13
277.7654965144292
 23
327.4824359467131
 33
0
  0
TEXT
  8
1
 62
2
 10
275.7893951529081
 20
332.4559396593203
 30
0
 40
3.2
  1
30%%d
 50
76.55269199782494
 41
0.9
  0
ENDBLK
  8
0
  0
ENDSEC
  0
SECTION
  2
ENTITIES
  0
POLYLINE
  8
1
 62
2
 66
1
  0
VERTEX
  8
1
 10
361.7685090742456
 20
344.0578578706185
 30
0
 42
-0.07035277224592858
  0
VERTEX
  8
1
 10
361.5420278958064
 20
344.1859743857062
 30
0
 42
-0.07362839143538183
  0
VERTEX
  8
1
 10
361.3826364256216
 20
344.3500974101122
 30
0
 42
-0.06139648929636988
  0
VERTEX
  8
1
 10
361.2772827495994
 20
344.5438377653977
 30
0
 42
-0.04228525688384555
  0
VERTEX
  8
1
 10
361.2129149536507
 20
344.7608062731232
 30
0
 42
-0.02429399546117535
  0
VERTEX
  8
1
 10
361.1764811236867
 20
344.9946137548487
 30
0
 42
-0.009075923539754968
  0
VERTEX
  8
1
 10
361.1549293456182
 20
345.2388710321347
 30
0
 42
0.004623369272519023
  0
VERTEX
  8
1
 10
361.1352077053566
 20
345.4871889265411
 30
0
 42
0.01850688780986359
  0
VERTEX
  8
1
 10
361.1042642888126
 20
345.7331782596285
 30
0
 42
0.03368353516183462
  0
VERTEX
  8
1
 10
361.0490471818975
 20
345.9704498529569
 30
0
 42
0.04926157031335071
  0
VERTEX
  8
1
 10
360.9565044705222
 20
346.1926145280866
 30
0
 42
0.06058747459138381
  0
VERTEX
  8
1
 10
360.8135842406024
 20
346.3932831065729
 30
0
  0
SEQEND
  8
1
  0
POLYLINE
  8
1
 62
2
 66
1
  0
VERTEX
  8
1
 10
361.0941688079726
 20
343.3798522015298
 30
0
 42
-0.0546627187545617
  0
VERTEX
  8
1
 10
360.7799094514892
 20
343.4633666582395
 30
0
 42
-0.06942504835056915
  0
VERTEX
  8
1
 10
360.5469715877634
 20
343.5899077014244
 30
0
 42
-0.07358894386865479
  0
VERTEX
  8
1
 10
360.3822163888217
 20
343.7530288783885
 30
0
 42
-0.0622054965155916
  0
VERTEX
  8
1
 10
360.2725050266897
 20
343.9462837364361
 30
0
 42
-0.04331405969107736
  0
VERTEX
  8
1
 10
360.2046986733935
 20
344.1632258228712
 30
0
 42
-0.02519892842129667
  0
VERTEX
  8
1
 10
360.1656585009591
 20
344.3974086849982
 30
0
 42
-0.00982430794985961
  0
VERTEX
  8
1
 10
360.1422456814124
 20
344.6423858701209
 30
0
 42
0.003963497823660614
  0
VERTEX
  8
1
 10
360.1213213867795
 20
344.8917109255437
 30
0
 42
0.01786045789123817
  0
VERTEX
  8
1
 10
360.0897467890863
 20
345.1389373985707
 30
0
 42
0.0330130688520285
  0
VERTEX
  8
1
 10
360.0343830603588
 20
345.377618836506
 30
0
 42
0.04863550012515035
  0
VERTEX
  8
1
 10
359.9420913726229
 20
345.6013087866537
 30
0
 42
0.06021995434518283
  0
VERTEX
  8
1
 10
359.7997328979048
 20
345.803560796318
 30
0
 42
0.06176364876153808
  0
VERTEX
  8
1
 10
359.5941688082301
 20
345.9779284128031
 30
0
  0
SEQEND
  8
1
  0
POINT
  8
0
 62
7
  6
DASHED
 10
291.118691387086
 20
293.2981501657554
 30
0
  0
POINT
  8
0
 62
7
  6
DASHED
 10
294.0436913870861
 20
290.3731501657477
 30
0
  0
LINE
  8
1
 62
2
 10
376.6034554094636
 20
299.1981501657691
 30
0
 11
371.9759327009452
 21
301.8698516470728
 31
0
  0
LINE
  8
1
 62
2
 10
371.9759327009452
 20
301.8698516470728
 30
0
 11
371.9759327009452
 21
300.0314834991024
 31
0
  0
LINE
  8
1
 62
2
 10
371.9759327009452
 20
300.0314834991024
 30
0
 11
366.1425993676119
 21
300.0314834991024
 31
0
  0
LINE
  8
1
 62
2
 10
366.1425993676119
 20
300.0314834991024
 30
0
 11
366.1425993676119
 21
298.3648168324357
 31
0
  0
LINE
  8
1
 62
2
 10
366.1425993676119
 20
298.3648168324357
 30
0
 11
371.9759327009452
 21
298.3648168324357
 31
0
  0
LINE
  8
1
 62
2
 10
371.9759327009452
 20
298.3648168324357
 30
0
 11
371.9759327009452
 21
296.5264486842711
 31
0
  0
LINE
  8
1
 62
2
 10
371.9759327009452
 20
296.5264486842711
 30
0
 11
376.6034554094636
 21
299.1981501657691
 31
0
  0
LINE
  8
1
 62
3
 10
361.7685090742456
 20
344.0578578706185
 30
0
 11
378.1256317604435
 21
353.5016470571694
 31
0
  0
LINE
  8
1
 62
3
 10
361.1404925194855
 20
345.427323151006
 30
0
 11
377.3756317606674
 21
354.8006851623327
 31
0
  0
LINE
  8
1
 62
3
 10
361.1915004781696
 20
344.8794223410455
 30
0
 11
377.6256317605722
 21
354.3676724608352
 31
0
  0
LINE
  8
1
 62
3
 10
378.1256317604435
 20
353.5016470571694
 30
0
 11
377.6256317605722
 21
354.3676724608352
 31
0
  0
LINE
  8
1
 62
3
 10
378.0422984271054
 20
353.6459846245439
 30
0
 11
378.1256317604435
 21
353.5016470571694
 31
0
  0
LINE
  8
1
 62
3
 10
380.2073619365459
 20
354.8959846245439
 30
0
 11
378.0422984271054
 21
353.6459846245439
 31
0
  0
LINE
  8
1
 62
3
 10
379.8740286031871
 20
355.4733348938485
 30
0
 11
380.2073619365459
 21
354.8959846245439
 31
0
  0
LINE
  8
1
 62
3
 10
377.7089650938102
 20
354.2233348938485
 30
0
 11
379.8740286031871
 21
355.4733348938485
 31
0
  0
LINE
  8
1
 62
3
 10
360.8135842406024
 20
346.3932831065729
 30
0
 11
376.8756317606634
 21
355.6667105661148
 31
0
  0
LINE
  8
1
 62
3
 10
377.3756317602711
 20
354.800685161964
 30
0
 11
376.8756317606634
 21
355.6667105661148
 31
0
  0
LINE
  8
1
 62
3
 10
379.1240286034055
 20
356.7723729986432
 30
0
 11
376.958965093947
 21
355.5223729987889
 31
0
  0
LINE
  8
1
 62
3
 10
379.4573619367612
 20
356.1950227294357
 30
0
 11
379.1240286034055
 21
356.7723729986432
 31
0
  0
LINE
  8
1
 62
3
 10
377.2922984273011
 20
354.9450227294357
 30
0
 11
379.4573619367612
 21
356.1950227294357
 31
0
  0
LINE
  8
1
 62
3
 10
351.2927036707253
 20
341.1850752812536
 30
0
 11
359.5941688082301
 21
345.9779284128031
 31
0
  0
LINE
  8
1
 62
1
 10
423.4974995610467
 20
350.2981501657749
 30
0
 11
448.2247159996534
 21
350.2981501657749
 31
0
  0
LINE
  8
1
 62
3
 10
425.7436913870855
 20
354.0481501658249
 30
0
 11
445.7436913870855
 21
354.0481501658249
 31
0
  0
LINE
  8
1
 62
3
 10
445.7436913870855
 20
344.2723060214116
 30
0
 11
425.7436913870855
 21
344.2723060214116
 31
0
  0
LINE
  8
1
 62
3
 10
444.0436913870854
 20
341.7933687331116
 30
0
 11
445.7436913870855
 21
341.7933687331116
 31
0
  0
LINE
  8
1
 62
3
 10
444.0436913870854
 20
337.8365381226099
 30
0
 11
444.0436913870854
 21
341.7933687331116
 31
0
  0
LINE
  8
1
 62
3
 10
445.7436913870855
 20
337.8365381226099
 30
0
 11
444.0436913870854
 21
337.8365381226099
 31
0
  0
LINE
  8
1
 62
3
 10
442.5436913870854
 20
340.7867015171303
 30
0
 11
442.5436913870854
 21
336.6059821694332
 31
0
  0
LINE
  8
1
 62
3
 10
439.5436913870854
 20
341.3145001947724
 30
0
 11
439.5436913870854
 21
343.8851758410738
 31
0
  0
LINE
  8
1
 62
3
 10
439.5436913870854
 20
340.7867015171303
 30
0
 11
442.5436913870854
 21
340.7867015171303
 31
0
  0
LINE
  8
1
 62
3
 10
439.5436913870854
 20
341.3145001947724
 30
0
 11
442.5436913870854
 21
341.3145001947724
 31
0
  0
LINE
  8
1
 62
3
 10
439.5436913870854
 20
336.6059821694332
 30
0
 11
439.5436913870854
 21
340.7867015171303
 31
0
  0
LINE
  8
1
 62
3
 10
442.5436913870854
 20
336.6059821694332
 30
0
 11
439.5436913870854
 21
336.6059821694332
 31
0
  0
LINE
  8
1
 62
3
 10
442.5436913870854
 20
343.8851758410738
 30
0
 11
442.5436913870854
 21
341.3145001947724
 31
0
  0
LINE
  8
1
 62
3
 10
439.5436913870854
 20
343.8851758410738
 30
0
 11
442.5436913870854
 21
343.8851758410738
 31
0
  0
LINE
  8
1
 62
3
 10
431.743691387086
 20
334.3094856588039
 30
0
 11
432.7436913870866
 21
334.3094856588039
 31
0
  0
LINE
  8
1
 62
3
 10
431.743691387086
 20
330.1094856588039
 30
0
 11
432.7436913870866
 21
330.1094856588039
 31
0
  0
LINE
  8
1
 62
3
 10
431.743691387086
 20
334.3094856588039
 30
0
 11
431.743691387086
 21
330.1094856588039
 31
0
  0
LINE
  8
1
 62
3
 10
432.7436913870866
 20
329.7094856588039
 30
0
 11
432.7436913870866
 21
334.7094856588039
 31
0
  0
LINE
  8
1
 62
3
 10
432.7436913870866
 20
337.2094856588039
 30
0
 11
432.7436913870866
 21
357.6981501657787
 31
0
  0
LINE
  8
1
 62
3
 10
430.6436913870865
 20
334.7094856588039
 30
0
 11
430.6436913870865
 21
337.2094856588039
 31
0
  0
LINE
  8
1
 62
3
 10
430.6436913870865
 20
329.7094856588039
 30
0
 11
432.7436913870866
 21
329.7094856588039
 31
0
  0
LINE
  8
1
 62
3
 10
430.6436913870865
 20
334.7094856588039
 30
0
 11
432.7436913870866
 21
334.7094856588039
 31
0
  0
LINE
  8
1
 62
3
 10
430.6436913870865
 20
327.2094856588039
 30
0
 11
430.6436913870865
 21
329.7094856588039
 31
0
  0
LINE
  8
1
 62
3
 10
434.1436913870867
 20
327.2094856588039
 30
0
 11
430.6436913870865
 21
327.2094856588039
 31
0
  0
LINE
  8
1
 62
3
 10
434.1436913870867
 20
337.2094856588039
 30
0
 11
434.1436913870867
 21
327.2094856588039
 31
0
  0
LINE
  8
1
 62
3
 10
430.6436913870865
 20
337.2094856588039
 30
0
 11
434.1436913870867
 21
337.2094856588039
 31
0
  0
LINE
  8
1
 62
3
 10
434.1436913870867
 20
281.2981501657845
 30
0
 11
434.1436913870867
 21
282.5981501657826
 31
0
  0
LINE
  8
1
 62
3
 10
430.6436913870865
 20
281.2981501657845
 30
0
 11
434.1436913870867
 21
281.2981501657845
 31
0
  0
LINE
  8
1
 62
3
 10
430.6436913870865
 20
282.5981501657826
 30
0
 11
430.6436913870865
 21
281.2981501657845
 31
0
  0
LINE
  8
1
 62
2
 10
288.1436913870862
 20
321.8981501657613
 30
0
 11
288.1436913870862
 21
316.8449271697434
 31
0
  0
LINE
  8
1
 62
2
 10
316.2365865839553
 20
357.6981501657787
 30
0
 11
322.7436913870866
 21
357.6981501657787
 31
0
  0
LINE
  8
1
 62
3
 10
345.7436913870855
 20
281.2981501657845
 30
0
 11
345.7436913870855
 21
282.5981501657826
 31
0
  0
LINE
  8
1
 62
3
 10
335.7436913870855
 20
281.2981501657845
 30
0
 11
345.7436913870855
 21
281.2981501657845
 31
0
  0
LINE
  8
1
 62
3
 10
335.7436913870855
 20
282.5981501657826
 30
0
 11
335.7436913870855
 21
281.2981501657845
 31
0
  0
LINE
  8
1
 62
3
 10
355.3020352828713
 20
327.2294680749104
 30
0
 11
356.5743508429665
 21
327.5703840017491
 31
0
  0
LINE
  8
1
 62
3
 10
353.2099304010405
 20
337.0216520654134
 30
0
 11
354.4710919696511
 21
337.3595792892465
 31
0
  0
LINE
  8
1
 62
3
 10
297.4185576628502
 20
346.0210312497531
 30
0
 11
296.2684690492344
 21
346.6850352204462
 31
0
  0
LINE
  8
1
 62
3
 10
291.7969765543518
 20
337.7196472322607
 30
0
 11
290.6687628902325
 21
338.3710216949226
 31
0
  0
LINE
  8
1
 62
3
 10
350.2662855428061
 20
342.9018735756224
 30
0
 11
351.5053134107231
 21
343.6172266486022
 31
0
  0
LINE
  8
1
 62
3
 10
352.5151563962956
 20
342.4682089605989
 30
0
 11
351.046682197988
 21
341.6203849869509
 31
0
  0
LINE
  8
1
 62
3
 10
354.3517131844516
 20
338.9097433632434
 30
0
 11
352.8163938332036
 21
338.0233263224479
 31
0
  0
LINE
  8
1
 62
3
 10
354.5052715644387
 20
337.2663495275987
 30
0
 11
354.8403331940476
 21
337.4597974496156
 31
0
  0
LINE
  8
1
 62
3
 10
360.7436913870855
 20
315.7981501657554
 30
0
 11
355.9151992867651
 21
315.7981501657554
 31
0
  0
LINE
  8
1
 62
3
 10
360.7436913870855
 20
282.5981501657826
 30
0
 11
327.4436913870861
 21
282.5981501657826
 31
0
  0
LINE
  8
1
 62
3
 10
360.7436913870855
 20
282.5981501657826
 30
0
 11
360.7436913870855
 21
283.1981501657592
 31
0
  0
LINE
  8
1
 62
1
 10
363.5990897891958
 20
324.298150165765
 30
0
 11
281.3611198522848
 21
324.298150165765
 31
0
  0
LINE
  8
1
 62
1
 10
325.0436913870853
 20
280.5981501657631
 30
0
 11
325.0436913870853
 21
324.298150165765
 31
0
  0
LINE
  8
1
 62
3
 10
353.5185651212386
 20
347.8232764316023
 30
0
 11
350.1811890687567
 21
344.4859003790887
 31
0
  0
LINE
  8
1
 62
3
 10
345.5734102125832
 20
349.7776164595774
 30
0
 11
348.5688176529316
 21
352.7730238999472
 31
0
  0
LINE
  8
1
 62
3
 10
296.5185651212389
 20
290.8232764317771
 30
0
 11
299.0328931707023
 21
293.3376044811175
 31
0
  0
LINE
  8
1
 62
3
 10
291.5688176529334
 20
295.7730238999278
 30
0
 11
294.6244712922398
 21
298.8286775392887
 31
0
  0
LINE
  8
1
 62
3
 10
360.7436913870855
 20
315.1981501657787
 30
0
 11
360.7436913870855
 21
315.7981501657554
 31
0
  0
LINE
  8
1
 62
3
 10
360.7436913870855
 20
314.5981501657536
 30
0
 11
360.7436913870855
 21
315.1981501657787
 31
0
  0
LINE
  8
1
 62
3
 10
360.7436913870855
 20
283.7981501657845
 30
0
 11
360.7436913870855
 21
314.5981501657536
 31
0
  0
LINE
  8
1
 62
3
 10
360.7436913870855
 20
283.1981501657592
 30
0
 11
360.7436913870855
 21
283.7981501657845
 31
0
  0
LINE
  8
1
 62
1
 10
325.0436913870853
 20
324.298150165765
 30
0
 11
325.0436913870853
 21
363.7981501657845
 31
0
  0
LINE
  8
1
 62
3
 10
427.7436913870866
 20
357.6981501657787
 30
0
 11
443.7436913870858
 21
357.6981501657787
 31
0
  0
LINE
  8
1
 62
3
 10
431.9436913870873
 20
283.1981501657592
 30
0
 11
432.7436913870866
 21
283.1981501657592
 31
0
  0
LINE
  8
1
 62
3
 10
431.9436913870873
 20
283.7981501657845
 30
0
 11
431.9436913870873
 21
283.1981501657592
 31
0
  0
LINE
  8
1
 62
3
 10
432.7436913870866
 20
282.5981501657826
 30
0
 11
427.2436913870848
 21
282.5981501657826
 31
0
  0
LINE
  8
1
 62
3
 10
432.7436913870866
 20
283.1981501657592
 30
0
 11
432.7436913870866
 21
282.5981501657826
 31
0
  0
LINE
  8
1
 62
3
 10
431.743691387086
 20
283.1981501657592
 30
0
 11
431.9436913870873
 21
283.1981501657592
 31
0
  0
LINE
  8
1
 62
3
 10
431.743691387086
 20
283.7981501657845
 30
0
 11
427.4436913870861
 21
283.7981501657845
 31
0
  0
LINE
  8
1
 62
3
 10
431.743691387086
 20
283.7981501657845
 30
0
 11
431.743691387086
 21
283.1981501657592
 31
0
  0
LINE
  8
1
 62
3
 10
425.7436913870855
 20
314.2981501657553
 30
0
 11
425.7436913870855
 21
284.0981501657728
 31
0
  0
LINE
  8
1
 62
3
 10
444.243691387086
 20
282.5981501657826
 30
0
 11
432.7436913870866
 21
282.5981501657826
 31
0
  0
LINE
  8
1
 62
3
 10
442.8436913870867
 20
283.7981501657845
 30
0
 11
431.9436913870873
 21
283.7981501657845
 31
0
  0
LINE
  8
1
 62
1
 10
448.1767197639697
 20
324.298150165765
 30
0
 11
423.9112514922915
 21
324.298150165765
 31
0
  0
LINE
  8
1
 62
3
 10
443.3436913870855
 20
284.298150165765
 30
0
 11
443.3436913870855
 21
314.0981501657536
 31
0
  0
LINE
  8
1
 62
3
 10
445.7436913870855
 20
284.0981501657728
 30
0
 11
445.7436913870855
 21
314.2981501657553
 31
0
  0
LINE
  8
1
 62
3
 10
426.9436913870845
 20
314.0981501657533
 30
0
 11
426.9436913870873
 21
284.298150165765
 31
0
  0
LINE
  8
1
 62
3
 10
427.2436913870855
 20
315.7981501657554
 30
0
 11
444.2436913870855
 21
315.7981501657554
 31
0
  0
LINE
  8
1
 62
3
 10
442.8436913870855
 20
314.5981501657536
 30
0
 11
431.9436913870873
 21
314.5981501657536
 31
0
  0
LINE
  8
1
 62
3
 10
431.743691387086
 20
314.5981501657536
 30
0
 11
431.743691387086
 21
315.1981501657787
 31
0
  0
LINE
  8
1
 62
3
 10
431.743691387086
 20
315.1981501657787
 30
0
 11
432.7436913870866
 21
315.1981501657787
 31
0
  0
LINE
  8
1
 62
3
 10
432.7436913870866
 20
315.1981501657787
 30
0
 11
432.7436913870866
 21
315.7981501657554
 31
0
  0
LINE
  8
1
 62
3
 10
432.7436913870866
 20
315.7981501657554
 30
0
 11
432.7436913870866
 21
327.2094856588039
 31
0
  0
LINE
  8
1
 62
3
 10
342.7436913870851
 20
292.0981501659476
 30
0
 11
358.7436913870858
 21
292.0981501659476
 31
0
  0
LINE
  8
1
 62
3
 10
358.7436913870858
 20
292.0981501659476
 30
0
 11
358.7436913870858
 21
285.5981501657631
 31
0
  0
LINE
  8
1
 62
3
 10
358.7436913870858
 20
285.5981501657631
 30
0
 11
342.7436913870851
 21
285.5981501657631
 31
0
  0
LINE
  8
1
 62
3
 10
342.7436913870851
 20
285.5981501657631
 30
0
 11
342.7436913870851
 21
292.0981501659476
 31
0
  0
LINE
  8
1
 62
2
 10
412.7828353452338
 20
321.6264486842671
 30
0
 11
417.4103580537521
 21
324.298150165765
 31
0
  0
LINE
  8
1
 62
2
 10
412.7828353452338
 20
323.4648168324316
 30
0
 11
412.7828353452338
 21
321.6264486842671
 31
0
  0
LINE
  8
1
 62
2
 10
406.9495020119004
 20
323.4648168324316
 30
0
 11
412.7828353452338
 21
323.4648168324316
 31
0
  0
LINE
  8
1
 62
2
 10
406.9495020119004
 20
325.1314834990984
 30
0
 11
406.9495020119004
 21
323.4648168324316
 31
0
  0
LINE
  8
1
 62
2
 10
412.7828353452338
 20
325.1314834990984
 30
0
 11
406.9495020119004
 21
325.1314834990984
 31
0
  0
LINE
  8
1
 62
2
 10
412.7828353452338
 20
326.9698516472631
 30
0
 11
412.7828353452338
 21
325.1314834990984
 31
0
  0
LINE
  8
1
 62
2
 10
417.4103580537521
 20
324.298150165765
 30
0
 11
412.7828353452338
 21
326.9698516472631
 31
0
  0
LINE
  8
1
 62
3
 10
429.6436913871129
 20
304.4134242389429
 30
0
 11
429.6436913871129
 21
305.4135765669458
 31
0
  0
LINE
  8
1
 62
3
 10
429.6436913871129
 20
302.8131805139244
 30
0
 11
429.6436913871129
 21
303.8133328421215
 31
0
  0
LINE
  8
1
 62
3
 10
429.6436913871129
 20
301.2129367891
 30
0
 11
429.6436913871129
 21
302.2130891172487
 31
0
  0
LINE
  8
1
 62
3
 10
429.6436913871129
 20
299.6126930640816
 30
0
 11
429.6436913871129
 21
300.6128453924243
 31
0
  0
LINE
  8
1
 62
3
 10
429.6436913871129
 20
298.0124493394512
 30
0
 11
429.6436913871129
 21
299.0126016674544
 31
0
  0
LINE
  8
1
 62
3
 10
429.6436913871129
 20
296.4122056144328
 30
0
 11
429.6436913871129
 21
297.4123579425813
 31
0
  0
LINE
  8
1
 62
3
 10
442.0436913870894
 20
305.6300193719528
 30
0
 11
442.0436913870894
 21
304.6298670440951
 31
0
  0
LINE
  8
1
 62
3
 10
442.0436913870894
 20
305.6300193719528
 30
0
 11
429.6436913871129
 21
305.4135765669458
 31
0
  0
LINE
  8
1
 62
3
 10
442.0436913870894
 20
304.6298670440951
 30
0
 11
442.0436913870894
 21
304.0297756472737
 31
0
  0
LINE
  8
1
 62
3
 10
429.6436913871129
 20
304.4134242389429
 30
0
 11
442.0436913870894
 21
304.6298670440951
 31
0
  0
LINE
  8
1
 62
3
 10
442.0436913870894
 20
304.0297756472737
 30
0
 11
442.0436913870894
 21
303.0296233192707
 31
0
  0
LINE
  8
1
 62
3
 10
442.0436913870894
 20
304.0297756472737
 30
0
 11
429.6436913871129
 21
303.8133328421215
 31
0
  0
LINE
  8
1
 62
3
 10
442.0436913870894
 20
303.0296233192707
 30
0
 11
442.0436913870894
 21
302.4295319224494
 31
0
  0
LINE
  8
1
 62
3
 10
442.0436913870894
 20
303.0296233192707
 30
0
 11
429.6436913871129
 21
302.8131805139244
 31
0
  0
LINE
  8
1
 62
3
 10
442.0436913870894
 20
302.4295319224494
 30
0
 11
442.0436913870894
 21
301.4293795942522
 31
0
  0
LINE
  8
1
 62
3
 10
429.6436913871129
 20
302.2130891172487
 30
0
 11
442.0436913870894
 21
302.4295319224494
 31
0
  0
LINE
  8
1
 62
3
 10
442.0436913870894
 20
301.4293795942522
 30
0
 11
442.0436913870894
 21
300.829288197431
 31
0
  0
LINE
  8
1
 62
3
 10
442.0436913870894
 20
301.4293795942522
 30
0
 11
429.6436913871129
 21
301.2129367891
 31
0
  0
LINE
  8
1
 62
3
 10
442.0436913870894
 20
300.829288197431
 30
0
 11
442.0436913870894
 21
299.8291358694278
 31
0
  0
LINE
  8
1
 62
3
 10
429.6436913871129
 20
300.6128453924243
 30
0
 11
442.0436913870894
 21
300.829288197431
 31
0
  0
LINE
  8
1
 62
3
 10
442.0436913870894
 20
314.5981501657536
 30
0
 11
442.0436913870894
 21
305.6300193719528
 31
0
  0
LINE
  8
1
 62
3
 10
442.0436913870894
 20
299.8291358694278
 30
0
 11
442.0436913870894
 21
299.2290444726065
 31
0
  0
LINE
  8
1
 62
3
 10
429.6436913871129
 20
299.6126930640816
 30
0
 11
442.0436913870894
 21
299.8291358694278
 31
0
  0
LINE
  8
1
 62
3
 10
442.0436913870894
 20
299.2290444726065
 30
0
 11
442.0436913870894
 21
298.2288921444094
 31
0
  0
LINE
  8
1
 62
3
 10
442.0436913870894
 20
299.2290444726065
 30
0
 11
429.6436913871129
 21
299.0126016674544
 31
0
  0
LINE
  8
1
 62
3
 10
442.0436913870894
 20
298.2288921444094
 30
0
 11
442.0436913870894
 21
297.6288007477821
 31
0
  0
LINE
  8
1
 62
3
 10
429.6436913871129
 20
298.0124493394512
 30
0
 11
442.0436913870894
 21
298.2288921444094
 31
0
  0
LINE
  8
1
 62
3
 10
442.0436913870894
 20
297.6288007477821
 30
0
 11
442.0436913870894
 21
296.628648419779
 31
0
  0
LINE
  8
1
 62
3
 10
442.0436913870894
 20
297.6288007477821
 30
0
 11
429.6436913871129
 21
297.4123579425813
 31
0
  0
LINE
  8
1
 62
3
 10
429.6436913871129
 20
296.4122056144328
 30
0
 11
442.0436913870894
 21
296.628648419779
 31
0
  0
LINE
  8
1
 62
3
 10
442.0436913870894
 20
296.628648419779
 30
0
 11
442.0436913870894
 21
296.0285570229092
 31
0
  0
LINE
  8
1
 62
3
 10
428.8436913871137
 20
302.2981501656001
 30
0
 11
428.8436913871137
 21
314.5981501657536
 31
0
  0
LINE
  8
1
 62
3
 10
428.8436913871137
 20
296.1034323835939
 30
0
 11
428.8436913871137
 21
302.2981501656001
 31
0
  0
LINE
  8
1
 62
3
 10
442.0436913870894
 20
296.0285570229092
 30
0
 11
429.1489271090455
 21
295.8034780751157
 31
0
  0
LINE
  8
1
 62
3
 10
429.6436913871129
 20
306.0136679637672
 30
0
 11
429.6436913871129
 21
307.0138202917703
 31
0
  0
LINE
  8
1
 62
3
 10
429.6436913871129
 20
306.0136679637672
 30
0
 11
442.0436913870894
 21
306.2301107689194
 31
0
  0
LINE
  8
1
 62
3
 10
442.0436913870894
 20
307.2302630969226
 30
0
 11
429.6436913871129
 21
307.0138202917703
 31
0
  0
LINE
  8
1
 62
3
 10
429.6436913871129
 20
307.6139116887857
 30
0
 11
429.6436913871129
 21
308.6140640167888
 31
0
  0
LINE
  8
1
 62
3
 10
429.6436913871129
 20
307.6139116887857
 30
0
 11
442.0436913870894
 21
307.8303544939378
 31
0
  0
LINE
  8
1
 62
3
 10
442.0436913870894
 20
308.830506821941
 30
0
 11
429.6436913871129
 21
308.6140640167888
 31
0
  0
LINE
  8
1
 62
3
 10
429.6436913871129
 20
309.2141554136101
 30
0
 11
429.6436913871129
 21
310.2143077416133
 31
0
  0
LINE
  8
1
 62
3
 10
429.6436913871129
 20
309.2141554136101
 30
0
 11
442.0436913870894
 21
309.4305982187621
 31
0
  0
LINE
  8
1
 62
3
 10
442.0436913870894
 20
310.4307505467654
 30
0
 11
429.6436913871129
 21
310.2143077416133
 31
0
  0
LINE
  8
1
 62
3
 10
429.6436913871129
 20
310.8143991385799
 30
0
 11
429.6436913871129
 21
311.8145514665831
 31
0
  0
LINE
  8
1
 62
3
 10
429.6436913871129
 20
310.8143991385799
 30
0
 11
442.0436913870894
 21
311.0308419437807
 31
0
  0
LINE
  8
1
 62
3
 10
442.0436913870894
 20
312.0309942717839
 30
0
 11
429.6436913871129
 21
311.8145514665831
 31
0
  0
LINE
  8
1
 62
3
 10
429.6436913871129
 20
312.4146428634528
 30
0
 11
429.6436913871129
 21
313.414795191456
 31
0
  0
LINE
  8
1
 62
3
 10
429.6436913871129
 20
312.4146428634528
 30
0
 11
442.0436913870894
 21
312.6310856686051
 31
0
  0
LINE
  8
1
 62
3
 10
442.0436913870894
 20
313.6312379966082
 30
0
 11
429.6436913871129
 21
313.414795191456
 31
0
  0
LINE
  8
1
 62
3
 10
429.6436913871129
 20
314.0148865884226
 30
0
 11
442.0436913870894
 21
314.2313293936235
 31
0
  0
LINE
  8
1
 62
3
 10
429.6436913871129
 20
314.0148865884226
 30
0
 11
429.6436913871129
 21
314.5981501657536
 31
0
  0
LINE
  8
1
 62
3
 10
431.743691387086
 20
283.7981501657845
 30
0
 11
431.743691387086
 21
295.8487698539219
 31
0
  0
LINE
  8
1
 62
3
 10
431.9436913870873
 20
283.7981501657845
 30
0
 11
431.9436913870873
 21
295.8522608669222
 31
0
  0
LINE
  8
1
 62
3
 10
431.9436913870873
 20
315.1981501657787
 30
0
 11
431.9436913870873
 21
314.5981501657536
 31
0
  0
LINE
  8
1
 62
3
 10
431.743691387086
 20
314.5981501657536
 30
0
 11
427.4436913870844
 21
314.5981501657536
 31
0
  0
LINE
  8
1
 62
3
 10
361.0941688079726
 20
343.3798522015298
 30
0
 11
352.6201496315809
 21
338.4873749482234
 31
0
  0
LINE
  8
1
 62
3
 10
352.2061135088431
 20
339.403031620188
 30
0
 11
360.2379578761033
 21
344.0402191279101
 31
0
  0
LINE
  8
1
 62
3
 10
351.7635699056847
 20
340.3022294903814
 30
0
 11
360.09416880821
 21
345.1119030090072
 31
0
  0
LINE
  8
1
 62
3
 10
445.7436913870855
 20
314.2981501657553
 30
0
 11
445.7436913870855
 21
355.6981501657592
 31
0
  0
LINE
  8
1
 62
3
 10
425.7436913870855
 20
355.6981501657592
 30
0
 11
425.7436913870855
 21
314.2981501657553
 31
0
  0
LINE
  8
1
 62
1
 10
353.9686913870906
 20
350.2981501657749
 30
0
 11
348.1186913870858
 21
350.2981501657749
 31
0
  0
LINE
  8
1
 62
1
 10
351.0436913870875
 20
353.2231501657826
 30
0
 11
351.0436913870875
 21
347.3731501657671
 31
0
  0
LINE
  8
1
 62
1
  6
CENTER
 10
340.7436913870855
 20
280.5496102911149
 30
0
 11
340.7436913870855
 21
283.3083685870825
 31
0
  0
LINE
  8
1
 62
1
  6
CENTER
 10
354.0079400573576
 20
332.0590972064258
 30
0
 11
356.6925940405726
 21
332.7784480730884
 31
0
  0
LINE
  8
1
 62
1
  6
CENTER
 10
294.9185576628502
 20
341.6909042309387
 30
0
 11
292.4769513877167
 21
343.1005662710832
 31
0
  0
ARC
  8
1
 62
3
 10
352.7651563962936
 20
342.035196258766
 30
0
 40
0.4999999999476945
 50
29.9999999904935
 51
120.0000000032033
  0
ARC
  8
1
 62
3
 10
352.5053134107238
 20
341.8851758410766
 30
0
 40
1.999999999962789
 50
29.9999999974132
 51
120.0000000006371
  0
ARC
  8
1
 62
3
 10
354.1017131844521
 20
339.3427560650762
 30
0
 40
0.4999999999482721
 50
300.0000000033621
 51
23.74152485468948
  0
ARC
  8
1
 62
3
 10
353.8403331940486
 20
339.1918482572868
 30
0
 40
2.000000000088094
 50
299.9999999985109
 51
23.68279737318692
  0
ARC
  8
1
 62
3
 10
355.9151992867651
 20
317.0981501657536
 30
0
 40
1.300000000016178
 50
166.8718774625379
 51
270
  0
ARC
  8
1
 62
3
 10
299.73999995189
 20
292.6304976999255
 30
0
 40
1.000000000088837
 50
46.57247242530036
 51
134.9999999998273
  0
ARC
  8
1
 62
3
 10
293.9173645110543
 20
299.535784320437
 30
0
 40
0.9999999999721935
 50
315.0000000015061
 51
33.70364930841561
  0
ARC
  8
1
 62
3
 10
350.8882958499443
 20
343.778793597945
 30
0
 40
0.9999999999704652
 50
135.0000000017802
 51
213.4658492783044
  0
ARC
  8
1
 62
3
 10
344.8663034313984
 20
350.4847232407696
 30
0
 40
0.9999999999332755
 50
229.2632588725146
 51
314.9999999996983
  0
ARC
  8
1
 62
3
 10
427.7436913870866
 20
355.6981501657592
 30
0
 40
2.000000000019497
 50
90
 51
180
  0
ARC
  8
1
 62
3
 10
443.7436913870858
 20
355.6981501657592
 30
0
 40
1.999999999999716
 50
0
 51
90
  0
ARC
  8
1
 62
3
 10
427.2436913870803
 20
284.0981501657774
 30
0
 40
1.49999999999477
 50
180.0000000001759
 51
270.0000000001737
  0
ARC
  8
1
 62
3
 10
444.2436913870907
 20
284.0981501657774
 30
0
 40
1.49999999999477
 50
269.999999999822
 51
359.9999999998241
  0
ARC
  8
1
 62
3
 10
427.4436913870861
 20
284.298150165765
 30
0
 40
0.4999999999988063
 50
180
 51
270
  0
ARC
  8
1
 62
3
 10
442.8436913870867
 20
284.298150165765
 30
0
 40
0.4999999999805027
 50
270
 51
0
  0
ARC
  8
1
 62
3
 10
429.1436913871157
 20
296.1034323835939
 30
0
 40
0.3000000000020009
 50
180
 51
270.9999999999583
  0
ARC
  8
1
 62
3
 10
444.2436913870855
 20
314.2981501657553
 30
0
 40
1.5
 50
0
 51
90
  0
ARC
  8
1
 62
3
 10
427.2436913870855
 20
314.2981501657553
 30
0
 40
1.500000000000057
 50
90
 51
180
  0
ARC
  8
1
 62
3
 10
442.8436913870855
 20
314.0981501657536
 30
0
 40
0.5
 50
0
 51
90
  0
ARC
  8
1
 62
3
 10
427.4436913870844
 20
314.0981501657536
 30
0
 40
0.5
 50
90
 51
180
  0
ARC
  8
1
 62
3
 10
325.0436913870853
 20
324.298150165765
 30
0
 40
31.70000000000176
 50
5.924913259227191
 51
10.38163743469448
  0
ARC
  8
1
 62
3
 10
324.4436913870873
 20
326.2981501657845
 30
0
 40
32.00000000000478
 50
6.50537281486228
 51
20.22267966178154
  0
ARC
  8
1
 62
3
 10
324.5436913870864
 20
321.5981501657729
 30
0
 40
37.80000000001795
 50
138.4193055529088
 51
153.6580940203694
  0
ARC
  8
1
 62
3
 10
324.4436913870848
 20
326.2981501657902
 30
0
 40
34.10000000002265
 50
23.68279737340782
 51
24.05468548418693
  0
ARC
  8
1
 62
3
 10
324.4436913870928
 20
326.2981501657721
 30
0
 40
32.90000000004314
 50
23.74152484654663
 51
23.83700986218692
  0
ARC
  8
1
 62
2
 10
326.2646455155493
 20
340.9715693053626
 30
0
 40
0.2499999999552131
 50
147.3609267157426
 51
327.3609267157066
  0
ARC
  8
1
 62
2
 10
327.8514599507373
 20
344.856471201099
 30
0
 40
0.2499999999689423
 50
168.2032901750995
 51
348.2032901750814
  0
ARC
  8
1
 62
2
 10
316.4964620401548
 20
347.2279733517517
 30
0
 40
11.35000000007254
 50
327.3609267133441
 51
351.9025983622676
  0
ARC
  8
1
 62
2
 10
316.4964620401548
 20
347.2279733517517
 30
0
 40
11.85000000006255
 50
327.3609267134444
 51
351.9129242879288
  0
ARC
  8
1
 62
2
 10
327.7131836457739
 20
340.8017087477761
 30
0
 40
0.2500000000363604
 50
142.3609267074154
 51
322.3609267074187
  0
ARC
  8
1
 62
2
 10
329.6325512831885
 20
344.5335274282697
 30
0
 40
0.2499999999941392
 50
163.2032901894128
 51
343.2032901894253
  0
ARC
  8
1
 62
2
 10
318.5274525991378
 20
347.8856585739529
 30
0
 40
11.35000000000349
 50
322.3609267138879
 51
346.9025983631179
  0
ARC
  8
1
 62
2
 10
318.5274525991378
 20
347.8856585739529
 30
0
 40
11.8500000000469
 50
322.3609267136145
 51
346.912924288453
  0
ARC
  8
1
 62
2
 10
329.1414053279705
 20
340.506246144274
 30
0
 40
0.2500000000200929
 50
137.3609267085958
 51
317.3609267088981
  0
ARC
  8
1
 62
2
 10
331.3787186209443
 20
344.0565802159255
 30
0
 40
0.2499999999440782
 50
158.2032902069482
 51
338.2032902069482
  0
ARC
  8
1
 62
2
 10
320.6080356699103
 20
348.3638286147829
 30
0
 40
11.35000000006405
 50
317.360926713561
 51
341.9025983626927
  0
ARC
  8
1
 62
2
 10
320.6080356699103
 20
348.3638286147829
 30
0
 40
11.85000000010542
 50
317.3609267133579
 51
341.9129242885049
  0
ARC
  8
1
 62
2
 10
330.5384409328108
 20
340.0874301436119
 30
0
 40
0.2500000000428088
 50
132.3609267016058
 51
312.3609267015979
  0
ARC
  8
1
 62
2
 10
333.0766725763101
 20
343.42925942049
 30
0
 40
0.2500000000348782
 50
153.2032901797842
 51
333.2032901797608
  0
ARC
  8
1
 62
2
 10
322.7223767590118
 20
348.6588443112482
 30
0
 40
11.35000000004767
 50
312.3609267136898
 51
336.9025983629624
  0
ARC
  8
1
 62
2
 10
322.7223767590118
 20
348.6588443112482
 30
0
 40
11.85000000016604
 50
312.3609267131799
 51
336.9129242879594
  0
ARC
  8
1
 62
2
 10
331.8936581758914
 20
339.5484481885083
 30
0
 40
0.2500000000729233
 50
127.3609267248048
 51
307.3609267247841
  0
ARC
  8
1
 62
2
 10
334.7134906942808
 20
342.6563393318858
 30
0
 40
0.2499999999243593
 50
148.2032901944638
 51
328.2032901944443
  0
ARC
  8
1
 62
2
 10
324.8543844540837
 20
348.7684604157498
 30
0
 40
11.34999999997086
 50
307.3609267140097
 51
331.902598363492
  0
ARC
  8
1
 62
2
 10
324.8543844540855
 20
348.7684604157518
 30
0
 40
11.84999999984722
 50
307.360926714452
 51
331.912924288172
  0
ARC
  8
1
 62
2
 10
333.1967430353789
 20
338.893402257081
 30
0
 40
0.2499999999605137
 50
122.3609267107937
 51
302.3609267107607
  0
ARC
  8
1
 62
2
 10
336.2767158008294
 20
341.7437023387775
 30
0
 40
0.2500000000040166
 50
143.2032901785743
 51
323.203290178603
  0
ARC
  8
1
 62
2
 10
326.98783288922
 20
348.6918426837748
 30
0
 40
11.34999999997666
 50
302.3609267139736
 51
326.9025983633675
  0
ARC
  8
1
 62
2
 10
326.9878328892225
 20
348.6918426837772
 30
0
 40
11.85000000002123
 50
302.3609267138224
 51
326.9129242887087
  0
ARC
  8
1
 62
2
 10
334.4377782490125
 20
338.1272776444349
 30
0
 40
0.2499999999698266
 50
117.360926714852
 51
297.3609267148465
  0
ARC
  8
1
 62
2
 10
337.754450808874
 20
340.6982941597739
 30
0
 40
0.2500000000196023
 50
138.2032901750261
 51
318.2032901749893
  0
ARC
  8
1
 62
2
 10
329.1064852336214
 20
348.4295742224513
 30
0
 40
11.34999999991667
 50
297.3609267141117
 51
321.9025983632618
  0
ARC
  8
1
 62
2
 10
329.1064852336214
 20
348.4295742224513
 30
0
 40
11.84999999989878
 50
297.3609267141425
 51
321.9129242888737
  0
ARC
  8
1
 62
2
 10
335.6073187893107
 20
337.2559050212653
 30
0
 40
0.2500000000521148
 50
112.3609267087061
 51
292.3609267090384
  0
ARC
  8
1
 62
2
 10
339.1354492627892
 20
339.5280709821453
 30
0
 40
0.2500000000214933
 50
133.2032901863548
 51
313.2032901863353
  0
ARC
  8
1
 62
2
 10
331.1942172636659
 20
347.9836510532772
 30
0
 40
11.350000000077
 50
292.3609267137556
 51
316.9025983628039
  0
ARC
  8
1
 62
2
 10
331.1942172636681
 20
347.9836510532787
 30
0
 40
11.85000000018246
 50
292.3609267135368
 51
316.9129242882325
  0
ARC
  8
1
 62
2
 10
336.6964637466092
 20
336.2859160595904
 30
0
 40
0.2500000001057606
 50
107.3609267144799
 51
287.360926714476
  0
ARC
  8
1
 62
2
 10
340.4092009304437
 20
338.2419389111638
 30
0
 40
0.2500000001272565
 50
128.203290180858
 51
308.203290180858
  0
ARC
  8
1
 62
2
 10
333.2351400780026
 20
347.3574669204251
 30
0
 40
11.35000000001949
 50
287.3609267138828
 51
311.902598363124
  0
ARC
  8
1
 62
2
 10
333.2351400780049
 20
347.3574669204264
 30
0
 40
11.84999999999798
 50
287.3609267138953
 51
311.9129242888498
  0
ARC
  8
1
 62
2
 10
337.6969240700562
 20
335.2246929611179
 30
0
 40
0.250000000068339
 50
102.3609267126345
 51
282.3609267126417
  0
ARC
  8
1
 62
2
 10
341.5660117924417
 20
336.8496861883056
 30
0
 40
0.2500000000365036
 50
123.2032901866948
 51
303.2032901866659
  0
ARC
  8
1
 62
2
 10
335.2137210216693
 20
346.5557874634512
 30
0
 40
11.34999999994572
 50
282.3609267139742
 51
306.9025983632615
  0
ARC
  8
1
 62
2
 10
335.2137210216693
 20
346.5557874634512
 30
0
 40
11.8499999999876
 50
282.3609267139177
 51
306.9129242890422
  0
ARC
  8
1
 62
2
 10
338.60108565256
 20
334.0803122744165
 30
0
 40
0.249999999955178
 50
97.36092671290263
 51
277.3609267128913
  0
ARC
  8
1
 62
2
 10
342.5970778196981
 20
335.3619086974377
 30
0
 40
0.2499999999947409
 50
118.203290180164
 51
298.2032901804957
  0
ARC
  8
1
 62
2
 10
337.1149018989859
 20
345.5847139472821
 30
0
 40
11.35000000004574
 50
277.360926713878
 51
301.9025983630056
  0
ARC
  8
1
 62
2
 10
337.1149018989859
 20
345.5847139472821
 30
0
 40
11.85000000010025
 50
277.3609267138369
 51
301.9129242887706
  0
ARC
  8
1
 62
2
 10
339.4020672785478
 20
332.8614834274162
 30
0
 40
0.2499999998871751
 50
92.36092671351034
 51
272.3609267134974
  0
ARC
  8
1
 62
2
 10
343.494551977232
 20
333.7899293237483
 30
0
 40
0.2500000000435202
 50
113.2032901775758
 51
293.2032901775809
  0
ARC
  8
1
 62
2
 10
338.9242135755122
 20
344.451636827446
 30
0
 40
11.35000000001486
 50
272.3609267138902
 51
296.9025983630265
  0
ARC
  8
1
 62
2
 10
338.9242135755122
 20
344.451636827446
 30
0
 40
11.85000000007999
 50
272.360926713874
 51
296.9129242886802
  0
ARC
  8
1
 62
2
 10
340.0937729941815
 20
331.5774824434502
 30
0
 40
0.2499999999972066
 50
87.36092671389432
 51
267.3609267140511
  0
ARC
  8
1
 62
2
 10
344.2516039447014
 20
332.1457117794051
 30
0
 40
0.2499999999401078
 50
108.2032901790803
 51
288.2032901790803
  0
ARC
  8
1
 62
2
 10
340.6278860968911
 20
343.1651795051216
 30
0
 40
11.34999999998358
 50
267.360926713909
 51
291.9025983632426
  0
ARC
  8
1
 62
2
 10
340.6278860968911
 20
343.1651795051216
 30
0
 40
11.85000000002633
 50
267.360926713912
 51
291.9129242886545
  0
ARC
  8
1
 62
2
 10
340.6709385013023
 20
330.2380813456065
 30
0
 40
0.2499999998511208
 50
82.3609267121103
 51
262.3609267121121
  0
ARC
  8
1
 62
2
 10
344.8624720995775
 20
330.4417695526166
 30
0
 40
0.2499999998717688
 50
103.203290180504
 51
283.2032901805108
  0
ARC
  8
1
 62
2
 10
342.2129534865406
 20
341.7351326974186
 30
0
 40
11.35000000018784
 50
262.3609267140242
 51
286.9025983630119
  0
ARC
  8
1
 62
2
 10
342.2129534865406
 20
341.7351326972731
 30
0
 40
11.84999999993821
 50
262.3609267138501
 51
286.9129242887384
  0
ARC
  8
1
 62
2
 10
341.129171221849
 20
328.853473784758
 30
0
 40
0.2500000000064256
 50
77.36092670939337
 51
257.360926709402
  0
ARC
  8
1
 62
2
 10
345.3225073663469
 20
328.6910706727554
 30
0
 40
0.2499999999442503
 50
98.20329017926382
 51
278.203290179262
  0
ARC
  8
1
 62
2
 10
343.6673524245246
 20
340.1723799237631
 30
0
 40
11.35000000004629
 50
257.3609267139543
 51
281.9025983631323
  0
ARC
  8
1
 62
2
 10
343.6673524245246
 20
340.1723799237631
 30
0
 40
11.84999999987039
 50
257.360926713762
 51
281.9129242886936
  0
ARC
  8
1
 62
2
 10
341.4649837282566
 20
327.43419746078
 30
0
 40
0.249999999978535
 50
72.36092671908837
 51
252.3609267190963
  0
ARC
  8
1
 62
2
 10
345.6282085988175
 20
326.9069390152791
 30
0
 40
0.2499999998850646
 50
93.20329018002988
 51
273.2032901800581
  0
ARC
  8
1
 62
2
 10
344.9800140567403
 20
338.4888146765899
 30
0
 40
11.34999999994565
 50
252.3609267138199
 51
276.9025983630987
  0
ARC
  8
1
 62
2
 10
344.9800140567403
 20
338.4888146765899
 30
0
 40
11.85000000008924
 50
252.3609267140423
 51
276.9129242886426
  0
ARC
  8
1
 62
2
 10
341.675820284364
 20
325.991053922954
 30
0
 40
0.2500000001280768
 50
67.36092671116614
 51
247.3609267111421
  0
ARC
  8
1
 62
2
 10
345.7772492260399
 20
325.102952899287
 30
0
 40
0.2499999998722262
 50
88.20329017971356
 51
268.2032901797013
  0
ARC
  8
1
 62
2
 10
346.1409482355601
 20
336.6972499039179
 30
0
 40
11.35000000001675
 50
247.3609267139452
 51
271.9025983630472
  0
ARC
  8
1
 62
2
 10
346.1409482355601
 20
336.6972499039179
 30
0
 40
11.84999999996065
 50
247.3609267138272
 51
271.9129242886627
  0
ARC
  8
1
 62
2
 10
341.7600762969166
 20
324.5350263656135
 30
0
 40
0.2500000000905311
 50
62.36092671455472
 51
242.3609267145608
  0
ARC
  8
1
 62
2
 10
345.7684949588427
 20
323.2928417487811
 30
0
 40
0.249999999862563
 50
83.20329017850288
 51
263.2032901784869
  0
ARC
  8
1
 62
2
 10
347.1413195508912
 20
334.8113204954152
 30
0
 40
11.34999999993723
 50
242.3609267137383
 51
266.9025983630855
  0
ARC
  8
1
 62
2
 10
347.1413195508912
 20
334.8113204954152
 30
0
 40
11.84999999994723
 50
242.3609267137728
 51
266.912924288667
  0
ARC
  8
1
 62
2
 10
341.7171105266846
 20
323.0771960372607
 30
0
 40
0.2500000000871192
 50
57.36092672368767
 51
237.3609267236477
  0
ARC
  8
1
 62
2
 10
345.6020124224662
 20
321.4903816021126
 30
0
 40
0.249999999939767
 50
78.20329017691034
 51
258.2032901769077
  0
ARC
  8
1
 62
2
 10
347.9735145729839
 20
332.845379512594
 30
0
 40
11.34999999984064
 50
237.3609267133842
 51
261.9025983629167
  0
ARC
  8
1
 62
2
 10
347.9735145729839
 20
332.845379512594
 30
0
 40
11.84999999997522
 50
237.3609267138182
 51
261.9129242885938
  0
ARC
  8
1
 62
2
 10
341.5472499690848
 20
321.6286579071028
 30
0
 40
0.2500000000042055
 50
52.36092671112614
 51
232.3609267111182
  0
ARC
  8
1
 62
2
 10
345.2790686495953
 20
319.7092902697757
 30
0
 40
0.2499999999443882
 50
73.20329018255535
 51
253.2032901825429
  0
ARC
  8
1
 62
2
 10
348.6311997952245
 20
330.8143889537431
 30
0
 40
11.35000000001631
 50
232.3609267139676
 51
256.9025983631185
  0
ARC
  8
1
 62
2
 10
348.6311997952245
 20
330.8143889537431
 30
0
 40
11.84999999998516
 50
232.3609267138473
 51
256.9129242886456
  0
ARC
  8
1
 62
2
 10
341.2517873655791
 20
320.2004362249381
 30
0
 40
0.2499999999840155
 50
47.36092671422883
 51
227.360926714192
  0
ARC
  8
1
 62
2
 10
344.8021214372229
 20
317.9631229319518
 30
0
 40
0.2500000000929239
 50
68.20329018241276
 51
248.2032901824007
  0
ARC
  8
1
 62
2
 10
349.1093698359514
 20
328.7338058829113
 30
0
 40
11.34999999994358
 50
227.360926713647
 51
251.9025983630692
  0
ARC
  8
1
 62
2
 10
349.1093698359514
 20
328.7338058829113
 30
0
 40
11.84999999994725
 50
227.3609267136707
 51
251.9129242886238
  0
ARC
  8
1
 62
2
 10
340.8329713649739
 20
318.8034006200495
 30
0
 40
0.2499999999289614
 50
42.36092671249275
 51
222.3609267125015
  0
ARC
  8
1
 62
2
 10
344.1748006417785
 20
316.2651689765935
 30
0
 40
0.2500000000589103
 50
63.20329018647738
 51
243.2032901868211
  0
ARC
  8
1
 62
2
 10
349.4043855324305
 20
326.619464793778
 30
0
 40
11.3499999999813
 50
222.3609267137981
 51
246.9025983629844
  0
ARC
  8
1
 62
2
 10
349.4043855324305
 20
326.619464793778
 30
0
 40
11.84999999997083
 50
222.3609267137433
 51
246.9129242884915
  0
ARC
  8
1
 62
2
 10
340.2939894098606
 20
317.4481833770443
 30
0
 40
0.2499999999840155
 50
37.36092672233216
 51
217.3609267223346
  0
ARC
  8
1
 62
2
 10
343.4018805532464
 20
314.62835085858
 30
0
 40
0.2499999999086342
 50
58.20329017861833
 51
238.2032901786515
  0
ARC
  8
1
 62
2
 10
349.5140016370736
 20
324.4874570987906
 30
0
 40
11.34999999999983
 50
217.3609267139053
 51
241.9025983630714
  0
ARC
  8
1
 62
2
 10
349.5140016370736
 20
324.4874570987906
 30
0
 40
11.85000000005371
 50
217.360926714261
 51
241.9129242887323
  0
ARC
  8
1
 62
2
 10
339.6389434784002
 20
316.1450985174384
 30
0
 40
0.2499999999950043
 50
32.36092671638025
 51
212.3609267163583
  0
ARC
  8
1
 62
2
 10
342.4892435600724
 20
313.0651257519678
 30
0
 40
0.2500000000539585
 50
53.20329018249923
 51
233.2032901824966
  0
ARC
  8
1
 62
2
 10
349.4373839051368
 20
322.354008663593
 30
0
 40
11.34999999997601
 50
212.3609267137165
 51
236.9025983631513
  0
ARC
  8
1
 62
2
 10
349.4373839051368
 20
322.354008663593
 30
0
 40
11.84999999998812
 50
212.3609267138285
 51
236.9129242884603
  0
ARC
  8
1
 62
2
 10
338.8728188657246
 20
314.9040633038703
 30
0
 40
0.2499999999701217
 50
27.36092672014171
 51
207.3609267201709
  0
ARC
  8
1
 62
2
 10
341.4438353809902
 20
311.5873907439585
 30
0
 40
0.2500000000637671
 50
48.20329017816862
 51
228.2032901781579
  0
ARC
  8
1
 62
2
 10
349.1751154438231
 20
320.2353563192804
 30
0
 40
11.349999999998
 50
207.3609267138898
 51
231.9025983627572
  0
ARC
  8
1
 62
2
 10
349.1751154438231
 20
320.2353563192804
 30
0
 40
11.85000000002634
 50
207.3609267141544
 51
231.912924288677
  0
ARC
  8
1
 62
2
 10
338.0014462426142
 20
313.7345227636124
 30
0
 40
0.2499999999944334
 50
22.36092671036896
 51
202.360926710374
  0
ARC
  8
1
 62
2
 10
340.2736122035099
 20
310.2063922900919
 30
0
 40
0.2499999999898766
 50
43.20329017730743
 51
223.2032901772795
  0
ARC
  8
1
 62
2
 10
348.7291922744868
 20
318.1476242890852
 30
0
 40
11.34999999994045
 50
202.3609267131834
 51
226.902598362708
  0
ARC
  8
1
 62
2
 10
348.7291922744868
 20
318.1476242890852
 30
0
 40
11.84999999992926
 50
202.3609267130647
 51
226.91292428832
  0
ARC
  8
1
 62
2
 10
337.0314572809581
 20
312.6453778063328
 30
0
 40
0.2500000000499835
 50
17.36092672995543
 51
197.3609267299515
  0
ARC
  8
1
 62
2
 10
338.9874801324562
 20
308.9326406224752
 30
0
 40
0.2500000000278244
 50
38.20329017528469
 51
218.2032901752766
  0
ARC
  8
1
 62
2
 10
348.1030081416981
 20
316.1067014749394
 30
0
 40
11.34999999998493
 50
197.3609267136844
 51
221.9025983638217
  0
ARC
  8
1
 62
2
 10
348.1030081416981
 20
316.1067014749394
 30
0
 40
11.85000000002862
 50
197.3609267143711
 51
221.912924289291
  0
ARC
  8
1
 62
2
 10
335.9702341824767
 20
311.6449174828533
 30
0
 40
0.250000000013524
 50
12.36092671288032
 51
192.3609267128803
  0
ARC
  8
1
 62
2
 10
337.5952274097181
 20
307.7758297604764
 30
0
 40
0.249999999896483
 50
33.20329018079261
 51
213.2032901807892
  0
ARC
  8
1
 62
2
 10
347.3013286848138
 20
314.1281205311066
 30
0
 40
11.34999999997566
 50
192.3609267133059
 51
216.9025983621978
  0
ARC
  8
1
 62
2
 10
347.3013286848138
 20
314.1281205311066
 30
0
 40
11.84999999997311
 50
192.3609267132884
 51
216.9129242882101
  0
ARC
  8
1
 62
2
 10
334.8258534956846
 20
310.7407559003671
 30
0
 40
0.2500000000111254
 50
7.360926708238109
 51
187.360926708264
  0
ARC
  8
1
 62
2
 10
336.1074499187795
 20
306.7447637331687
 30
0
 40
0.2500000000100441
 50
28.20329016931009
 51
208.2032901693039
  0
ARC
  8
1
 62
2
 10
346.3302551685628
 20
312.2269396539312
 30
0
 40
11.35000000000097
 50
187.3609267139226
 51
211.9025983637467
  0
ARC
  8
1
 62
2
 10
346.3302551685628
 20
312.2269396539312
 30
0
 40
11.84999999999228
 50
187.3609267136829
 51
211.9129242889255
  0
ARC
  8
1
 62
2
 10
333.6070246486298
 20
309.9397742742799
 30
0
 40
0.2499999999991197
 50
2.360926709297242
 51
182.3609267092961
  0
ARC
  8
1
 62
2
 10
334.5354705450782
 20
305.847289575597
 30
0
 40
0.2500000000376076
 50
23.2032901951797
 51
203.2032901951865
  0
ARC
  8
1
 62
2
 10
345.1971780487571
 20
310.4176279774517
 30
0
 40
11.35000000000593
 50
182.3609267146497
 51
206.9025983635522
  0
ARC
  8
1
 62
2
 10
345.1971780487571
 20
310.4176279774517
 30
0
 40
11.85000000000428
 50
182.3609267144238
 51
206.9129242889476
  0
ARC
  8
1
 62
2
 10
332.3230236647661
 20
309.2480685587474
 30
0
 40
0.2499999999975442
 50
357.3609266955226
 51
177.360926695535
  0
ARC
  8
1
 62
2
 10
332.8912530006918
 20
305.0902376082057
 30
0
 40
0.2499999999864101
 50
18.20329018128192
 51
198.2032901813107
  0
ARC
  8
1
 62
2
 10
343.9107207264478
 20
308.7139554559564
 30
0
 40
11.34999999999726
 50
177.3609267139056
 51
201.9025983632513
  0
ARC
  8
1
 62
2
 10
343.9107207264478
 20
308.7139554559564
 30
0
 40
11.8500000000064
 50
177.3609267131306
 51
201.9129242889023
  0
ARC
  8
1
 62
2
 10
330.9836225668851
 20
308.6709030516893
 30
0
 40
0.2499999999871865
 50
352.3609267130462
 51
172.3609267130591
  0
ARC
  8
1
 62
2
 10
331.1873107739112
 20
304.4793694531974
 30
0
 40
0.2499999999930505
 50
13.20329018177084
 51
193.2032901818148
  0
ARC
  8
1
 62
2
 10
342.4806739186433
 20
307.1288880662779
 30
0
 40
11.35000000002133
 50
172.3609267131011
 51
196.9025983631461
  0
ARC
  8
1
 62
2
 10
342.4806739186433
 20
307.1288880662779
 30
0
 40
11.85000000002321
 50
172.3609267130994
 51
196.9129242882414
  0
ARC
  8
1
 62
2
 10
329.599015006095
 20
308.2126703310089
 30
0
 40
0.2499999999839347
 50
347.3609267114818
 51
167.360926711479
  0
ARC
  8
1
 62
2
 10
329.436611893969
 20
304.0193341864375
 30
0
 40
0.2499999999978977
 50
8.203290171331442
 51
188.2032901713351
  0
ARC
  8
1
 62
2
 10
340.9179211450348
 20
305.674489128444
 30
0
 40
11.34999999998088
 50
167.3609267143817
 51
191.9025983638541
  0
ARC
  8
1
 62
2
 10
340.9179211450348
 20
305.674489128444
 30
0
 40
11.849999999984
 50
167.3609267142592
 51
191.912924288787
  0
ARC
  8
1
 62
2
 10
328.1797386819462
 20
307.8768578246849
 30
0
 40
0.2500000000069617
 50
342.3609267233198
 51
162.3609267233283
  0
ARC
  8
1
 62
2
 10
327.6524802364662
 20
303.7136329541069
 30
0
 40
0.2500000000039016
 50
3.203290190366193
 51
183.2032901903907
  0
ARC
  8
1
 62
2
 10
339.2343558978433
 20
304.3618274960919
 30
0
 40
11.35000000003339
 50
162.3609267133342
 51
186.9025983631786
  0
ARC
  8
1
 62
2
 10
339.2343558978433
 20
304.3618274960919
 30
0
 40
11.8500000000077
 50
162.3609267137558
 51
186.9129242886104
  0
ARC
  8
1
 62
2
 10
326.7365951443417
 20
307.6660212684384
 30
0
 40
0.2499999999935231
 50
337.3609267177558
 51
157.3609267177538
  0
ARC
  8
1
 62
2
 10
325.8484941205914
 20
303.5645923268622
 30
0
 40
0.2499999999996336
 50
358.2032901729525
 51
178.2032901729786
  0
ARC
  8
1
 62
2
 10
337.4427911251713
 20
303.2008933172735
 30
0
 40
11.35000000001535
 50
157.3609267136842
 51
181.9025983627066
  0
ARC
  8
1
 62
2
 10
337.4427911251713
 20
303.2008933172735
 30
0
 40
11.85000000000252
 50
157.3609267138559
 51
181.9129242880739
  0
ARC
  8
1
 62
2
 10
325.2805675869199
 20
307.5817652559508
 30
0
 40
0.2500000000203113
 50
332.3609267048481
 51
152.3609267048535
  0
ARC
  8
1
 62
2
 10
324.0383829699572
 20
303.5733465941175
 30
0
 40
0.2499999999927688
 50
353.2032901951792
 51
173.2032901951244
  0
ARC
  8
1
 62
2
 10
335.5568617167127
 20
302.2005220021062
 30
0
 40
11.34999999993927
 50
152.3609267145124
 51
176.9025983634033
  0
ARC
  8
1
 62
2
 10
335.5568617167127
 20
302.2005220021062
 30
0
 40
11.84999999997981
 50
152.3609267141047
 51
176.9129242892739
  0
ARC
  8
1
 62
2
 10
323.822737258622
 20
307.6247310261687
 30
0
 40
0.24999999995637
 50
327.3609267156185
 51
147.3609267156404
  0
ARC
  8
1
 62
2
 10
322.2359228234362
 20
303.7398291304312
 30
0
 40
0.2499999999675396
 50
348.2032901750456
 51
168.2032901750355
  0
ARC
  8
1
 62
2
 10
333.5909207340157
 20
301.3683269797785
 30
0
 40
11.35000000007133
 50
147.3609267133398
 51
171.902598362267
  0
ARC
  8
1
 62
2
 10
333.5909207340157
 20
301.3683269797785
 30
0
 40
11.85000000006001
 50
147.3609267134365
 51
171.9129242879273
  0
ARC
  8
1
 62
2
 10
322.3741991284097
 20
307.7945915837695
 30
0
 40
0.2500000000365157
 50
322.3609267030175
 51
142.3609267030151
  0
ARC
  8
1
 62
2
 10
320.4548314910036
 20
304.0627729033273
 30
0
 40
0.2499999999942306
 50
343.2032901734295
 51
163.2032901734333
  0
ARC
  8
1
 62
2
 10
331.5599301750327
 20
300.7106417577714
 30
0
 40
11.34999999988384
 50
142.3609267146589
 51
166.9025983631159
  0
ARC
  8
1
 62
2
 10
331.5599301750327
 20
300.7106417577714
 30
0
 40
11.84999999995696
 50
142.3609267141677
 51
166.9129242893642
  0
ARC
  8
1
 62
2
 10
320.9459774461997
 20
308.0900541872562
 30
0
 40
0.2500000000213122
 50
317.3609267088885
 51
137.3609267086533
  0
ARC
  8
1
 62
2
 10
318.7086641532623
 20
304.5397201156875
 30
0
 40
0.2499999999414213
 50
338.2032901861919
 51
158.2032901861919
  0
ARC
  8
1
 62
2
 10
329.4793471042603
 20
300.2324717169414
 30
0
 40
11.34999999993159
 50
137.3609267142766
 51
161.9025983636235
  0
ARC
  8
1
 62
2
 10
329.4793471042603
 20
300.2324717169414
 30
0
 40
11.84999999997276
 50
137.3609267140443
 51
161.9129242887262
  0
ARC
  8
1
 62
2
 10
319.5489418413496
 20
308.5088701879546
 30
0
 40
0.2500000000406724
 50
312.3609267052258
 51
132.3609267054682
  0
ARC
  8
1
 62
2
 10
317.0107101978617
 20
305.1670409110395
 30
0
 40
0.2500000000334811
 50
333.2032901797246
 51
153.2032901797189
  0
ARC
  8
1
 62
2
 10
327.3650060151582
 20
299.937456020623
 30
0
 40
11.34999999983118
 50
132.3609267146825
 51
156.9025983638694
  0
ARC
  8
1
 62
2
 10
327.3650060151572
 20
299.9374560206215
 30
0
 40
11.84999999991409
 50
132.3609267142799
 51
156.9129242894663
  0
ARC
  8
1
 62
2
 10
318.1937245983961
 20
309.0478521429658
 30
0
 40
0.2499999999573402
 50
307.3609267112977
 51
127.3609267112819
  0
ARC
  8
1
 62
2
 10
315.3738920798596
 20
305.9399609997849
 30
0
 40
0.2499999999982878
 50
328.2032901802131
 51
148.2032901800364
  0
ARC
  8
1
 62
2
 10
325.2329983200894
 20
299.8278399157784
 30
0
 40
11.34999999997399
 50
127.3609267140139
 51
151.9025983632734
  0
ARC
  8
1
 62
2
 10
325.2329983200894
 20
299.8278399157784
 30
0
 40
11.8500000000041
 50
127.3609267138989
 51
151.9129242881774
  0
ARC
  8
1
 62
2
 10
316.8906397387916
 20
309.7028980744493
 30
0
 40
0.2499999999604833
 50
302.3609267107827
 51
122.3609267108186
  0
ARC
  8
1
 62
2
 10
313.8106669733411
 20
306.8525979927527
 30
0
 40
0.2500000000039941
 50
323.203290178603
 51
143.2032901785743
  0
ARC
  8
1
 62
2
 10
323.0995498849528
 20
299.9044576477562
 30
0
 40
11.34999999997733
 50
122.3609267139854
 51
146.9025983631717
  0
ARC
  8
1
 62
2
 10
323.0995498849497
 20
299.9044576477531
 30
0
 40
11.85000000002223
 50
122.3609267138301
 51
146.9129242887097
  0
ARC
  8
1
 62
2
 10
315.6496045251868
 20
310.4690226871095
 30
0
 40
0.2499999999684482
 50
297.3609267072118
 51
117.360926707241
  0
ARC
  8
1
 62
2
 10
312.3329319653449
 20
307.8980061718104
 30
0
 40
0.249999999890345
 50
318.2032901915476
 51
138.203290191566
  0
ARC
  8
1
 62
2
 10
320.980897540551
 20
300.1667261090803
 30
0
 40
11.34999999991702
 50
117.3609267141294
 51
141.902598363274
  0
ARC
  8
1
 62
2
 10
320.9808975405492
 20
300.1667261090789
 30
0
 40
11.85000000002886
 50
117.3609267138275
 51
141.9129242888699
  0
ARC
  8
1
 62
2
 10
314.4800639848599
 20
311.340395310265
 30
0
 40
0.250000000052572
 50
292.3609267090292
 51
112.36092670875
  0
ARC
  8
1
 62
2
 10
310.951933511382
 20
309.0682293493852
 30
0
 40
0.250000000022323
 50
313.2032901864622
 51
133.2032901864895
  0
ARC
  8
1
 62
2
 10
318.8931655105039
 20
300.6126492784455
 30
0
 40
11.34999999989835
 50
112.3609267141142
 51
136.9025983635162
  0
ARC
  8
1
 62
2
 10
318.8931655105039
 20
300.6126492784455
 30
0
 40
11.85000000000287
 50
112.3609267138937
 51
136.912924288923
  0
ARC
  8
1
 62
2
 10
313.3909190275617
 20
312.3103842719389
 30
0
 40
0.250000000104611
 50
287.3609267144667
 51
107.3609267144916
  0
ARC
  8
1
 62
2
 10
309.6781818437632
 20
310.3543614203927
 30
0
 40
0.2500000001255729
 50
308.2032901705516
 51
128.2032901705575
  0
ARC
  8
1
 62
2
 10
316.8522426961679
 20
301.2388334111051
 30
0
 40
11.35000000001969
 50
107.3609267138821
 51
131.9025983624693
  0
ARC
  8
1
 62
2
 10
316.8522426961656
 20
301.2388334111038
 30
0
 40
11.84999999999793
 50
107.3609267138954
 51
131.9129242886878
  0
ARC
  8
1
 62
2
 10
312.3904587041134
 20
313.3716073704123
 30
0
 40
0.2500000000683739
 50
282.3609267127928
 51
102.3609267128254
  0
ARC
  8
1
 62
2
 10
308.5213709817512
 20
311.7466141432399
 30
0
 40
0.2499999999963544
 50
303.2032901865046
 51
123.203290186526
  0
ARC
  8
1
 62
2
 10
314.8736617524998
 20
302.040512868079
 30
0
 40
11.34999999994552
 50
102.3609267139682
 51
126.9025983632502
  0
ARC
  8
1
 62
2
 10
314.8736617524998
 20
302.040512868079
 30
0
 40
11.84999999998762
 50
102.3609267139193
 51
126.9129242890307
  0
ARC
  8
1
 62
2
 10
311.4862971216012
 20
314.515988057258
 30
0
 40
0.2499999999550685
 50
277.360926715047
 51
97.36092671543629
  0
ARC
  8
1
 62
2
 10
307.4903049544712
 20
313.2343916340919
 30
0
 40
0.2499999999947039
 50
298.2032901804789
 51
118.2032901804728
  0
ARC
  8
1
 62
2
 10
312.9724808751842
 20
303.011586384249
 30
0
 40
11.35000000018923
 50
97.36092671378273
 51
121.9025983630056
  0
ARC
  8
1
 62
2
 10
312.9724808751816
 20
303.0115863842481
 30
0
 40
11.85000000010004
 50
97.36092671383122
 51
121.9129242882684
  0
ARC
  8
1
 62
2
 10
310.685315495621
 20
315.734816904114
 30
0
 40
0.2499999998870545
 50
272.3609267134724
 51
92.36092671345828
  0
ARC
  8
1
 62
2
 10
306.5928307969383
 20
314.8063710077825
 30
0
 40
0.2500000000440576
 50
293.2032901775655
 51
113.2032901775758
  0
ARC
  8
1
 62
2
 10
311.1631691986613
 20
304.1446635040842
 30
0
 40
11.35000000001518
 50
92.36092671391481
 51
116.9025983630481
  0
ARC
  8
1
 62
2
 10
311.1631691986613
 20
304.1446635040842
 30
0
 40
11.85000000008017
 50
92.36092671389592
 51
116.9129242886996
  0
ARC
  8
1
 62
2
 10
309.9936097799891
 20
317.0188178880798
 30
0
 40
0.2499999999969201
 50
267.3609267139044
 51
87.36092671407471
  0
ARC
  8
1
 62
2
 10
305.8357788294688
 20
316.450588552126
 30
0
 40
0.2499999999405804
 50
288.2032901787841
 51
108.2032901787799
  0
ARC
  8
1
 62
2
 10
309.459496677278
 20
305.4311208264572
 30
0
 40
11.34999999993521
 50
87.36092671389001
 51
111.9025983633278
  0
ARC
  8
1
 62
2
 10
309.459496677278
 20
305.4311208264572
 30
0
 40
11.84999999997796
 50
87.3609267138938
 51
111.9129242886487
  0
ARC
  8
1
 62
2
 10
309.4164442728682
 20
318.3582189859241
 30
0
 40
0.2499999998515378
 50
262.3609267120837
 51
82.36092671211897
  0
ARC
  8
1
 62
2
 10
305.2249106745809
 20
318.1545307789596
 30
0
 40
0.2499999999192147
 50
283.203290180482
 51
103.2032901804693
  0
ARC
  8
1
 62
2
 10
307.8744292876315
 20
306.8611676341117
 30
0
 40
11.3500000001875
 50
82.36092671403266
 51
106.902598363027
  0
ARC
  8
1
 62
2
 10
307.8744292876315
 20
306.8611676341117
 30
0
 40
11.85000000008216
 50
82.36092671395154
 51
106.912924288541
  0
ARC
  8
1
 62
2
 10
308.9582115523009
 20
319.7428265467771
 30
0
 40
0.2500000000067362
 50
257.3609267142558
 51
77.36092671426279
  0
ARC
  8
1
 62
2
 10
304.7648754078032
 20
319.9052296589173
 30
0
 40
0.2500000000883391
 50
278.2032901792549
 51
98.20329017926585
  0
ARC
  8
1
 62
2
 10
306.420030349646
 20
308.4239204077671
 30
0
 40
11.35000000004621
 50
77.36092671395483
 51
101.9025983631265
  0
ARC
  8
1
 62
2
 10
306.420030349646
 20
308.4239204077671
 30
0
 40
11.85000000005956
 50
77.36092671396769
 51
101.9129242885015
  0
ARC
  8
1
 62
2
 10
308.6223990458994
 20
321.1621028708039
 30
0
 40
0.2499999998404489
 50
252.3609267125115
 51
72.36092671250758
  0
ARC
  8
1
 62
2
 10
304.4591741753437
 20
321.6893613164446
 30
0
 40
0.2500000000788072
 50
273.203290180037
 51
93.20329018002617
  0
ARC
  8
1
 62
2
 10
305.1073687174302
 20
310.1074856549404
 30
0
 40
11.35000000013043
 50
72.36092671411655
 51
96.90259836298081
  0
ARC
  8
1
 62
2
 10
305.1073687174302
 20
310.1074856549404
 30
0
 40
11.85000000008871
 50
72.36092671404845
 51
96.91292428864308
  0
ARC
  8
1
 62
2
 10
308.4115624897207
 20
322.6052464084672
 30
0
 40
0.2499999999944429
 50
247.360926719721
 51
67.36092671974002
  0
ARC
  8
1
 62
2
 10
304.3101335481307
 20
323.4933474322432
 30
0
 40
0.249999999872228
 50
268.2032901797005
 51
88.20329017968874
  0
ARC
  8
1
 62
2
 10
303.946434538612
 20
311.8990504276123
 30
0
 40
11.35000000001621
 50
67.36092671395181
 51
91.9025983630616
  0
ARC
  8
1
 62
2
 10
303.946434538612
 20
311.8990504276123
 30
0
 40
11.85000000013918
 50
67.36092671419584
 51
91.91292428867106
  0
ARC
  8
1
 62
2
 10
308.3273064772546
 20
324.0612739659165
 30
0
 40
0.2500000000905933
 50
242.3609267144152
 51
62.36092671439755
  0
ARC
  8
1
 62
2
 10
304.3188878153478
 20
325.303458582941
 30
0
 40
0.2500000000551912
 50
263.2032901795006
 51
83.20329017952651
  0
ARC
  8
1
 62
2
 10
302.9460632232824
 20
313.7849798361148
 30
0
 40
11.34999999993601
 50
62.36092671375198
 51
86.90259836310065
  0
ARC
  8
1
 62
2
 10
302.9460632232824
 20
313.7849798361148
 30
0
 40
11.84999999994667
 50
62.36092671377975
 51
86.91292428868199
  0
ARC
  8
1
 62
2
 10
308.3702722474424
 20
325.5191042942985
 30
0
 40
0.2499999999246734
 50
237.3609267116465
 51
57.36092671165349
  0
ARC
  8
1
 62
2
 10
304.4853703517043
 20
327.1059187294177
 30
0
 40
0.2499999999397902
 50
258.2032901768849
 51
78.20329017693851
  0
ARC
  8
1
 62
2
 10
302.1138682011866
 20
315.7509208189362
 30
0
 40
11.35000000000405
 50
57.36092671391322
 51
81.90259836292472
  0
ARC
  8
1
 62
2
 10
302.1138682011866
 20
315.7509208189362
 30
0
 40
11.84999999997528
 50
57.36092671381774
 51
81.91292428858725
  0
ARC
  8
1
 62
2
 10
308.5401328050857
 20
326.9676424244274
 30
0
 40
0.2500000000042956
 50
232.3609267111421
 51
52.36092671114677
  0
ARC
  8
1
 62
2
 10
304.8083141246486
 20
328.8870100619269
 30
0
 40
0.2500000001312028
 50
253.2032901775845
 51
73.20329017754709
  0
ARC
  8
1
 62
2
 10
301.456182978946
 20
317.7819113777873
 30
0
 40
11.35000000001608
 50
52.36092671396666
 51
76.90259836311773
  0
ARC
  8
1
 62
2
 10
301.456182978946
 20
317.7819113777873
 30
0
 40
11.84999999998493
 50
52.36092671384781
 51
76.91292428885036
  0
ARC
  8
1
 62
2
 10
308.8355954086876
 20
328.3958641066963
 30
0
 40
0.2500000001259812
 50
227.3609267142242
 51
47.36092671421618
  0
ARC
  8
1
 62
2
 10
305.2852613368884
 20
330.6331773996021
 30
0
 40
0.2499999999132886
 50
248.203290180176
 51
68.20329018015906
  0
ARC
  8
1
 62
2
 10
300.978012938219
 20
319.8624944486189
 30
0
 40
11.34999999994345
 50
47.36092671364563
 51
71.90259836307506
  0
ARC
  8
1
 62
2
 10
300.978012938219
 20
319.8624944486189
 30
0
 40
11.84999999994736
 50
47.36092671366971
 51
71.91292428890732
  0
ARC
  8
1
 62
2
 10
309.2544114091966
 20
329.7928997114808
 30
0
 40
0.2499999999289194
 50
222.3609267125015
 51
42.36092671250067
  0
ARC
  8
1
 62
2
 10
305.9125821323615
 20
332.3311313549523
 30
0
 40
0.2499999999298513
 50
243.2032901789819
 51
63.20329017896439
  0
ARC
  8
1
 62
2
 10
300.6829972417386
 20
321.9768355377523
 30
0
 40
11.34999999998239
 50
42.36092671379304
 51
66.90259836298414
  0
ARC
  8
1
 62
2
 10
300.6829972417386
 20
321.9768355377523
 30
0
 40
11.84999999997197
 50
42.36092671373832
 51
66.91292428848483
  0
ARC
  8
1
 62
2
 10
309.7933933643092
 20
331.1481169544849
 30
0
 40
0.2499999999828869
 50
217.360926722251
 51
37.36092672223029
  0
ARC
  8
1
 62
2
 10
306.6855022209241
 20
333.9679494729502
 30
0
 40
0.2499999999093163
 50
238.2032901783167
 51
58.20329017833046
  0
ARC
  8
1
 62
2
 10
300.5733811370984
 20
324.1088432327883
 30
0
 40
11.34999999996909
 50
37.36092671371434
 51
61.90259836296852
  0
ARC
  8
1
 62
2
 10
300.5733811370984
 20
324.1088432327883
 30
0
 40
11.85000000002415
 50
37.3609267140738
 51
61.91292428862708
  0
ARC
  8
1
 62
2
 10
310.4484392957915
 20
332.4512018141047
 30
0
 40
0.2500000000197246
 50
212.3609267162912
 51
32.36092671629015
  0
ARC
  8
1
 62
2
 10
307.598139214099
 20
335.5311745795626
 30
0
 40
0.2500000000546057
 50
233.2032901823662
 51
53.2032901823453
  0
ARC
  8
1
 62
2
 10
300.6499988690338
 20
326.242291667937
 30
0
 40
11.3499999999761
 50
32.3609267137172
 51
56.90259836328642
  0
ARC
  8
1
 62
2
 10
300.6499988690338
 20
326.242291667937
 30
0
 40
11.84999999998952
 50
32.36092671382586
 51
56.91292428846096
  0
ARC
  8
1
 62
2
 10
311.2145639084475
 20
333.6922370276602
 30
0
 40
0.249999999970228
 50
207.3609267202171
 51
27.36092672019957
  0
ARC
  8
1
 62
2
 10
308.6435473931812
 20
337.008909587571
 30
0
 40
0.2500000000638268
 50
228.2032901779188
 51
48.20329017792845
  0
ARC
  8
1
 62
2
 10
300.9122673303489
 20
328.3609440122496
 30
0
 40
11.34999999999818
 50
27.3609267138903
 51
51.90259836336232
  0
ARC
  8
1
 62
2
 10
300.9122673303489
 20
328.3609440122496
 30
0
 40
11.85000000002502
 50
27.3609267141571
 51
51.91292428925529
  0
ARC
  8
1
 62
2
 10
312.0859365315151
 20
334.8617775680212
 30
0
 40
0.2499999999204736
 50
202.3609266949157
 51
22.36092669491286
  0
ARC
  8
1
 62
2
 10
309.8137705706606
 20
338.3899080414381
 30
0
 40
0.2499999999897235
 50
223.203290177251
 51
43.20329017733418
  0
ARC
  8
1
 62
2
 10
301.3581904996838
 20
330.4486760424448
 30
0
 40
11.35000000001556
 50
22.36092671408702
 51
46.90259836270943
  0
ARC
  8
1
 62
2
 10
301.3581904996838
 20
330.4486760424448
 30
0
 40
11.84999999995054
 50
22.360926713278
 51
46.91292428832167
  0
ARC
  8
1
 62
2
 10
313.0559254931864
 20
335.950922525286
 30
0
 40
0.2499999999937428
 50
197.3609267086791
 51
17.36092670879578
  0
ARC
  8
1
 62
2
 10
311.0999026417167
 20
339.663659709056
 30
0
 40
0.2500000000302439
 50
218.2032901751467
 51
38.20329017517086
  0
ARC
  8
1
 62
2
 10
301.984374632471
 20
332.4895988565908
 30
0
 40
11.35000000004411
 50
17.36092671461683
 51
41.90259836327069
  0
ARC
  8
1
 62
2
 10
301.984374632471
 20
332.4895988565908
 30
0
 40
11.85000000002996
 50
17.36092671436876
 51
41.91292428928086
  0
ARC
  8
1
 62
2
 10
314.1171485916939
 20
336.9513828486769
 30
0
 40
0.2500000000149676
 50
192.3609267128078
 51
12.36092671282332
  0
ARC
  8
1
 62
2
 10
312.4921553645426
 20
340.8204705711124
 30
0
 40
0.2500000000028527
 50
213.2032901809058
 51
33.20329018086595
  0
ARC
  8
1
 62
2
 10
302.7860540893568
 20
334.4681798004233
 30
0
 40
11.34999999997422
 50
12.36092671330901
 51
36.90259836297864
  0
ARC
  8
1
 62
2
 10
302.7860540893568
 20
334.4681798004233
 30
0
 40
11.84999999997299
 50
12.36092671328825
 51
36.91292428821178
  0
ARC
  8
1
 62
2
 10
315.2615292784714
 20
337.8555444312582
 30
0
 40
0.2500000000088138
 50
187.3609267302696
 51
7.360926730282539
  0
ARC
  8
1
 62
2
 10
313.979932855391
 20
341.8515365983614
 30
0
 40
0.2500000000098633
 50
208.203290169288
 51
28.20329016927649
  0
ARC
  8
1
 62
2
 10
303.7571276056078
 20
336.3693606775991
 30
0
 40
11.35000000000096
 50
7.360926713922286
 51
31.90259836374175
  0
ARC
  8
1
 62
2
 10
303.7571276056078
 20
336.3693606775991
 30
0
 40
11.8500000000186
 50
7.36092671461232
 51
31.91292428892181
  0
ARC
  8
1
 62
2
 10
316.4803581255408
 20
338.6565260572504
 30
0
 40
0.2499999999992356
 50
182.3609267093092
 51
2.360926709297242
  0
ARC
  8
1
 62
2
 10
315.551912229085
 20
342.749010755954
 30
0
 40
0.2500000000186102
 50
203.203290190115
 51
23.20329019014404
  0
ARC
  8
1
 62
2
 10
304.8902047254134
 20
338.1786723542725
 30
0
 40
11.34999999999794
 50
2.360926713671419
 51
26.90259836267217
  0
ARC
  8
1
 62
2
 10
304.8902047254134
 20
338.1786723542725
 30
0
 40
11.8499999999963
 50
2.360926713487107
 51
26.91292428831958
  0
ARC
  8
1
 62
2
 10
317.7643591094144
 20
339.3482317729281
 30
0
 40
0.2500000000044823
 50
177.3609266955437
 51
357.3609266955313
  0
ARC
  8
1
 62
2
 10
317.1961297735218
 20
343.5060627233388
 30
0
 40
0.2500000000317981
 50
198.2032901813034
 51
18.20329018129915
  0
ARC
  8
1
 62
2
 10
306.1766620477228
 20
339.8823448756224
 30
0
 40
11.34999999999576
 50
357.360926714395
 51
21.90259836302412
  0
ARC
  8
1
 62
2
 10
306.1766620477228
 20
339.8823448756224
 30
0
 40
11.85000000000478
 50
357.3609267135993
 51
21.91292428868141
  0
ARC
  8
1
 62
2
 10
319.1037602073126
 20
339.9253972800315
 30
0
 40
0.2500000000131051
 50
172.3609267130542
 51
352.3609267130395
  0
ARC
  8
1
 62
2
 10
318.9000720002608
 20
344.1169308783327
 30
0
 40
0.2499999999914879
 50
193.2032901818415
 51
13.20329018184444
  0
ARC
  8
1
 62
2
 10
307.6067088555288
 20
341.4674122652523
 30
0
 40
11.34999999999547
 50
352.360926714072
 51
16.90259836314899
  0
ARC
  8
1
 62
2
 10
307.6067088555288
 20
341.4674122652523
 30
0
 40
11.84999999999749
 50
352.3609267140286
 51
16.91292428913759
  0
ARC
  8
1
 62
2
 10
320.4883677680801
 20
340.3836300005205
 30
0
 40
0.2499999999885461
 50
167.3609267115319
 51
347.3609267115404
  0
ARC
  8
1
 62
2
 10
320.650770880203
 20
344.5769661450927
 30
0
 40
0.2499999999979221
 50
188.2032901713701
 51
8.203290171386739
  0
ARC
  8
1
 62
2
 10
309.1694616291388
 20
342.9218112032801
 30
0
 40
11.35000000002025
 50
347.3609267134232
 51
11.90259836289864
  0
ARC
  8
1
 62
2
 10
309.1694616291388
 20
342.9218112032801
 30
0
 40
11.85000000002468
 50
347.3609267133431
 51
11.91292428879011
  0
ARC
  8
1
 62
2
 10
321.9076440922147
 20
340.7194425069459
 30
0
 40
0.2499999999660535
 50
162.3609267445078
 51
342.3609267445202
  0
ARC
  8
1
 62
2
 10
322.4349025377003
 20
344.8826673775201
 30
0
 40
0.2499999999929648
 50
183.2032901681945
 51
3.203290168206777
  0
ARC
  8
1
 62
2
 10
310.8530268763258
 20
344.2344728352444
 30
0
 40
11.34999999997726
 50
342.3609267142718
 51
6.902598364146452
  0
ARC
  8
1
 62
2
 10
310.8530268763258
 20
344.2344728352444
 30
0
 40
11.84999999989288
 50
342.3609267155479
 51
6.912924289539783
  0
ARC
  8
1
 62
2
 10
323.3507876298655
 20
340.9302790631746
 30
0
 40
0.2500000000674759
 50
157.3609266971869
 51
337.3609266971699
  0
ARC
  8
1
 62
2
 10
324.2388886535807
 20
345.0317080047651
 30
0
 40
0.2500000000013087
 50
178.2032901507416
 51
358.203290150742
  0
ARC
  8
1
 62
2
 10
312.6445916490008
 20
345.3954070142567
 30
0
 40
11.34999999994193
 50
337.3609267145914
 51
1.902598362706044
  0
ARC
  8
1
 62
2
 10
312.6445916490008
 20
345.3954070142567
 30
0
 40
11.85000000000247
 50
337.3609267138565
 51
1.912924289011036
  0
ARC
  8
1
 62
2
 10
324.8068151871823
 20
341.0145350756402
 30
0
 40
0.2499999999302576
 50
152.3609267097754
 51
332.360926709782
  0
ARC
  8
1
 62
2
 10
326.0489998041935
 20
345.0229537374154
 30
0
 40
0.2499999999698186
 50
173.203290195169
 51
353.2032901951561
  0
ARC
  8
1
 62
2
 10
314.5305210574592
 20
346.3957783296181
 30
0
 40
11.35000000002937
 50
332.3609267136444
 51
356.9025983634037
  0
ARC
  8
1
 62
2
 10
314.5305210574592
 20
346.3957783296181
 30
0
 40
11.85000000004755
 50
332.360926713481
 51
356.9129242883378
  0
ARC
  8
1
 62
3
 10
325.0436913870853
 20
324.298150165765
 30
0
 40
30.39999999998626
 50
346.8718774656103
 51
10.3816374345852
  0
ARC
  8
1
 62
3
 10
327.4436913870861
 20
321.8981501657613
 30
0
 40
39.29999999988017
 50
226.5724724201599
 51
270
  0
ARC
  8
1
 62
3
 10
324.5436913870921
 20
321.5981501657795
 30
0
 40
36.50000000001511
 50
108.6115117468285
 51
169.1004941571751
  0
ARC
  8
1
 62
3
 10
322.7436913870866
 20
324.7981501657457
 30
0
 40
32.9000000000914
 50
49.26325887602621
 51
107.4192056650803
  0
ARC
  8
1
 62
3
 10
324.4436913870873
 20
326.2981501657845
 30
0
 40
30.69999999999732
 50
6.505372814770974
 51
33.46584928007439
  0
ARC
  8
1
 62
3
 10
351.0436913870875
 20
350.2981501657749
 30
0
 40
3.500000000012649
 50
314.9999999997513
 51
0
  0
ARC
  8
1
 62
3
 10
351.0436913870875
 20
350.2981501657749
 30
0
 40
3.49999999999892
 50
0
 51
134.9999999998092
  0
ARC
  8
1
 62
3
 10
294.0436913871346
 20
293.2981501658039
 30
0
 40
3.500000000013614
 50
135.0000000008949
 51
315.0000000008968
  0
ARC
  8
1
 62
3
 10
327.4436913870861
 20
321.8981501657613
 30
0
 40
39.30000000001121
 50
170.3295177476208
 51
213.7036493084415
  0
CIRCLE
  8
1
 62
3
 10
325.0436913870853
 20
324.298150165765
 30
0
 40
21.5000000000008
  0
CIRCLE
  8
1
 62
3
 10
325.0436913870853
 20
324.298150165765
 30
0
 40
1.499999999990394
  0
CIRCLE
  8
1
 62
3
 10
325.0436913870853
 20
324.298150165765
 30
0
 40
13.50000000000961
  0
CIRCLE
  8
1
 62
2
  6
CENTER
 10
325.0436913870853
 20
324.298150165765
 30
0
 40
16.49999999999039
  0
CIRCLE
  8
1
 62
3
 10
325.0436913870853
 20
324.298150165765
 30
0
 40
1.799999999978695
  0
CIRCLE
  8
1
 62
3
 10
294.0436913870861
 20
293.2981501657554
 30
0
 40
2.249999999999204
  0
CIRCLE
  8
1
 62
3
 10
351.0436913870875
 20
350.2981501657749
 30
0
 40
2.24999999999892
  0
POLYLINE
  8
1
 62
2
 66
1
 70
1
  0
VERTEX
  8
1
 10
264.265568687561
 20
379.149136533489
 30
0
  0
VERTEX
  8
1
 10
292.365568687561
 20
379.149136533489
 30
0
  0
VERTEX
  8
1
 10
292.365568687561
 20
387.149136533489
 30
0
  0
VERTEX
  8
1
 10
264.265568687561
 20
387.149136533489
 30
0
  0
SEQEND
  8
1
  0
LINE
  8
1
 62
2
 10
399.128442680894
 20
363.083381316952
 30
0
 11
353.872517411465
 21
363.083381316952
 31
0
  0
LINE
  8
1
 62
2
 10
353.872517411465
 20
363.083381316952
 30
0
 11
370.2449944833341
 21
351.8385103491095
 31
0
  0
SOLID
  8
1
 62
2
 10
367.3687073429508
 20
353.3029064220709
 30
0
 11
367.8457280438705
 21
353.9974462270138
 31
0
 12
370.2449944833341
 22
351.8385103491095
 32
0
 13
370.2449944833341
 23
351.8385103491095
 33
0
  0
TEXT
  8
1
 62
2
 10
254.1069675867183
 20
264.327045884491
 30
0
 40
4
  1
üièÐÆ╩îèüj
 41
0.891
  0
TEXT
  8
1
 62
2
 10
343.9328178147762
 20
286.2407786587447
 30
0
 40
2
  1
 -GF30<
 41
0.891
  0
TEXT
  8
1
 62
2
 10
343.9328178147762
 20
289.2407786587447
 30
0
 40
2
  1
>ABS+PBT
 41
0.891
  0
TEXT
  8
1
 62
2
 10
263.1929358732782
 20
361.6981501657787
 30
0
 40
4
  1
(ïzì×ôÓîa)
 41
0.891
  0
TEXT
  8
1
 62
2
 10
363.820752075428
 20
304.4454060224783
 30
0
 40
4
  1
ôfÅoî¹
 41
0.891
  0
TEXT
  8
1
 62
2
 10
402.3014986829463
 20
314.0949969932864
 30
0
 40
4
  1
ïzì×î¹
 41
0.891
  0
TEXT
  8
1
 62
2
 10
356.410467355937
 20
365.012086771866
 30
0
 40
3.5
  1
âèü[âhÉ³ÆÀé%%d300ü}30
 41
0.9
  0
TEXT
  8
1
 62
2
 10
266.265568687561
 20
381.149136533489
 30
0
 40
4
  1
E0720L
 41
0.9
  0
DIMENSION
  8
1
  6
CONTINUOUS
 62
2
  2
*D0
  3
DMST_1
 10
396.65659935426
 20
350.2981501657749
 30
0
 11
393.05659935426
 21
338.194776650998
 31
0
 12
0
 22
0
 32
0
 70
0
 13
363.5990897891958
 23
324.298150165765
 33
0
 14
354.5436913870864
 24
350.2981501657749
 34
0
 50
90
 53
0
  0
DIMENSION
  8
1
  6
CONTINUOUS
 62
2
  2
*D1
  3
DMST_2
 10
365.7838539368256
 20
329.5490930306438
 30
0
 11
368.6825714098967
 21
333.1954476127632
 31
0
 12
0
 22
0
 32
0
 70
1
  1
10
 13
354.4710919696511
 23
337.3595792892465
 33
0
 14
356.5743508429665
 24
327.5703840017491
 34
0
 53
0
  0
DIMENSION
  8
1
  6
CONTINUOUS
 62
2
  2
*D2
  3
DMST_3
 10
268.1436913870862
 20
282.5981501657826
 30
0
 11
265.5436913870862
 21
319.121475194444
 31
0
 12
0
 22
0
 32
0
 70
0
 13
316.2365865839553
 23
357.6981501657787
 33
0
 14
327.4436913870861
 24
282.5981501657826
 34
0
 50
90
 53
0
  0
DIMENSION
  8
1
  6
CONTINUOUS
 62
2
  2
*D3
  3
DMST_3
 10
360.7436913870855
 20
237.5981501657826
 30
0
 11
327.491156557778
 21
240.1981501657826
 31
0
 12
0
 22
0
 32
0
 70
0
 13
288.1436913870862
 23
316.8449271697434
 33
0
 14
360.7436913870855
 24
283.7981501657845
 34
0
 53
0
  0
DIMENSION
  8
1
  6
CONTINUOUS
 62
2
  2
*D4
  3
DMST_4
 10
351.0436913870875
 20
368.6081501657787
 30
0
 11
338.812997614454
 21
370.936438013152
 31
0
 12
0
 22
0
 32
0
 70
0
 13
325.0436913870853
 23
363.7981501657845
 33
0
 14
351.0436913870875
 24
353.2231501657826
 34
0
 53
0
  0
DIMENSION
  8
1
  6
CONTINUOUS
 62
2
  2
*D5
  3
DMST_4
 10
277.2336913870862
 20
293.2981501657554
 30
0
 11
274.693910780235
 21
306.817351178933
 31
0
 12
0
 22
0
 32
0
 70
0
 13
281.3611198522848
 23
324.298150165765
 33
0
 14
291.118691387086
 24
293.2981501657554
 34
0
 50
90
 53
0
  0
DIMENSION
  8
1
  6
CONTINUOUS
 62
2
  2
*D6
  3
DMST_3
 10
396.65659935426
 20
282.5981501657826
 30
0
 11
392.836738862009
 21
301.087560440556
 31
0
 12
0
 22
0
 32
0
 70
0
 13
363.5990897891958
 23
324.298150165765
 33
0
 14
360.7436913870855
 24
282.5981501657826
 34
0
 50
90
 53
0
  0
DIMENSION
  8
1
  6
CONTINUOUS
 62
2
  2
*D7
  3
DMST_3
 10
387.37979530165
 20
282.5981501657826
 30
0
 11
384.378476343452
 21
297.540547126323
 31
0
 12
0
 22
0
 32
0
 70
0
 13
360.7436913870855
 23
315.7981501657554
 33
0
 14
360.7436913870855
 24
282.5981501657826
 34
0
 50
90
 53
0
  0
DIMENSION
  8
1
  6
CONTINUOUS
 62
2
  2
*D8
  3
DMST_4
 10
325.0436913870853
 20
247.609513549037
 30
0
 11
309.647325585514
 21
250.304642180386
 31
0
 12
0
 22
0
 32
0
 70
0
 13
294.0436913870861
 23
290.3731501657477
 33
0
 14
325.0436913870853
 24
280.5981501657631
 34
0
 53
0
  0
DIMENSION
  8
1
  6
CONTINUOUS
 62
2
  2
*D9
  3
DMST_3
 10
360.7436913870855
 20
247.5981501657826
 30
0
 11
343.219335089504
 21
250.1981501657826
 31
0
 12
0
 22
0
 32
0
 70
0
 13
325.0436913870853
 23
280.5981501657631
 33
0
 14
360.7436913870855
 24
282.5981501657826
 34
0
 53
0
  0
DIMENSION
  8
1
  6
CONTINUOUS
 62
2
  2
*D10
  3
DMST_3
 10
360.7436913870855
 20
257.5981501657826
 30
0
 11
351.497323790412
 21
260.1981501657826
 31
0
 12
0
 22
0
 32
0
 70
0
 13
340.7436913870855
 23
280.5496102911149
 33
0
 14
360.7436913870855
 24
282.5981501657826
 34
0
 53
0
  0
DIMENSION
  8
1
  6
CONTINUOUS
 62
2
  2
*D11
  3
DMST_5
 10
425.7436913870855
 20
366.8981501657767
 30
0
 11
435.1458926747491
 21
370.4981501657767
 31
0
 12
0
 22
0
 32
0
 70
0
 13
445.7436913870855
 23
355.6981501657592
 33
0
 14
425.7436913870855
 24
355.6981501657592
 34
0
 53
0
  0
DIMENSION
  8
1
  6
CONTINUOUS
 62
2
  2
*D12
  3
DMST_3
 10
345.7436913870855
 20
267.5981501657826
 30
0
 11
350.338405372285
 21
270.1981501657826
 31
0
 12
0
 22
0
 32
0
 70
0
 13
335.7436913870855
 23
281.2981501657845
 33
0
 14
345.7436913870855
 24
281.2981501657845
 34
0
 53
0
  0
DIMENSION
  8
1
  6
CONTINUOUS
 62
2
  2
*D13
  3
DMST_2
 10
289.9531948609235
 20
350.9385380153967
 30
0
 11
285.293216522546
 21
351.437904616094
 31
0
 12
0
 22
0
 32
0
 70
1
  1
10
 13
290.6687628902325
 23
338.3710216949226
 33
0
 14
296.2684690492344
 24
346.6850352204462
 34
0
 53
0
  0
DIMENSION
  8
1
  6
CONTINUOUS
 62
2
  2
*D14
  3
DMST_6
 10
339.074615116442
 20
308.0075645623863
 30
0
 11
278.1436913870862
 21
371.2981501657787
 31
0
 12
0
 22
0
 32
0
 70
3
 15
311.0127676577285
 25
340.5887357691436
 35
0
 40
0
 53
0
  0
DIMENSION
  8
1
  6
CONTINUOUS
 62
2
  2
*D15
  3
DMST_7
 10
295.1725880273355
 20
295.2444523970725
 30
0
 11
264.379218876619
 21
273.532674048154
 31
0
 12
0
 22
0
 32
0
 70
3
  1
2-%%c<>
 15
292.9147947468367
 25
291.3518479344382
 35
0
 40
0
 53
0
  0
DIMENSION
  8
1
  6
CONTINUOUS
 62
2
  2
*D16
  3
DMST_2
 10
363.5990897891958
 20
324.298150165765
 30
0
 11
375.5187123407496
 21
331.8871430412514
 31
0
 12
0
 22
0
 32
0
 70
2
 13
354.0079400573576
 23
332.0590972064258
 33
0
 14
356.6925940405726
 24
332.7784480730884
 34
0
 15
281.3611198522848
 25
324.298150165765
 35
0
 16
372.0801563730961
 26
330.4906182586062
 36
0
 53
0
  0
DIMENSION
  8
1
  6
CONTINUOUS
 62
2
  2
*D17
  3
DMST_2
 10
294.9185576628502
 20
341.6909042309387
 30
0
 11
275.0518400506789
 21
336.251517674745
 31
0
 12
0
 22
0
 32
0
 70
2
 13
363.5990897891958
 23
324.298150165765
 33
0
 14
281.3611198522848
 24
324.298150165765
 34
0
 15
292.4769513877167
 25
343.1005662710832
 35
0
 16
278.8714202841583
 26
336.6699729204472
 36
0
 53
0
  0
INSERT
  8
0
  2
_X10
 10
851.8862907546943
 20
0
 30
0
  0
INSERT
  8
0
  2
_X9
 10
0
 20
0
 30
0
  0
ENDSEC
  0
EOF
