  0
SECTION
  2
HEADER
  9
$ACADVER
  1
AC1009
  9
$INSBASE
 10
0
 20
0
  9
$EXTMIN
 10
145.1837935326513
 20
145.67040529039
  9
$EXTMAX
 10
346.058910051094
 20
269.091032771112
  9
$LIMMIN
 10
145.1837935326513
 20
145.67040529039
  9
$LIMMAX
 10
346.058910051094
 20
269.091032771112
  9
$VIEWCTR
 10
10
 20
10
  9
$VIEWSIZE
 40
10
  9
$SNAPMODE
 70
0
  9
$SNAPUNIT
 10
1
 20
1
  9
$SNAPBASE
 10
0
 20
0
  9
$SNAPANG
 50
0
  9
$SNAPSTYLE
 70
0
  9
$SNAPISOPAIR
 70
0
  9
$GRIDMODE
 70
0
  9
$GRIDUNIT
 10
0
 20
0
  9
$ORTHOMODE
 70
0
  9
$REGENMODE
 70
1
  9
$FILLMODE
 70
1
  9
$QTEXTMODE
 70
0
  9
$DRAGMODE
 70
2
  9
$LTSCALE
 40
1
  9
$OSMODE
 70
0
  9
$ATTMODE
 70
1
  9
$TEXTSIZE
 40
3.5
  9
$TRACEWID
 40
0.5
  9
$TEXTSTYLE
  7
STANDARD
  9
$CLAYER
  8
0
  9
$CELTYPE
  6
BYLAYER
  9
$CECOLOR
 62
256
  9
$DIMSCALE
 40
1
  9
$DIMASZ
 40
0.18
  9
$DIMEXO
 40
0.0625
  9
$DIMDLI
 40
0.38
  9
$DIMRND
 40
0
  9
$DIMDLE
 40
0
  9
$DIMEXE
 40
0.18
  9
$DIMTP
 40
0
  9
$DIMTM
 40
0
  9
$DIMTXT
 40
0.18
  9
$DIMCEN
 40
0.09
  9
$DIMTSZ
 40
0
  9
$DIMTOL
 70
0
  9
$DIMLIM
 70
0
  9
$DIMTIH
 70
1
  9
$DIMTOH
 70
1
  9
$DIMSE1
 70
0
  9
$DIMSE2
 70
0
  9
$DIMTAD
 70
0
  9
$DIMZIN
 70
0
  9
$DIMBLK
  1

  9
$DIMASO
 70
1
  9
$DIMSHO
 70
1
  9
$DIMPOST
  1

  9
$DIMAPOST
  1

  9
$DIMALT
 70
0
  9
$DIMALTD
 70
2
  9
$DIMALTF
 40
25.4
  9
$DIMLFAC
 40
1
  9
$DIMTOFL
 70
0
  9
$DIMTVP
 40
0
  9
$DIMTIX
 70
0
  9
$DIMSOXD
 70
0
  9
$DIMSAH
 70
0
  9
$DIMBLK1
  1

  9
$DIMBLK2
  1

  9
$DIMSTYLE
  2
*UNNAMED
  9
$DIMCLRD
 70
0
  9
$DIMCLRE
 70
0
  9
$DIMCLRT
 70
0
  9
$DIMTFAC
 40
1
  9
$DIMGAP
 40
0.09
  9
$LUNITS
 70
2
  9
$LUPREC
 70
4
  9
$AXISMODE
 70
0
  9
$AXISUNIT
 10
0
 20
0
  9
$SKETCHINC
 40
0.1
  9
$FILLETRAD
 40
2
  9
$AUNITS
 70
0
  9
$AUPREC
 70
0
  9
$MENU
  1
ACAD
  9
$ELEVATION
 40
0
  9
$THICKNESS
 40
0
  9
$VIEWDIR
 10
0
 20
0
 30
1
  9
$LIMCHECK
 70
0
  9
$BLIPMODE
 70
1
  9
$CHAMFERA
 40
0
  9
$CHAMFERB
 40
0
  9
$FASTZOOM
 70
1
  9
$SKPOLY
 70
0
  9
$ANGBASE
 50
0
  9
$ANGDIR
 70
0
  9
$PDMODE
 70
0
  9
$PDSIZE
 40
0
  9
$PLINEWID
 40
0
  9
$COORDS
 70
2
  0
ENDSEC
  0
SECTION
  2
TABLES
  0
TABLE
  2
DIMSTYLE
 70
8
  0
DIMSTYLE
  2
DMST_1
 70
0
  3

  4

  5

  6

  7

 40
1
 41
3.2
 42
1
 43
7
 44
1.5
 45
0
 46
0
 47
0.3
 48
0.3
140
3.2
141
0
142
0
143
25.4
144
1
145
0
146
0.6
147
0.09
 71
1
 72
0
 73
0
 74
0
 75
0
 76
0
 77
1
 78
9
170
0
171
2
172
0
173
0
174
0
175
0
176
2
177
2
178
2
  0
DIMSTYLE
  2
DMST_2
 70
0
  3

  4

  5

  6

  7

 40
1
 41
3.2
 42
1
 43
7
 44
1.5
 45
0
 46
0
 47
0
 48
0
140
3.2
141
0
142
0
143
25.4
144
1
145
0
146
1
147
0.09
 71
0
 72
0
 73
0
 74
0
 75
0
 76
0
 77
1
 78
9
170
0
171
2
172
0
173
0
174
0
175
0
176
2
177
2
178
2
  0
DIMSTYLE
  2
DMST_3
 70
0
  3

  4

  5

  6

  7

 40
1
 41
3.2
 42
1
 43
7
 44
1.5
 45
0
 46
0
 47
0.3
 48
0.3
140
3.2
141
0
142
0
143
25.4
144
1
145
0
146
0.6
147
0.09
 71
1
 72
0
 73
0
 74
0
 75
0
 76
0
 77
1
 78
1
170
0
171
2
172
0
173
0
174
0
175
0
176
2
177
2
178
2
  0
DIMSTYLE
  2
DMST_4
 70
0
  3

  4

  5

  6

  7

 40
1
 41
3.2
 42
1
 43
7
 44
1.5
 45
0
 46
0
 47
0
 48
0
140
3.2
141
0
142
0
143
25.4
144
1
145
0
146
1
147
0.09
 71
0
 72
0
 73
0
 74
0
 75
0
 76
0
 77
1
 78
1
170
0
171
2
172
0
173
0
174
0
175
0
176
2
177
2
178
2
  0
DIMSTYLE
  2
DMST_5
 70
0
  3

  4

  5

  6

  7

 40
1
 41
3.2
 42
1
 43
7
 44
1.5
 45
0
 46
0
 47
0
 48
0
140
3.2
141
0
142
0
143
25.4
144
1
145
0
146
1
147
0.09
 71
0
 72
0
 73
1
 74
1
 75
0
 76
0
 77
0
 78
9
170
0
171
2
172
0
173
0
174
0
175
0
176
2
177
2
178
2
  0
DIMSTYLE
  2
DMST_6
 70
0
  3

  4

  5

  6

  7

 40
1
 41
3.2
 42
1
 43
7
 44
1.5
 45
0
 46
0
 47
0
 48
0
140
3.2
141
0
142
0
143
25.4
144
1
145
0
146
1
147
0.09
 71
0
 72
0
 73
1
 74
1
 75
0
 76
0
 77
1
 78
9
170
0
171
2
172
0
173
0
174
0
175
0
176
2
177
2
178
2
  0
DIMSTYLE
  2
DMST_7
 70
0
  3
(ïzì×ôÓîaüj
  4

  5

  6

  7

 40
1
 41
3.2
 42
1
 43
7
 44
1.5
 45
0
 46
0
 47
0
 48
0
140
3.2
141
-1.5
142
0
143
25.4
144
1
145
0
146
1
147
0.09
 71
0
 72
0
 73
1
 74
1
 75
0
 76
0
 77
1
 78
9
170
0
171
2
172
1
173
0
174
0
175
0
176
2
177
2
178
2
  0
DIMSTYLE
  2
DMST_8
 70
0
  3

  4

  5

  6

  7

 40
1
 41
3.2
 42
1
 43
7
 44
1.5
 45
0
 46
0
 47
0
 48
0
140
3.2
141
-1.5
142
0
143
25.4
144
1
145
0
146
1
147
0.09
 71
0
 72
0
 73
1
 74
1
 75
0
 76
0
 77
1
 78
9
170
0
171
2
172
0
173
0
174
0
175
0
176
2
177
2
178
2
  0
ENDTAB
  0
TABLE
  2
LTYPE
 70
9
  0
LTYPE
  2
CONTINUOUS
 70
64
  3
Solid line
 72
65
 73
0
 40
0
  0
LTYPE
  2
BORDER
 70
64
  3
__ __ . __ __ .
 72
65
 73
6
 40
9.250827734401968
 49
2.643093638400562
 49
-1.321546819200281
 49
2.643093638400562
 49
-1.321546819200281
 49
0
 49
-1.321546819200281
  0
LTYPE
  2
CENTER
 70
64
  3
____ _ ____ _
 72
65
 73
4
 40
10.57237455360225
 49
6.607734096001405
 49
-1.321546819200281
 49
1.321546819200281
 49
-1.321546819200281
  0
LTYPE
  2
DASHDOT
 70
64
  3
__ . __ . __ .
 72
65
 73
4
 40
5.286187276801124
 49
2.643093638400562
 49
-1.321546819200281
 49
0
 49
-1.321546819200281
  0
LTYPE
  2
DASHED
 70
64
  3
__ __ __ __ __
 72
65
 73
2
 40
3.964640457600843
 49
2.643093638400562
 49
-1.321546819200281
  0
LTYPE
  2
DIVIDE
 70
64
  3
__ . . __ . . 
 72
65
 73
6
 40
6.607734096001405
 49
2.643093638400562
 49
-1.321546819200281
 49
0
 49
-1.321546819200281
 49
0
 49
-1.321546819200281
  0
LTYPE
  2
DOT
 70
64
  3
..............
 72
65
 73
4
 40
2.643093638400562
 49
0
 49
-1.321546819200281
 49
0
 49
-1.321546819200281
  0
LTYPE
  2
HIDDEN
 70
64
  3
_ _ _ _ _ _ _
 72
65
 73
2
 40
1.982320228800422
 49
1.321546819200281
 49
-0.6607734096001405
  0
LTYPE
  2
PHANTOM
 70
64
  3
_____ _ _ _____ _ _ 
 72
65
 73
6
 40
13.21546819200281
 49
6.607734096001405
 49
-1.321546819200281
 49
1.321546819200281
 49
-1.321546819200281
 49
1.321546819200281
 49
-1.321546819200281
  0
ENDTAB
  0
TABLE
  2
LAYER
 70
3
  0
LAYER
  2
0
 70
0
 62
7
  6
CONTINUOUS
  0
LAYER
  2
1
 70
0
 62
7
  6
CONTINUOUS
  0
ENDTAB
  0
TABLE
  2
STYLE
 70
4
  0
STYLE
  2
STANDARD
 70
0
 40
0
 41
1
 50
0
 71
0
 42
3.5
  3
txt
  4

  0
STYLE
  2
SIMPLEX
 70
0
 40
0
 41
1
 50
0
 71
0
 42
3.5
  3
simplex
  4

  0
STYLE
  2
COMPLEX
 70
0
 40
0
 41
1
 50
0
 71
0
 42
3.5
  3
complex
  4

  0
STYLE
  2
ITALIC
 70
0
 40
0
 41
1
 50
0
 71
0
 42
3.5
  3
italic
  4

  0
ENDTAB
  0
TABLE
  2
VIEW
 70
0
  0
ENDTAB
  0
ENDSEC
  0
SECTION
  2
BLOCKS
  0
BLOCK
  8
0
  2
_X0
 70
0
 10
580.568907614925
 20
-1.063514388457008
 30
0
  0
LINE
  8
1
 62
2
 10
254.5083890748686
 20
187.3961500669635
 30
0
 11
254.7177785921635
 21
187.1867605496677
 31
0
  0
LINE
  8
1
 62
2
 10
254.1737825533974
 20
187.5893352321973
 30
0
 11
254.6281210449474
 21
187.1349967406465
 31
0
  0
LINE
  8
1
 62
2
 10
253.8391760319263
 20
187.7825203974311
 30
0
 11
254.5384634977313
 21
187.0832329316253
 31
0
  0
LINE
  8
1
 62
2
 10
253.5045695104552
 20
187.9757055626649
 30
0
 11
254.4488059505151
 21
187.0314691226042
 31
0
  0
LINE
  8
1
 62
2
 10
253.169962988984
 20
188.1688907278988
 30
0
 11
254.359148403299
 21
186.979705313583
 31
0
  0
LINE
  8
1
 62
2
 10
252.8353564675129
 20
188.3620758931326
 30
0
 11
254.2694908560829
 21
186.9279415045618
 31
0
  0
LINE
  8
1
 62
2
 10
252.5007499460418
 20
188.5552610583664
 30
0
 11
254.1798333088668
 21
186.8761776955407
 31
0
  0
LINE
  8
1
 62
2
 10
252.1661434245706
 20
188.7484462236002
 30
0
 11
254.0901757616507
 21
186.8244138865195
 31
0
  0
LINE
  8
1
 62
2
 10
252.0179068496759
 20
188.7552614422579
 30
0
 11
254.0005182144345
 21
186.7726500774983
 31
0
  0
LINE
  8
1
 62
2
 10
252.0179068496759
 20
188.6138400860206
 30
0
 11
253.9108606672184
 21
186.7208862684772
 31
0
  0
LINE
  8
1
 62
2
 10
252.0179068496759
 20
188.4724187297833
 30
0
 11
253.8212031200023
 21
186.669122459456
 31
0
  0
LINE
  8
1
 62
2
 10
252.0179068496759
 20
188.3309973735459
 30
0
 11
253.7315455727862
 21
186.6173586504348
 31
0
  0
LINE
  8
1
 62
2
 10
252.0179068496759
 20
188.1895760173086
 30
0
 11
253.6418880255701
 21
186.5655948414137
 31
0
  0
LINE
  8
1
 62
2
 10
252.0179068496759
 20
188.0481546610713
 30
0
 11
253.5522304783539
 21
186.5138310323925
 31
0
  0
LINE
  8
1
 62
2
 10
252.0179068496759
 20
187.906733304834
 30
0
 11
253.4625729311378
 21
186.4620672233713
 31
0
  0
LINE
  8
1
 62
2
 10
252.0179068496759
 20
187.7653119485967
 30
0
 11
253.3729153839217
 21
186.4103034143502
 31
0
  0
LINE
  8
1
 62
2
 10
251.9107876808027
 20
187.7310097612316
 30
0
 11
253.2832578367056
 21
186.358539605329
 31
0
  0
LINE
  8
1
 62
2
 10
251.7693663245654
 20
187.7310097612316
 30
0
 11
253.1936002894895
 21
186.3067757963078
 31
0
  0
LINE
  8
1
 62
2
 10
251.6279449683281
 20
187.7310097612316
 30
0
 11
253.1039427422733
 21
186.2550119872867
 31
0
  0
LINE
  8
1
 62
2
 10
251.4865236120908
 20
187.7310097612316
 30
0
 11
253.0142851950572
 21
186.2032481782655
 31
0
  0
LINE
  8
1
 62
2
 10
251.3451022558535
 20
187.7310097612316
 30
0
 11
252.9246276478411
 21
186.1514843692443
 31
0
  0
LINE
  8
1
 62
2
 10
251.2036808996163
 20
187.7310097612316
 30
0
 11
252.834970100625
 21
186.0997205602232
 31
0
  0
LINE
  8
1
 62
2
 10
251.062259543379
 20
187.7310097612316
 30
0
 11
252.7453125534089
 21
186.047956751202
 31
0
  0
LINE
  8
1
 62
2
 10
250.9208381871417
 20
187.7310097612316
 30
0
 11
251.9208381871412
 21
186.7310097612321
 31
0
  0
LINE
  8
1
 62
2
 10
252.0179068496759
 20
186.6339410986979
 30
0
 11
252.6556550061927
 21
185.9961929421808
 31
0
  0
LINE
  8
1
 62
2
 10
250.7794168309044
 20
187.7310097612316
 30
0
 11
251.7794168309039
 21
186.7310097612321
 31
0
  0
LINE
  8
1
 62
2
 10
252.0179068496759
 20
186.4925197424606
 30
0
 11
252.5659974589766
 21
185.9444291331597
 31
0
  0
LINE
  8
1
 62
2
 10
250.6379954746671
 20
187.7310097612316
 30
0
 11
251.6379954746667
 21
186.7310097612321
 31
0
  0
LINE
  8
1
 62
2
 10
252.0179068496759
 20
186.3510983862233
 30
0
 11
252.4763399117605
 21
185.8926653241385
 31
0
  0
LINE
  8
1
 62
2
 10
250.4965741184298
 20
187.7310097612316
 30
0
 11
251.4965741184294
 21
186.7310097612321
 31
0
  0
LINE
  8
1
 62
2
 10
252.0179068496759
 20
186.2096770299859
 30
0
 11
252.3866823645444
 21
185.8409015151173
 31
0
  0
LINE
  8
1
 62
2
 10
250.3551527621925
 20
187.7310097612316
 30
0
 11
251.3551527621921
 21
186.7310097612321
 31
0
  0
LINE
  8
1
 62
2
 10
252.0179068496759
 20
186.0682556737486
 30
0
 11
252.2970248173282
 21
185.7891377060962
 31
0
  0
LINE
  8
1
 62
2
 10
250.2137314059552
 20
187.7310097612316
 30
0
 11
251.2137314059548
 21
186.7310097612321
 31
0
  0
LINE
  8
1
 62
2
 10
252.0179068496759
 20
185.9268343175113
 30
0
 11
252.2073672701121
 21
185.737373897075
 31
0
  0
LINE
  8
1
 62
2
 10
250.072310049718
 20
187.7310097612316
 30
0
 11
251.0723100497175
 21
186.7310097612321
 31
0
  0
LINE
  8
1
 62
2
 10
252.0179068496759
 20
185.785412961274
 30
0
 11
252.117709722896
 21
185.6856100880538
 31
0
  0
LINE
  8
1
 62
2
 10
249.9308886934807
 20
187.7310097612316
 30
0
 11
250.9308886934802
 21
186.7310097612321
 31
0
  0
LINE
  8
1
 62
2
 10
252.0179068496759
 20
185.6439916050367
 30
0
 11
252.0280521756799
 21
185.6338462790327
 31
0
  0
LINE
  8
1
 62
2
 10
249.7894673372434
 20
187.7310097612316
 30
0
 11
250.7894673372429
 21
186.7310097612321
 31
0
  0
LINE
  8
1
 62
2
 10
249.6480459810061
 20
187.7310097612316
 30
0
 11
250.6480459810056
 21
186.7310097612321
 31
0
  0
LINE
  8
1
 62
2
 10
249.5066246247688
 20
187.7310097612316
 30
0
 11
250.5066246247683
 21
186.7310097612321
 31
0
  0
LINE
  8
1
 62
2
 10
249.3652032685315
 20
187.7310097612316
 30
0
 11
250.3652032685311
 21
186.7310097612321
 31
0
  0
LINE
  8
1
 62
2
 10
249.2237819122942
 20
187.7310097612316
 30
0
 11
250.2237819122938
 21
186.7310097612321
 31
0
  0
LINE
  8
1
 62
2
 10
249.0823605560569
 20
187.7310097612316
 30
0
 11
250.0823605560565
 21
186.7310097612321
 31
0
  0
LINE
  8
1
 62
2
 10
248.9409391998197
 20
187.7310097612316
 30
0
 11
249.9409391998192
 21
186.7310097612321
 31
0
  0
LINE
  8
1
 62
2
 10
248.7995178435824
 20
187.7310097612316
 30
0
 11
249.7995178435819
 21
186.7310097612321
 31
0
  0
LINE
  8
1
 62
2
 10
248.6580964873451
 20
187.7310097612316
 30
0
 11
249.6580964873446
 21
186.7310097612321
 31
0
  0
LINE
  8
1
 62
2
 10
248.5179068496759
 20
187.7297780426638
 30
0
 11
249.5166751311073
 21
186.7310097612321
 31
0
  0
LINE
  8
1
 62
2
 10
248.5179068496759
 20
187.5883566864265
 30
0
 11
249.37525377487
 21
186.7310097612321
 31
0
  0
LINE
  8
1
 62
2
 10
248.5179068496759
 20
187.4469353301891
 30
0
 11
249.2338324186328
 21
186.7310097612321
 31
0
  0
LINE
  8
1
 62
2
 10
248.5179068496759
 20
187.3055139739518
 30
0
 11
249.0924110623955
 21
186.7310097612321
 31
0
  0
LINE
  8
1
 62
2
 10
248.5179068496759
 20
187.1640926177145
 30
0
 11
248.9509897061582
 21
186.7310097612321
 31
0
  0
LINE
  8
1
 62
2
 10
248.5179068496759
 20
187.0226712614772
 30
0
 11
248.8095683499209
 21
186.7310097612321
 31
0
  0
LINE
  8
1
 62
2
 10
248.5179068496759
 20
186.8812499052399
 30
0
 11
248.6681469936836
 21
186.7310097612321
 31
0
  0
LINE
  8
1
 62
2
 10
248.5179068496759
 20
186.7398285490026
 30
0
 11
248.5267256374463
 21
186.7310097612321
 31
0
  0
ENDBLK
  8
0
  0
BLOCK
  8
0
  2
_X10
 70
0
 10
21.53587179855219
 20
0
 30
0
  0
LINE
  8
1
 62
2
 10
298.2281895048271
 20
204.4281302032759
 30
0
 11
298.375771115196
 21
204.5757118136448
 31
0
  0
LINE
  8
1
 62
2
 10
297.8935829833228
 20
204.2349450380089
 30
0
 11
298.2861135679799
 21
204.627475622666
 31
0
  0
LINE
  8
1
 62
2
 10
297.5589764618185
 20
204.0417598727419
 30
0
 11
298.1964560207638
 21
204.6792394316872
 31
0
  0
LINE
  8
1
 62
2
 10
297.2243699403142
 20
203.8485747074748
 30
0
 11
298.1067984735477
 21
204.7310032407083
 31
0
  0
LINE
  8
1
 62
2
 10
296.8897634188098
 20
203.6553895422078
 30
0
 11
298.0171409263315
 21
204.7827670497295
 31
0
  0
LINE
  8
1
 62
2
 10
296.5551568973055
 20
203.4622043769408
 30
0
 11
297.9274833791154
 21
204.8345308587507
 31
0
  0
LINE
  8
1
 62
2
 10
296.2205503758012
 20
203.2690192116737
 30
0
 11
297.8378258318993
 21
204.8862946677718
 31
0
  0
LINE
  8
1
 62
2
 10
295.8859438542969
 20
203.0758340464067
 30
0
 11
297.7481682846832
 21
204.938058476793
 31
0
  0
LINE
  8
1
 62
2
 10
295.6532761086086
 20
202.9845876569557
 30
0
 11
297.6585107374671
 21
204.9898222858142
 31
0
  0
LINE
  8
1
 62
2
 10
295.6532761086086
 20
203.126009013193
 30
0
 11
297.5688531902509
 21
205.0415860948353
 31
0
  0
LINE
  8
1
 62
2
 10
295.6532761086086
 20
203.2674303694303
 30
0
 11
297.4791956430348
 21
205.0933499038565
 31
0
  0
LINE
  8
1
 62
2
 10
295.6532761086086
 20
203.4088517256676
 30
0
 11
297.3895380958187
 21
205.1451137128777
 31
0
  0
LINE
  8
1
 62
2
 10
295.6532761086086
 20
203.550273081905
 30
0
 11
297.2998805486026
 21
205.1968775218988
 31
0
  0
LINE
  8
1
 62
2
 10
295.6532761086086
 20
203.6916944381423
 30
0
 11
297.2102230013865
 21
205.24864133092
 31
0
  0
LINE
  8
1
 62
2
 10
295.6532761086086
 20
203.8331157943796
 30
0
 11
297.1205654541703
 21
205.3004051399412
 31
0
  0
LINE
  8
1
 62
2
 10
295.6532761086086
 20
203.9745371506169
 30
0
 11
297.0309079069542
 21
205.3521689489623
 31
0
  0
LINE
  8
1
 62
2
 10
295.5818417514514
 20
204.0445241496977
 30
0
 11
296.9412503597381
 21
205.4039327579835
 31
0
  0
LINE
  8
1
 62
2
 10
295.4404203952141
 20
204.0445241496977
 30
0
 11
296.851592812522
 21
205.4556965670047
 31
0
  0
LINE
  8
1
 62
2
 10
295.2989990389768
 20
204.0445241496977
 30
0
 11
296.7619352653059
 21
205.5074603760259
 31
0
  0
LINE
  8
1
 62
2
 10
295.1575776827396
 20
204.0445241496977
 30
0
 11
296.6722777180897
 21
205.559224185047
 31
0
  0
LINE
  8
1
 62
2
 10
295.0161563265023
 20
204.0445241496977
 30
0
 11
296.5826201708736
 21
205.6109879940682
 31
0
  0
LINE
  8
1
 62
2
 10
294.874734970265
 20
204.0445241496977
 30
0
 11
296.4929626236575
 21
205.6627518030894
 31
0
  0
LINE
  8
1
 62
2
 10
294.7333136140277
 20
204.0445241496977
 30
0
 11
296.4033050764414
 21
205.7145156121105
 31
0
  0
LINE
  8
1
 62
2
 10
294.5918922577904
 20
204.0445241496977
 30
0
 11
295.5918922577906
 21
205.0445241496977
 31
0
  0
LINE
  8
1
 62
2
 10
295.6532761086086
 20
205.1059080005157
 30
0
 11
296.3136475292253
 21
205.7662794211317
 31
0
  0
LINE
  8
1
 62
2
 10
294.4504709015531
 20
204.0445241496977
 30
0
 11
295.4504709015533
 21
205.0445241496977
 31
0
  0
LINE
  8
1
 62
2
 10
295.6532761086086
 20
205.247329356753
 30
0
 11
296.2239899820091
 21
205.8180432301529
 31
0
  0
LINE
  8
1
 62
2
 10
294.3090495453158
 20
204.0445241496977
 30
0
 11
295.3090495453161
 21
205.0445241496977
 31
0
  0
LINE
  8
1
 62
2
 10
295.6532761086086
 20
205.3887507129903
 30
0
 11
296.134332434793
 21
205.869807039174
 31
0
  0
LINE
  8
1
 62
2
 10
294.1676281890785
 20
204.0445241496977
 30
0
 11
295.1676281890788
 21
205.0445241496977
 31
0
  0
LINE
  8
1
 62
2
 10
295.6532761086086
 20
205.5301720692276
 30
0
 11
296.0446748875769
 21
205.9215708481952
 31
0
  0
LINE
  8
1
 62
2
 10
294.0262068328413
 20
204.0445241496977
 30
0
 11
295.0262068328415
 21
205.0445241496977
 31
0
  0
LINE
  8
1
 62
2
 10
295.6532761086086
 20
205.671593425465
 30
0
 11
295.9550173403608
 21
205.9733346572164
 31
0
  0
LINE
  8
1
 62
2
 10
293.884785476604
 20
204.0445241496977
 30
0
 11
294.8847854766042
 21
205.0445241496977
 31
0
  0
LINE
  8
1
 62
2
 10
295.6532761086086
 20
205.8130147817023
 30
0
 11
295.8653597931447
 21
206.0250984662375
 31
0
  0
LINE
  8
1
 62
2
 10
293.7433641203667
 20
204.0445241496977
 30
0
 11
294.7433641203669
 21
205.0445241496977
 31
0
  0
LINE
  8
1
 62
2
 10
295.6532761086086
 20
205.9544361379396
 30
0
 11
295.7757022459285
 21
206.0768622752587
 31
0
  0
LINE
  8
1
 62
2
 10
293.6019427641294
 20
204.0445241496977
 30
0
 11
294.6019427641296
 21
205.0445241496977
 31
0
  0
LINE
  8
1
 62
2
 10
295.6532761086086
 20
206.0958574941769
 30
0
 11
295.6860446987124
 21
206.1286260842799
 31
0
  0
LINE
  8
1
 62
2
 10
293.4605214078921
 20
204.0445241496977
 30
0
 11
294.4605214078923
 21
205.0445241496977
 31
0
  0
LINE
  8
1
 62
2
 10
293.3191000516548
 20
204.0445241496977
 30
0
 11
294.319100051655
 21
205.0445241496977
 31
0
  0
LINE
  8
1
 62
2
 10
293.1776786954175
 20
204.0445241496977
 30
0
 11
294.1776786954178
 21
205.0445241496977
 31
0
  0
LINE
  8
1
 62
2
 10
293.0362573391802
 20
204.0445241496977
 30
0
 11
294.0362573391805
 21
205.0445241496977
 31
0
  0
LINE
  8
1
 62
2
 10
292.8948359829429
 20
204.0445241496977
 30
0
 11
293.8948359829432
 21
205.0445241496977
 31
0
  0
LINE
  8
1
 62
2
 10
292.7534146267057
 20
204.0445241496977
 30
0
 11
293.7534146267059
 21
205.0445241496977
 31
0
  0
LINE
  8
1
 62
2
 10
292.6119932704684
 20
204.0445241496977
 30
0
 11
293.6119932704686
 21
205.0445241496977
 31
0
  0
LINE
  8
1
 62
2
 10
292.4705719142311
 20
204.0445241496977
 30
0
 11
293.4705719142313
 21
205.0445241496977
 31
0
  0
LINE
  8
1
 62
2
 10
292.3291505579938
 20
204.0445241496977
 30
0
 11
293.329150557994
 21
205.0445241496977
 31
0
  0
LINE
  8
1
 62
2
 10
292.1877292017565
 20
204.0445241496977
 30
0
 11
293.1877292017567
 21
205.0445241496977
 31
0
  0
LINE
  8
1
 62
2
 10
292.1532761086086
 20
204.1514924127873
 30
0
 11
293.0463078455194
 21
205.0445241496977
 31
0
  0
LINE
  8
1
 62
2
 10
292.1532761086086
 20
204.2929137690246
 30
0
 11
292.9048864892822
 21
205.0445241496977
 31
0
  0
LINE
  8
1
 62
2
 10
292.1532761086086
 20
204.434335125262
 30
0
 11
292.7634651330449
 21
205.0445241496977
 31
0
  0
LINE
  8
1
 62
2
 10
292.1532761086086
 20
204.5757564814993
 30
0
 11
292.6220437768076
 21
205.0445241496977
 31
0
  0
LINE
  8
1
 62
2
 10
292.1532761086086
 20
204.7171778377366
 30
0
 11
292.4806224205703
 21
205.0445241496977
 31
0
  0
LINE
  8
1
 62
2
 10
292.1532761086086
 20
204.8585991939739
 30
0
 11
292.339201064333
 21
205.0445241496977
 31
0
  0
LINE
  8
1
 62
2
 10
292.1532761086086
 20
205.0000205502112
 30
0
 11
292.1977797080957
 21
205.0445241496977
 31
0
  0
ENDBLK
  8
0
  0
BLOCK
  8
1
  2
*D0
 70
1
 10
0
 20
0
 30
0
  0
LINE
  8
1
 62
2
 10
221.7930049996663
 20
235.039337872488
 30
0
 11
240.893004999667
 21
235.039337872488
 31
0
  0
LINE
  8
1
 62
2
 10
221.7930049996663
 20
232.2345241496979
 30
0
 11
221.7930049996663
 21
236.539337872488
 31
0
  0
LINE
  8
1
 62
2
 10
240.893004999667
 20
225.9845241496979
 30
0
 11
240.893004999667
 21
236.539337872488
 31
0
  0
SOLID
  8
1
 62
2
 10
221.7930049996663
 20
235.039337872488
 30
0
 11
224.9930049996663
 21
235.455337872488
 31
0
 12
224.9930049996663
 22
234.623337872488
 32
0
 13
224.9930049996663
 23
234.623337872488
 33
0
  0
SOLID
  8
1
 62
2
 10
240.893004999667
 20
235.039337872488
 30
0
 11
237.693004999667
 21
234.623337872488
 31
0
 12
237.693004999667
 22
235.455337872488
 32
0
 13
237.693004999667
 23
235.455337872488
 33
0
  0
TEXT
  8
1
 62
2
 10
225.446723143721
 20
237.039337872488
 30
0
 40
3.2
  1
19.1
 41
0.9
  0
TEXT
  8
1
 62
2
 10
234.006723143721
 20
237.679337872488
 30
0
 40
1.92
  1
%%p0.3
 41
0.9
  0
ENDBLK
  8
0
  0
BLOCK
  8
1
  2
*D1
 70
1
 10
0
 20
0
 30
0
  0
LINE
  8
1
 62
2
 10
221.7930049996662
 20
165
 30
0
 11
245.493004999666
 21
165
 31
0
  0
LINE
  8
1
 62
2
 10
221.7930049996662
 20
172.3345241496977
 30
0
 11
221.7930049996662
 21
163.5
 31
0
  0
LINE
  8
1
 62
2
 10
245.493004999666
 20
177.3345241496977
 30
0
 11
245.493004999666
 21
163.5
 31
0
  0
SOLID
  8
1
 62
2
 10
245.493004999666
 20
165
 30
0
 11
242.293004999666
 21
164.584
 31
0
 12
242.293004999666
 22
165.416
 32
0
 13
242.293004999666
 23
165.416
 33
0
  0
SOLID
  8
1
 62
2
 10
221.7930049996662
 20
165
 30
0
 11
224.9930049996662
 21
165.416
 31
0
 12
224.9930049996662
 22
164.584
 32
0
 13
224.9930049996662
 23
164.584
 33
0
  0
TEXT
  8
1
 62
2
 10
230.56
 20
167
 30
0
 40
3.2
  1
23.7
 41
0.9
  0
ENDBLK
  8
0
  0
BLOCK
  8
1
  2
*D2
 70
1
 10
0
 20
0
 30
0
  0
LINE
  8
1
 62
2
 10
197.5930049996673
 20
149.918146811728
 30
0
 11
245.493004999666
 21
149.918146811728
 31
0
  0
LINE
  8
1
 62
2
 10
197.5930049996673
 20
204.8392414592976
 30
0
 11
197.5930049996673
 21
148.418146811728
 31
0
  0
LINE
  8
1
 62
2
 10
245.493004999666
 20
177.3345241496977
 30
0
 11
245.493004999666
 21
148.418146811728
 31
0
  0
SOLID
  8
1
 62
2
 10
245.493004999666
 20
149.918146811728
 30
0
 11
242.293004999666
 21
149.502146811728
 31
0
 12
242.293004999666
 22
150.334146811728
 32
0
 13
242.293004999666
 23
150.334146811728
 33
0
  0
SOLID
  8
1
 62
2
 10
197.5930049996673
 20
149.918146811728
 30
0
 11
200.7930049996673
 21
150.334146811728
 31
0
 12
200.7930049996673
 22
149.502146811728
 32
0
 13
200.7930049996673
 23
149.502146811728
 33
0
  0
TEXT
  8
1
 62
2
 10
219.293049106938
 20
151.918146811728
 30
0
 40
3.2
  1
48
 41
0.9
  0
ENDBLK
  8
0
  0
BLOCK
  8
1
  2
*D3
 70
1
 10
0
 20
0
 30
0
  0
LINE
  8
1
 62
2
 10
202.0930049996673
 20
164.897072871189
 30
0
 11
221.7930049996662
 21
164.897072871189
 31
0
  0
LINE
  8
1
 62
2
 10
202.0930049996673
 20
179.6595241496978
 30
0
 11
202.0930049996673
 21
163.397072871189
 31
0
  0
LINE
  8
1
 62
2
 10
221.7930049996662
 20
172.3345241496977
 30
0
 11
221.7930049996662
 21
163.397072871189
 31
0
  0
SOLID
  8
1
 62
2
 10
202.0930049996673
 20
164.897072871189
 30
0
 11
205.2930049996673
 21
165.313072871189
 31
0
 12
205.2930049996673
 22
164.481072871189
 32
0
 13
205.2930049996673
 23
164.481072871189
 33
0
  0
SOLID
  8
1
 62
2
 10
221.7930049996662
 20
164.897072871189
 30
0
 11
218.5930049996662
 21
164.481072871189
 31
0
 12
218.5930049996662
 22
165.313072871189
 32
0
 13
218.5930049996662
 23
165.313072871189
 33
0
  0
TEXT
  8
1
 62
2
 10
204.889229215183
 20
166.897072871189
 30
0
 40
3.2
  1
19.7
 41
0.9
  0
TEXT
  8
1
 62
2
 10
214.409229215183
 20
167.537072871189
 30
0
 40
1.92
  1
%%p0.3
 41
0.9
  0
ENDBLK
  8
0
  0
BLOCK
  8
1
  2
*D4
 70
1
 10
0
 20
0
 30
0
  0
LINE
  8
1
 62
2
 10
280.022034537097
 20
204.5445241496977
 30
0
 11
280.022034537097
 21
221.7345241496979
 31
0
  0
LINE
  8
1
 62
2
 10
249.0976932246057
 20
204.5445241496977
 30
0
 11
281.522034537097
 21
204.5445241496977
 31
0
  0
LINE
  8
1
 62
2
 10
245.143004999667
 20
221.7345241496979
 30
0
 11
281.522034537097
 21
221.7345241496979
 31
0
  0
SOLID
  8
1
 62
2
 10
280.022034537097
 20
204.5445241496977
 30
0
 11
279.606034537097
 21
207.7445241496977
 31
0
 12
280.438034537097
 22
207.7445241496977
 32
0
 13
280.438034537097
 23
207.7445241496977
 33
0
  0
SOLID
  8
1
 62
2
 10
280.022034537097
 20
221.7345241496979
 30
0
 11
280.438034537097
 21
218.5345241496979
 31
0
 12
279.606034537097
 22
218.5345241496979
 32
0
 13
279.606034537097
 23
218.5345241496979
 33
0
  0
TEXT
  8
1
 62
2
 10
278.022034537097
 20
205.967588877131
 30
0
 40
3.2
  1
17.2
 50
90
 41
0.9
  0
TEXT
  8
1
 62
2
 10
277.382034537097
 20
215.487588877131
 30
0
 40
1.92
  1
%%p0.3
 50
90
 41
0.9
  0
ENDBLK
  8
0
  0
BLOCK
  8
1
  2
*D5
 70
1
 10
0
 20
0
 30
0
  0
LINE
  8
1
 62
2
 10
265
 20
178.3345241496977
 30
0
 11
265
 21
200.1345241496978
 31
0
  0
LINE
  8
1
 62
2
 10
246.493004999666
 20
178.3345241496977
 30
0
 11
266.5
 21
178.3345241496977
 31
0
  0
LINE
  8
1
 62
2
 10
246.493004999666
 20
200.1345241496978
 30
0
 11
266.5
 21
200.1345241496978
 31
0
  0
SOLID
  8
1
 62
2
 10
265
 20
178.3345241496977
 30
0
 11
264.584
 21
181.5345241496977
 31
0
 12
265.416
 22
181.5345241496977
 32
0
 13
265.416
 23
181.5345241496977
 33
0
  0
SOLID
  8
1
 62
2
 10
265
 20
200.1345241496978
 30
0
 11
265.416
 21
196.9345241496978
 31
0
 12
264.584
 22
196.9345241496978
 32
0
 13
264.584
 23
196.9345241496978
 33
0
  0
TEXT
  8
1
 62
2
 10
263
 20
186.04
 30
0
 40
3.2
  1
21.8
 50
90
 41
0.9
  0
ENDBLK
  8
0
  0
BLOCK
  8
1
  2
*D6
 70
1
 10
0
 20
0
 30
0
  0
LINE
  8
1
 62
2
 10
280
 20
178.3345241496977
 30
0
 11
280
 21
204.5445241496977
 31
0
  0
LINE
  8
1
 62
2
 10
246.493004999666
 20
178.3345241496977
 30
0
 11
281.5
 21
178.3345241496977
 31
0
  0
LINE
  8
1
 62
2
 10
249.0976932246057
 20
204.5445241496977
 30
0
 11
281.5
 21
204.5445241496977
 31
0
  0
SOLID
  8
1
 62
2
 10
280
 20
204.5445241496977
 30
0
 11
280.416
 21
201.3445241496977
 31
0
 12
279.584
 22
201.3445241496977
 32
0
 13
279.584
 23
201.3445241496977
 33
0
  0
SOLID
  8
1
 62
2
 10
280
 20
178.3345241496977
 30
0
 11
279.584
 21
181.5345241496977
 31
0
 12
280.416
 22
181.5345241496977
 32
0
 13
280.416
 23
181.5345241496977
 33
0
  0
TEXT
  8
1
 62
2
 10
278
 20
185.56
 30
0
 40
3.2
  1
26.2
 50
90
 41
0.9
  0
ENDBLK
  8
0
  0
BLOCK
  8
1
  2
*D7
 70
1
 10
0
 20
0
 30
0
  0
LINE
  8
1
 62
2
 10
185.507666954081
 20
182.9345241496978
 30
0
 11
185.507666954081
 21
204.5445241496977
 31
0
  0
LINE
  8
1
 62
2
 10
198.8180049996672
 20
182.9345241496978
 30
0
 11
184.007666954081
 21
182.9345241496978
 31
0
  0
LINE
  8
1
 62
2
 10
193.4660422083957
 20
204.5445241496977
 30
0
 11
184.007666954081
 21
204.5445241496977
 31
0
  0
SOLID
  8
1
 62
2
 10
185.507666954081
 20
204.5445241496977
 30
0
 11
185.923666954081
 21
201.3445241496977
 31
0
 12
185.091666954081
 22
201.3445241496977
 32
0
 13
185.091666954081
 23
201.3445241496977
 33
0
  0
SOLID
  8
1
 62
2
 10
185.507666954081
 20
182.9345241496978
 30
0
 11
185.091666954081
 21
186.1345241496978
 31
0
 12
185.923666954081
 22
186.1345241496978
 32
0
 13
185.923666954081
 23
186.1345241496978
 33
0
  0
TEXT
  8
1
 62
2
 10
183.507666954081
 20
186.061249743664
 30
0
 40
3.2
  1
21.6
 50
90
 41
0.9
  0
TEXT
  8
1
 62
2
 10
182.867666954081
 20
195.581249743664
 30
0
 40
1.92
  1
%%p0.3
 50
90
 41
0.9
  0
ENDBLK
  8
0
  0
BLOCK
  8
1
  2
*D8
 70
1
 10
0
 20
0
 30
0
  0
LINE
  8
1
 62
2
 10
307.3303257968422
 20
250
 30
0
 11
332.3303257968422
 21
250
 31
0
  0
LINE
  8
1
 62
2
 10
307.3303257968422
 20
226.2345241496979
 30
0
 11
307.3303257968422
 21
251.5
 31
0
  0
LINE
  8
1
 62
2
 10
332.3303257968422
 20
226.2345241496979
 30
0
 11
332.3303257968422
 21
251.5
 31
0
  0
SOLID
  8
1
 62
2
 10
307.3303257968422
 20
250
 30
0
 11
310.5303257968422
 21
250.416
 31
0
 12
310.5303257968422
 22
249.584
 32
0
 13
310.5303257968422
 23
249.584
 33
0
  0
SOLID
  8
1
 62
2
 10
332.3303257968422
 20
250
 30
0
 11
329.1303257968422
 21
249.584
 31
0
 12
329.1303257968422
 22
250.416
 32
0
 13
329.1303257968422
 23
250.416
 33
0
  0
TEXT
  8
1
 62
2
 10
317.6
 20
252
 30
0
 40
3.2
  1
25
 41
0.9
  0
ENDBLK
  8
0
  0
BLOCK
  8
1
  2
*D9
 70
1
 10
0
 20
0
 30
0
  0
LINE
  8
1
 62
2
 10
307.3303257968422
 20
235.013591583894
 30
0
 11
316.8303257968422
 21
235.013591583894
 31
0
  0
LINE
  8
1
 62
2
 10
307.3303257968422
 20
235.013591583894
 30
0
 11
295.522350853292
 21
235.013591583894
 31
0
  0
LINE
  8
1
 62
2
 10
307.3303257968422
 20
226.2345241496979
 30
0
 11
307.3303257968422
 21
236.513591583894
 31
0
  0
LINE
  8
1
 62
2
 10
316.8303257968422
 20
226.5345241496978
 30
0
 11
316.8303257968422
 21
236.513591583894
 31
0
  0
SOLID
  8
1
 62
2
 10
316.8303257968422
 20
235.013591583894
 30
0
 11
313.6303257968422
 21
234.597591583894
 31
0
 12
313.6303257968422
 22
235.429591583894
 32
0
 13
313.6303257968422
 23
235.429591583894
 33
0
  0
SOLID
  8
1
 62
2
 10
307.3303257968422
 20
235.013591583894
 30
0
 11
310.5303257968422
 21
235.429591583894
 31
0
 12
310.5303257968422
 22
234.597591583894
 32
0
 13
310.5303257968422
 23
234.597591583894
 33
0
  0
TEXT
  8
1
 62
2
 10
295.522350853292
 20
237.013591583894
 30
0
 40
3.2
  1
9.5
 41
0.9
  0
ENDBLK
  8
0
  0
BLOCK
  8
1
  2
*D10
 70
1
 10
0
 20
0
 30
0
  0
LINE
  8
1
 62
2
 10
322.8303257968422
 20
235.013591583894
 30
0
 11
332.3303257968422
 21
235.013591583894
 31
0
  0
LINE
  8
1
 62
2
 10
332.3303257968422
 20
235.013591583894
 30
0
 11
341.437812303151
 21
235.013591583894
 31
0
  0
LINE
  8
1
 62
2
 10
322.8303257968422
 20
226.5345241496978
 30
0
 11
322.8303257968422
 21
236.513591583894
 31
0
  0
LINE
  8
1
 62
2
 10
332.3303257968422
 20
226.2345241496979
 30
0
 11
332.3303257968422
 21
236.513591583894
 31
0
  0
SOLID
  8
1
 62
2
 10
322.8303257968422
 20
235.013591583894
 30
0
 11
326.0303257968422
 21
235.429591583894
 31
0
 12
326.0303257968422
 22
234.597591583894
 32
0
 13
326.0303257968422
 23
234.597591583894
 33
0
  0
SOLID
  8
1
 62
2
 10
332.3303257968422
 20
235.013591583894
 30
0
 11
329.1303257968422
 21
234.597591583894
 31
0
 12
329.1303257968422
 22
235.429591583894
 32
0
 13
329.1303257968422
 23
235.429591583894
 33
0
  0
TEXT
  8
1
 62
2
 10
335.437812303151
 20
237.013591583894
 30
0
 40
3.2
  1
9.5
 41
0.9
  0
ENDBLK
  8
0
  0
BLOCK
  8
1
  2
*D11
 70
1
 10
0
 20
0
 30
0
  0
LINE
  8
1
 62
2
 10
206.2930049996663
 20
204.5445241496977
 30
0
 11
237.2930049996663
 21
204.5445241496977
 31
0
  0
LINE
  8
1
 62
2
 10
221.7930049996663
 20
189.0445241496977
 30
0
 11
221.7930049996663
 21
220.0445241496977
 31
0
  0
LINE
  8
1
 62
2
 10
234.7257734520831
 20
199.18322765014
 30
0
 11
184.5105882352941
 21
220
 31
0
  0
LINE
  8
1
 62
2
 10
184.5105882352941
 20
220
 30
0
 11
150.6894117647059
 21
220
 31
0
  0
SOLID
  8
1
 62
2
 10
208.8602365472493
 20
209.9058206492555
 30
0
 11
211.9756050037886
 21
209.0646694262284
 31
0
 12
211.6569908118149
 22
208.2960934724847
 32
0
 13
211.6569908118149
 23
208.2960934724847
 33
0
  0
SOLID
  8
1
 62
2
 10
234.7257734520831
 20
199.18322765014
 30
0
 11
231.6104049955438
 21
200.0243788731671
 31
0
 12
231.9290191875175
 22
200.7929548269107
 32
0
 13
231.9290191875175
 23
200.7929548269107
 33
0
  0
TEXT
  8
1
 62
2
 10
154.5294117647059
 20
222
 30
0
 40
3.2
  1
28
 41
0.9
  0
TEXT
  8
1
 62
2
 10
150.6894117647059
 20
222
 30
0
 40
3.2
  1
%%c
 41
0.9
  0
TEXT
  8
1
 62
2
 10
160.9294117647059
 20
222
 30
0
 40
3.2
  1
(ïzì×ôÓîaüj
 41
0.9
  0
ENDBLK
  8
0
  0
BLOCK
  8
1
  2
*D12
 70
1
 10
0
 20
0
 30
0
  0
LINE
  8
1
 62
2
 10
237.643004999667
 20
221.7345241496979
 30
0
 11
244.143004999667
 21
221.7345241496979
 31
0
  0
LINE
  8
1
 62
2
 10
240.893004999667
 20
218.4845241496979
 30
0
 11
240.893004999667
 21
224.9845241496979
 31
0
  0
LINE
  8
1
 62
2
 10
241.6405335046355
 20
223.3168329483398
 30
0
 11
247.16
 21
235
 31
0
  0
LINE
  8
1
 62
2
 10
247.16
 20
235
 30
0
 11
267.64
 21
235
 31
0
  0
SOLID
  8
1
 62
2
 10
241.6405335046355
 20
223.3168329483398
 30
0
 11
242.6313053650149
 21
226.3878958133232
 31
0
 12
243.3835801767121
 22
226.032499404104
 32
0
 13
243.3835801767121
 23
226.032499404104
 33
0
  0
TEXT
  8
1
 62
2
 10
261.64
 20
237
 30
0
 40
3.2
  1
3.5
 41
0.9
  0
TEXT
  8
1
 62
2
 10
252.36
 20
237
 30
0
 40
3.2
  1
2-%%c
 41
0.9
  0
ENDBLK
  8
0
  0
ENDSEC
  0
SECTION
  2
ENTITIES
  0
POLYLINE
  8
1
 62
2
 66
1
  0
VERTEX
  8
1
 10
196.2444860742753
 20
230.4479281126505
 30
0
  0
VERTEX
  8
1
 10
196.2499806401362
 20
230.5143883233999
 30
0
 42
-0.01815519559526038
  0
VERTEX
  8
1
 10
196.2662685919307
 20
230.6408714740431
 30
0
 42
-0.02813678062025435
  0
VERTEX
  8
1
 10
196.2918607116563
 20
230.7564418070774
 30
0
 42
-0.041704514436611
  0
VERTEX
  8
1
 10
196.3294438887147
 20
230.858303574741
 30
0
 42
-0.05832228201479123
  0
VERTEX
  8
1
 10
196.3817050125069
 20
230.9436610292719
 30
0
 42
-0.07246175822406484
  0
VERTEX
  8
1
 10
196.4513309724345
 20
231.0097184229084
 30
0
 42
-0.07437467866154426
  0
VERTEX
  8
1
 10
196.5410086578987
 20
231.0536800078887
 30
0
 42
-0.06278101764226364
  0
VERTEX
  8
1
 10
196.6534249583008
 20
231.0727500364509
 30
0
 42
-0.04700352382430497
  0
VERTEX
  8
1
 10
196.7912667630423
 20
231.0641327608333
 30
0
 42
-0.03377982334446916
  0
VERTEX
  8
1
 10
196.9572209615244
 20
231.0250324332738
 30
0
 42
-0.02434008136131077
  0
VERTEX
  8
1
 10
197.1539744431484
 20
230.9526533060108
 30
0
  0
SEQEND
  8
1
  0
POLYLINE
  8
1
 62
2
 66
1
  0
VERTEX
  8
1
 10
195.9184442041664
 20
230.7739699826776
 30
0
  0
VERTEX
  8
1
 10
195.923938770026
 20
230.8404301934326
 30
0
 42
-0.01815519559206733
  0
VERTEX
  8
1
 10
195.9402267218173
 20
230.9669133440875
 30
0
 42
-0.02813678061335708
  0
VERTEX
  8
1
 10
195.9658188415396
 20
231.0824836771337
 30
0
 42
-0.04170451443467852
  0
VERTEX
  8
1
 10
196.0034020185946
 20
231.1843454448089
 30
0
 42
-0.05832228201410902
  0
VERTEX
  8
1
 10
196.055663142384
 20
231.2697028993507
 30
0
 42
-0.07246175822478246
  0
VERTEX
  8
1
 10
196.1252891023096
 20
231.3357602929971
 30
0
 42
-0.07437467866681975
  0
VERTEX
  8
1
 10
196.2149667877733
 20
231.3797218779857
 30
0
 42
-0.06278101764841015
  0
VERTEX
  8
1
 10
196.3273830881767
 20
231.398791906554
 30
0
 42
-0.04700352382898544
  0
VERTEX
  8
1
 10
196.4652248929217
 20
231.39017463094
 30
0
 42
-0.03377982334750525
  0
VERTEX
  8
1
 10
196.6311790914101
 20
231.3510743033812
 30
0
 42
-0.0243400813625689
  0
VERTEX
  8
1
 10
196.8279325730436
 20
231.2786951761154
 30
0
  0
SEQEND
  8
1
  0
POLYLINE
  8
1
 62
2
 66
1
  0
VERTEX
  8
1
 10
195.0601656200765
 20
229.5109282231491
 30
0
 42
0.03691326604209759
  0
VERTEX
  8
1
 10
195.2503713716619
 20
229.4790776068569
 30
0
 42
0.04932267511626814
  0
VERTEX
  8
1
 10
195.409069520682
 20
229.4787064307403
 30
0
 42
0.0623806092850011
  0
VERTEX
  8
1
 10
195.5391892873181
 20
229.5067667983128
 30
0
 42
0.07002888390397606
  0
VERTEX
  8
1
 10
195.643659891752
 20
229.5602108130875
 30
0
 42
0.06660625984422997
  0
VERTEX
  8
1
 10
195.7254105541649
 20
229.635990578578
 30
0
 42
0.05447152801370192
  0
VERTEX
  8
1
 10
195.7873704947383
 20
229.7310581982977
 30
0
 42
0.04049022551713039
  0
VERTEX
  8
1
 10
195.832468933654
 20
229.8423657757598
 30
0
 42
0.02859690748540848
  0
VERTEX
  8
1
 10
195.8636350910932
 20
229.9668654144778
 30
0
 42
0.01940672478709248
  0
VERTEX
  8
1
 10
195.8837981872375
 20
230.101509217965
 30
0
  0
SEQEND
  8
1
  0
POLYLINE
  8
1
 62
2
 66
1
  0
VERTEX
  8
1
 10
195.3862074901822
 20
229.1848863530443
 30
0
 42
0.03691326605194002
  0
VERTEX
  8
1
 10
195.5764132418074
 20
229.1530357367488
 30
0
 42
0.04932267513341006
  0
VERTEX
  8
1
 10
195.7351113908535
 20
229.1526645606429
 30
0
 42
0.06238060930697989
  0
VERTEX
  8
1
 10
195.8652311575038
 20
229.1807249282378
 30
0
 42
0.0700288839239985
  0
VERTEX
  8
1
 10
195.9697017619419
 20
229.2341689430447
 30
0
 42
0.06660625985031689
  0
VERTEX
  8
1
 10
196.0514524243513
 20
229.3099487085749
 30
0
 42
0.0544715280093376
  0
VERTEX
  8
1
 10
196.1134123649157
 20
229.4050163283396
 30
0
 42
0.04049022550574351
  0
VERTEX
  8
1
 10
196.1585108038184
 20
229.51632390585
 30
0
 42
0.02859690747393005
  0
VERTEX
  8
1
 10
196.1896769612431
 20
229.6408235446174
 30
0
 42
0.01940672477550472
  0
VERTEX
  8
1
 10
196.2098400573732
 20
229.7754673481531
 30
0
  0
SEQEND
  8
1
  0
POLYLINE
  8
1
 62
2
 66
1
  0
VERTEX
  8
1
 10
196.2444860742753
 20
230.4479281126505
 30
0
  0
VERTEX
  8
1
 10
196.2499806401362
 20
230.5143883233999
 30
0
 42
-0.01815519559592984
  0
VERTEX
  8
1
 10
196.2662685919307
 20
230.6408714740431
 30
0
 42
-0.02813678061974647
  0
VERTEX
  8
1
 10
196.2918607116563
 20
230.7564418070774
 30
0
 42
-0.04170451443727874
  0
VERTEX
  8
1
 10
196.3294438887147
 20
230.858303574741
 30
0
 42
-0.05832228201595437
  0
VERTEX
  8
1
 10
196.3817050125069
 20
230.9436610292719
 30
0
 42
-0.07246175822406484
  0
VERTEX
  8
1
 10
196.4513309724345
 20
231.0097184229084
 30
0
 42
-0.07437467866127941
  0
VERTEX
  8
1
 10
196.5410086578987
 20
231.0536800078887
 30
0
 42
-0.06278101764226364
  0
VERTEX
  8
1
 10
196.6534249583008
 20
231.0727500364509
 30
0
 42
-0.04700352382430497
  0
VERTEX
  8
1
 10
196.7912667630423
 20
231.0641327608333
 30
0
 42
-0.03377982334419557
  0
VERTEX
  8
1
 10
196.9572209615244
 20
231.0250324332738
 30
0
 42
-0.02434008136128267
  0
VERTEX
  8
1
 10
197.1539744431484
 20
230.9526533060108
 30
0
  0
SEQEND
  8
1
  0
POLYLINE
  8
1
 62
2
 66
1
  0
VERTEX
  8
1
 10
195.3862074901822
 20
229.1848863530443
 30
0
 42
0.03691326605183195
  0
VERTEX
  8
1
 10
195.5764132418074
 20
229.1530357367488
 30
0
 42
0.04932267513331257
  0
VERTEX
  8
1
 10
195.7351113908535
 20
229.1526645606429
 30
0
 42
0.06238060930697989
  0
VERTEX
  8
1
 10
195.8652311575038
 20
229.1807249282378
 30
0
 42
0.07002888392332331
  0
VERTEX
  8
1
 10
195.9697017619419
 20
229.2341689430447
 30
0
 42
0.06660625985031689
  0
VERTEX
  8
1
 10
196.0514524243513
 20
229.3099487085749
 30
0
 42
0.05447152800894787
  0
VERTEX
  8
1
 10
196.1134123649157
 20
229.4050163283396
 30
0
 42
0.04049022550645189
  0
VERTEX
  8
1
 10
196.1585108038184
 20
229.51632390585
 30
0
 42
0.02859690747437384
  0
VERTEX
  8
1
 10
196.1896769612431
 20
229.6408235446174
 30
0
 42
0.01940672477552537
  0
VERTEX
  8
1
 10
196.2098400573732
 20
229.7754673481531
 30
0
  0
SEQEND
  8
1
  0
POLYLINE
  8
0
 62
2
 66
1
  0
VERTEX
  8
0
 10
223.6089445144803
 20
216.1949592743266
 30
0
  0
VERTEX
  8
0
 10
223.5734945754393
 20
216.1116691582126
 30
0
  0
VERTEX
  8
0
 10
223.5754125719782
 20
216.0069102225165
 30
0
  0
VERTEX
  8
0
 10
223.6166712716981
 20
215.9179421093347
 30
0
  0
VERTEX
  8
0
 10
223.6740327075013
 20
215.859674986091
 30
0
  0
VERTEX
  8
0
 10
223.736653797856
 20
215.824291925231
 30
0
  0
VERTEX
  8
0
 10
223.810447169174
 20
215.8054344073507
 30
0
  0
VERTEX
  8
0
 10
223.876381709842
 20
215.8058506326062
 30
0
  0
VERTEX
  8
0
 10
223.937012382547
 20
215.8210865525775
 30
0
  0
VERTEX
  8
0
 10
224.0076151831622
 20
215.862466727812
 30
0
  0
VERTEX
  8
0
 10
224.0509861347264
 20
215.910190581398
 30
0
  0
SEQEND
  8
0
  0
POLYLINE
  8
0
 62
2
 66
1
  0
VERTEX
  8
0
 10
224.7431752628113
 20
218.2218604580723
 30
0
  0
VERTEX
  8
0
 10
224.7453882325563
 20
218.1826866857052
 30
0
  0
VERTEX
  8
0
 10
224.7428119443393
 20
217.9848188911212
 30
0
  0
VERTEX
  8
0
 10
224.7357474696464
 20
217.8780194111457
 30
0
  0
VERTEX
  8
0
 10
224.7331461672534
 20
217.8613171632595
 30
0
  0
SEQEND
  8
0
  0
POLYLINE
  8
0
 62
2
 66
1
  0
VERTEX
  8
0
 10
224.1760696684373
 20
218.313857673154
 30
0
  0
VERTEX
  8
0
 10
224.1624066923773
 20
217.6303711702071
 30
0
  0
VERTEX
  8
0
 10
223.9707789003442
 20
216.8842064111369
 30
0
  0
VERTEX
  8
0
 10
223.6273454598022
 20
216.2213855123877
 30
0
  0
SEQEND
  8
0
  0
POLYLINE
  8
0
 62
2
 66
1
  0
VERTEX
  8
0
 10
225.5518096890073
 20
215.720465372791
 30
0
  0
VERTEX
  8
0
 10
225.502793208143
 20
215.6443646091677
 30
0
  0
VERTEX
  8
0
 10
225.4869787813991
 20
215.5407884670037
 30
0
  0
VERTEX
  8
0
 10
225.5126078816461
 20
215.4461272041435
 30
0
  0
VERTEX
  8
0
 10
225.559296717161
 20
215.3790038504818
 30
0
  0
VERTEX
  8
0
 10
225.6150370794012
 20
215.3335464641684
 30
0
  0
VERTEX
  8
0
 10
225.684581917757
 20
215.3024887261781
 30
0
  0
VERTEX
  8
0
 10
225.7496383418634
 20
215.2917556660734
 30
0
  0
VERTEX
  8
0
 10
225.8119718030102
 20
215.2965255037486
 30
0
  0
VERTEX
  8
0
 10
225.8885524662724
 20
215.3253781703731
 30
0
  0
VERTEX
  8
0
 10
225.9393651238902
 20
215.3650855936899
 30
0
  0
SEQEND
  8
0
  0
POLYLINE
  8
0
 62
2
 66
1
  0
VERTEX
  8
0
 10
227.0122820426923
 20
217.5265186121084
 30
0
  0
VERTEX
  8
0
 10
227.0078425973252
 20
217.4875343460337
 30
0
  0
VERTEX
  8
0
 10
226.9718626291842
 20
217.2929482640877
 30
0
  0
VERTEX
  8
0
 10
226.9468500798971
 20
217.188879017411
 30
0
  0
VERTEX
  8
0
 10
226.9414634256973
 20
217.172856663803
 30
0
  0
SEQEND
  8
0
  0
POLYLINE
  8
0
 62
2
 66
1
  0
VERTEX
  8
0
 10
226.4688822306644
 20
217.7130364049356
 30
0
  0
VERTEX
  8
0
 10
226.3399028375902
 20
217.0416908956875
 30
0
  0
VERTEX
  8
0
 10
226.0249256641791
 20
216.3386457772301
 30
0
  0
VERTEX
  8
0
 10
225.5744121175853
 20
215.743401612003
 30
0
  0
SEQEND
  8
0
  0
POLYLINE
  8
0
 62
2
 66
1
  0
VERTEX
  8
0
 10
227.386534903178
 20
214.9244421712028
 30
0
  0
VERTEX
  8
0
 10
227.325362073555
 20
214.8577201618193
 30
0
  0
VERTEX
  8
0
 10
227.2922702010073
 20
214.7583066753592
 30
0
  0
VERTEX
  8
0
 10
227.3015323583672
 20
214.6606756459332
 30
0
  0
VERTEX
  8
0
 10
227.33620536636
 20
214.5866271855493
 30
0
  0
VERTEX
  8
0
 10
227.383461362876
 20
214.5324032725002
 30
0
  0
VERTEX
  8
0
 10
227.4467568790083
 20
214.4900388384942
 30
0
  0
VERTEX
  8
0
 10
227.5090635279503
 20
214.46846528074
 30
0
  0
VERTEX
  8
0
 10
227.5713064579682
 20
214.4626318089684
 30
0
  0
VERTEX
  8
0
 10
227.6516617755242
 20
214.4781268822928
 30
0
  0
VERTEX
  8
0
 10
227.7084542705352
 20
214.5086755017566
 30
0
  0
SEQEND
  8
0
  0
POLYLINE
  8
0
 62
2
 66
1
  0
VERTEX
  8
0
 10
229.1312314030852
 20
216.4576877230772
 30
0
  0
VERTEX
  8
0
 10
229.1202672644422
 20
216.4200145318084
 30
0
  0
VERTEX
  8
0
 10
229.0519187519203
 20
216.234308360046
 30
0
  0
VERTEX
  8
0
 10
229.0096777334234
 20
216.1359633953454
 30
0
  0
VERTEX
  8
0
 10
229.0016607002381
 20
216.1210818955041
 30
0
  0
SEQEND
  8
0
  0
POLYLINE
  8
0
 62
2
 66
1
  0
VERTEX
  8
0
 10
228.627170863032
 20
216.7333600189563
 30
0
  0
VERTEX
  8
0
 10
228.3865857608971
 20
216.0934699617935
 30
0
  0
VERTEX
  8
0
 10
227.9573210281101
 20
215.4537709329188
 30
0
  0
VERTEX
  8
0
 10
227.4126885482574
 20
214.943228541153
 30
0
  0
SEQEND
  8
0
  0
POLYLINE
  8
0
 62
2
 66
1
  0
VERTEX
  8
0
 10
229.0603355277513
 20
213.8297910769441
 30
0
  0
VERTEX
  8
0
 10
228.9887662778342
 20
213.7743673989122
 30
0
  0
VERTEX
  8
0
 10
228.9393490051671
 20
213.6819766716661
 30
0
  0
VERTEX
  8
0
 10
228.9319777494684
 20
213.5841846982983
 30
0
  0
VERTEX
  8
0
 10
228.9536373953461
 20
213.5053414886415
 30
0
  0
VERTEX
  8
0
 10
228.9910494818114
 20
213.4439110585655
 30
0
  0
VERTEX
  8
0
 10
229.0462746780431
 20
213.3914587437234
 30
0
  0
VERTEX
  8
0
 10
229.104039003631
 20
213.3596653546944
 30
0
  0
VERTEX
  8
0
 10
229.1644006875072
 20
213.3433964011391
 30
0
  0
VERTEX
  8
0
 10
229.2462188550553
 20
213.3450880914105
 30
0
  0
VERTEX
  8
0
 10
229.3073572802282
 20
213.3655990301517
 30
0
  0
SEQEND
  8
0
  0
POLYLINE
  8
0
 62
2
 66
1
  0
VERTEX
  8
0
 10
231.0390616503732
 20
215.046117813797
 30
0
  0
VERTEX
  8
0
 10
231.0218882542431
 20
215.0108395465218
 30
0
  0
VERTEX
  8
0
 10
230.9231375685804
 20
214.8393560094829
 30
0
  0
VERTEX
  8
0
 10
230.864883345414
 20
214.7495646891388
 30
0
  0
VERTEX
  8
0
 10
230.8544665814761
 20
214.7362521804469
 30
0
  0
SEQEND
  8
0
  0
POLYLINE
  8
0
 62
2
 66
1
  0
VERTEX
  8
0
 10
230.5888420899723
 20
215.4030135831557
 30
0
  0
VERTEX
  8
0
 10
230.2435728577243
 20
214.8129884702256
 30
0
  0
VERTEX
  8
0
 10
229.7123704147903
 20
214.255039527241
 30
0
  0
VERTEX
  8
0
 10
229.0892879548801
 20
213.8438870980206
 30
0
  0
SEQEND
  8
0
  0
POLYLINE
  8
0
 62
2
 66
1
  0
VERTEX
  8
0
 10
230.525056697511
 20
212.4680049542947
 30
0
  0
VERTEX
  8
0
 10
230.445150058425
 20
212.4254741342899
 30
0
  0
VERTEX
  8
0
 10
230.3808291093924
 20
212.3427642265741
 30
0
  0
VERTEX
  8
0
 10
230.3570365099922
 20
212.2476247622096
 30
0
  0
VERTEX
  8
0
 10
230.3650596506441
 20
212.1662551045808
 30
0
  0
VERTEX
  8
0
 10
230.3915514897972
 20
212.0993854970503
 30
0
  0
VERTEX
  8
0
 10
230.437117549729
 20
212.0383543426012
 30
0
  0
VERTEX
  8
0
 10
230.4886776853873
 20
211.9972558109054
 30
0
  0
VERTEX
  8
0
 10
230.5454215311352
 20
211.9710194296786
 30
0
  0
VERTEX
  8
0
 10
230.6263486585081
 20
211.9588590673504
 30
0
  0
VERTEX
  8
0
 10
230.6900740751862
 20
211.9687422303035
 30
0
  0
SEQEND
  8
0
  0
POLYLINE
  8
0
 62
2
 66
1
  0
VERTEX
  8
0
 10
232.6808849400541
 20
213.3324194311419
 30
0
  0
VERTEX
  8
0
 10
232.657996361158
 20
213.3005510356272
 30
0
  0
VERTEX
  8
0
 10
232.5316845372331
 20
213.1482236758677
 30
0
  0
VERTEX
  8
0
 10
232.4590930702193
 20
213.0695692758488
 30
0
  0
VERTEX
  8
0
 10
232.4465762634682
 20
213.0582087561691
 30
0
  0
SEQEND
  8
0
  0
POLYLINE
  8
0
 62
2
 66
1
  0
VERTEX
  8
0
 10
232.297459074181
 20
213.7602708634556
 30
0
  0
VERTEX
  8
0
 10
231.8574390295021
 20
213.2370855837442
 30
0
  0
VERTEX
  8
0
 10
231.2395814505003
 20
212.7769387914846
 30
0
  0
VERTEX
  8
0
 10
230.5559749519121
 20
212.4770050871604
 30
0
  0
SEQEND
  8
0
  0
POLYLINE
  8
0
 62
2
 66
1
  0
VERTEX
  8
0
 10
231.7385587158474
 20
210.8782620818532
 30
0
  0
VERTEX
  8
0
 10
231.6526135835161
 20
210.8498477219429
 30
0
  0
VERTEX
  8
0
 10
231.575239457266
 20
210.7791981790862
 30
0
  0
VERTEX
  8
0
 10
231.5357100218671
 20
210.6894483645862
 30
0
  0
VERTEX
  8
0
 10
231.5298658333513
 20
210.6078932456233
 30
0
  0
VERTEX
  8
0
 10
231.5446752609742
 20
210.5375082841151
 30
0
  0
VERTEX
  8
0
 10
231.5792712593734
 20
210.4696541425623
 30
0
  0
VERTEX
  8
0
 10
231.6231438316663
 20
210.4204328636567
 30
0
  0
VERTEX
  8
0
 10
231.6746373316832
 20
210.3849838695093
 30
0
  0
VERTEX
  8
0
 10
231.7523451637412
 20
210.3593213054544
 30
0
  0
VERTEX
  8
0
 10
231.8168242061051
 20
210.3582923562569
 30
0
  0
SEQEND
  8
0
  0
POLYLINE
  8
0
 62
2
 66
1
  0
VERTEX
  8
0
 10
234.0094663876021
 20
211.365895289799
 30
0
  0
VERTEX
  8
0
 10
233.9815211251753
 20
211.3383536125721
 30
0
  0
VERTEX
  8
0
 10
233.8312821255813
 20
211.2095648537637
 30
0
  0
VERTEX
  8
0
 10
233.746441854797
 20
211.1443102433597
 30
0
  0
VERTEX
  8
0
 10
233.7321851109332
 20
211.1352285522723
 30
0
  0
SEQEND
  8
0
  0
POLYLINE
  8
0
 62
2
 66
1
  0
VERTEX
  8
0
 10
233.703865291654
 20
211.8523931961756
 30
0
  0
VERTEX
  8
0
 10
233.1817537116622
 20
211.4110996717918
 30
0
  0
VERTEX
  8
0
 10
232.495016619328
 20
211.0619933493466
 30
0
  0
VERTEX
  8
0
 10
231.770553286337
 20
210.8819073947224
 30
0
  0
SEQEND
  8
0
  0
POLYLINE
  8
0
 62
2
 66
1
  0
VERTEX
  8
0
 10
232.6659294042861
 20
209.1062990023264
 30
0
  0
VERTEX
  8
0
 10
232.5764184007212
 20
209.0928185772156
 30
0
  0
VERTEX
  8
0
 10
232.488217133357
 20
209.0362619705795
 30
0
  0
VERTEX
  8
0
 10
232.4340881148701
 20
208.9544838877985
 30
0
  0
VERTEX
  8
0
 10
232.414544733168
 20
208.8750896298187
 30
0
  0
VERTEX
  8
0
 10
232.4172456853803
 20
208.8032142737487
 30
0
  0
VERTEX
  8
0
 10
232.4398763032
 20
208.7304892933901
 30
0
  0
VERTEX
  8
0
 10
232.474799108149
 20
208.674561352331
 30
0
  0
VERTEX
  8
0
 10
232.5195608060931
 20
208.630919604803
 30
0
  0
VERTEX
  8
0
 10
232.5918137060903
 20
208.5924931451818
 30
0
  0
VERTEX
  8
0
 10
232.6551913266831
 20
208.5805816864697
 30
0
  0
SEQEND
  8
0
  0
POLYLINE
  8
0
 62
2
 66
1
  0
VERTEX
  8
0
 10
234.9865830054073
 20
209.2031218443217
 30
0
  0
VERTEX
  8
0
 10
234.9543850383261
 20
209.1806992532045
 30
0
  0
VERTEX
  8
0
 10
234.7845412050851
 20
209.0791543187947
 30
0
  0
VERTEX
  8
0
 10
234.6898929659242
 20
209.0291768583813
 30
0
  0
VERTEX
  8
0
 10
234.6743064482403
 20
209.0226352740842
 30
0
  0
SEQEND
  8
0
  0
POLYLINE
  8
0
 62
2
 66
1
  0
VERTEX
  8
0
 10
234.7675987537632
 20
209.7342697900816
 30
0
  0
VERTEX
  8
0
 10
234.1784166704674
 20
209.3875639358644
 30
0
  0
VERTEX
  8
0
 10
233.442557335552
 20
209.159541793133
 30
0
  0
VERTEX
  8
0
 10
232.698079814314
 20
209.1044846203729
 30
0
  0
SEQEND
  8
0
  0
POLYLINE
  8
0
 62
2
 66
1
  0
VERTEX
  8
0
 10
233.2804885179721
 20
207.2030946925456
 30
0
  0
VERTEX
  8
0
 10
233.1899868544901
 20
207.2049360310145
 30
0
  0
VERTEX
  8
0
 10
233.0934959765164
 20
207.164099481374
 30
0
  0
VERTEX
  8
0
 10
233.0263246545542
 20
207.0926458672482
 30
0
  0
VERTEX
  8
0
 10
232.9936443383363
 20
207.0176966250882
 30
0
  0
VERTEX
  8
0
 10
232.9841591093523
 20
206.946398712186
 30
0
  0
VERTEX
  8
0
 10
232.9941732688403
 20
206.8708951742503
 30
0
  0
VERTEX
  8
0
 10
233.0191415852501
 20
206.8098696052463
 30
0
  0
VERTEX
  8
0
 10
233.0558836971991
 20
206.7592906675391
 30
0
  0
VERTEX
  8
0
 10
233.1206029655523
 20
206.7092058328996
 30
0
  0
VERTEX
  8
0
 10
233.1810558045713
 20
206.6867545546447
 30
0
  0
SEQEND
  8
0
  0
POLYLINE
  8
0
 62
2
 66
1
  0
VERTEX
  8
0
 10
235.5841233694823
 20
206.9063215973358
 30
0
  0
VERTEX
  8
0
 10
235.5485990259731
 20
206.8896631852006
 30
0
  0
VERTEX
  8
0
 10
235.364036727733
 20
206.8182834999747
 30
0
  0
VERTEX
  8
0
 10
235.2623035286192
 20
206.7850210297788
 30
0
  0
VERTEX
  8
0
 10
235.2458356577022
 20
206.7812077521716
 30
0
  0
SEQEND
  8
0
  0
POLYLINE
  8
0
 62
2
 66
1
  0
VERTEX
  8
0
 10
235.4580560895074
 20
207.4668385762695
 30
0
  0
VERTEX
  8
0
 10
234.8187541381221
 20
207.224695041191
 30
0
  0
VERTEX
  8
0
 10
234.0549430671772
 20
207.1243172236223
 30
0
  0
VERTEX
  8
0
 10
233.311869807515
 20
207.1958728151274
 30
0
  0
SEQEND
  8
0
  0
POLYLINE
  8
0
 62
2
 66
1
  0
VERTEX
  8
0
 10
233.5645553302693
 20
205.2234039098386
 30
0
  0
VERTEX
  8
0
 10
233.4756667192501
 20
205.2405140369962
 30
0
  0
VERTEX
  8
0
 10
233.3736622513902
 20
205.2165724026435
 30
0
  0
VERTEX
  8
0
 10
233.2953811296861
 20
205.1574989614828
 30
0
  0
VERTEX
  8
0
 10
233.2505040842543
 20
205.0891510078798
 30
0
  0
VERTEX
  8
0
 10
233.2291055619662
 20
205.0204817629665
 30
0
  0
VERTEX
  8
0
 10
233.2262151580203
 20
204.9443718871547
 30
0
  0
VERTEX
  8
0
 10
233.2405106530782
 20
204.8800043820168
 30
0
  0
VERTEX
  8
0
 10
233.268176116786
 20
204.8239433987225
 30
0
  0
VERTEX
  8
0
 10
233.3234997947893
 20
204.7636411184245
 30
0
  0
VERTEX
  8
0
 10
233.3792886377341
 20
204.7312959388211
 30
0
  0
SEQEND
  8
0
  0
POLYLINE
  8
0
 62
2
 66
1
  0
VERTEX
  8
0
 10
235.7848963787642
 20
204.5415729722179
 30
0
  0
VERTEX
  8
0
 10
235.7470676861531
 20
204.5311579978124
 30
0
  0
VERTEX
  8
0
 10
235.5530967384721
 20
204.4919971391626
 30
0
  0
VERTEX
  8
0
 10
235.4472054205212
 20
204.4764066129246
 30
0
  0
VERTEX
  8
0
 10
235.4303299732933
 20
204.4754313491415
 30
0
  0
SEQEND
  8
0
  0
POLYLINE
  8
0
 62
2
 66
1
  0
VERTEX
  8
0
 10
235.7553729975793
 20
205.1153330376778
 30
0
  0
VERTEX
  8
0
 10
235.0843437505823
 20
204.9847182364485
 30
0
  0
VERTEX
  8
0
 10
234.3145556152804
 20
205.0148725911402
 30
0
  0
VERTEX
  8
0
 10
233.5942646667281
 20
205.2109823087351
 30
0
  0
SEQEND
  8
0
  0
POLYLINE
  8
0
 62
2
 66
1
  0
VERTEX
  8
0
 10
233.5099573032671
 20
203.2241819100523
 30
0
  0
VERTEX
  8
0
 10
233.425239049935
 20
203.2560685714118
 30
0
  0
VERTEX
  8
0
 10
233.3206556376481
 20
203.24971064775
 30
0
  0
VERTEX
  8
0
 10
233.2335168463601
 20
203.2047169090885
 30
0
  0
VERTEX
  8
0
 10
233.1777341741563
 20
203.1449365992019
 30
0
  0
VERTEX
  8
0
 10
233.1450379892081
 20
203.0808716209147
 30
0
  0
VERTEX
  8
0
 10
233.1293261780952
 20
203.0063450711314
 30
0
  0
VERTEX
  8
0
 10
233.1325375736433
 20
202.940487468417
 30
0
  0
VERTEX
  8
0
 10
233.1503304599792
 20
202.8805573013398
 30
0
  0
VERTEX
  8
0
 10
233.1946668979354
 20
202.8117724583415
 30
0
  0
VERTEX
  8
0
 10
233.2441867124194
 20
202.7704639408884
 30
0
  0
SEQEND
  8
0
  0
POLYLINE
  8
0
 62
2
 66
1
  0
VERTEX
  8
0
 10
235.58312583921
 20
202.1769092518084
 30
0
  0
VERTEX
  8
0
 10
235.5440811204212
 20
202.1730373515895
 30
0
  0
VERTEX
  8
0
 10
235.3462820235723
 20
202.1672219685572
 30
0
  0
VERTEX
  8
0
 10
235.2392790560411
 20
202.1697519221896
 30
0
  0
VERTEX
  8
0
 10
235.2224815352984
 20
202.1716427303488
 30
0
  0
SEQEND
  8
0
  0
POLYLINE
  8
0
 62
2
 66
1
  0
VERTEX
  8
0
 10
235.650995737808
 20
202.7474054565436
 30
0
  0
VERTEX
  8
0
 10
234.9675445547932
 20
202.7320771474392
 30
0
  0
VERTEX
  8
0
 10
234.2139259855971
 20
202.8918961404299
 30
0
  0
VERTEX
  8
0
 10
233.5371399557553
 20
203.206917951916
 30
0
  0
SEQEND
  8
0
  0
POLYLINE
  8
0
 62
2
 66
1
  0
VERTEX
  8
0
 10
233.1182652098482
 20
201.2629458577283
 30
0
  0
VERTEX
  8
0
 10
233.0401546391813
 20
201.3086916812574
 30
0
  0
VERTEX
  8
0
 10
232.9360011235731
 20
201.3201003843116
 30
0
  0
VERTEX
  8
0
 10
232.8425116260091
 20
201.2904808078301
 30
0
  0
VERTEX
  8
0
 10
232.7774281818893
 20
201.2409880076472
 30
0
  0
VERTEX
  8
0
 10
232.7343749961242
 20
201.1833704309149
 30
0
  0
VERTEX
  8
0
 10
232.7062938030931
 20
201.1125713191331
 30
0
  0
VERTEX
  8
0
 10
232.6983287080084
 20
201.0471183271699
 30
0
  0
VERTEX
  8
0
 10
232.7057371196593
 20
200.9850431536555
 30
0
  0
VERTEX
  8
0
 10
232.7378107682812
 20
200.9097546723248
 30
0
  0
VERTEX
  8
0
 10
232.7796368804461
 20
200.8606712537217
 30
0
  0
SEQEND
  8
0
  0
POLYLINE
  8
0
 62
2
 66
1
  0
VERTEX
  8
0
 10
234.9846166435841
 20
199.8803612762582
 30
0
  0
VERTEX
  8
0
 10
234.9454792063434
 20
199.883143843919
 30
0
  0
VERTEX
  8
0
 10
234.7495425955822
 20
199.9108412437583
 30
0
  0
VERTEX
  8
0
 10
234.6445064296354
 20
199.9314188910672
 30
0
  0
VERTEX
  8
0
 10
234.6282700962483
 20
199.9361213730455
 30
0
  0
SEQEND
  8
0
  0
POLYLINE
  8
0
 62
2
 66
1
  0
VERTEX
  8
0
 10
235.1479272203424
 20
200.4311805735526
 30
0
  0
VERTEX
  8
0
 10
234.4717168371903
 20
200.531579748557
 30
0
  0
VERTEX
  8
0
 10
233.7559492698033
 20
200.8164654235831
 30
0
  0
VERTEX
  8
0
 10
233.1421391396043
 20
201.2413362227284
 30
0
  0
SEQEND
  8
0
  0
POLYLINE
  8
0
 62
2
 66
1
  0
VERTEX
  8
0
 10
232.400747942906
 20
199.3961200702959
 30
0
  0
VERTEX
  8
0
 10
232.331492278347
 20
199.4544089590038
 30
0
  0
VERTEX
  8
0
 10
232.2307651324932
 20
199.4832560629685
 30
0
  0
VERTEX
  8
0
 10
232.1336146003432
 20
199.4698627971795
 30
0
  0
VERTEX
  8
0
 10
232.061102820267
 20
199.4320814033628
 30
0
  0
VERTEX
  8
0
 10
232.0089312640962
 20
199.3825688728293
 30
0
  0
VERTEX
  8
0
 10
231.969288578719
 20
199.3175340734748
 30
0
  0
VERTEX
  8
0
 10
231.9503761469832
 20
199.2543687600307
 30
0
  0
VERTEX
  8
0
 10
231.9471869456211
 20
199.1919344687738
 30
0
  0
VERTEX
  8
0
 10
231.9660750532962
 20
199.1123083816826
 30
0
  0
VERTEX
  8
0
 10
231.9990041353622
 20
199.0568621807756
 30
0
  0
SEQEND
  8
0
  0
POLYLINE
  8
0
 62
2
 66
1
  0
VERTEX
  8
0
 10
234.0065877660122
 20
197.7180002111516
 30
0
  0
VERTEX
  8
0
 10
233.9684835855323
 20
197.7273571928503
 30
0
  0
VERTEX
  8
0
 10
233.7800465128144
 20
197.7877705276354
 30
0
  0
VERTEX
  8
0
 10
233.6799990151762
 20
197.825803854364
 30
0
  0
VERTEX
  8
0
 10
233.6647909847834
 20
197.8331827208197
 30
0
  0
SEQEND
  8
0
  0
POLYLINE
  8
0
 62
2
 66
1
  0
VERTEX
  8
0
 10
234.260640612591
 20
198.2332956544639
 30
0
  0
VERTEX
  8
0
 10
233.6111254490093
 20
198.4465338520316
 30
0
  0
VERTEX
  8
0
 10
232.9538013543793
 20
198.8482901126874
 30
0
  0
VERTEX
  8
0
 10
232.420626302373
 20
199.3707864627415
 30
0
  0
SEQEND
  8
0
  0
POLYLINE
  8
0
 62
2
 66
1
  0
VERTEX
  8
0
 10
231.378048311848
 20
197.6774127032271
 30
0
  0
VERTEX
  8
0
 10
231.319640023195
 20
197.7465676989752
 30
0
  0
VERTEX
  8
0
 10
231.2252371442901
 20
197.7920232791968
 30
0
  0
VERTEX
  8
0
 10
231.127220576378
 20
197.7952416453267
 30
0
  0
VERTEX
  8
0
 10
231.0493666078523
 20
197.7702586200268
 30
0
  0
VERTEX
  8
0
 10
230.9895776451413
 20
197.7302755999921
 30
0
  0
VERTEX
  8
0
 10
230.9395139785042
 20
197.6728761495256
 30
0
  0
VERTEX
  8
0
 10
230.9101983164992
 20
197.6138157663751
 30
0
  0
VERTEX
  8
0
 10
230.8965032547271
 20
197.5528185778078
 30
0
  0
VERTEX
  8
0
 10
230.9016624148712
 20
197.4711457094633
 30
0
  0
VERTEX
  8
0
 10
230.924747104596
 20
197.4109319009057
 30
0
  0
SEQEND
  8
0
  0
POLYLINE
  8
0
 62
2
 66
1
  0
VERTEX
  8
0
 10
232.6771768759891
 20
195.7520366950245
 30
0
  0
VERTEX
  8
0
 10
232.6412022009213
 20
195.7676988925152
 30
0
  0
VERTEX
  8
0
 10
232.4656859581874
 20
195.8590900842746
 30
0
  0
VERTEX
  8
0
 10
232.3735054727263
 20
195.9134848802196
 30
0
  0
VERTEX
  8
0
 10
232.3597632769202
 20
195.9233278428339
 30
0
  0
SEQEND
  8
0
  0
POLYLINE
  8
0
 62
2
 66
1
  0
VERTEX
  8
0
 10
233.0146629494811
 20
196.2169833510536
 30
0
  0
VERTEX
  8
0
 10
232.4105294097512
 20
196.5369257564926
 30
0
  0
VERTEX
  8
0
 10
231.830559853337
 20
197.0439941660703
 30
0
  0
VERTEX
  8
0
 10
231.3933592051221
 20
197.6490839652749
 30
0
  0
SEQEND
  8
0
  0
POLYLINE
  8
0
 62
2
 66
1
  0
VERTEX
  8
0
 10
230.07958915364
 20
196.1562705785564
 30
0
  0
VERTEX
  8
0
 10
230.0337086341401
 20
196.2343021077658
 30
0
  0
VERTEX
  8
0
 10
229.9483459716471
 20
196.2950584174876
 30
0
  0
VERTEX
  8
0
 10
229.8522832824542
 20
196.3147958238707
 30
0
  0
VERTEX
  8
0
 10
229.7713269665342
 20
196.3033299230725
 30
0
  0
VERTEX
  8
0
 10
229.7056407122122
 20
196.2740267159754
 30
0
  0
VERTEX
  8
0
 10
229.6465963846754
 20
196.2259139835982
 30
0
  0
VERTEX
  8
0
 10
229.6077208973643
 20
196.1726576846002
 30
0
  0
VERTEX
  8
0
 10
229.5839139790101
 20
196.1148524740348
 30
0
  0
VERTEX
  8
0
 10
229.5751957637522
 20
196.0334825343779
 30
0
  0
VERTEX
  8
0
 10
229.5877719198384
 20
195.9702334558169
 30
0
  0
SEQEND
  8
0
  0
POLYLINE
  8
0
 62
2
 66
1
  0
VERTEX
  8
0
 10
231.0346308239982
 20
194.0390310533705
 30
0
  0
VERTEX
  8
0
 10
231.0018206376012
 20
194.060547868775
 30
0
  0
VERTEX
  8
0
 10
230.8442747874392
 20
194.1802876136023
 30
0
  0
VERTEX
  8
0
 10
230.7626133258632
 20
194.2494789527929
 30
0
  0
VERTEX
  8
0
 10
230.7507323245072
 20
194.2615028317591
 30
0
  0
SEQEND
  8
0
  0
POLYLINE
  8
0
 62
2
 66
1
  0
VERTEX
  8
0
 10
231.4458407264351
 20
194.4402525120323
 30
0
  0
VERTEX
  8
0
 10
230.9044695957891
 20
194.8576944547359
 30
0
  0
VERTEX
  8
0
 10
230.4185401704931
 20
195.455486769833
 30
0
  0
VERTEX
  8
0
 10
230.0898920897871
 20
196.1257617215869
 30
0
  0
SEQEND
  8
0
  0
POLYLINE
  8
0
 62
2
 66
1
  0
VERTEX
  8
0
 10
228.5427268444423
 20
194.8764566110007
 30
0
  0
VERTEX
  8
0
 10
228.5106940662604
 20
194.9611197242336
 30
0
  0
VERTEX
  8
0
 10
228.4368274846643
 20
195.0354288181729
 30
0
  0
VERTEX
  8
0
 10
228.3454823760203
 20
195.0711174240939
 30
0
  0
VERTEX
  8
0
 10
228.2637528075961
 20
195.0734985191684
 30
0
  0
VERTEX
  8
0
 10
228.1940590403351
 20
195.0557181716466
 30
0
  0
VERTEX
  8
0
 10
228.1277327438411
 20
195.0182763497821
 30
0
  0
VERTEX
  8
0
 10
228.0804158701972
 20
194.9723563066074
 30
0
  0
VERTEX
  8
0
 10
228.0471820149141
 20
194.9194061168714
 30
0
  0
VERTEX
  8
0
 10
228.0248372453361
 20
194.8406801006539
 30
0
  0
VERTEX
  8
0
 10
228.026543054616
 20
194.7762154137669
 30
0
  0
SEQEND
  8
0
  0
POLYLINE
  8
0
 62
2
 66
1
  0
VERTEX
  8
0
 10
229.1262052882712
 20
192.628266070874
 30
0
  0
VERTEX
  8
0
 10
229.097503532184
 20
192.6550184702821
 30
0
  0
VERTEX
  8
0
 10
228.9624606330531
 20
192.7996618828137
 30
0
  0
VERTEX
  8
0
 10
228.8936675771333
 20
192.8816591460785
 30
0
  0
VERTEX
  8
0
 10
228.8839895839483
 20
192.8955180171192
 30
0
  0
SEQEND
  8
0
  0
POLYLINE
  8
0
 62
2
 66
1
  0
VERTEX
  8
0
 10
229.5993086038111
 20
192.9542192815923
 30
0
  0
VERTEX
  8
0
 10
229.1362750071753
 20
193.4571510513295
 30
0
  0
VERTEX
  8
0
 10
228.7583657926043
 20
194.1284689223116
 30
0
  0
VERTEX
  8
0
 10
228.5477254103203
 20
194.8446453679255
 30
0
  0
SEQEND
  8
0
  0
POLYLINE
  8
0
 62
2
 66
1
  0
VERTEX
  8
0
 10
226.811676565123
 20
193.8747907588057
 30
0
  0
VERTEX
  8
0
 10
226.794413104039
 20
193.9636497174517
 30
0
  0
VERTEX
  8
0
 10
226.7341677281761
 20
194.0493737397907
 30
0
  0
VERTEX
  8
0
 10
226.6501681781874
 20
194.0999867921335
 30
0
  0
VERTEX
  8
0
 10
226.5700166984502
 20
194.1161463795143
 30
0
  0
VERTEX
  8
0
 10
226.4983204921632
 20
194.1104004281422
 30
0
  0
VERTEX
  8
0
 10
226.4266204192541
 20
194.0847067095331
 30
0
  0
VERTEX
  8
0
 10
226.3722234550241
 20
194.0474440314331
 30
0
  0
VERTEX
  8
0
 10
226.3305187933092
 20
194.0008722275031
 30
0
  0
VERTEX
  8
0
 10
226.2951903233743
 20
193.9270550643968
 30
0
  0
VERTEX
  8
0
 10
226.2859767101022
 20
193.863229403639
 30
0
  0
SEQEND
  8
0
  0
POLYLINE
  8
0
 62
2
 66
1
  0
VERTEX
  8
0
 10
227.0068052396264
 20
191.5603291368477
 30
0
  0
VERTEX
  8
0
 10
226.9830376568771
 20
191.5915474597824
 30
0
  0
VERTEX
  8
0
 10
226.8743828624274
 20
191.7569331817704
 30
0
  0
VERTEX
  8
0
 10
226.8204373728154
 20
191.8493773263995
 30
0
  0
VERTEX
  8
0
 10
226.8132408214751
 20
191.864672472931
 30
0
  0
SEQEND
  8
0
  0
POLYLINE
  8
0
 62
2
 66
1
  0
VERTEX
  8
0
 10
227.5281908929374
 20
191.8016364995086
 30
0
  0
VERTEX
  8
0
 10
227.1568162021081
 20
192.3755888630693
 30
0
  0
VERTEX
  8
0
 10
226.8977995608511
 20
193.1011186266968
 30
0
  0
VERTEX
  8
0
 10
226.811226953123
 20
193.8425923318894
 30
0
  0
SEQEND
  8
0
  0
POLYLINE
  8
0
 62
2
 66
1
  0
VERTEX
  8
0
 10
224.9362402405113
 20
193.1800907218777
 30
0
  0
VERTEX
  8
0
 10
224.9342427623933
 20
193.2705890738046
 30
0
  0
VERTEX
  8
0
 10
224.8893518380951
 20
193.3652617638185
 30
0
  0
VERTEX
  8
0
 10
224.8151144948074
 20
193.4293431365197
 30
0
  0
VERTEX
  8
0
 10
224.7388470436904
 20
193.4588163085343
 30
0
  0
VERTEX
  8
0
 10
224.6672110820091
 20
193.465270063033
 30
0
  0
VERTEX
  8
0
 10
224.5922000275582
 20
193.4520636501493
 30
0
  0
VERTEX
  8
0
 10
224.532287961094
 20
193.4245303759411
 30
0
  0
VERTEX
  8
0
 10
224.4833123266271
 20
193.3856768180784
 30
0
  0
VERTEX
  8
0
 10
224.4360165484222
 20
193.3188922111619
 30
0
  0
VERTEX
  8
0
 10
224.4161485861682
 20
193.2575418263502
 30
0
  0
SEQEND
  8
0
  0
POLYLINE
  8
0
 62
2
 66
1
  0
VERTEX
  8
0
 10
224.7374053378762
 20
190.8659445552273
 30
0
  0
VERTEX
  8
0
 10
224.7192557164431
 20
190.9007306576015
 30
0
  0
VERTEX
  8
0
 10
224.640115000524
 20
191.0821005792485
 30
0
  0
VERTEX
  8
0
 10
224.6025690767483
 20
191.1823320081198
 30
0
  0
VERTEX
  8
0
 10
224.598061010407
 20
191.1986233922373
 30
0
  0
SEQEND
  8
0
  0
POLYLINE
  8
0
 62
2
 66
1
  0
VERTEX
  8
0
 10
225.2920731816944
 20
191.0156637116108
 30
0
  0
VERTEX
  8
0
 10
225.0230417624912
 20
191.6441241893712
 30
0
  0
VERTEX
  8
0
 10
224.8903695447052
 20
192.4029925185203
 30
0
  0
VERTEX
  8
0
 10
224.9303553858681
 20
193.1484314525769
 30
0
  0
SEQEND
  8
0
  0
POLYLINE
  8
0
 62
2
 66
1
  0
VERTEX
  8
0
 10
222.9703737492832
 20
192.81234286308
 30
0
  0
VERTEX
  8
0
 10
222.9836997211251
 20
192.9018769911806
 30
0
  0
VERTEX
  8
0
 10
222.9554547501261
 20
193.0027746370013
 30
0
  0
VERTEX
  8
0
 10
222.8931154051061
 20
193.0784807234683
 30
0
  0
VERTEX
  8
0
 10
222.8229261799202
 20
193.1204195436279
 30
0
  0
VERTEX
  8
0
 10
222.7534114132532
 20
193.1388873309401
 30
0
  0
VERTEX
  8
0
 10
222.6772474283221
 20
193.1385481692926
 30
0
  0
VERTEX
  8
0
 10
222.613543916219
 20
193.1215364250447
 30
0
  0
VERTEX
  8
0
 10
222.5587063269213
 20
193.0915189213167
 30
0
  0
VERTEX
  8
0
 10
222.500803929282
 20
193.0336882486192
 30
0
  0
VERTEX
  8
0
 10
222.4708532148234
 20
192.9765781764421
 30
0
  0
SEQEND
  8
0
  0
POLYLINE
  8
0
 62
2
 66
1
  0
VERTEX
  8
0
 10
222.383295704667
 20
190.5650896132975
 30
0
  0
VERTEX
  8
0
 10
222.3712862050511
 20
190.6024427068177
 30
0
  0
VERTEX
  8
0
 10
222.3239364281503
 20
190.7945788565187
 30
0
  0
VERTEX
  8
0
 10
222.3038702579433
 20
190.8997139341045
 30
0
  0
VERTEX
  8
0
 10
222.3021803726492
 20
190.9165328563735
 30
0
  0
SEQEND
  8
0
  0
POLYLINE
  8
0
 62
2
 66
1
  0
VERTEX
  8
0
 10
222.955288070636
 20
190.6189131771536
 30
0
  0
VERTEX
  8
0
 10
222.7963398961133
 20
191.2838011033794
 30
0
  0
VERTEX
  8
0
 10
222.7938290514821
 20
192.0541755279398
 30
0
  0
VERTEX
  8
0
 10
222.9592229579343
 20
192.7821335814085
 30
0
  0
SEQEND
  8
0
  0
POLYLINE
  8
0
 62
2
 66
1
  0
VERTEX
  8
0
 10
220.970634625548
 20
192.7821272050946
 30
0
  0
VERTEX
  8
0
 10
220.9989006621563
 20
192.8681212327637
 30
0
  0
VERTEX
  8
0
 10
220.9881142458803
 20
192.9723410319521
 30
0
  0
VERTEX
  8
0
 10
220.9394663879771
 20
193.0574937852092
 30
0
  0
VERTEX
  8
0
 10
220.8773747168502
 20
193.110691683147
 30
0
  0
VERTEX
  8
0
 10
220.811981069302
 20
193.1406421892115
 30
0
  0
VERTEX
  8
0
 10
220.7368553745041
 20
193.1531800364036
 30
0
  0
VERTEX
  8
0
 10
220.6711931523901
 20
193.1471792461487
 30
0
  0
VERTEX
  8
0
 10
220.6120712732973
 20
193.1268613933451
 30
0
  0
VERTEX
  8
0
 10
220.5452280951022
 20
193.0796484302338
 30
0
  0
VERTEX
  8
0
 10
220.5060563037164
 20
193.0284217145446
 30
0
  0
SEQEND
  8
0
  0
POLYLINE
  8
0
 62
2
 66
1
  0
VERTEX
  8
0
 10
220.0122035414483
 20
190.6664198396591
 30
0
  0
VERTEX
  8
0
 10
220.0066796742362
 20
190.7052652842771
 30
0
  0
VERTEX
  8
0
 10
219.9924830787213
 20
190.9026399484828
 30
0
  0
VERTEX
  8
0
 10
219.990473961258
 20
191.009653962391
 30
0
  0
VERTEX
  8
0
 10
219.9916508746292
 20
191.0265165462241
 30
0
  0
SEQEND
  8
0
  0
POLYLINE
  8
0
 62
2
 66
1
  0
VERTEX
  8
0
 10
220.585064338632
 20
190.622799319235
 30
0
  0
VERTEX
  8
0
 10
220.5407723118033
 20
191.3049860187423
 30
0
  0
VERTEX
  8
0
 10
220.668495076759
 20
192.0647030408429
 30
0
  0
VERTEX
  8
0
 10
220.9545387032372
 20
192.7542370252501
 30
0
  0
SEQEND
  8
0
  0
POLYLINE
  8
0
 62
2
 66
1
  0
VERTEX
  8
0
 10
218.9945549113882
 20
193.0903130455644
 30
0
  0
VERTEX
  8
0
 10
219.0369478052844
 20
193.1702929440855
 30
0
  0
VERTEX
  8
0
 10
219.0439302664863
 20
193.2748365166016
 30
0
  0
VERTEX
  8
0
 10
219.0103734835652
 20
193.366986111206
 30
0
  0
VERTEX
  8
0
 10
218.9581657298231
 20
193.4299125954369
 30
0
  0
VERTEX
  8
0
 10
218.8987745618383
 20
193.4704841509711
 30
0
  0
VERTEX
  8
0
 10
218.8268485064132
 20
193.4955382959764
 30
0
  0
VERTEX
  8
0
 10
218.7611166615593
 20
193.5007211010918
 30
0
  0
VERTEX
  8
0
 10
218.6994114157542
 20
193.4906874392405
 30
0
  0
VERTEX
  8
0
 10
218.6255505201134
 20
193.4554504919805
 30
0
  0
VERTEX
  8
0
 10
218.5782846153752
 20
193.4115809137978
 30
0
  0
SEQEND
  8
0
  0
POLYLINE
  8
0
 62
2
 66
1
  0
VERTEX
  8
0
 10
217.6923446332153
 20
191.1670199866289
 30
0
  0
VERTEX
  8
0
 10
217.6934653188164
 20
191.2062402076933
 30
0
  0
VERTEX
  8
0
 10
217.712830337528
 20
191.4031749619771
 30
0
  0
VERTEX
  8
0
 10
217.728936074664
 20
191.508989143243
 30
0
  0
VERTEX
  8
0
 10
217.7329459271682
 20
191.5254102559188
 30
0
  0
SEQEND
  8
0
  0
POLYLINE
  8
0
 62
2
 66
1
  0
VERTEX
  8
0
 10
218.2495927861091
 20
191.0272103344266
 30
0
  0
VERTEX
  8
0
 10
218.3212311785633
 20
191.7070694502384
 30
0
  0
VERTEX
  8
0
 10
218.5755129980603
 20
192.4342721830648
 30
0
  0
VERTEX
  8
0
 10
218.9739769341563
 20
193.06554436171
 30
0
  0
SEQEND
  8
0
  0
POLYLINE
  8
0
 62
2
 66
1
  0
VERTEX
  8
0
 10
217.098985973023
 20
193.7280339475967
 30
0
  0
VERTEX
  8
0
 10
217.1542860902432
 20
193.7996987133872
 30
0
  0
VERTEX
  8
0
 10
217.1788365450952
 20
193.9015583643065
 30
0
  0
VERTEX
  8
0
 10
217.161336258207
 20
193.9980536772736
 30
0
  0
VERTEX
  8
0
 10
217.1205144271112
 20
194.068898367085
 30
0
  0
VERTEX
  8
0
 10
217.0688344091532
 20
194.1189237376173
 30
0
  0
VERTEX
  8
0
 10
217.0021772894384
 20
194.1557733783532
 30
0
  0
VERTEX
  8
0
 10
216.9382669121483
 20
194.1719906707087
 30
0
  0
VERTEX
  8
0
 10
216.8757535455902
 20
194.1725298659906
 30
0
  0
VERTEX
  8
0
 10
216.7969998937583
 20
194.150282693581
 30
0
  0
VERTEX
  8
0
 10
216.7429997050513
 20
194.1150323707423
 30
0
  0
SEQEND
  8
0
  0
POLYLINE
  8
0
 62
2
 66
1
  0
VERTEX
  8
0
 10
215.4904607958124
 20
192.0524879012567
 30
0
  0
VERTEX
  8
0
 10
215.4981937923562
 20
192.0909545418822
 30
0
  0
VERTEX
  8
0
 10
215.5505632980871
 20
192.2817836179265
 30
0
  0
VERTEX
  8
0
 10
215.5843205314091
 20
192.3833537164994
 30
0
  0
VERTEX
  8
0
 10
215.5910479604981
 20
192.398860926322
 30
0
  0
SEQEND
  8
0
  0
POLYLINE
  8
0
 62
2
 66
1
  0
VERTEX
  8
0
 10
216.0160644011544
 20
191.8205114093335
 30
0
  0
VERTEX
  8
0
 10
216.2015721925482
 20
192.4784835485286
 30
0
  0
VERTEX
  8
0
 10
216.5750974361804
 20
193.1522505340121
 30
0
  0
VERTEX
  8
0
 10
217.0745179646201
 20
193.7070993491623
 30
0
  0
SEQEND
  8
0
  0
POLYLINE
  8
0
 62
2
 66
1
  0
VERTEX
  8
0
 10
215.3384628998742
 20
194.6769428251461
 30
0
  0
VERTEX
  8
0
 10
215.405079268558
 20
194.7382306791105
 30
0
  0
VERTEX
  8
0
 10
215.4464914060291
 20
194.8344759293257
 30
0
  0
VERTEX
  8
0
 10
215.4455510944681
 20
194.9325408123366
 30
0
  0
VERTEX
  8
0
 10
215.4172896208634
 20
195.0092655220337
 30
0
  0
VERTEX
  8
0
 10
215.3748075753533
 20
195.0673054889733
 30
0
  0
VERTEX
  8
0
 10
215.3153371015992
 20
195.1148904696145
 30
0
  0
VERTEX
  8
0
 10
215.2550868789663
 20
195.141675681379
 30
0
  0
VERTEX
  8
0
 10
215.1935638870641
 20
195.1527722212674
 30
0
  0
VERTEX
  8
0
 10
215.1121832037843
 20
195.1441548698247
 30
0
  0
VERTEX
  8
0
 10
215.053002304317
 20
195.118537946141
 30
0
  0
SEQEND
  8
0
  0
POLYLINE
  8
0
 62
2
 66
1
  0
VERTEX
  8
0
 10
213.4698997289902
 20
193.2973488720056
 30
0
  0
VERTEX
  8
0
 10
213.4840225599141
 20
193.3339552556458
 30
0
  0
VERTEX
  8
0
 10
213.5678898938372
 20
193.5131885441143
 30
0
  0
VERTEX
  8
0
 10
213.6183274353812
 20
193.6075924112419
 30
0
  0
VERTEX
  8
0
 10
213.6275788944413
 20
193.6217395792936
 30
0
  0
SEQEND
  8
0
  0
POLYLINE
  8
0
 62
2
 66
1
  0
VERTEX
  8
0
 10
213.948737289988
 20
192.9798794515411
 30
0
  0
VERTEX
  8
0
 10
214.2427774631442
 20
193.5970349045637
 30
0
  0
VERTEX
  8
0
 10
214.724799894173
 20
194.1979820189944
 30
0
  0
VERTEX
  8
0
 10
215.3108087993651
 20
194.6604445957909
 30
0
  0
SEQEND
  8
0
  0
POLYLINE
  8
0
 62
2
 66
1
  0
VERTEX
  8
0
 10
213.763635542377
 20
195.9097397845283
 30
0
  0
VERTEX
  8
0
 10
213.8396516246744
 20
195.9588874889766
 30
0
  0
VERTEX
  8
0
 10
213.8967340269392
 20
196.0467493844174
 30
0
  0
VERTEX
  8
0
 10
213.9123807432561
 20
196.1435625329783
 30
0
  0
VERTEX
  8
0
 10
213.8974927033401
 20
196.2239599100249
 30
0
  0
VERTEX
  8
0
 10
213.8654308291161
 20
196.2883446766567
 30
0
  0
VERTEX
  8
0
 10
213.8148579533963
 20
196.3452959880776
 30
0
  0
VERTEX
  8
0
 10
213.7600012706912
 20
196.3818785147697
 30
0
  0
VERTEX
  8
0
 10
213.7012386560014
 20
196.4032131543233
 30
0
  0
VERTEX
  8
0
 10
213.6195722451162
 20
196.4084735430981
 30
0
  0
VERTEX
  8
0
 10
213.5569132559763
 20
196.3932270116674
 30
0
  0
SEQEND
  8
0
  0
POLYLINE
  8
0
 62
2
 66
1
  0
VERTEX
  8
0
 10
211.6887925174192
 20
194.8657885304389
 30
0
  0
VERTEX
  8
0
 10
211.7088988720761
 20
194.8994814997199
 30
0
  0
VERTEX
  8
0
 10
211.8218511899704
 20
195.0619624994613
 30
0
  0
VERTEX
  8
0
 10
211.8875179630791
 20
195.1464841572483
 30
0
  0
VERTEX
  8
0
 10
211.8990272897272
 20
195.1588642727056
 30
0
  0
SEQEND
  8
0
  0
POLYLINE
  8
0
 62
2
 66
1
  0
VERTEX
  8
0
 10
212.1070879857994
 20
194.4719597048222
 30
0
  0
VERTEX
  8
0
 10
212.5012010714713
 20
195.0305430489411
 30
0
  0
VERTEX
  8
0
 10
213.0778530136313
 20
195.5413811798217
 30
0
  0
VERTEX
  8
0
 10
213.7335909519752
 20
195.898152574578
 30
0
  0
SEQEND
  8
0
  0
POLYLINE
  8
0
 62
2
 66
1
  0
VERTEX
  8
0
 10
212.4198113272491
 20
197.3909575361834
 30
0
  0
VERTEX
  8
0
 10
212.503040157671
 20
197.4265511227802
 30
0
  0
VERTEX
  8
0
 10
212.5741505769352
 20
197.5035018965966
 30
0
  0
VERTEX
  8
0
 10
212.6059341686423
 20
197.5962780183306
 30
0
  0
VERTEX
  8
0
 10
212.6048478879561
 20
197.6780350483816
 30
0
  0
VERTEX
  8
0
 10
212.5841285978831
 20
197.746912279539
 30
0
  0
VERTEX
  8
0
 10
212.543908290389
 20
197.8115914453974
 30
0
  0
VERTEX
  8
0
 10
212.496023361959
 20
197.8569188160017
 30
0
  0
VERTEX
  8
0
 10
212.4417117116091
 20
197.8878777624686
 30
0
  0
VERTEX
  8
0
 10
212.3621090972792
 20
197.9068645512659
 30
0
  0
VERTEX
  8
0
 10
212.2977747034051
 20
197.902427051348
 30
0
  0
SEQEND
  8
0
  0
POLYLINE
  8
0
 62
2
 66
1
  0
VERTEX
  8
0
 10
210.1983812125432
 20
196.7126832224964
 30
0
  0
VERTEX
  8
0
 10
210.2238926356581
 20
196.7424934383164
 30
0
  0
VERTEX
  8
0
 10
210.3626803248972
 20
196.8835476077342
 30
0
  0
VERTEX
  8
0
 10
210.4416871113681
 20
196.9557553872126
 30
0
  0
VERTEX
  8
0
 10
210.45512318488
 20
196.9660122769548
 30
0
  0
SEQEND
  8
0
  0
POLYLINE
  8
0
 62
2
 66
1
  0
VERTEX
  8
0
 10
210.5441003223314
 20
196.2538253579235
 30
0
  0
VERTEX
  8
0
 10
211.0269477762272
 20
196.7377662767265
 30
0
  0
VERTEX
  8
0
 10
211.6816390836284
 20
197.1437987266256
 30
0
  0
VERTEX
  8
0
 10
212.3882406230232
 20
197.3846147070464
 30
0
  0
SEQEND
  8
0
  0
POLYLINE
  8
0
 62
2
 66
1
  0
VERTEX
  8
0
 10
211.3456517730742
 20
199.0779817805728
 30
0
  0
VERTEX
  8
0
 10
211.4336988770042
 20
199.0989972298858
 30
0
  0
VERTEX
  8
0
 10
211.5167914825952
 20
199.1628230257276
 30
0
  0
VERTEX
  8
0
 10
211.5637975429504
 20
199.2488929726064
 30
0
  0
VERTEX
  8
0
 10
211.5765442735442
 20
199.3296575244077
 30
0
  0
VERTEX
  8
0
 10
211.5677636569094
 20
199.4010456377358
 30
0
  0
VERTEX
  8
0
 10
211.5390530467853
 20
199.4715918530657
 30
0
  0
VERTEX
  8
0
 10
211.4995175111872
 20
199.5243600093875
 30
0
  0
VERTEX
  8
0
 10
211.4512193590672
 20
199.5640525808826
 30
0
  0
VERTEX
  8
0
 10
211.3759706904953
 20
199.5962195240857
 30
0
  0
VERTEX
  8
0
 10
211.3118117778404
 20
199.6027187215485
 30
0
  0
SEQEND
  8
0
  0
POLYLINE
  8
0
 62
2
 66
1
  0
VERTEX
  8
0
 10
209.0415446103461
 20
198.7848982058101
 30
0
  0
VERTEX
  8
0
 10
209.0717271440481
 20
198.8099680350053
 30
0
  0
VERTEX
  8
0
 10
209.232357314218
 20
198.9255372775644
 30
0
  0
VERTEX
  8
0
 10
209.3224311066833
 20
198.9833537772573
 30
0
  0
VERTEX
  8
0
 10
209.3374073742652
 20
198.9911923528882
 30
0
  0
SEQEND
  8
0
  0
POLYLINE
  8
0
 62
2
 66
1
  0
VERTEX
  8
0
 10
209.3047411009852
 20
198.2742125392122
 30
0
  0
VERTEX
  8
0
 10
209.8624315111151
 20
198.6695881619739
 30
0
  0
VERTEX
  8
0
 10
210.5763268629903
 20
198.9591334691867
 30
0
  0
VERTEX
  8
0
 10
211.3134632370393
 20
199.0770658140077
 30
0
  0
SEQEND
  8
0
  0
POLYLINE
  8
0
 62
2
 66
1
  0
VERTEX
  8
0
 10
210.5720602071601
 20
200.9222772119313
 30
0
  0
VERTEX
  8
0
 10
210.6623924893411
 20
200.9281099142393
 30
0
  0
VERTEX
  8
0
 10
210.7550767258003
 20
200.9769744784032
 30
0
  0
VERTEX
  8
0
 10
210.8159529010832
 20
201.0538620375313
 30
0
  0
VERTEX
  8
0
 10
210.8421659224032
 20
201.1313105332026
 30
0
  0
VERTEX
  8
0
 10
210.8455765955591
 20
201.2031557088353
 30
0
  0
VERTEX
  8
0
 10
210.8292016805622
 20
201.2775393749852
 30
0
  0
VERTEX
  8
0
 10
210.7991529662072
 20
201.3362301891073
 30
0
  0
VERTEX
  8
0
 10
210.7582578392262
 20
201.3835144393311
 30
0
  0
VERTEX
  8
0
 10
210.6895280035783
 20
201.4279361012626
 30
0
  0
VERTEX
  8
0
 10
210.6273904095424
 20
201.4451850156656
 30
0
  0
SEQEND
  8
0
  0
POLYLINE
  8
0
 62
2
 66
1
  0
VERTEX
  8
0
 10
208.2515646381003
 20
201.0228163242192
 30
0
  0
VERTEX
  8
0
 10
208.2855499377251
 20
201.0424245134764
 30
0
  0
VERTEX
  8
0
 10
208.4634012951783
 20
201.1291839282195
 30
0
  0
VERTEX
  8
0
 10
208.5619506910093
 20
201.1709457805138
 30
0
  0
VERTEX
  8
0
 10
208.5780362888322
 20
201.176140527986
 30
0
  0
SEQEND
  8
0
  0
POLYLINE
  8
0
 62
2
 66
1
  0
VERTEX
  8
0
 10
208.4246664061111
 20
200.4749951666643
 30
0
  0
VERTEX
  8
0
 10
209.0411551455732
 20
200.7704306261846
 30
0
  0
VERTEX
  8
0
 10
209.7937159341914
 20
200.9351586377421
 30
0
  0
VERTEX
  8
0
 10
210.5401798962153
 20
200.9268144600893
 30
0
  0
SEQEND
  8
0
  0
POLYLINE
  8
0
 62
2
 66
1
  0
VERTEX
  8
0
 10
210.1212926838084
 20
202.8707838680332
 30
0
  0
VERTEX
  8
0
 10
210.2113113049222
 20
202.8612660178105
 30
0
  0
VERTEX
  8
0
 10
210.3109206677382
 20
202.8937635278429
 30
0
  0
VERTEX
  8
0
 10
210.3839155641622
 20
202.9592566615422
 30
0
  0
VERTEX
  8
0
 10
210.4228407335154
 20
203.0311609253893
 30
0
  0
VERTEX
  8
0
 10
210.4383445721692
 20
203.1013961938804
 30
0
  0
VERTEX
  8
0
 10
210.434776454897
 20
203.1774773096072
 30
0
  0
VERTEX
  8
0
 10
210.4150790565
 20
203.2404022600882
 30
0
  0
VERTEX
  8
0
 10
210.3827634982054
 20
203.2939178318608
 30
0
  0
VERTEX
  8
0
 10
210.3225298373013
 20
203.3493162113591
 30
0
  0
VERTEX
  8
0
 10
210.264201246403
 20
203.3768185953384
 30
0
  0
SEQEND
  8
0
  0
POLYLINE
  8
0
 62
2
 66
1
  0
VERTEX
  8
0
 10
207.8511688408462
 20
203.3620531798612
 30
0
  0
VERTEX
  8
0
 10
207.8879791570143
 20
203.3756356060126
 30
0
  0
VERTEX
  8
0
 10
208.0779349584414
 20
203.4310891442099
 30
0
  0
VERTEX
  8
0
 10
208.18212471382
 20
203.4555948700651
 30
0
  0
VERTEX
  8
0
 10
208.198856862874
 20
203.4579963376693
 30
0
  0
SEQEND
  8
0
  0
POLYLINE
  8
0
 62
2
 66
1
  0
VERTEX
  8
0
 10
207.929195787533
 20
202.7928572220894
 30
0
  0
VERTEX
  8
0
 10
208.5867466147943
 20
202.9798529070503
 30
0
  0
VERTEX
  8
0
 10
209.3563218365603
 20
203.0150244353351
 30
0
  0
VERTEX
  8
0
 10
210.0906377872843
 20
202.880643795311
 30
0
  0
SEQEND
  8
0
  0
POLYLINE
  8
0
 62
2
 66
1
  0
VERTEX
  8
0
 10
210.006317682662
 20
204.8674436532982
 30
0
  0
VERTEX
  8
0
 10
210.0934328273511
 20
204.8428490769421
 30
0
  0
VERTEX
  8
0
 10
210.1971015776962
 20
204.8580445868327
 30
0
  0
VERTEX
  8
0
 10
210.2801151486092
 20
204.9102590724671
 30
0
  0
VERTEX
  8
0
 10
210.3306325976791
 20
204.9745504350892
 30
0
  0
VERTEX
  8
0
 10
210.3577835599003
 20
205.0411551436582
 30
0
  0
VERTEX
  8
0
 10
210.3671248942824
 20
205.116744872478
 30
0
  0
VERTEX
  8
0
 10
210.358345501535
 20
205.1820936227311
 30
0
  0
VERTEX
  8
0
 10
210.3355392232284
 20
205.2403008851632
 30
0
  0
VERTEX
  8
0
 10
210.2855346458614
 20
205.3050821833854
 30
0
  0
VERTEX
  8
0
 10
210.2326931584621
 20
205.3420467995773
 30
0
  0
SEQEND
  8
0
  0
POLYLINE
  8
0
 62
2
 66
1
  0
VERTEX
  8
0
 10
207.8518765150684
 20
205.7353094577313
 30
0
  0
VERTEX
  8
0
 10
207.890452823312
 20
205.74247535745
 30
0
  0
VERTEX
  8
0
 10
208.0870480832914
 20
205.7650276333561
 30
0
  0
VERTEX
  8
0
 10
208.1938806825333
 20
205.7715722085848
 30
0
  0
VERTEX
  8
0
 10
208.2107780026763
 20
205.7711113066414
 30
0
  0
SEQEND
  8
0
  0
POLYLINE
  8
0
 62
2
 66
1
  0
VERTEX
  8
0
 10
207.8325838228334
 20
205.1611143386476
 30
0
  0
VERTEX
  8
0
 10
208.512279149385
 20
205.2342904255073
 30
0
  0
VERTEX
  8
0
 10
209.27672829931
 20
205.1388935936092
 30
0
  0
VERTEX
  8
0
 10
209.9777701349963
 20
204.8823425918196
 30
0
  0
SEQEND
  8
0
  0
POLYLINE
  8
0
 62
2
 66
1
  0
VERTEX
  8
0
 10
210.2304430084892
 20
206.854813117516
 30
0
  0
VERTEX
  8
0
 10
210.3121483937521
 20
206.815849395423
 30
0
  0
VERTEX
  8
0
 10
210.4168940051372
 20
206.8133057337907
 30
0
  0
VERTEX
  8
0
 10
210.5075379688883
 20
206.8507393724237
 30
0
  0
VERTEX
  8
0
 10
210.5681943220993
 20
206.9055681858669
 30
0
  0
VERTEX
  8
0
 10
210.6062112808472
 20
206.9666261321193
 30
0
  0
VERTEX
  8
0
 10
210.6281933188052
 20
207.0395497746387
 30
0
  0
VERTEX
  8
0
 10
210.6305845128532
 20
207.1054422559068
 30
0
  0
VERTEX
  8
0
 10
210.6179436459984
 20
207.166666599229
 30
0
  0
VERTEX
  8
0
 10
210.5796067725451
 20
207.2389670728846
 30
0
  0
VERTEX
  8
0
 10
210.533772626281
 20
207.2843304576456
 30
0
  0
SEQEND
  8
0
  0
POLYLINE
  8
0
 62
2
 66
1
  0
VERTEX
  8
0
 10
208.25366730114
 20
208.0743071117449
 30
0
  0
VERTEX
  8
0
 10
208.2928997698023
 20
208.0748503237177
 30
0
  0
VERTEX
  8
0
 10
208.4904784871883
 20
208.0638525134576
 30
0
  0
VERTEX
  8
0
 10
208.5968803805872
 20
208.0522476521113
 30
0
  0
VERTEX
  8
0
 10
208.6134567397412
 20
208.0489376406649
 30
0
  0
SEQEND
  8
0
  0
POLYLINE
  8
0
 62
2
 66
1
  0
VERTEX
  8
0
 10
208.1376100163702
 20
207.5116322949945
 30
0
  0
VERTEX
  8
0
 10
208.8198951614741
 20
207.4688835242918
 30
0
  0
VERTEX
  8
0
 10
209.557225210498
 20
207.2456628774783
 30
0
  0
VERTEX
  8
0
 10
210.2048241161674
 20
206.8743224281911
 30
0
  0
SEQEND
  8
0
  0
POLYLINE
  8
0
 62
2
 66
1
  0
VERTEX
  8
0
 10
210.787220626381
 20
208.7757160909109
 30
0
  0
VERTEX
  8
0
 10
210.8611656067733
 20
208.7235042005486
 30
0
  0
VERTEX
  8
0
 10
210.9639745716604
 20
208.7032945479633
 30
0
  0
VERTEX
  8
0
 10
211.0596411219231
 20
208.7248703822817
 30
0
  0
VERTEX
  8
0
 10
211.1286913097183
 20
208.7686592339899
 30
0
  0
VERTEX
  8
0
 10
211.1764805256953
 20
208.8224137946285
 30
0
  0
VERTEX
  8
0
 10
211.2104708489701
 20
208.890573354154
 30
0
  0
VERTEX
  8
0
 10
211.2239638357
 20
208.9551138546614
 30
0
  0
VERTEX
  8
0
 10
211.2218520551783
 20
209.0175938683703
 30
0
  0
VERTEX
  8
0
 10
211.1962858288121
 20
209.0953334491928
 30
0
  0
VERTEX
  8
0
 10
211.1587776617002
 20
209.1477905082081
 30
0
  0
SEQEND
  8
0
  0
POLYLINE
  8
0
 62
2
 66
1
  0
VERTEX
  8
0
 10
209.0449817690642
 20
210.3117537086735
 30
0
  0
VERTEX
  8
0
 10
209.0837416888971
 20
210.3056586048148
 30
0
  0
VERTEX
  8
0
 10
209.2766195687013
 20
210.2614271129007
 30
0
  0
VERTEX
  8
0
 10
209.3795295978612
 20
210.2320066842146
 30
0
  0
VERTEX
  8
0
 10
209.3953080979263
 20
210.2259427915456
 30
0
  0
SEQEND
  8
0
  0
POLYLINE
  8
0
 62
2
 66
1
  0
VERTEX
  8
0
 10
208.8354988335832
 20
209.7767872214096
 30
0
  0
VERTEX
  8
0
 10
209.5007446080022
 20
209.6193434656049
 30
0
  0
VERTEX
  8
0
 10
210.1897427374602
 20
209.2747210113732
 30
0
  0
VERTEX
  8
0
 10
210.7652674391384
 20
208.7992744952862
 30
0
  0
SEQEND
  8
0
  0
POLYLINE
  8
0
 62
2
 66
1
  0
VERTEX
  8
0
 10
211.6606321702611
 20
210.5748886296076
 30
0
  0
VERTEX
  8
0
 10
211.7246893654274
 20
210.5109306952472
 30
0
  0
VERTEX
  8
0
 10
211.8226038931621
 20
210.4736364788403
 30
0
  0
VERTEX
  8
0
 10
211.9205407249342
 20
210.4787337769737
 30
0
  0
VERTEX
  8
0
 10
211.9959981890352
 20
210.5102228715916
 30
0
  0
VERTEX
  8
0
 10
212.0521847773093
 20
210.5551275400707
 30
0
  0
VERTEX
  8
0
 10
212.0972054919944
 20
210.6165620814979
 30
0
  0
VERTEX
  8
0
 10
212.121412081231
 20
210.6778937856495
 30
0
  0
VERTEX
  8
0
 10
212.129890142488
 20
210.7398319338893
 30
0
  0
VERTEX
  8
0
 10
212.1178300977581
 20
210.8207740717293
 30
0
  0
VERTEX
  8
0
 10
212.0897270112773
 20
210.8788156272817
 30
0
  0
SEQEND
  8
0
  0
POLYLINE
  8
0
 62
2
 66
1
  0
VERTEX
  8
0
 10
210.2030539806601
 20
212.3832784162215
 30
0
  0
VERTEX
  8
0
 10
210.2402262375422
 20
212.3707203512897
 30
0
  0
VERTEX
  8
0
 10
210.422854226807
 20
212.2945277077358
 30
0
  0
VERTEX
  8
0
 10
210.5193116934752
 20
212.2481381307857
 30
0
  0
VERTEX
  8
0
 10
210.5338383905742
 20
212.2394948137139
 30
0
  0
SEQEND
  8
0
  0
POLYLINE
  8
0
 62
2
 66
1
  0
VERTEX
  8
0
 10
209.9061721711182
 20
211.8914111232286
 30
0
  0
VERTEX
  8
0
 10
210.5352396044582
 20
211.6238020035493
 30
0
  0
VERTEX
  8
0
 10
211.1560834940751
 20
211.1676924519251
 30
0
  0
VERTEX
  8
0
 10
211.6429762763264
 20
210.6018183577201
 30
0
  0
SEQEND
  8
0
  0
POLYLINE
  8
0
 62
2
 66
1
  0
VERTEX
  8
0
 10
212.8255497876503
 20
212.2005689467919
 30
0
  0
VERTEX
  8
0
 10
212.8778762865823
 20
212.126705023732
 30
0
  0
VERTEX
  8
0
 10
212.9680793983571
 20
212.0733991896706
 30
0
  0
VERTEX
  8
0
 10
213.0654688911491
 20
212.0618713035049
 30
0
  0
VERTEX
  8
0
 10
213.145162737389
 20
212.0801547069061
 30
0
  0
VERTEX
  8
0
 10
213.2081302225301
 20
212.1149175860746
 30
0
  0
VERTEX
  8
0
 10
213.2628860928503
 20
212.1678596515482
 30
0
  0
VERTEX
  8
0
 10
213.2971098664993
 20
212.224218060094
 30
0
  0
VERTEX
  8
0
 10
213.3159338576334
 20
212.2838323963554
 30
0
  0
VERTEX
  8
0
 10
213.3177269592952
 20
212.3656484042231
 30
0
  0
VERTEX
  8
0
 10
213.299837472885
 20
212.4276046138929
 30
0
  0
SEQEND
  8
0
  0
POLYLINE
  8
0
 62
2
 66
1
  0
VERTEX
  8
0
 10
211.6945664604541
 20
214.2292839373051
 30
0
  0
VERTEX
  8
0
 10
211.7290816169661
 20
214.2106242039874
 30
0
  0
VERTEX
  8
0
 10
211.8962055497664
 20
214.1046624539075
 30
0
  0
VERTEX
  8
0
 10
211.9834353944543
 20
214.0426383463243
 30
0
  0
VERTEX
  8
0
 10
211.9962923587982
 20
214.0316642711262
 30
0
  0
SEQEND
  8
0
  0
POLYLINE
  8
0
 62
2
 66
1
  0
VERTEX
  8
0
 10
211.3188269993311
 20
213.7946667493013
 30
0
  0
VERTEX
  8
0
 10
211.8936179638831
 20
213.4245913195649
 30
0
  0
VERTEX
  8
0
 10
212.428446075442
 20
212.8701168391384
 30
0
  0
VERTEX
  8
0
 10
212.8126991430972
 20
212.2300952364573
 30
0
  0
SEQEND
  8
0
  0
POLYLINE
  8
0
 62
2
 66
1
  0
VERTEX
  8
0
 10
214.248459062298
 20
213.6059865876032
 30
0
  0
VERTEX
  8
0
 10
214.287549443462
 20
213.5243417241961
 30
0
  0
VERTEX
  8
0
 10
214.3674460161633
 20
213.4565578692639
 30
0
  0
VERTEX
  8
0
 10
214.4614862963053
 20
213.4287364534756
 30
0
  0
VERTEX
  8
0
 10
214.543123750761
 20
213.4332881562813
 30
0
  0
VERTEX
  8
0
 10
214.6110605724712
 20
213.4569091259721
 30
0
  0
VERTEX
  8
0
 10
214.6739762844263
 20
213.4998355842488
 30
0
  0
VERTEX
  8
0
 10
214.7172326322652
 20
213.5495992785274
 30
0
  0
VERTEX
  8
0
 10
214.7458609913092
 20
213.6051747118456
 30
0
  0
VERTEX
  8
0
 10
214.7614556522362
 20
213.6855107617087
 30
0
  0
VERTEX
  8
0
 10
214.7542944423713
 20
213.7495991593638
 30
0
  0
SEQEND
  8
0
  0
POLYLINE
  8
0
 62
2
 66
1
  0
VERTEX
  8
0
 10
213.4766087319072
 20
215.7966611108047
 30
0
  0
VERTEX
  8
0
 10
213.5074737948062
 20
215.7724365454058
 30
0
  0
VERTEX
  8
0
 10
213.6542855534121
 20
215.6397541843716
 30
0
  0
VERTEX
  8
0
 10
213.7297781932261
 20
215.5638799656965
 30
0
  0
VERTEX
  8
0
 10
213.7405955328622
 20
215.5508908540322
 30
0
  0
SEQEND
  8
0
  0
POLYLINE
  8
0
 62
2
 66
1
  0
VERTEX
  8
0
 10
213.0328215584773
 20
215.4317978659418
 30
0
  0
VERTEX
  8
0
 10
213.5367994482563
 20
214.9699031125194
 30
0
  0
VERTEX
  8
0
 10
213.9702248980102
 20
214.3330158086237
 30
0
  0
VERTEX
  8
0
 10
214.2407833772631
 20
213.6372599741495
 30
0
  0
SEQEND
  8
0
  0
POLYLINE
  8
0
 62
2
 66
1
  0
VERTEX
  8
0
 10
215.8884232163541
 20
214.7507080045389
 30
0
  0
VERTEX
  8
0
 10
215.9131528583303
 20
214.6636311050299
 30
0
  0
VERTEX
  8
0
 10
215.9804442856403
 20
214.5833193553951
 30
0
  0
VERTEX
  8
0
 10
216.0684298355532
 20
214.5400048258205
 30
0
  0
VERTEX
  8
0
 10
216.1496622071331
 20
214.5306938765713
 30
0
  0
VERTEX
  8
0
 10
216.2206138384231
 20
214.5424933668313
 30
0
  0
VERTEX
  8
0
 10
216.2898793212194
 20
214.5741692334195
 30
0
  0
VERTEX
  8
0
 10
216.340923767907
 20
214.6159065232079
 30
0
  0
VERTEX
  8
0
 10
216.3785328634504
 20
214.6658441609424
 30
0
  0
VERTEX
  8
0
 10
216.4074804287752
 20
214.742389002825
 30
0
  0
VERTEX
  8
0
 10
216.4112535218442
 20
214.8067657797662
 30
0
  0
SEQEND
  8
0
  0
POLYLINE
  8
0
 62
2
 66
1
  0
VERTEX
  8
0
 10
215.497911842117
 20
217.0403168501105
 30
0
  0
VERTEX
  8
0
 10
215.5242388305292
 20
217.011224387895
 30
0
  0
VERTEX
  8
0
 10
215.646514673866
 20
216.8556386574106
 30
0
  0
VERTEX
  8
0
 10
215.7080982026432
 20
216.768097211745
 30
0
  0
VERTEX
  8
0
 10
215.7165647051552
 20
216.7534667574178
 30
0
  0
SEQEND
  8
0
  0
POLYLINE
  8
0
 62
2
 66
1
  0
VERTEX
  8
0
 10
214.9988446129373
 20
216.7557045813803
 30
0
  0
VERTEX
  8
0
 10
215.4175100980961
 20
216.2152791118089
 30
0
  0
VERTEX
  8
0
 10
215.7370633339333
 20
215.5143020880598
 30
0
  0
VERTEX
  8
0
 10
215.8861433185593
 20
214.7828287597117
 30
0
  0
SEQEND
  8
0
  0
POLYLINE
  8
0
 62
2
 66
1
  0
VERTEX
  8
0
 10
217.6982608522062
 20
215.6017998214658
 30
0
  0
VERTEX
  8
0
 10
217.7079182887883
 20
215.51179606855
 30
0
  0
VERTEX
  8
0
 10
217.760668611571
 20
215.4212669750759
 30
0
  0
VERTEX
  8
0
 10
217.8400681068933
 20
215.3637054809299
 30
0
  0
VERTEX
  8
0
 10
217.9185583586482
 20
215.3407997535284
 30
0
  0
VERTEX
  8
0
 10
217.9904835371422
 20
215.3404382956928
 30
0
  0
VERTEX
  8
0
 10
218.0641060385124
 20
215.3599522630788
 30
0
  0
VERTEX
  8
0
 10
218.121470046869
 20
215.3924623759942
 30
0
  0
VERTEX
  8
0
 10
218.1669778737432
 20
215.4353255236075
 30
0
  0
VERTEX
  8
0
 10
218.2084455285612
 20
215.505876979729
 30
0
  0
VERTEX
  8
0
 10
218.2230443735311
 20
215.568690030652
 30
0
  0
SEQEND
  8
0
  0
POLYLINE
  8
0
 62
2
 66
1
  0
VERTEX
  8
0
 10
217.7003233579922
 20
217.9244714610221
 30
0
  0
VERTEX
  8
0
 10
217.721354850416
 20
217.8913480855451
 30
0
  0
VERTEX
  8
0
 10
217.815576930142
 20
217.7173351518694
 30
0
  0
VERTEX
  8
0
 10
217.8614796036932
 20
217.6206450267961
 30
0
  0
VERTEX
  8
0
 10
217.8673516897202
 20
217.6047941446664
 30
0
  0
SEQEND
  8
0
  0
POLYLINE
  8
0
 62
2
 66
1
  0
VERTEX
  8
0
 10
217.160334124314
 20
217.7282983989928
 30
0
  0
VERTEX
  8
0
 10
217.4816422935842
 20
217.1248901317421
 30
0
  0
VERTEX
  8
0
 10
217.6781298412184
 20
216.3799903384931
 30
0
  0
VERTEX
  8
0
 10
217.7014423337932
 20
215.633843838407
 30
0
  0
SEQEND
  8
0
  0
POLYLINE
  8
0
 62
2
 66
1
  0
VERTEX
  8
0
 10
219.6259033506044
 20
216.1347763193995
 30
0
  0
VERTEX
  8
0
 10
219.6202107395302
 20
216.0444351006815
 30
0
  0
VERTEX
  8
0
 10
219.6569023429352
 20
215.9462931649022
 30
0
  0
VERTEX
  8
0
 10
219.7254314781521
 20
215.876140737346
 30
0
  0
VERTEX
  8
0
 10
219.7989214633012
 20
215.8402992243866
 30
0
  0
VERTEX
  8
0
 10
219.8697509178892
 20
215.8277872175153
 30
0
  0
VERTEX
  8
0
 10
219.9456123351274
 20
215.8345778732734
 30
0
  0
VERTEX
  8
0
 10
220.0076455556141
 20
215.8569255007236
 30
0
  0
VERTEX
  8
0
 10
220.0597428639371
 20
215.8914809951577
 30
0
  0
VERTEX
  8
0
 10
220.1125375932033
 20
215.9540093160907
 30
0
  0
VERTEX
  8
0
 10
220.137542184606
 20
216.0134515237338
 30
0
  0
SEQEND
  8
0
  0
POLYLINE
  8
0
 62
2
 66
1
  0
VERTEX
  8
0
 10
220.0204803985903
 20
218.423688015453
 30
0
  0
VERTEX
  8
0
 10
220.0356113237481
 20
218.3874866787318
 30
0
  0
VERTEX
  8
0
 10
220.0990688919501
 20
218.2000528545902
 30
0
  0
VERTEX
  8
0
 10
220.1279701007443
 20
218.0969958031287
 30
0
  0
VERTEX
  8
0
 10
220.131078831701
 20
218.0803805194884
 30
0
  0
SEQEND
  8
0
  0
POLYLINE
  8
0
 62
2
 66
1
  0
VERTEX
  8
0
 10
219.455104528477
 20
218.3215980147289
 30
0
  0
VERTEX
  8
0
 10
219.6698114185333
 20
217.6725668691062
 30
0
  0
VERTEX
  8
0
 10
219.7375803756813
 20
216.9051749048504
 30
0
  0
VERTEX
  8
0
 10
219.6344546810692
 20
216.1658216989929
 30
0
  0
SEQEND
  8
0
  0
POLYLINE
  8
0
 62
3
 66
1
  0
VERTEX
  8
0
 10
325.7057314388434
 20
191.6021905524979
 30
0
  0
VERTEX
  8
0
 10
325.7056668198433
 20
191.5979567327977
 30
0
  0
VERTEX
  8
0
 10
325.7056073816433
 20
191.5943645511977
 30
0
  0
VERTEX
  8
0
 10
325.7055438088422
 20
191.5907793103978
 30
0
  0
SEQEND
  8
0
  0
POLYLINE
  8
0
 62
3
 66
1
  0
VERTEX
  8
0
 10
325.5384559583425
 20
191.6953950397976
 30
0
  0
VERTEX
  8
0
 10
325.5411694220433
 20
191.6941155199978
 30
0
  0
VERTEX
  8
0
 10
325.7057314388434
 20
191.6021905524979
 30
0
  0
SEQEND
  8
0
  0
POLYLINE
  8
0
 62
3
 66
1
  0
VERTEX
  8
0
 10
325.7057314388434
 20
192.6165026878975
 30
0
  0
VERTEX
  8
0
 10
325.7056668198433
 20
192.6112068701975
 30
0
  0
VERTEX
  8
0
 10
325.7056073816433
 20
192.6067111645978
 30
0
  0
VERTEX
  8
0
 10
325.7055438088422
 20
192.6022218684977
 30
0
  0
SEQEND
  8
0
  0
POLYLINE
  8
0
 62
3
 66
1
  0
VERTEX
  8
0
 10
324.5345051510434
 20
193.0498884594978
 30
0
  0
VERTEX
  8
0
 10
324.9886329307423
 20
192.9149416086978
 30
0
  0
VERTEX
  8
0
 10
325.5411694220433
 20
192.6927349337977
 30
0
  0
VERTEX
  8
0
 10
325.7057314388434
 20
192.6165026878975
 30
0
  0
SEQEND
  8
0
  0
POLYLINE
  8
0
 62
3
 66
1
  0
VERTEX
  8
0
 10
310.9103257968426
 20
188.4177010999979
 30
0
  0
VERTEX
  8
0
 10
314.1973240510423
 20
188.4730100796978
 30
0
  0
VERTEX
  8
0
 10
321.0536609510422
 20
188.5899979988978
 30
0
  0
VERTEX
  8
0
 10
327.9103257968426
 20
188.7087309765977
 30
0
  0
SEQEND
  8
0
  0
POLYLINE
  8
0
 62
3
 66
1
  0
VERTEX
  8
0
 10
327.9103257968426
 20
188.7743682844977
 30
0
  0
VERTEX
  8
0
 10
323.8727515819422
 20
188.7092878565979
 30
0
  0
VERTEX
  8
0
 10
316.8914856257433
 20
188.5977636764978
 30
0
  0
VERTEX
  8
0
 10
310.9103257968426
 20
188.5034289210979
 30
0
  0
SEQEND
  8
0
  0
POLYLINE
  8
0
 62
3
 66
1
  0
VERTEX
  8
0
 10
310.9103257968426
 20
188.6188573269978
 30
0
  0
VERTEX
  8
0
 10
314.1973240510423
 20
188.6621029244977
 30
0
  0
VERTEX
  8
0
 10
321.0536609510422
 20
188.7557562838978
 30
0
  0
VERTEX
  8
0
 10
327.9103257968426
 20
188.8529942308978
 30
0
  0
SEQEND
  8
0
  0
POLYLINE
  8
0
 62
3
 66
1
  0
VERTEX
  8
0
 10
327.9103257968426
 20
189.1070768557977
 30
0
  0
VERTEX
  8
0
 10
323.8727515819422
 20
189.0507389373976
 30
0
  0
VERTEX
  8
0
 10
316.8914856257433
 20
188.9550589690975
 30
0
  0
VERTEX
  8
0
 10
310.9103257968426
 20
188.8751835139976
 30
0
  0
SEQEND
  8
0
  0
POLYLINE
  8
0
 62
3
 66
1
  0
VERTEX
  8
0
 10
310.9103257968426
 20
189.1042074557976
 30
0
  0
VERTEX
  8
0
 10
314.1973240510423
 20
189.1346179523977
 30
0
  0
VERTEX
  8
0
 10
321.0536609510422
 20
189.2032655054979
 30
0
  0
VERTEX
  8
0
 10
327.9103257968426
 20
189.2772732082976
 30
0
  0
SEQEND
  8
0
  0
POLYLINE
  8
0
 62
3
 66
1
  0
VERTEX
  8
0
 10
327.9103257968426
 20
189.715267039698
 30
0
  0
VERTEX
  8
0
 10
323.8727515819422
 20
189.6686769823978
 30
0
  0
VERTEX
  8
0
 10
316.8914856257433
 20
189.5905486370978
 30
0
  0
VERTEX
  8
0
 10
310.9103257968426
 20
189.5265578616979
 30
0
  0
SEQEND
  8
0
  0
POLYLINE
  8
0
 62
3
 66
1
  0
VERTEX
  8
0
 10
310.9103257968426
 20
189.8650904017979
 30
0
  0
VERTEX
  8
0
 10
314.1973240510423
 20
189.8821231213976
 30
0
  0
VERTEX
  8
0
 10
321.0536609510422
 20
189.9245398510977
 30
0
  0
VERTEX
  8
0
 10
327.9103257968426
 20
189.9739966403976
 30
0
  0
SEQEND
  8
0
  0
POLYLINE
  8
0
 62
3
 66
1
  0
VERTEX
  8
0
 10
327.9103257968426
 20
190.588085668198
 30
0
  0
VERTEX
  8
0
 10
323.8727515819422
 20
190.5520748723977
 30
0
  0
VERTEX
  8
0
 10
316.8914856257433
 20
190.4928923524979
 30
0
  0
VERTEX
  8
0
 10
310.9103257968426
 20
190.445928173698
 30
0
  0
SEQEND
  8
0
  0
POLYLINE
  8
0
 62
3
 66
1
  0
VERTEX
  8
0
 10
310.9103257968426
 20
190.8879281906977
 30
0
  0
VERTEX
  8
0
 10
314.1973240510423
 20
190.8912791840978
 30
0
  0
VERTEX
  8
0
 10
321.0536609510422
 20
190.9067081627979
 30
0
  0
VERTEX
  8
0
 10
327.9103257968426
 20
190.9307314810978
 30
0
  0
SEQEND
  8
0
  0
POLYLINE
  8
0
 62
3
 66
1
  0
VERTEX
  8
0
 10
327.9103257968426
 20
191.7099572718979
 30
0
  0
VERTEX
  8
0
 10
323.8727515819422
 20
191.6851683512981
 30
0
  0
VERTEX
  8
0
 10
316.8914856257433
 20
191.6459877701977
 30
0
  0
VERTEX
  8
0
 10
310.9103257968426
 20
191.6168882647975
 30
0
  0
SEQEND
  8
0
  0
POLYLINE
  8
0
 62
3
 66
1
  0
VERTEX
  8
0
 10
310.9103257968426
 20
192.1544682580977
 30
0
  0
VERTEX
  8
0
 10
314.1973240510423
 20
192.1440777266978
 30
0
  0
VERTEX
  8
0
 10
321.0536609510422
 20
192.1322436238978
 30
0
  0
VERTEX
  8
0
 10
327.9103257968426
 20
192.1304047744977
 30
0
  0
SEQEND
  8
0
  0
POLYLINE
  8
0
 62
3
 66
1
  0
VERTEX
  8
0
 10
327.9103257968426
 20
193.0608620256978
 30
0
  0
VERTEX
  8
0
 10
323.8727515819422
 20
193.0477373390978
 30
0
  0
VERTEX
  8
0
 10
316.8914856257433
 20
193.0292578750978
 30
0
  0
VERTEX
  8
0
 10
310.9103257968426
 20
193.0185423245977
 30
0
  0
SEQEND
  8
0
  0
POLYLINE
  8
0
 62
3
 66
1
  0
VERTEX
  8
0
 10
311.9514714296432
 20
193.6345241496978
 30
0
  0
VERTEX
  8
0
 10
314.1973240510423
 20
193.6181625294979
 30
0
  0
VERTEX
  8
0
 10
321.0536609510422
 20
193.5792765250978
 30
0
  0
VERTEX
  8
0
 10
327.9103257968426
 20
193.5516083221975
 30
0
  0
SEQEND
  8
0
  0
POLYLINE
  8
0
 62
3
 66
1
  0
VERTEX
  8
0
 10
308.3303257968422
 20
226.2345241496979
 30
0
  0
VERTEX
  8
0
 10
308.0006029477426
 20
226.1786019233981
 30
0
  0
VERTEX
  8
0
 10
307.7080621177432
 20
226.0173318614977
 30
0
  0
VERTEX
  8
0
 10
307.4848530263433
 20
225.7685426833978
 30
0
  0
VERTEX
  8
0
 10
307.3558482871434
 20
225.4590093009978
 30
0
  0
VERTEX
  8
0
 10
307.3304217576423
 20
225.2483773978977
 30
0
  0
VERTEX
  8
0
 10
307.3303257968422
 20
225.2345241496979
 30
0
  0
SEQEND
  8
0
  0
POLYLINE
  8
0
 62
3
 66
1
  0
VERTEX
  8
0
 10
307.6160441971423
 20
222.2893675611978
 30
0
  0
VERTEX
  8
0
 10
307.6063192956425
 20
221.0385467621979
 30
0
  0
VERTEX
  8
0
 10
307.4891727522426
 20
219.7000305407979
 30
0
  0
VERTEX
  8
0
 10
307.3521508984426
 20
218.2237559482978
 30
0
  0
SEQEND
  8
0
  0
POLYLINE
  8
0
 62
3
 66
1
  0
VERTEX
  8
0
 10
307.3521508984426
 20
218.2237559482978
 30
0
  0
VERTEX
  8
0
 10
307.3303694902433
 20
218.0998028757978
 30
0
  0
VERTEX
  8
0
 10
307.3303257968422
 20
218.0939636314976
 30
0
  0
SEQEND
  8
0
  0
POLYLINE
  8
0
 62
3
 66
1
  0
VERTEX
  8
0
 10
307.6161267030433
 20
213.5635169945978
 30
0
  0
VERTEX
  8
0
 10
307.8880718846434
 20
213.6341826379978
 30
0
  0
VERTEX
  8
0
 10
308.2098778399435
 20
213.6685668190975
 30
0
  0
VERTEX
  8
0
 10
308.3303257968422
 20
213.6711790464979
 30
0
  0
SEQEND
  8
0
  0
POLYLINE
  8
0
 62
3
 66
1
  0
VERTEX
  8
0
 10
307.3521508984426
 20
218.2237559482978
 30
0
  0
VERTEX
  8
0
 10
307.5015764908434
 20
216.582517070898
 30
0
  0
VERTEX
  8
0
 10
307.5988992534434
 20
215.3289078459977
 30
0
  0
VERTEX
  8
0
 10
307.6161488938423
 20
214.0074221993979
 30
0
  0
VERTEX
  8
0
 10
307.6161267030433
 20
213.5635169945978
 30
0
  0
SEQEND
  8
0
  0
POLYLINE
  8
0
 62
3
 66
1
  0
VERTEX
  8
0
 10
308.8303257968422
 20
195.8977377130977
 30
0
  0
VERTEX
  8
0
 10
308.8904810588423
 20
196.5526623090979
 30
0
  0
VERTEX
  8
0
 10
309.0408059833434
 20
197.2075869051978
 30
0
  0
VERTEX
  8
0
 10
309.5253698807422
 20
198.6212788147977
 30
0
  0
VERTEX
  8
0
 10
309.5303257968434
 20
198.6345241496978
 30
0
  0
SEQEND
  8
0
  0
POLYLINE
  8
0
 62
3
 66
1
  0
VERTEX
  8
0
 10
332.3303257968422
 20
225.2345241496979
 30
0
  0
VERTEX
  8
0
 10
332.3302298359435
 20
225.2483773978977
 30
0
  0
VERTEX
  8
0
 10
332.3048033065433
 20
225.4590093009978
 30
0
  0
VERTEX
  8
0
 10
332.1757985673434
 20
225.7685426833978
 30
0
  0
VERTEX
  8
0
 10
331.9525894759426
 20
226.0173318614977
 30
0
  0
VERTEX
  8
0
 10
331.6600486459432
 20
226.1786019233981
 30
0
  0
VERTEX
  8
0
 10
331.3303257968422
 20
226.2345241496979
 30
0
  0
SEQEND
  8
0
  0
POLYLINE
  8
0
 62
3
 66
1
  0
VERTEX
  8
0
 10
332.3085006952423
 20
218.2237559482978
 30
0
  0
VERTEX
  8
0
 10
332.1670397795423
 20
219.7406512324978
 30
0
  0
VERTEX
  8
0
 10
332.0654829381423
 20
220.8327410494978
 30
0
  0
VERTEX
  8
0
 10
332.0445225023435
 20
221.8478447455979
 30
0
  0
VERTEX
  8
0
 10
332.0446073965426
 20
222.2893675611978
 30
0
  0
SEQEND
  8
0
  0
POLYLINE
  8
0
 62
3
 66
1
  0
VERTEX
  8
0
 10
332.3303257968422
 20
218.0939636314976
 30
0
  0
VERTEX
  8
0
 10
332.3302821034434
 20
218.0998028757978
 30
0
  0
VERTEX
  8
0
 10
332.3085006952423
 20
218.2237559482978
 30
0
  0
SEQEND
  8
0
  0
POLYLINE
  8
0
 62
3
 66
1
  0
VERTEX
  8
0
 10
332.0445248906425
 20
213.5635169945978
 30
0
  0
VERTEX
  8
0
 10
332.0444710514433
 20
214.4871687228978
 30
0
  0
VERTEX
  8
0
 10
332.0647884915433
 20
215.3905711053978
 30
0
  0
VERTEX
  8
0
 10
332.1850596903436
 20
216.8422149134976
 30
0
  0
VERTEX
  8
0
 10
332.3085006952423
 20
218.2237559482978
 30
0
  0
SEQEND
  8
0
  0
POLYLINE
  8
0
 62
3
 66
1
  0
VERTEX
  8
0
 10
331.3303257968422
 20
213.6711790465976
 30
0
  0
VERTEX
  8
0
 10
331.6613313877423
 20
213.6509527831976
 30
0
  0
VERTEX
  8
0
 10
331.9550186092423
 20
213.5925543509977
 30
0
  0
VERTEX
  8
0
 10
332.0445248906425
 20
213.5635169945978
 30
0
  0
SEQEND
  8
0
  0
POLYLINE
  8
0
 62
3
 66
1
  0
VERTEX
  8
0
 10
329.1303257968433
 20
189.2167846458976
 30
0
  0
VERTEX
  8
0
 10
329.0969074291433
 20
189.767678858998
 30
0
  0
VERTEX
  8
0
 10
328.9967799587433
 20
190.3750094206977
 30
0
  0
VERTEX
  8
0
 10
328.8303257968422
 20
191.036456788598
 30
0
  0
SEQEND
  8
0
  0
POLYLINE
  8
0
 62
3
 66
1
  0
VERTEX
  8
0
 10
330.8303257968422
 20
194.2551700057978
 30
0
  0
VERTEX
  8
0
 10
330.8017077809426
 20
194.0224636384978
 30
0
  0
VERTEX
  8
0
 10
330.7161813296433
 20
193.8425524795977
 30
0
  0
VERTEX
  8
0
 10
330.5747254817433
 20
193.7174960091979
 30
0
  0
VERTEX
  8
0
 10
330.3789595116435
 20
193.6487257746978
 30
0
  0
VERTEX
  8
0
 10
330.2096799408422
 20
193.6345241496978
 30
0
  0
SEQEND
  8
0
  0
POLYLINE
  8
0
 62
2
 66
1
  0
VERTEX
  8
0
 10
222.391632570866
 20
218.5236041660978
 30
0
  0
VERTEX
  8
0
 10
222.400427615466
 20
218.4853663723977
 30
0
  0
VERTEX
  8
0
 10
222.4312950122662
 20
218.2899040864978
 30
0
  0
VERTEX
  8
0
 10
222.4423632750672
 20
218.1834450366977
 30
0
  0
VERTEX
  8
0
 10
222.442619213467
 20
218.1665433694977
 30
0
  0
SEQEND
  8
0
  0
POLYLINE
  8
0
 62
2
 66
1
  0
VERTEX
  8
0
 10
221.6158928730661
 20
216.3343038850978
 30
0
  0
VERTEX
  8
0
 10
221.5950139894671
 20
216.2462242969975
 30
0
  0
VERTEX
  8
0
 10
221.614591264366
 20
216.1432930401979
 30
0
  0
VERTEX
  8
0
 10
221.6702784717672
 20
216.0625679486977
 30
0
  0
VERTEX
  8
0
 10
221.7366539000673
 20
216.0148218023978
 30
0
  0
VERTEX
  8
0
 10
221.8043498833672
 20
215.9905192140977
 30
0
  0
VERTEX
  8
0
 10
221.8802677006661
 20
215.9843911925977
 30
0
  0
VERTEX
  8
0
 10
221.945185451566
 20
215.9959333983977
 30
0
  0
VERTEX
  8
0
 10
222.0023734135662
 20
216.0211870858977
 30
0
  0
VERTEX
  8
0
 10
222.0649763248662
 20
216.0738933459979
 30
0
  0
VERTEX
  8
0
 10
222.0996672862661
 20
216.1282545714979
 30
0
  0
SEQEND
  8
0
  0
POLYLINE
  8
0
 62
3
 66
1
  0
VERTEX
  8
0
 10
241.8340842292664
 20
210.3122456795979
 30
0
  0
VERTEX
  8
0
 10
242.1717835016661
 20
208.1177662249978
 30
0
  0
VERTEX
  8
0
 10
242.335731859167
 20
205.9328226061978
 30
0
  0
SEQEND
  8
0
  0
POLYLINE
  8
0
 62
3
 66
1
  0
VERTEX
  8
0
 10
241.890520100666
 20
210.0175686372978
 30
0
  0
VERTEX
  8
0
 10
242.1715527176662
 20
208.1215067788978
 30
0
  0
VERTEX
  8
0
 10
242.3253234389672
 20
206.235611949298
 30
0
  0
SEQEND
  8
0
  0
POLYLINE
  8
0
 62
2
 66
1
  0
VERTEX
  8
0
 10
221.8171358001673
 20
218.5185343328978
 30
0
  0
VERTEX
  8
0
 10
221.9190643423672
 20
217.8425527880978
 30
0
  0
VERTEX
  8
0
 10
221.8561650114662
 20
217.0747463459977
 30
0
  0
VERTEX
  8
0
 10
221.6295680325661
 20
216.3634574587979
 30
0
  0
SEQEND
  8
0
  0
POLYLINE
  8
0
 62
3
 66
1
  0
VERTEX
  8
0
 10
197.593004999665
 20
200.4614805970981
 30
0
  0
VERTEX
  8
0
 10
197.7080358407652
 20
199.5726325963979
 30
0
  0
VERTEX
  8
0
 10
198.0210603510664
 20
197.8677264690981
 30
0
  0
VERTEX
  8
0
 10
198.4515278050662
 20
196.1886177937976
 30
0
  0
VERTEX
  8
0
 10
198.9862188552652
 20
194.5744091863978
 30
0
  0
VERTEX
  8
0
 10
199.6304260283664
 20
193.0007314226978
 30
0
  0
VERTEX
  8
0
 10
200.5913085059651
 20
191.0966203482979
 30
0
  0
VERTEX
  8
0
 10
201.713972982966
 20
189.2830775295976
 30
0
  0
VERTEX
  8
0
 10
202.950101915565
 20
187.6181294109978
 30
0
  0
VERTEX
  8
0
 10
204.3167473092663
 20
186.0583943733977
 30
0
  0
VERTEX
  8
0
 10
205.592305476865
 20
184.8032374452977
 30
0
  0
VERTEX
  8
0
 10
207.182744511565
 20
183.4514949510978
 30
0
  0
VERTEX
  8
0
 10
208.8728239886664
 20
182.2265234797978
 30
0
  0
VERTEX
  8
0
 10
210.6094060569662
 20
181.158878312398
 30
0
  0
VERTEX
  8
0
 10
212.4221447455652
 20
180.2266111877977
 30
0
  0
VERTEX
  8
0
 10
213.8731163235661
 20
179.6042819269978
 30
0
  0
VERTEX
  8
0
 10
215.3605789228664
 20
179.075337168998
 30
0
  0
VERTEX
  8
0
 10
216.8526439617663
 20
178.6532000184977
 30
0
  0
VERTEX
  8
0
 10
218.3700435282663
 20
178.3345241496979
 30
0
  0
SEQEND
  8
0
  0
POLYLINE
  8
0
 62
3
 66
1
  0
VERTEX
  8
0
 10
241.6630049996661
 20
204.5445241496977
 30
0
  0
VERTEX
  8
0
 10
241.5996938942662
 20
206.5928911351978
 30
0
  0
VERTEX
  8
0
 10
241.3978645084653
 20
208.6381187066978
 30
0
  0
VERTEX
  8
0
 10
241.0396727380662
 20
210.6588205180979
 30
0
  0
VERTEX
  8
0
 10
240.5072744784652
 20
212.6336102236978
 30
0
  0
VERTEX
  8
0
 10
239.7287358716662
 20
214.6446874543979
 30
0
  0
VERTEX
  8
0
 10
238.7231127125651
 20
216.5605058258977
 30
0
  0
VERTEX
  8
0
 10
237.5108964866663
 20
218.3442334670979
 30
0
  0
VERTEX
  8
0
 10
236.1214877155653
 20
219.9682086062978
 30
0
  0
VERTEX
  8
0
 10
234.5679533247662
 20
221.4446416274977
 30
0
  0
VERTEX
  8
0
 10
232.8784078352651
 20
222.754647350698
 30
0
  0
VERTEX
  8
0
 10
230.8881981447662
 20
223.9873704555978
 30
0
  0
VERTEX
  8
0
 10
228.7709867328663
 20
225.002578744098
 30
0
  0
VERTEX
  8
0
 10
226.5642438009654
 20
225.7850841469979
 30
0
  0
VERTEX
  8
0
 10
224.7662101897663
 20
226.2345241496979
 30
0
  0
SEQEND
  8
0
  0
POLYLINE
  8
0
 62
3
 66
1
  0
VERTEX
  8
0
 10
215.9809266222651
 20
226.2345241496979
 30
0
  0
VERTEX
  8
0
 10
213.6657495862651
 20
225.6391295762978
 30
0
  0
VERTEX
  8
0
 10
211.8214834844662
 20
224.9686126993976
 30
0
  0
VERTEX
  8
0
 10
210.0357853282662
 20
224.1370565873979
 30
0
  0
VERTEX
  8
0
 10
208.3277435603663
 20
223.1555082708978
 30
0
  0
VERTEX
  8
0
 10
206.7164466233662
 20
222.0350147805978
 30
0
  0
VERTEX
  8
0
 10
205.2108419480651
 20
220.7832162719976
 30
0
  0
VERTEX
  8
0
 10
203.8101115542663
 20
219.4051870058977
 30
0
  0
VERTEX
  8
0
 10
202.528633597266
 20
217.9156989693976
 30
0
  0
VERTEX
  8
0
 10
201.3807862324652
 20
216.3295241496978
 30
0
  0
VERTEX
  8
0
 10
200.3015252918663
 20
214.5208704615977
 30
0
  0
VERTEX
  8
0
 10
199.3861587272663
 20
212.6191620657975
 30
0
  0
VERTEX
  8
0
 10
198.6427250007664
 20
210.6481988610979
 30
0
  0
VERTEX
  8
0
 10
197.9950007387661
 20
208.2676042209977
 30
0
  0
VERTEX
  8
0
 10
197.593004999665
 20
205.8334787735979
 30
0
  0
SEQEND
  8
0
  0
POINT
  8
0
 62
7
  6
DASHED
 10
239.143004999667
 20
221.7345241496979
 30
0
  0
POINT
  8
0
 62
7
  6
DASHED
 10
240.893004999667
 20
219.4595241496978
 30
0
  0
POINT
  8
0
 62
1
  6
DASHED
 10
221.7930049996662
 20
173.3345241496977
 30
0
  0
LINE
  8
1
 62
2
 10
254.7944204747868
 20
187.2310097612327
 30
0
 11
252.0179068496759
 21
188.834030650015
 31
0
  0
LINE
  8
1
 62
2
 10
252.0179068496759
 20
188.834030650015
 30
0
 11
252.0179068496759
 21
187.7310097612323
 31
0
  0
LINE
  8
1
 62
2
 10
252.0179068496759
 20
187.7310097612323
 30
0
 11
248.5179068496759
 21
187.7310097612323
 31
0
  0
LINE
  8
1
 62
2
 10
248.5179068496759
 20
187.7310097612323
 30
0
 11
248.5179068496759
 21
186.7310097612323
 31
0
  0
LINE
  8
1
 62
2
 10
248.5179068496759
 20
186.7310097612323
 30
0
 11
252.0179068496759
 21
186.7310097612323
 31
0
  0
LINE
  8
1
 62
2
 10
252.0179068496759
 20
186.7310097612323
 30
0
 11
252.0179068496759
 21
185.6279888723339
 31
0
  0
LINE
  8
1
 62
2
 10
252.0179068496759
 20
185.6279888723339
 30
0
 11
254.7944204747868
 21
187.2310097612327
 31
0
  0
LINE
  8
1
 62
2
 10
252.0179068496759
 20
185.6279888723339
 30
0
 11
254.7944204747868
 21
187.2310097612327
 31
0
  0
LINE
  8
1
 62
2
 10
252.0179068496759
 20
186.7310097612323
 30
0
 11
252.0179068496759
 21
185.6279888723339
 31
0
  0
LINE
  8
1
 62
2
 10
248.5179068496759
 20
186.7310097612323
 30
0
 11
252.0179068496759
 21
186.7310097612323
 31
0
  0
LINE
  8
1
 62
2
 10
248.5179068496759
 20
187.7310097612323
 30
0
 11
248.5179068496759
 21
186.7310097612323
 31
0
  0
LINE
  8
1
 62
2
 10
252.0179068496759
 20
187.7310097612323
 30
0
 11
248.5179068496759
 21
187.7310097612323
 31
0
  0
LINE
  8
1
 62
3
 10
189.0222464595035
 20
236.9630609460965
 30
0
 11
188.3151396783164
 21
236.2559541649096
 31
0
  0
LINE
  8
1
 62
3
 10
195.8837981872775
 20
230.1015092183212
 30
0
 11
189.0222464595035
 21
236.9630609460965
 31
0
  0
LINE
  8
1
 62
3
 10
190.0829066312835
 20
238.0237211178762
 30
0
 11
189.3757998500964
 21
237.3166143366897
 31
0
  0
LINE
  8
1
 62
3
 10
196.8279325730436
 20
231.2786951761154
 30
0
 11
190.0829066312835
 21
238.0237211178762
 31
0
  0
LINE
  8
1
 62
2
 10
184.9563824676802
 20
239.9682647661392
 30
0
 11
188.4919163736113
 21
236.4327308602055
 31
0
  0
LINE
  8
1
 62
2
 10
185.3099358582726
 20
240.3218181567315
 30
0
 11
184.9563824676802
 21
239.9682647661392
 31
0
  0
LINE
  8
1
 62
2
 10
188.8454697642055
 20
236.7862842507992
 30
0
 11
185.3099358582726
 21
240.3218181567315
 31
0
  0
LINE
  8
1
 62
2
 10
186.0170426394593
 20
241.0289249379187
 30
0
 11
189.5525765453935
 21
237.4933910319862
 31
0
  0
LINE
  8
1
 62
2
 10
186.3705960300535
 20
241.3824783285119
 30
0
 11
186.0170426394593
 21
241.0289249379187
 31
0
  0
LINE
  8
1
 62
2
 10
189.9061299359864
 20
237.8469444225796
 30
0
 11
186.3705960300535
 21
241.3824783285119
 31
0
  0
LINE
  8
1
 62
3
 10
189.3757998500964
 20
237.3166143366897
 30
0
 11
195.9184442041633
 21
230.7739699826224
 31
0
  0
LINE
  8
1
 62
3
 10
188.3151396783164
 20
236.2559541649096
 30
0
 11
195.0601656200765
 21
229.5109282231491
 31
0
  0
LINE
  8
1
 62
1
 10
194.4660422083957
 20
204.5445241496977
 30
0
 11
248.0976932246057
 21
204.5445241496977
 31
0
  0
LINE
  8
1
 62
1
 10
221.7930049996662
 20
173.3345241496977
 30
0
 11
221.7930049996663
 21
231.2345241496979
 31
0
  0
LINE
  8
0
 62
3
 10
206.5485229937663
 20
181.7361697151978
 30
0
 11
205.1229497960662
 21
180.1723810450978
 31
0
  0
LINE
  8
0
 62
3
 10
199.0630602031661
 20
185.6966672542978
 30
0
 11
200.9304896131662
 21
187.7451520030978
 31
0
  0
LINE
  8
1
 62
2
 10
298.4297897337195
 20
204.5445241496977
 30
0
 11
295.6532761086086
 21
206.1475450385967
 31
0
  0
LINE
  8
1
 62
2
 10
295.6532761086086
 20
206.1475450385967
 30
0
 11
295.6532761086086
 21
205.0445241496977
 31
0
  0
LINE
  8
1
 62
2
 10
295.6532761086086
 20
205.0445241496977
 30
0
 11
292.1532761086086
 21
205.0445241496977
 31
0
  0
LINE
  8
1
 62
2
 10
292.1532761086086
 20
205.0445241496977
 30
0
 11
292.1532761086086
 21
204.0445241496977
 31
0
  0
LINE
  8
1
 62
2
 10
292.1532761086086
 20
204.0445241496977
 30
0
 11
295.6532761086086
 21
204.0445241496977
 31
0
  0
LINE
  8
1
 62
2
 10
295.6532761086086
 20
204.0445241496977
 30
0
 11
295.6532761086086
 21
202.9415032607989
 31
0
  0
LINE
  8
1
 62
2
 10
295.6532761086086
 20
202.9415032607989
 30
0
 11
298.4297897337195
 21
204.5445241496977
 31
0
  0
LINE
  8
0
 62
2
 10
222.1698234776673
 20
216.3016610430977
 30
0
 11
222.3080676216673
 21
216.6502123078979
 31
0
  0
LINE
  8
0
 62
3
 10
241.1886359958662
 20
209.8938077647979
 30
0
 11
241.8905200598661
 21
210.017568862598
 31
0
  0
LINE
  8
0
 62
3
 10
242.3253230642672
 20
206.2356152383979
 30
0
 11
241.594816895366
 21
206.1068072912976
 31
0
  0
LINE
  8
0
 62
3
 10
206.3810521144674
 20
223.3505895849975
 30
0
 11
206.2396307581662
 21
223.4920109411975
 31
0
  0
LINE
  8
0
 62
3
 10
202.254081462866
 20
218.9922788591977
 30
0
 11
201.5020153226674
 21
219.7443449992978
 31
0
  0
LINE
  8
0
 62
3
 10
201.5020153226674
 20
221.1585585616978
 30
0
 11
202.4572753020852
 21
222.1138185411417
 31
0
  0
LINE
  8
0
 62
3
 10
202.8455157355661
 20
220.0979031228978
 30
0
 11
202.9563637215674
 21
219.9870528781975
 31
0
  0
LINE
  8
0
 62
3
 10
205.5325239769672
 20
223.4920109411975
 30
0
 11
205.0735703924643
 21
223.0330573566949
 31
0
  0
LINE
  8
0
 62
3
 10
206.5931841487673
 20
224.8355138254976
 30
0
 11
206.663894826866
 21
224.7648031472978
 31
0
  0
LINE
  8
0
 62
3
 10
197.5930049996673
 20
200.4564348967978
 30
0
 11
197.5930049996673
 21
205.8392414592976
 31
0
  0
LINE
  8
0
 62
3
 10
245.493004999666
 20
178.3345241496977
 30
0
 11
218.3700435282663
 21
178.3345241496979
 31
0
  0
LINE
  8
0
 62
3
 10
245.493004999666
 20
179.3345241496977
 30
0
 11
245.493004999666
 21
178.3345241496977
 31
0
  0
LINE
  8
0
 62
3
 10
215.9766207171674
 20
226.2345241496979
 30
0
 11
224.7710981617661
 21
226.2345241496979
 31
0
  0
LINE
  8
0
 62
3
 10
241.7842230716674
 20
200.1345241496978
 30
0
 11
245.493004999666
 21
200.1345241496978
 31
0
  0
LINE
  8
0
 62
3
 10
245.493004999666
 20
200.1345241496978
 30
0
 11
245.493004999666
 21
199.1345241496978
 31
0
  0
LINE
  8
0
 62
3
 10
245.493004999666
 20
178.3345241496977
 30
0
 11
245.493004999666
 21
200.1345241496978
 31
0
  0
LINE
  8
0
 62
3
 10
243.6357603993661
 20
218.6870181500979
 30
0
 11
240.6295539350713
 21
215.9814323322412
 31
0
  0
LINE
  8
0
 62
3
 10
235.7553971826342
 20
222.6266629736899
 30
0
 11
238.1502496000662
 21
224.7820301493977
 31
0
  0
LINE
  8
0
 62
3
 10
240.5638520718653
 20
212.4237506927963
 30
0
 11
241.2753359076673
 21
212.5492044893978
 31
0
  0
LINE
  8
0
 62
3
 10
241.8340842278672
 20
210.3122456862977
 30
0
 11
241.1393103546661
 21
210.1897383069978
 31
0
  0
LINE
  8
0
 62
3
 10
241.2753359076673
 20
212.5492044893978
 30
0
 11
241.8340842277662
 21
210.312245686798
 31
0
  0
LINE
  8
0
 62
3
 10
242.335731859167
 20
205.9328226061978
 30
0
 11
242.3630049996664
 21
204.5445241496977
 31
0
  0
LINE
  8
0
 62
3
 10
242.3412307301674
 20
203.5983109981975
 30
0
 11
241.6341260455661
 21
203.4736293641976
 31
0
  0
LINE
  8
0
 62
3
 10
241.639459897066
 20
205.8100510733977
 30
0
 11
242.335731859167
 21
205.9328226061978
 31
0
  0
LINE
  8
0
 62
2
 10
222.0996672862661
 20
216.1282545714979
 30
0
 11
222.172323288667
 21
216.3072010615978
 31
0
  0
LINE
  8
0
 62
2
 10
221.6158928730661
 20
216.3343038850978
 30
0
 11
221.6295680325661
 21
216.3634574587979
 31
0
  0
LINE
  8
0
 62
2
 10
217.0273431751662
 20
215.3296408522978
 30
0
 11
217.0285519667673
 21
215.3618197222978
 31
0
  0
LINE
  8
0
 62
3
 10
328.8303257968422
 20
193.6345241496978
 30
0
 11
330.2096799408422
 21
193.6345241496978
 31
0
  0
LINE
  8
0
 62
3
 10
322.5303257968434
 20
225.8345241496978
 30
0
 11
319.8303257968422
 21
225.8345241496978
 31
0
  0
LINE
  8
0
 62
3
 10
329.1303257968433
 20
187.0445241496977
 30
0
 11
330.8303257968422
 21
185.3445241496978
 31
0
  0
LINE
  8
0
 62
3
 10
319.6303257968433
 20
225.8345241496978
 30
0
 11
317.1303257968433
 21
225.8345241496978
 31
0
  0
LINE
  8
0
 62
3
 10
309.9103257968426
 20
188.3945241496978
 30
0
 11
327.9103257968426
 21
188.7087309765977
 31
0
  0
LINE
  8
0
 62
3
 10
310.9103257968426
 20
193.0185423245977
 30
0
 11
312.9598647028432
 21
193.0216286291977
 31
0
  0
LINE
  8
0
 62
3
 10
319.4618323274425
 20
192.5062826057978
 30
0
 11
319.4877493517432
 21
192.5067094866976
 31
0
  0
LINE
  8
0
 62
3
 10
319.5048677050426
 20
191.4672504757978
 30
0
 11
319.5436366117423
 21
191.4680535948978
 31
0
  0
LINE
  8
0
 62
3
 10
319.8303257968422
 20
178.3345241496977
 30
0
 11
331.3303257968422
 21
178.3345241496977
 31
0
  0
LINE
  8
0
 62
3
 10
319.8303257968422
 20
178.3345241496977
 30
0
 11
319.8303257968422
 21
178.9345241496978
 31
0
  0
LINE
  8
0
 62
3
 10
319.8303257968422
 20
178.9345241496978
 30
0
 11
319.1303257968433
 21
178.9345241496978
 31
0
  0
LINE
  8
0
 62
3
 10
319.1303257968433
 20
178.9345241496978
 30
0
 11
319.1303257968433
 21
179.5345241496978
 31
0
  0
LINE
  8
0
 62
3
 10
319.1303257968433
 20
179.5345241496978
 30
0
 11
330.1303257968433
 21
179.5345241496978
 31
0
  0
LINE
  8
0
 62
3
 10
330.8303257968422
 20
180.2345241496979
 30
0
 11
330.8303257968422
 21
198.6345241496978
 31
0
  0
LINE
  8
0
 62
3
 10
319.1303257968433
 20
198.6345241496978
 30
0
 11
319.1303257968433
 21
199.2345241496979
 31
0
  0
LINE
  8
0
 62
3
 10
319.8303257968422
 20
199.2345241496979
 30
0
 11
319.1303257968433
 21
199.2345241496979
 31
0
  0
LINE
  8
0
 62
3
 10
319.8303257968422
 20
199.2345241496979
 30
0
 11
319.8303257968422
 21
200.1345241496978
 31
0
  0
LINE
  8
0
 62
3
 10
319.8303257968422
 20
200.1345241496978
 30
0
 11
331.3303257968422
 21
200.1345241496978
 31
0
  0
LINE
  8
0
 62
3
 10
332.3303257968422
 20
179.3345241496977
 30
0
 11
332.3303257968422
 21
199.1345241496978
 31
0
  0
LINE
  8
0
 62
3
 10
319.1303257968433
 20
193.6345241496978
 30
0
 11
328.8303257968422
 21
193.6345241496978
 31
0
  0
LINE
  8
0
 62
3
 10
319.1303257968433
 20
193.6345241496978
 30
0
 11
319.1303257968433
 21
198.6345241496978
 31
0
  0
LINE
  8
0
 62
3
 10
319.8303257968422
 20
218.6870181500976
 30
0
 11
319.8303257968422
 21
225.8345241496978
 31
0
  0
LINE
  8
0
 62
3
 10
322.8303257968422
 20
225.5345241496978
 30
0
 11
322.8303257968422
 21
218.910006393998
 31
0
  0
LINE
  8
0
 62
3
 10
319.8303257968422
 20
215.7677150160977
 30
0
 11
319.8303257968422
 21
218.6870181500976
 31
0
  0
LINE
  8
0
 62
3
 10
322.8303257968422
 20
218.910006393998
 30
0
 11
322.8303257968422
 21
215.9907032599978
 31
0
  0
LINE
  8
0
 62
3
 10
328.8303257968422
 20
191.036456788598
 30
0
 11
328.8303257968422
 21
193.6345241496978
 31
0
  0
LINE
  8
0
 62
3
 10
320.1303257968433
 20
206.235611953098
 30
0
 11
320.1303257968433
 21
210.0175686333978
 31
0
  0
LINE
  8
0
 62
3
 10
320.1303257968433
 20
206.235611953098
 30
0
 11
319.9303257968435
 21
206.235611953098
 31
0
  0
LINE
  8
0
 62
3
 10
319.9303257968435
 20
210.0175686372978
 30
0
 11
319.9303257968435
 21
206.235611949298
 31
0
  0
LINE
  8
0
 62
3
 10
320.1303257968433
 20
210.0175686333978
 30
0
 11
319.9303257968435
 21
210.0175686333978
 31
0
  0
LINE
  8
0
 62
3
 10
319.1303257955423
 20
209.8786506809976
 30
0
 11
319.9302914425433
 21
210.017568862598
 31
0
  0
LINE
  8
0
 62
3
 10
319.9302806679433
 20
206.2356152383979
 30
0
 11
319.1303254703433
 21
206.0956240067978
 31
0
  0
LINE
  8
0
 62
3
 10
319.1303257968433
 20
206.0956261620977
 30
0
 11
319.1303257968433
 21
209.8786509609976
 31
0
  0
LINE
  8
0
 62
3
 10
319.1303257968433
 20
205.9548989422976
 30
0
 11
320.1303257968433
 21
205.9548989422976
 31
0
  0
LINE
  8
0
 62
3
 10
319.1303257968433
 20
206.0598445885975
 30
0
 11
319.1303257968433
 21
206.0956233451977
 31
0
  0
LINE
  8
0
 62
3
 10
319.1303257968433
 20
206.0598445885975
 30
0
 11
319.1303257968433
 21
205.9548963580978
 31
0
  0
LINE
  8
0
 62
3
 10
332.3303257968422
 20
218.0939636314976
 30
0
 11
332.3303257968422
 21
204.5445241496977
 31
0
  0
LINE
  8
0
 62
3
 10
321.6303257968433
 20
206.0075866586979
 30
0
 11
321.6303257968433
 21
206.1124094280976
 31
0
  0
LINE
  8
0
 62
3
 10
321.6303257968433
 20
212.6198698771975
 30
0
 11
321.6303257968433
 21
212.666056390898
 31
0
  0
LINE
  8
0
 62
3
 10
321.6303257968433
 20
212.666056390898
 30
0
 11
319.8303257968422
 21
212.666056390898
 31
0
  0
LINE
  8
0
 62
3
 10
319.8303257968422
 20
213.6711790465976
 30
0
 11
331.3303257968422
 21
213.6711790465976
 31
0
  0
LINE
  8
0
 62
3
 10
319.8303257968422
 20
213.6711790465976
 30
0
 11
319.8303257968422
 21
212.666056390898
 31
0
  0
LINE
  8
0
 62
3
 10
332.3303257968422
 20
200.9224475664979
 30
0
 11
332.3303257968422
 21
199.1345241496978
 31
0
  0
LINE
  8
0
 62
3
 10
319.8303257968422
 20
200.7304986219976
 30
0
 11
319.8303257968422
 21
200.1345241496978
 31
0
  0
LINE
  8
0
 62
3
 10
332.3303257968422
 20
204.5445241496977
 30
0
 11
332.3303257968422
 21
200.9224475664979
 31
0
  0
LINE
  8
0
 62
3
 10
321.6303257968433
 20
203.2170371005977
 30
0
 11
319.8303257968422
 21
203.2170371005977
 31
0
  0
LINE
  8
0
 62
3
 10
321.6303257968433
 20
203.2170371005977
 30
0
 11
321.6303257968433
 21
203.4736293641976
 31
0
  0
LINE
  8
0
 62
3
 10
319.8303257968422
 20
203.2170371005977
 30
0
 11
319.8303257968422
 21
200.7304986219976
 31
0
  0
LINE
  8
0
 62
3
 10
319.1303257968433
 20
179.5345241496978
 30
0
 11
319.1303257968433
 21
188.5554598483977
 31
0
  0
LINE
  8
0
 62
3
 10
319.8303257968422
 20
212.666056390898
 30
0
 11
319.8303257968422
 21
212.5492044893978
 31
0
  0
LINE
  8
0
 62
3
 10
322.8303257968422
 20
215.9907032599978
 30
0
 11
322.8303257968422
 21
214.7357776534977
 31
0
  0
LINE
  8
0
 62
3
 10
319.8303257968422
 20
213.6711790465976
 30
0
 11
319.8303257968422
 21
215.7677150160977
 31
0
  0
LINE
  8
0
 62
3
 10
319.8303257968422
 20
225.7345241496979
 30
0
 11
319.6303257968433
 21
225.7345241496979
 31
0
  0
LINE
  8
0
 62
3
 10
319.1303257968433
 20
210.0343242500978
 30
0
 11
319.1303257968433
 21
209.8502023896978
 31
0
  0
LINE
  8
0
 62
3
 10
322.8303257968422
 20
222.2893675611978
 30
0
 11
332.0446073965426
 21
222.2893675611978
 31
0
  0
LINE
  8
0
 62
3
 10
329.1303257968433
 20
187.0445241496977
 30
0
 11
329.1303257968433
 21
189.2167846458976
 31
0
  0
LINE
  8
0
 62
3
 10
332.3303257968422
 20
225.2345241496979
 30
0
 11
332.3303257968422
 21
218.0939636314976
 31
0
  0
LINE
  8
0
 62
3
 10
322.8303257968422
 20
221.6122706217977
 30
0
 11
322.8303257968422
 21
221.6084959743978
 31
0
  0
LINE
  8
0
 62
3
 10
331.3303257968422
 20
226.2345241496979
 30
0
 11
319.8303257968422
 21
226.2345241496979
 31
0
  0
LINE
  8
0
 62
3
 10
319.8303257968422
 20
226.2345241479977
 30
0
 11
319.8303257968422
 21
225.8345241496978
 31
0
  0
LINE
  8
0
 62
3
 10
319.6303257968433
 20
199.2345241496979
 30
0
 11
319.6303257968433
 21
200.1345241496978
 31
0
  0
LINE
  8
0
 62
3
 10
319.6303257968433
 20
199.2345241496979
 30
0
 11
319.1303257968433
 21
199.2345241496979
 31
0
  0
LINE
  8
0
 62
3
 10
319.1303257968433
 20
198.6345241496978
 30
0
 11
319.1303257968433
 21
199.2345241496979
 31
0
  0
LINE
  8
0
 62
3
 10
308.8303257968422
 20
180.2345241496979
 30
0
 11
308.8303257968422
 21
195.8977377130977
 31
0
  0
LINE
  8
0
 62
3
 10
319.6303257968433
 20
178.3345241496977
 30
0
 11
308.3303257968422
 21
178.3345241496977
 31
0
  0
LINE
  8
0
 62
3
 10
307.3303257968422
 20
179.3345241496977
 30
0
 11
307.3303257968422
 21
199.1345241496978
 31
0
  0
LINE
  8
0
 62
3
 10
319.6303257968433
 20
200.1345241496978
 30
0
 11
308.3303257968422
 21
200.1345241496978
 31
0
  0
LINE
  8
0
 62
3
 10
319.1303257968433
 20
179.5345241496978
 30
0
 11
309.5303257968434
 21
179.5345241496978
 31
0
  0
LINE
  8
0
 62
3
 10
319.1303257968433
 20
178.9345241496978
 30
0
 11
319.1303257968433
 21
179.5345241496978
 31
0
  0
LINE
  8
0
 62
3
 10
319.1303257968433
 20
178.9345241496978
 30
0
 11
319.6303257968433
 21
178.9345241496978
 31
0
  0
LINE
  8
0
 62
3
 10
319.6303257968433
 20
178.3345241496977
 30
0
 11
319.6303257968433
 21
178.9345241496978
 31
0
  0
LINE
  8
0
 62
3
 10
319.1303257968433
 20
193.6345241496978
 30
0
 11
319.1303257968433
 21
198.6345241496978
 31
0
  0
LINE
  8
0
 62
3
 10
319.1303257968433
 20
193.6345241496978
 30
0
 11
309.5303257968434
 21
193.6345241496978
 31
0
  0
LINE
  8
0
 62
3
 10
319.6303257968433
 20
218.6870181500979
 30
0
 11
319.6303257968433
 21
225.8345241496978
 31
0
  0
LINE
  8
0
 62
3
 10
316.8303257968422
 20
218.910006393998
 30
0
 11
316.8303257968422
 21
225.5345241496978
 31
0
  0
LINE
  8
0
 62
3
 10
319.6303257968433
 20
215.7677150160977
 30
0
 11
319.6303257968433
 21
218.6870181500979
 31
0
  0
LINE
  8
0
 62
3
 10
316.8303257968422
 20
215.9907032599978
 30
0
 11
316.8303257968422
 21
218.910006393998
 31
0
  0
LINE
  8
0
 62
3
 10
321.6303257968433
 20
205.9328226061978
 30
0
 11
321.6303257968433
 21
204.5445241496977
 31
0
  0
LINE
  8
0
 62
3
 10
317.5303257968434
 20
205.9328226061978
 30
0
 11
317.5303257968434
 21
204.5445241496977
 31
0
  0
LINE
  8
0
 62
3
 10
320.1303257968433
 20
205.9328226061978
 30
0
 11
317.5303257968434
 21
205.9328226061978
 31
0
  0
LINE
  8
0
 62
3
 10
321.6303257968433
 20
205.9328226061978
 30
0
 11
320.1303257968433
 21
205.9328226061978
 31
0
  0
LINE
  8
0
 62
3
 10
321.6303257968433
 20
203.5983109981975
 30
0
 11
317.5303257968434
 21
203.5983109981975
 31
0
  0
LINE
  8
0
 62
3
 10
317.5303257968434
 20
204.5445241496977
 30
0
 11
317.5303257968434
 21
203.5983109981975
 31
0
  0
LINE
  8
0
 62
3
 10
321.6303257968433
 20
204.5445241496977
 30
0
 11
321.6303257968433
 21
203.5983109981975
 31
0
  0
LINE
  8
0
 62
3
 10
320.1303257968433
 20
210.3122456795979
 30
0
 11
320.1303257968433
 21
205.9328226061978
 31
0
  0
LINE
  8
0
 62
3
 10
321.6303257968433
 20
210.312245686798
 30
0
 11
320.1303257968433
 21
210.3122456865976
 31
0
  0
LINE
  8
0
 62
3
 10
321.6303257968433
 20
210.312245686798
 30
0
 11
321.6303257968433
 21
205.9328226061978
 31
0
  0
LINE
  8
0
 62
3
 10
321.6303257968433
 20
203.312970770398
 30
0
 11
319.6303257968433
 21
203.312970770398
 31
0
  0
LINE
  8
0
 62
3
 10
317.5303257968434
 20
203.4736293641976
 30
0
 11
319.6303257968433
 21
203.4736293641976
 31
0
  0
LINE
  8
0
 62
3
 10
317.5303257968434
 20
203.5983109981975
 30
0
 11
317.5303257968434
 21
203.4736293641976
 31
0
  0
LINE
  8
0
 62
3
 10
321.6303257968433
 20
203.5983109981975
 30
0
 11
321.6303257968433
 21
203.4736293641976
 31
0
  0
LINE
  8
0
 62
3
 10
317.5303257968434
 20
210.1897383069978
 30
0
 11
319.0303257968434
 21
210.1897383069978
 31
0
  0
LINE
  8
0
 62
3
 10
319.0303257968434
 20
210.1897383069978
 30
0
 11
319.0303257968434
 21
205.9041376558978
 31
0
  0
LINE
  8
0
 62
3
 10
319.6303257968433
 20
213.6711790465976
 30
0
 11
308.3303257968422
 21
213.6711790465976
 31
0
  0
LINE
  8
0
 62
3
 10
319.6303257968433
 20
212.5354899115977
 30
0
 11
319.6303257968433
 21
213.6711790465976
 31
0
  0
LINE
  8
0
 62
3
 10
307.3303257968422
 20
204.5445241496977
 30
0
 11
307.3303257968422
 21
218.0939636314976
 31
0
  0
LINE
  8
0
 62
3
 10
320.1303257968433
 20
210.3122456865976
 30
0
 11
317.5303257968434
 21
210.312245686798
 31
0
  0
LINE
  8
0
 62
3
 10
317.5303257968434
 20
212.5492044893978
 30
0
 11
317.5303257968434
 21
210.312245686798
 31
0
  0
LINE
  8
0
 62
3
 10
321.6303257968433
 20
212.5492044893978
 30
0
 11
317.5303257968434
 21
212.5492044893978
 31
0
  0
LINE
  8
0
 62
3
 10
321.6303257968433
 20
212.5492044893978
 30
0
 11
321.6303257968433
 21
210.312245686798
 31
0
  0
LINE
  8
0
 62
3
 10
320.1303257968433
 20
210.0343242501978
 30
0
 11
319.1303257968433
 21
210.0343242500978
 31
0
  0
LINE
  8
0
 62
3
 10
319.0303257968434
 20
209.9301011331978
 30
0
 11
319.1303257968433
 21
209.9301011331978
 31
0
  0
LINE
  8
0
 62
3
 10
317.5303257968434
 20
210.3122456862977
 30
0
 11
317.5303257968434
 21
210.1897383069978
 31
0
  0
LINE
  8
0
 62
3
 10
319.6303257968433
 20
200.1345241496978
 30
0
 11
319.6303257968433
 21
200.7304986219978
 31
0
  0
LINE
  8
0
 62
3
 10
307.3303257968422
 20
199.1345241496978
 30
0
 11
307.3303257968422
 21
200.9224475664979
 31
0
  0
LINE
  8
0
 62
3
 10
319.6303257968433
 20
200.7304986219978
 30
0
 11
319.6303257968433
 21
203.4736293641976
 31
0
  0
LINE
  8
0
 62
3
 10
307.3303257968422
 20
200.9224475664979
 30
0
 11
307.3303257968422
 21
204.5445241496977
 31
0
  0
LINE
  8
0
 62
3
 10
319.1303257968433
 20
179.5345241496978
 30
0
 11
319.1303257968433
 21
188.5554598483977
 31
0
  0
LINE
  8
0
 62
3
 10
319.6303257968433
 20
215.7677150160977
 30
0
 11
319.6303257968433
 21
213.6711790465976
 31
0
  0
LINE
  8
0
 62
3
 10
316.8303257968422
 20
214.7357776534977
 30
0
 11
316.8303257968422
 21
215.9907032599978
 31
0
  0
LINE
  8
0
 62
3
 10
316.8303257968422
 20
222.2893675611978
 30
0
 11
307.6160441971423
 21
222.2893675611978
 31
0
  0
LINE
  8
0
 62
3
 10
307.3303257968422
 20
218.0939636314976
 30
0
 11
307.3303257968422
 21
225.2345241496979
 31
0
  0
LINE
  8
0
 62
3
 10
316.8303257968422
 20
221.6084959743978
 30
0
 11
316.8303257968422
 21
221.6122706217977
 31
0
  0
LINE
  8
0
 62
3
 10
319.6303257968433
 20
226.2345241496979
 30
0
 11
308.3303257968422
 21
226.2345241496979
 31
0
  0
LINE
  8
0
 62
3
 10
319.6303257968433
 20
225.8345241496978
 30
0
 11
319.6303257968433
 21
226.2345241479977
 31
0
  0
LINE
  8
0
 62
3
 10
309.9103257968426
 20
188.3945241496978
 30
0
 11
309.9103257968426
 21
193.6604121138979
 31
0
  0
LINE
  8
0
 62
3
 10
319.0303257968434
 20
209.4965325181976
 30
0
 11
319.1303257968433
 21
209.4936973200976
 31
0
  0
LINE
  8
0
 62
3
 10
319.1303257968433
 20
208.7464264665977
 30
0
 11
319.0303257968434
 21
208.7482657481979
 31
0
  0
LINE
  8
0
 62
3
 10
319.0303257968434
 20
207.4257818058979
 30
0
 11
319.1303257968433
 21
207.4230927955977
 31
0
  0
LINE
  8
0
 62
3
 10
319.1303257968433
 20
206.6527184361975
 30
0
 11
319.0303257968434
 21
206.6543667279977
 31
0
  0
LINE
  8
0
 62
3
 10
327.9103257968426
 20
193.0608620256978
 30
0
 11
327.9103257968426
 21
193.5516083221975
 31
0
  0
LINE
  8
0
 62
3
 10
310.9103257968426
 20
192.1544682580977
 30
0
 11
310.9103257968426
 21
193.0185423245977
 31
0
  0
LINE
  8
0
 62
3
 10
327.9103257968426
 20
191.7099572718979
 30
0
 11
327.9103257968426
 21
192.1304047744977
 31
0
  0
LINE
  8
0
 62
3
 10
310.9103257968426
 20
190.8879281906977
 30
0
 11
310.9103257968426
 21
191.6168882647975
 31
0
  0
LINE
  8
0
 62
3
 10
327.9103257968426
 20
190.588085668198
 30
0
 11
327.9103257968426
 21
190.9307314810978
 31
0
  0
LINE
  8
0
 62
3
 10
310.9103257968426
 20
189.8650904017979
 30
0
 11
310.9103257968426
 21
190.445928173698
 31
0
  0
LINE
  8
0
 62
3
 10
327.9103257968426
 20
189.715267039698
 30
0
 11
327.9103257968426
 21
189.9739966403976
 31
0
  0
LINE
  8
0
 62
3
 10
310.9103257968426
 20
189.1042074557976
 30
0
 11
310.9103257968426
 21
189.5265578616979
 31
0
  0
LINE
  8
0
 62
3
 10
327.9103257968426
 20
189.1070768557977
 30
0
 11
327.9103257968426
 21
189.2772732081978
 31
0
  0
LINE
  8
0
 62
3
 10
310.9103257968426
 20
188.6188573269978
 30
0
 11
310.9103257968426
 21
188.8751835139976
 31
0
  0
LINE
  8
0
 62
3
 10
327.9103257968426
 20
188.7743682844977
 30
0
 11
327.9103257968426
 21
188.8529942308978
 31
0
  0
LINE
  8
0
 62
3
 10
310.9103257968426
 20
188.4177010999979
 30
0
 11
310.9103257968426
 21
188.5034289210979
 31
0
  0
LINE
  8
0
 62
3
 10
319.1303257968433
 20
207.6759735905977
 30
0
 11
319.0303257968434
 21
207.6780723867979
 31
0
  0
LINE
  8
0
 62
3
 10
319.1303257968433
 20
209.5774419573978
 30
0
 11
319.0303257968434
 21
209.5799112451981
 31
0
  0
LINE
  8
0
 62
3
 10
310.9103257968426
 20
193.0207348936976
 30
0
 11
310.9103257968426
 21
193.0185423245977
 31
0
  0
LINE
  8
0
 62
3
 10
325.7055438088422
 20
192.6022218684977
 30
0
 11
310.9103257968426
 21
192.3749505231978
 31
0
  0
LINE
  8
0
 62
3
 10
325.7055438088422
 20
192.6022218684977
 30
0
 11
325.7108746118432
 21
192.5996454381977
 31
0
  0
LINE
  8
0
 62
3
 10
325.7108746118432
 20
192.5996454381977
 30
0
 11
327.9103257968426
 21
192.6360898227979
 31
0
  0
LINE
  8
0
 62
3
 10
327.9103257968426
 20
192.1450730422977
 30
0
 11
327.9103257968426
 21
192.6360898227979
 31
0
  0
LINE
  8
0
 62
3
 10
325.7108746118432
 20
192.5996454381977
 30
0
 11
325.7108746118432
 21
193.0406097409979
 31
0
  0
LINE
  8
0
 62
3
 10
327.9103257968426
 20
192.6360898227979
 30
0
 11
327.9103257968426
 21
193.0475094719977
 31
0
  0
LINE
  8
0
 62
3
 10
325.7057314388434
 20
192.6165026878975
 30
0
 11
319.4618323274425
 21
192.5062826057978
 31
0
  0
LINE
  8
0
 62
3
 10
325.7055438088422
 20
191.5907793103978
 30
0
 11
310.9103257968426
 21
191.2961227719977
 31
0
  0
LINE
  8
0
 62
3
 10
325.7055438088422
 20
191.5907793103978
 30
0
 11
325.7108746118432
 21
191.5876589367978
 31
0
  0
LINE
  8
0
 62
3
 10
325.7108746118432
 20
191.5876589367978
 30
0
 11
327.9103257968426
 21
191.6346889997979
 31
0
  0
LINE
  8
0
 62
3
 10
327.9103257968426
 20
190.9307314810978
 30
0
 11
327.9103257968426
 21
191.6346889997979
 31
0
  0
LINE
  8
0
 62
3
 10
325.7108746118432
 20
191.5876589367978
 30
0
 11
325.7108746118432
 21
191.6888491236975
 31
0
  0
LINE
  8
0
 62
3
 10
327.9103257968426
 20
191.6346889997979
 30
0
 11
327.9103257968426
 21
191.7043099716977
 31
0
  0
LINE
  8
0
 62
3
 10
325.7057314388434
 20
191.6021905524979
 30
0
 11
319.4976786014435
 21
191.4671015495978
 31
0
  0
LINE
  8
0
 62
3
 10
327.9103257968426
 20
189.9739966403976
 30
0
 11
327.9103257968426
 21
190.5725803546977
 31
0
  0
LINE
  8
0
 62
3
 10
327.9103257968426
 20
189.2772732081978
 30
0
 11
327.9103257968426
 21
189.6921772949978
 31
0
  0
LINE
  8
0
 62
3
 10
327.9103257968426
 20
188.8529942308978
 30
0
 11
327.9103257968426
 21
189.0818435875976
 31
0
  0
LINE
  8
0
 62
3
 10
327.9103257968426
 20
188.7087309765977
 30
0
 11
327.9103257968426
 21
188.7669295562977
 31
0
  0
LINE
  8
1
 62
3
 10
330.8303257968422
 20
198.6345241496978
 30
0
 11
309.5253698807422
 21
198.6345241496978
 31
0
  0
LINE
  8
1
 62
1
 10
302.3303257968422
 20
204.5445241496977
 30
0
 11
337.3303257968422
 21
204.5445241496977
 31
0
  0
LINE
  8
1
 62
1
 10
313.8303257968422
 20
221.7345241496979
 30
0
 11
325.8303257968422
 21
221.7345241496979
 31
0
  0
LINE
  8
0
 62
3
 10
203.3058034394971
 20
221.2652904037288
 30
0
 11
202.8455193376672
 21
220.805006301898
 31
0
  0
LINE
  8
0
 62
3
 10
204.225042255026
 20
223.881585494132
 30
0
 11
205.1789705863662
 21
224.8355138254976
 31
0
  0
LINE
  8
1
 62
3
 10
203.1643820832742
 20
222.8209253223247
 30
0
 11
203.517935473868
 21
223.1744787129182
 31
0
  0
LINE
  8
1
 62
3
 10
204.3664636112781
 20
222.3259505755082
 30
0
 11
204.0129102206852
 21
221.9723971849143
 31
0
  0
LINE
  8
0
 62
2
 10
220.1773825449714
 20
216.1962203429304
 30
0
 11
220.2547309924221
 21
216.5631217536945
 31
0
  0
LINE
  8
0
 62
2
 10
220.137542184606
 20
216.0134515237338
 30
0
 11
220.178910103044
 21
216.2021031506232
 31
0
  0
LINE
  8
0
 62
2
 10
218.2314227047073
 20
215.7555629798748
 30
0
 11
218.2456501582792
 21
216.1302588660394
 31
0
  0
LINE
  8
0
 62
2
 10
218.2230443735311
 20
215.568690030652
 30
0
 11
218.2319340623544
 21
215.7616193297141
 31
0
  0
LINE
  8
0
 62
2
 10
216.3879287811401
 20
214.9923665665526
 30
0
 11
216.338625920213
 21
215.3640770122606
 31
0
  0
LINE
  8
0
 62
2
 10
216.4112535218442
 20
214.8067657797662
 30
0
 11
216.3874092267174
 21
214.9984222187238
 31
0
  0
LINE
  8
0
 62
2
 10
214.6999376772992
 20
213.9285880910757
 30
0
 11
214.5885229340261
 21
214.2866190709157
 31
0
  0
LINE
  8
0
 62
2
 10
214.7542944423713
 20
213.7495991593638
 30
0
 11
214.698402158268
 21
213.9344688258364
 31
0
  0
LINE
  8
0
 62
2
 10
213.2160125152764
 20
212.5948322194681
 30
0
 11
213.0456912666082
 21
212.9288832631672
 31
0
  0
LINE
  8
0
 62
2
 10
213.299837472885
 20
212.4276046138929
 30
0
 11
213.2135052081731
 21
212.6003688494096
 31
0
  0
LINE
  8
0
 62
2
 10
211.9788454861932
 20
211.0294708063481
 30
0
 11
211.7545178359151
 21
211.3299313409692
 31
0
  0
LINE
  8
0
 62
2
 10
212.0897270112773
 20
210.8788156272817
 30
0
 11
211.9754385256761
 21
211.0345040438801
 31
0
  0
LINE
  8
0
 62
2
 10
211.0240296055272
 20
209.2775389453551
 30
0
 11
210.7521494093753
 21
209.5357647893065
 31
0
  0
LINE
  8
0
 62
2
 10
211.1587776617002
 20
209.1477905082081
 30
0
 11
211.019821009078
 21
209.2819239853727
 31
0
  0
LINE
  8
0
 62
2
 10
210.3790347101044
 20
207.3894393196961
 30
0
 11
210.067423899799
 21
207.5980013738799
 31
0
  0
LINE
  8
0
 62
2
 10
210.533772626281
 20
207.2843304576456
 30
0
 11
210.3741455580921
 21
207.3930500055905
 31
0
  0
LINE
  8
0
 62
2
 10
210.0624171571144
 20
205.4194921283548
 30
0
 11
209.7200407051573
 21
205.5723901096661
 31
0
  0
LINE
  8
0
 62
2
 10
210.2326931584621
 20
205.3420467995773
 30
0
 11
210.0569881093361
 21
205.4222245815095
 31
0
  0
LINE
  8
0
 62
2
 10
210.0832859619122
 20
203.4243723062588
 30
0
 11
209.7199939613502
 21
203.5172073743736
 31
0
  0
LINE
  8
0
 62
2
 10
210.264201246403
 20
203.3768185953384
 30
0
 11
210.0774732108444
 21
203.4261479146148
 31
0
  0
LINE
  8
0
 62
2
 10
210.441040733705
 20
201.461478999226
 30
0
 11
210.0672850131882
 21
201.4915803102419
 31
0
  0
LINE
  8
0
 62
2
 10
210.6273904095424
 20
201.4451850156656
 30
0
 11
210.43501151088
 21
201.462246678933
 31
0
  0
LINE
  8
0
 62
2
 10
211.1253889486643
 20
199.587284203529
 30
0
 11
210.7519223756963
 21
199.5537857495394
 31
0
  0
LINE
  8
0
 62
2
 10
211.3118117778404
 20
199.6027187215485
 30
0
 11
211.119316713457
 21
199.5870218686155
 31
0
  0
LINE
  8
0
 62
2
 10
212.1166420635
 20
197.8557080793398
 30
0
 11
211.7542091868763
 21
197.7595736032856
 31
0
  0
LINE
  8
0
 62
2
 10
212.2977747034051
 20
197.902427051348
 30
0
 11
212.1107015127441
 21
197.8544232771216
 31
0
  0
LINE
  8
0
 62
2
 10
213.3862819504043
 20
196.3165676799233
 30
0
 11
213.0453098819721
 21
196.1605629489275
 31
0
  0
LINE
  8
0
 62
2
 10
213.5569132559763
 20
196.3932270116674
 30
0
 11
213.380643992401
 21
196.3142973738698
 31
0
  0
LINE
  8
0
 62
2
 10
214.89778135713
 20
195.0141437262884
 30
0
 11
214.5880797861423
 21
194.80275696116
 31
0
  0
LINE
  8
0
 62
2
 10
215.053002304317
 20
195.118537946141
 30
0
 11
214.8926081946552
 21
195.0109532325907
 31
0
  0
LINE
  8
0
 62
2
 10
216.6076547877733
 20
193.9859066608634
 30
0
 11
216.338133758346
 21
193.7252194110017
 31
0
  0
LINE
  8
0
 62
2
 10
216.7429997050513
 20
194.1150323707423
 30
0
 11
216.6030952515412
 21
193.9818877693035
 31
0
  0
LINE
  8
0
 62
2
 10
218.4667095706523
 20
193.261438631347
 30
0
 11
218.2451231418131
 21
192.9589508099413
 31
0
  0
LINE
  8
0
 62
2
 10
218.5782846153752
 20
193.4115809137978
 30
0
 11
218.462894837488
 21
193.2567069645256
 31
0
  0
LINE
  8
0
 62
2
 10
220.4214611203361
 20
192.861582419013
 30
0
 11
220.254184283503
 21
192.5259965322371
 31
0
  0
LINE
  8
0
 62
2
 10
220.5060563037164
 20
193.0284217145446
 30
0
 11
220.4185009392504
 21
192.8562741059141
 31
0
  0
LINE
  8
0
 62
2
 10
222.4156716770704
 20
192.7978417966094
 30
0
 11
222.3075169489862
 21
192.4388125744879
 31
0
  0
LINE
  8
0
 62
2
 10
222.4708532148234
 20
192.9765781764421
 30
0
 11
222.4136512118021
 21
192.7921095561993
 31
0
  0
LINE
  8
0
 62
2
 10
224.3919682543942
 20
193.0720505674191
 30
0
 11
224.3460472221132
 21
192.69990719943
 31
0
  0
LINE
  8
0
 62
2
 10
224.4161485861682
 20
193.2575418263502
 30
0
 11
224.3909456332731
 21
193.0660593149573
 31
0
  0
LINE
  8
0
 62
2
 10
226.2934932469843
 20
193.6763198071548
 30
0
 11
226.3111270482132
 21
193.3017687737855
 31
0
  0
LINE
  8
0
 62
2
 10
226.2859767101022
 20
193.863229403639
 30
0
 11
226.2934978905882
 21
193.6702419096193
 31
0
  0
LINE
  8
0
 62
2
 10
228.0655402110874
 20
194.5932648265264
 30
0
 11
228.1462215253541
 21
194.2270818762515
 31
0
  0
LINE
  8
0
 62
2
 10
228.026543054616
 20
194.7762154137669
 30
0
 11
228.0665719858203
 21
194.5872751436534
 31
0
  0
LINE
  8
0
 62
2
 10
229.6571277565313
 20
195.7965053248161
 30
0
 11
229.7985354006823
 21
195.4492254582535
 31
0
  0
LINE
  8
0
 62
2
 10
229.5877719198384
 20
195.9702334558169
 30
0
 11
229.6591569784673
 21
195.7907761784265
 31
0
  0
LINE
  8
0
 62
2
 10
231.0224662697833
 20
197.2514243451612
 30
0
 11
231.220531977895
 21
196.933038725489
 31
0
  0
LINE
  8
0
 62
2
 10
230.924747104596
 20
197.4109319009057
 30
0
 11
231.0254345586682
 21
197.246120561501
 31
0
  0
LINE
  8
0
 62
2
 10
232.1222752707731
 20
198.9161641965723
 30
0
 11
232.3713007372421
 21
198.6358327060223
 31
0
  0
LINE
  8
0
 62
2
 10
231.9990041353622
 20
199.0568621807756
 30
0
 11
232.1260972296063
 21
198.9114383642967
 31
0
  0
LINE
  8
0
 62
2
 10
232.9249135034111
 20
200.7428306902277
 30
0
 11
233.2177343219173
 21
200.5086184023484
 31
0
  0
LINE
  8
0
 62
2
 10
232.7796368804461
 20
200.8606712537217
 30
0
 11
232.9294791753014
 21
200.7388187704617
 31
0
  0
LINE
  8
0
 62
2
 10
233.4072892473682
 20
202.67887104445
 30
0
 11
233.7354810292231
 21
202.4975161937658
 31
0
  0
LINE
  8
0
 62
2
 10
233.2441867124194
 20
202.7704639408884
 30
0
 11
233.4124672789681
 21
202.6756884592176
 31
0
  0
LINE
  8
0
 62
2
 10
233.5555246616432
 20
204.6685858163428
 30
0
 11
233.909645403548
 21
204.5453059408699
 31
0
  0
LINE
  8
0
 62
2
 10
233.3792886377341
 20
204.7312959388211
 30
0
 11
233.561166082156
 21
204.6663241279011
 31
0
  0
LINE
  8
0
 62
2
 10
233.3653550469121
 20
206.6547313621597
 30
0
 11
233.7352167752542
 21
206.593073196019
 31
0
  0
LINE
  8
0
 62
2
 10
233.1810558045713
 20
206.6867545546447
 30
0
 11
233.371297553947
 21
206.6534556387733
 31
0
  0
LINE
  8
0
 62
2
 10
232.8422515399593
 20
208.5801667239795
 30
0
 11
233.2172134165071
 21
208.5819041586589
 31
0
  0
LINE
  8
0
 62
2
 10
232.6551913266831
 20
208.5805816864697
 30
0
 11
232.8483241689323
 21
208.5799136679215
 31
0
  0
LINE
  8
0
 62
2
 10
232.0012637103073
 20
210.3894975621386
 30
0
 11
232.370538166721
 21
210.4545806120352
 31
0
  0
LINE
  8
0
 62
2
 10
231.8168242061051
 20
210.3582923562569
 30
0
 11
232.0072917530583
 21
210.3902744537747
 31
0
  0
LINE
  8
0
 62
2
 10
230.866586587515
 20
212.0306698378452
 30
0
 11
231.2195496812451
 21
212.157226078341
 31
0
  0
LINE
  8
0
 62
2
 10
230.6900740751862
 20
211.9687422303035
 30
0
 11
230.8723966186171
 21
212.0324543261783
 31
0
  0
LINE
  8
0
 62
2
 10
229.4708645756464
 20
213.4564673960974
 30
0
 11
229.7973616383551
 21
213.6408558327913
 31
0
  0
LINE
  8
0
 62
2
 10
229.3073572802282
 20
213.3655990301517
 30
0
 11
229.4762894418191
 21
213.459208141803
 31
0
  0
LINE
  8
0
 62
2
 10
227.8542522811522
 20
214.6258703637802
 30
0
 11
228.1448900662272
 21
214.8627861830722
 31
0
  0
LINE
  8
0
 62
2
 10
227.7084542705352
 20
214.5086755017566
 30
0
 11
227.8591359102243
 21
214.6294885162237
 31
0
  0
LINE
  8
0
 62
2
 10
226.0632592739321
 20
215.5052352821301
 30
0
 11
226.3096761980632
 21
215.7878624695093
 31
0
  0
LINE
  8
0
 62
2
 10
225.9393651238902
 20
215.3650855936899
 30
0
 11
226.0674611650002
 21
215.5096267478845
 31
0
  0
LINE
  8
0
 62
2
 10
224.1494120175312
 20
216.0692630214323
 30
0
 11
224.3445187215712
 21
216.3894704566719
 31
0
  0
LINE
  8
0
 62
2
 10
224.0509861347264
 20
215.910190581398
 30
0
 11
224.1528112831402
 21
216.0743014590216
 31
0
  0
LINE
  8
1
 62
3
 10
237.493004999666
 20
196.3345241496988
 30
0
 11
243.493004999666
 21
196.3345241496988
 31
0
  0
LINE
  8
1
 62
3
 10
243.493004999666
 20
196.3345241496988
 30
0
 11
243.493004999666
 21
190.3345241496982
 31
0
  0
LINE
  8
1
 62
3
 10
243.493004999666
 20
190.3345241496982
 30
0
 11
237.493004999666
 21
190.3345241496982
 31
0
  0
LINE
  8
1
 62
3
 10
237.493004999666
 20
190.3345241496982
 30
0
 11
237.493004999666
 21
196.3345241496988
 31
0
  0
LINE
  8
1
 62
3
 10
206.3643528232524
 20
221.7422749259065
 30
0
 11
197.1539744431484
 21
230.9526533060108
 31
0
  0
LINE
  8
1
 62
3
 10
196.244486074268
 20
230.447928112518
 30
0
 11
205.5921601443533
 21
221.1002540424332
 31
0
  0
LINE
  8
1
 62
3
 10
205.206430795864
 20
220.7788766097348
 30
0
 11
196.2098400573832
 21
229.7754673482161
 31
0
  0
LINE
  8
1
 62
3
 10
195.3862074901822
 20
229.1848863530443
 30
0
 11
204.4935472929383
 21
220.0775465502881
 31
0
  0
LINE
  8
1
 62
1
 10
204.368004999666
 20
182.9345241496978
 30
0
 11
199.8180049996672
 21
182.9345241496978
 31
0
  0
LINE
  8
1
 62
1
 10
202.0930049996673
 20
185.2095241496977
 30
0
 11
202.0930049996673
 21
180.6595241496978
 31
0
  0
ARC
  8
0
 62
3
 10
202.0930049996673
 20
182.9345241496978
 30
0
 40
4.100000000001372
 50
137.6472296618161
 51
317.6472296617835
  0
ARC
  8
0
 62
3
 10
241.9674833982663
 20
214.4948440397977
 30
0
 40
2.000000000000419
 50
131.9872124958093
 51
201.331833745789
  0
ARC
  8
0
 62
3
 10
234.4174677193664
 20
224.1132512661977
 30
0
 40
2.000000000000366
 50
227.555175875536
 51
311.9872124957793
  0
ARC
  8
0
 62
3
 10
199.4524677612662
 20
189.0925388833978
 30
0
 40
2.000000000000016
 50
317.6472296617953
 51
31.85510037619382
  0
ARC
  8
0
 62
3
 10
208.0265448457662
 20
180.3887828349977
 30
0
 40
1.999999999999591
 50
61.17002741452853
 51
137.647229661819
  0
ARC
  8
0
 62
3
 10
201.5469746816661
 20
218.2851720779977
 30
0
 40
1.000000000000769
 50
322.4742890411619
 51
44.99999999996776
  0
ARC
  8
0
 62
3
 10
202.2091221038663
 20
220.4514517804979
 30
0
 40
0.999999999999566
 50
134.9999999999954
 51
225.0000000000127
  0
ARC
  8
0
 62
3
 10
203.6634777070672
 20
220.6941524549977
 30
0
 40
1.000000000000201
 50
224.9994162441574
 51
314.9440801387076
  0
ARC
  8
0
 62
3
 10
205.886077367566
 20
223.1384575505978
 30
0
 40
0.5000000000094297
 50
44.99999999996086
 51
134.9999999999263
  0
ARC
  8
0
 62
3
 10
206.5224734706671
 20
223.4920109411975
 30
0
 40
0.2000000000002107
 50
224.9999999998158
 51
315.0000000000172
  0
ARC
  8
0
 62
3
 10
205.9567880456661
 20
224.0576963661979
 30
0
 40
1.000000000000571
 50
315.0000000000207
 51
44.99999999996776
  0
ARC
  8
0
 62
3
 10
205.886077367566
 20
224.1284070442977
 30
0
 40
1.000000000000591
 50
44.99999999998043
 51
134.9999999999586
  0
ARC
  8
0
 62
3
 10
203.1990727282673
 20
220.4514529113043
 30
0
 40
0.5000000000051289
 50
135.0000000005182
 51
224.9994162446768
  0
ARC
  8
0
 62
3
 10
221.7930049996662
 20
204.5445241496977
 30
0
 40
19.86999999999993
 50
348.9334557310993
 51
0
  0
ARC
  8
0
 62
3
 10
241.7842230716674
 20
200.6345241496978
 30
0
 40
0.500000000001203
 50
168.9334557311552
 51
270
  0
ARC
  8
0
 62
3
 10
240.893004999667
 20
221.7345241496979
 30
0
 40
4.100000000000251
 50
311.9872124957993
 51
131.9872124958083
  0
ARC
  8
0
 62
3
 10
221.7930049996661
 20
204.5445241496939
 30
0
 40
20.57000000000031
 50
357.363482861911
 51
1.060823994097451e-011
  0
ARC
  8
0
 62
2
 10
218.5517023984662
 20
217.7004134040978
 30
0
 40
3.914270827700216
 50
345.6242037678974
 51
12.27132145309376
  0
ARC
  8
0
 62
2
 10
222.1012380547672
 20
216.7906456738978
 30
0
 40
0.2500000000005846
 50
165.624203767959
 51
345.6242037679085
  0
ARC
  8
0
 62
2
 10
218.5517023984662
 20
217.7004134040978
 30
0
 40
3.414270827700703
 50
345.6242037679029
 51
14.31088985929569
  0
ARC
  8
0
 62
2
 10
221.7930049996662
 20
204.5445241496977
 30
0
 40
13.6375000000002
 50
89.59031906919864
 51
97.01875047688323
  0
ARC
  8
0
 62
2
 10
221.7930049996662
 20
204.5445241496977
 30
0
 40
12.83750000000009
 50
89.50743040019927
 51
96.78935735448533
  0
ARC
  8
0
 62
2
 10
221.7930049996662
 20
204.5445241496977
 30
0
 40
12.80000000000027
 50
89.62384612329508
 51
96.79594657426827
  0
ARC
  8
0
 62
3
 10
322.5303257968434
 20
225.5345241496978
 30
0
 40
0.2999999999988177
 50
0
 51
90
  0
ARC
  8
0
 62
3
 10
317.1303257968433
 20
225.5345241496978
 30
0
 40
0.3000000000000114
 50
90
 51
180
  0
ARC
  8
0
 62
3
 10
331.3303257968422
 20
179.3345241496977
 30
0
 40
1
 50
270
 51
0
  0
ARC
  8
0
 62
3
 10
330.1303257968433
 20
180.2345241496979
 30
0
 40
0.7000000000001023
 50
270
 51
0
  0
ARC
  8
0
 62
3
 10
331.3303257968422
 20
199.1345241496978
 30
0
 40
1
 50
0
 51
90
  0
ARC
  8
0
 62
3
 10
309.5303257968434
 20
180.2345241496979
 30
0
 40
0.7000000000011823
 50
180
 51
270
  0
ARC
  8
0
 62
3
 10
308.3303257968422
 20
179.3345241496977
 30
0
 40
1
 50
180
 51
270
  0
ARC
  8
0
 62
3
 10
308.3303257968422
 20
199.1345241496978
 30
0
 40
1
 50
90
 51
180
  0
ARC
  8
0
 62
3
 10
309.5303257968434
 20
192.9345241496978
 30
0
 40
0.6999999999999886
 50
90
 51
180
  0
ARC
  8
0
 62
2
 10
216.3749109285432
 20
216.9633695575062
 30
0
 40
3.914270827700102
 50
355.3542037678996
 51
22.00132145309613
  0
ARC
  8
0
 62
2
 10
220.0271426384761
 20
216.666579673538
 30
0
 40
0.2500000000002661
 50
175.3542037679168
 51
355.3542037678973
  0
ARC
  8
0
 62
2
 10
216.3749109285432
 20
216.9633695575062
 30
0
 40
3.414270827700953
 50
355.3542037679
 51
24.04088985929592
  0
ARC
  8
0
 62
2
 10
214.35399679902
 20
215.8690383387169
 30
0
 40
3.914270827699494
 50
5.084203767901971
 51
31.73132145310164
  0
ARC
  8
0
 62
2
 10
218.00385068273
 20
216.193764878783
 30
0
 40
0.2499999999992465
 50
185.0842037679518
 51
5.084203767918733
  0
ARC
  8
0
 62
2
 10
214.35399679902
 20
215.8690383387169
 30
0
 40
3.414270827700492
 50
5.084203767901186
 51
33.7708898592954
  0
ARC
  8
0
 62
2
 10
212.5471012521011
 20
214.4489034092645
 30
0
 40
3.914270827699925
 50
14.8142037679002
 51
41.46132145309644
  0
ARC
  8
0
 62
2
 10
216.089571839258
 20
215.3858040642876
 30
0
 40
0.2499999999990995
 50
194.8142037679692
 51
14.81420376791385
  0
ARC
  8
0
 62
2
 10
212.5471012521011
 20
214.4489034092645
 30
0
 40
3.414270827700031
 50
14.81420376790009
 51
43.50088985929199
  0
ARC
  8
0
 62
2
 10
211.0062082638001
 20
212.7438217297157
 30
0
 40
3.914270827700434
 50
24.54420376790068
 51
51.19132145308885
  0
ARC
  8
0
 62
2
 10
214.339379477216
 20
214.2659420798566
 30
0
 40
0.2499999999996233
 50
204.5442037679665
 51
24.54420376792232
  0
ARC
  8
0
 62
2
 10
211.0062082638001
 20
212.7438217297157
 30
0
 40
3.414270827700774
 50
24.54420376789421
 51
53.23088985928502
  0
ARC
  8
0
 62
2
 10
209.7756489767121
 20
210.802848114159
 30
0
 40
3.914270827700193
 50
34.27420376789657
 51
60.92132145309166
  0
ARC
  8
0
 62
2
 10
212.8036262348201
 20
212.866397101375
 30
0
 40
0.249999999999436
 50
214.2742037679155
 51
34.27420376784877
  0
ARC
  8
0
 62
2
 10
209.7756489767121
 20
210.802848114159
 30
0
 40
3.414270827700507
 50
34.27420376788983
 51
62.96088985928978
  0
ARC
  8
0
 62
2
 10
208.8908263030712
 20
208.6818239343024
 30
0
 40
3.914270827700241
 50
44.00420376789703
 51
70.65132145310564
  0
ARC
  8
0
 62
2
 10
211.5264953853362
 20
211.2274337211798
 30
0
 40
0.2499999999996955
 50
224.004203767966
 51
44.0042037678047
  0
ARC
  8
0
 62
2
 10
208.8908263030712
 20
208.6818239343024
 30
0
 40
3.414270827699681
 50
44.0042037679092
 51
72.6908898593136
  0
ARC
  8
0
 62
2
 10
208.3771963909753
 20
206.4417705758472
 30
0
 40
3.914270827699879
 50
53.73420376790112
 51
80.38132145310362
  0
ARC
  8
0
 62
2
 10
210.5447296943121
 20
209.3962045448474
 30
0
 40
0.2500000000002999
 50
233.7342037677927
 51
53.7342037680102
  0
ARC
  8
0
 62
2
 10
208.3771963909753
 20
206.4417705758472
 30
0
 40
3.414270827700287
 50
53.73420376789154
 51
82.42088985929813
  0
ARC
  8
0
 62
2
 10
208.2495362567702
 20
204.1471338670278
 30
0
 40
3.914270827700054
 50
63.4642037679019
 51
90.11132145309682
  0
ARC
  8
0
 62
2
 10
209.8865743385181
 20
207.4253936214041
 30
0
 40
0.2500000000001251
 50
243.4642037679269
 51
63.46420376787452
  0
ARC
  8
0
 62
2
 10
208.2495362567702
 20
204.1471338670278
 30
0
 40
3.414270827699779
 50
63.46420376790975
 51
92.15088985929913
  0
ARC
  8
0
 62
2
 10
208.5115186536291
 20
201.8639299867177
 30
0
 40
3.914270827699967
 50
73.19420376790498
 51
99.84132145309744
  0
ARC
  8
0
 62
2
 10
209.570964298613
 20
205.3717007351539
 30
0
 40
0.2499999999999509
 50
253.1942037680212
 51
73.19420376768936
  0
ARC
  8
0
 62
2
 10
208.5115186536291
 20
201.8639299867177
 30
0
 40
3.414270827700531
 50
73.19420376789179
 51
101.8808898593004
  0
ARC
  8
0
 62
2
 10
209.155606407277
 20
199.6578461939017
 30
0
 40
3.914270827700086
 50
82.92420376789113
 51
109.5713214530798
  0
ARC
  8
0
 62
2
 10
209.606979604026
 20
203.2942101657167
 30
0
 40
0.2500000000000723
 50
262.9242037680195
 51
82.92420376788775
  0
ARC
  8
0
 62
2
 10
209.155606407277
 20
199.6578461939017
 30
0
 40
3.414270827699978
 50
82.92420376789067
 51
111.6108898592845
  0
ARC
  8
0
 62
2
 10
210.1632692587891
 20
197.5923510200971
 30
0
 40
3.914270827700177
 50
92.65420376788632
 51
119.3013214530984
  0
ARC
  8
0
 62
2
 10
209.9935841025713
 20
201.2526908466729
 30
0
 40
0.2499999999997545
 50
272.6542037677993
 51
92.6542037680279
  0
ARC
  8
0
 62
2
 10
210.1632692587891
 20
197.5923510200971
 30
0
 40
3.414270827700234
 50
92.65420376789655
 51
121.3408898592889
  0
ARC
  8
0
 62
2
 10
211.5055169759444
 20
195.7268682940664
 30
0
 40
3.914270827700476
 50
102.3842037679024
 51
129.031321453094
  0
ARC
  8
0
 62
2
 10
210.7196552703053
 20
199.3058768268687
 30
0
 40
0.2500000000001874
 50
282.3842037679278
 51
102.3842037677222
  0
ARC
  8
0
 62
2
 10
211.5055169759444
 20
195.7268682940664
 30
0
 40
3.414270827700419
 50
102.3842037678985
 51
131.070889859293
  0
ARC
  8
0
 62
2
 10
213.1437333956492
 20
194.1150675317089
 30
0
 40
3.914270827700496
 50
112.1142037679109
 51
138.7613214530971
  0
ARC
  8
0
 62
2
 10
211.7643042040331
 20
197.5097775051202
 30
0
 40
0.2500000000003724
 50
292.1142037681577
 51
112.1142037679642
  0
ARC
  8
0
 62
2
 10
213.1437333956492
 20
194.1150675317089
 30
0
 40
3.41427082770053
 50
112.1142037679019
 51
140.8008898592982
  0
ARC
  8
0
 62
2
 10
215.0307874022101
 20
192.8033198762331
 30
0
 40
3.914270827700042
 50
121.8442037679035
 51
148.4913214530989
  0
ARC
  8
0
 62
2
 10
213.0974765903184
 20
195.9160662524866
 30
0
 40
0.2499999999998172
 50
301.8442037679085
 51
121.8442037678691
  0
ARC
  8
0
 62
2
 10
215.0307874022101
 20
192.8033198762331
 30
0
 40
3.414270827700118
 50
121.8442037679058
 51
150.5308898592977
  0
ARC
  8
0
 62
2
 10
217.1123888788702
 20
191.829364010859
 30
0
 40
3.914270827700674
 50
131.5742037679049
 51
158.2213214531022
  0
ARC
  8
0
 62
2
 10
214.6808173612822
 20
194.5705937810747
 30
0
 40
0.250000000000049
 50
311.5742037678917
 51
131.5742037679008
  0
ARC
  8
0
 62
2
 10
217.1123888788702
 20
191.829364010859
 30
0
 40
3.414270827700801
 50
131.574203767906
 51
160.2608898593001
  0
ARC
  8
0
 62
2
 10
219.3286506221762
 20
191.2212204254439
 30
0
 40
3.914270827700184
 50
141.304203767902
 51
167.9513214531008
  0
ARC
  8
0
 62
2
 10
216.4687741612293
 20
193.5120690294286
 30
0
 40
0.2500000000003364
 50
321.3042037678781
 51
141.3042037681059
  0
ARC
  8
0
 62
2
 10
219.3286506221762
 20
191.2212204254439
 30
0
 40
3.414270827699871
 50
141.3042037678957
 51
169.9908898593
  0
ARC
  8
0
 62
2
 10
221.6158112832791
 20
190.996385273326
 30
0
 40
3.914270827699661
 50
151.0342037678962
 51
177.6813214530943
  0
ARC
  8
0
 62
2
 10
218.4099078776103
 20
192.7709455151252
 30
0
 40
0.2499999999997095
 50
331.0342037679096
 51
151.0342037680027
  0
ARC
  8
0
 62
2
 10
221.6158112832791
 20
190.996385273326
 30
0
 40
3.414270827700027
 50
151.0342037678988
 51
179.7208898592925
  0
ARC
  8
0
 62
2
 10
223.9080697675072
 20
191.1613270109563
 30
0
 40
3.914270827700228
 50
160.7642037679021
 51
187.4113214530994
  0
ARC
  8
0
 62
2
 10
220.4483725326522
 20
192.3685451939679
 30
0
 40
0.2499999999993132
 50
340.7642037678314
 51
160.7642037678993
  0
ARC
  8
0
 62
2
 10
223.9080697675072
 20
191.1613270109563
 30
0
 40
3.41427082770038
 50
160.7642037679003
 51
189.4508898592993
  0
ARC
  8
0
 62
2
 10
226.139478316969
 20
191.7113003018661
 30
0
 40
3.914270827700251
 50
170.494203767906
 51
197.1413214530973
  0
ARC
  8
0
 62
2
 10
222.525521959501
 20
192.3164450321385
 30
0
 40
0.2500000000002855
 50
350.4942037679592
 51
170.494203767865
  0
ARC
  8
0
 62
2
 10
226.139478316969
 20
191.7113003018661
 30
0
 40
3.414270827699292
 50
170.4942037678967
 51
199.180889859304
  0
ARC
  8
0
 62
2
 10
228.2458398126291
 20
192.630482538926
 30
0
 40
3.914270827699432
 50
180.2242037679035
 51
206.8713214531014
  0
ARC
  8
0
 62
2
 10
224.5815970391732
 20
192.6161439395044
 30
0
 40
0.249999999999381
 50
0.2242037678709795
 51
180.2242037679492
  0
ARC
  8
0
 62
2
 10
228.2458398126291
 20
192.630482538926
 30
0
 40
3.414270827700555
 50
180.2242037679007
 51
208.9108898593015
  0
ARC
  8
0
 62
2
 10
230.1665547108933
 20
193.8924290571723
 30
0
 40
3.914270827699817
 50
189.9542037679044
 51
216.6013214530981
  0
ARC
  8
0
 62
2
 10
226.5574449568821
 20
193.259019646317
 30
0
 40
0.2500000000001811
 50
9.954203767866272
 51
189.9542037679112
  0
ARC
  8
0
 62
2
 10
230.1665547108933
 20
193.8924290571723
 30
0
 40
3.41427082770082
 50
189.9542037679026
 51
218.6408898592994
  0
ARC
  8
0
 62
2
 10
231.8463644787644
 20
195.460833940833
 30
0
 40
3.914270827700887
 50
199.6842037678962
 51
226.3313214530996
  0
ARC
  8
0
 62
2
 10
228.3962210151371
 20
194.2265767639639
 30
0
 40
0.2500000000009219
 50
19.68420376787519
 51
199.6842037678958
  0
ARC
  8
0
 62
2
 10
231.8463644787644
 20
195.460833940833
 30
0
 40
3.414270827700351
 50
199.6842037679025
 51
228.3708898593
  0
ARC
  8
0
 62
2
 10
233.236941369335
 20
197.29057453631
 30
0
 40
3.914270827700492
 50
209.4142037678979
 51
236.061321453107
  0
ARC
  8
0
 62
2
 10
230.045024042829
 20
195.4909788931137
 30
0
 40
0.2500000000001993
 50
29.41420376780179
 51
209.4142037680182
  0
ARC
  8
0
 62
2
 10
233.236941369335
 20
197.29057453631
 30
0
 40
3.41427082770018
 50
209.4142037678979
 51
238.1008898592974
  0
ARC
  8
0
 62
2
 10
234.2982788001291
 20
199.3290096207122
 30
0
 40
3.914270827700713
 50
219.1442037678922
 51
245.7913214531076
  0
ARC
  8
0
 62
2
 10
231.4564183499492
 20
197.0158494706233
 30
0
 40
0.2499999999996822
 50
39.14420376801163
 51
219.1442037678031
  0
ARC
  8
0
 62
2
 10
234.2982788001291
 20
199.3290096207122
 30
0
 40
3.414270827699782
 50
219.1442037679028
 51
247.8308898592881
  0
ARC
  8
0
 62
2
 10
234.999842333425
 20
201.5174938779267
 30
0
 40
3.914270827699957
 50
228.8742037679096
 51
255.5213214531045
  0
ARC
  8
0
 62
2
 10
232.5897984416552
 20
198.7573183150325
 30
0
 40
0.2499999999995964
 50
48.87420376801838
 51
228.8742037678205
  0
ARC
  8
0
 62
2
 10
234.999842333425
 20
201.5174938779267
 30
0
 40
3.414270827700471
 50
228.8742037679008
 51
257.5608898592984
  0
ARC
  8
0
 62
2
 10
235.3214481451241
 20
203.7930651110917
 30
0
 40
3.914270827699854
 50
238.6042037679135
 51
265.2513214531125
  0
ARC
  8
0
 62
2
 10
233.412557229175
 20
200.6652837617534
 30
0
 40
0.2500000000006088
 50
58.60420376774472
 51
238.6042037680016
  0
ARC
  8
0
 62
2
 10
235.3214481451241
 20
203.7930651110917
 30
0
 40
3.414270827700313
 50
238.6042037679068
 51
267.2908898593072
  0
ARC
  8
0
 62
2
 10
235.2538437087974
 20
206.0902556507542
 30
0
 40
3.914270827700005
 50
248.3342037679065
 51
274.9813214530955
  0
ARC
  8
0
 62
2
 10
233.9010241283704
 20
202.6848540766262
 30
0
 40
0.250000000000066
 50
68.33420376782266
 51
248.3342037679352
  0
ARC
  8
0
 62
2
 10
235.2538437087974
 20
206.0902556507542
 30
0
 40
3.414270827700539
 50
248.3342037678894
 51
277.0208898593086
  0
ARC
  8
0
 62
2
 10
234.7989739887794
 20
208.3429758449053
 30
0
 40
3.914270827700125
 50
258.0642037679059
 51
284.7113214530982
  0
ARC
  8
0
 62
2
 10
234.0411460570822
 20
204.7579266786876
 30
0
 40
0.2500000000000099
 50
78.0642037678149
 51
258.0642037681292
  0
ARC
  8
0
 62
2
 10
234.7989739887794
 20
208.3429758449053
 30
0
 40
3.414270827700076
 50
258.0642037678962
 51
286.7508898592963
  0
ARC
  8
0
 62
2
 10
233.9699254839861
 20
210.4864154433139
 30
0
 40
3.914270827700014
 50
267.7942037678967
 51
294.4413214531059
  0
ARC
  8
0
 62
2
 10
233.8288917391301
 20
206.8248597382794
 30
0
 40
0.2500000000001628
 50
87.79420376784707
 51
267.7942037678405
  0
ARC
  8
0
 62
2
 10
233.9699254839861
 20
210.4864154433139
 30
0
 40
3.414270827700045
 50
267.7942037678975
 51
296.4808898593022
  0
ARC
  8
0
 62
2
 10
232.790549732299
 20
212.4589081737594
 30
0
 40
3.914270827700008
 50
277.5242037679024
 51
304.1713214531113
  0
ARC
  8
0
 62
2
 10
233.2703676832102
 20
208.826188058991
 30
0
 40
0.2500000000002022
 50
97.52420376810194
 51
277.5242037678256
  0
ARC
  8
0
 62
2
 10
232.790549732299
 20
212.4589081737594
 30
0
 40
3.414270827700197
 50
277.5242037679084
 51
306.2108898593056
  0
ARC
  8
0
 62
2
 10
231.2947771072222
 20
214.2037058667304
 30
0
 40
3.914270827700352
 50
287.2542037679102
 51
313.9013214531072
  0
ARC
  8
0
 62
2
 10
232.3816425000273
 20
210.7043338779041
 30
0
 40
0.2500000000000218
 50
107.2542037679056
 51
287.2542037678788
  0
ARC
  8
0
 62
2
 10
231.2947771072222
 20
214.2037058667304
 30
0
 40
3.414270827700208
 50
287.2542037679119
 51
315.9408898593024
  0
ARC
  8
0
 62
2
 10
229.5256406487092
 20
215.6706110874197
 30
0
 40
3.914270827700392
 50
296.9842037679009
 51
323.631321453097
  0
ARC
  8
0
 62
2
 10
231.1882846119961
 20
212.405263364802
 30
0
 40
0.2500000000002129
 50
116.9842037679273
 51
296.9842037679593
  0
ARC
  8
0
 62
2
 10
229.5256406487092
 20
215.6706110874197
 30
0
 40
3.414270827700694
 50
296.9842037679074
 51
325.6708898592876
  0
ARC
  8
0
 62
2
 10
227.534038012343
 20
216.8174213045647
 30
0
 40
3.914270827700178
 50
306.7142037679029
 51
333.3613214531034
  0
ARC
  8
0
 62
2
 10
229.7246266555203
 20
213.8800411632403
 30
0
 40
0.2500000000004768
 50
126.7142037680161
 51
306.7142037678364
  0
ARC
  8
0
 62
2
 10
227.534038012343
 20
216.8174213045647
 30
0
 40
3.41427082770059
 50
306.7142037679091
 51
335.4008898593013
  0
ARC
  8
0
 62
2
 10
225.3772671553061
 20
217.6111430477232
 30
0
 40
3.914270827700359
 50
316.4442037679012
 51
343.0913214530984
  0
ARC
  8
0
 62
2
 10
228.032777738802
 20
215.0862382496759
 30
0
 40
0.2499999999993261
 50
136.4442037677325
 51
316.4442037679816
  0
ARC
  8
0
 62
2
 10
225.3772671553061
 20
217.6111430477232
 30
0
 40
3.414270827700814
 50
316.444203767907
 51
345.130889859294
  0
ARC
  8
0
 62
2
 10
223.1173778871121
 20
218.0289411219508
 30
0
 40
3.914270827700292
 50
326.1742037679052
 51
352.8213214531006
  0
ARC
  8
0
 62
2
 10
226.1614119723404
 20
215.9891526068752
 30
0
 40
0.2500000000003686
 50
146.1742037679723
 51
326.1742037678133
  0
ARC
  8
0
 62
2
 10
223.1173778871121
 20
218.0289411219508
 30
0
 40
3.414270827700886
 50
326.174203767904
 51
354.8608898592985
  0
ARC
  8
0
 62
2
 10
220.8193867106311
 20
218.0587955711928
 30
0
 40
3.914270827699834
 50
335.9042037679042
 51
2.551321453105802
  0
ARC
  8
0
 62
2
 10
224.1643681257742
 20
216.5628075930968
 30
0
 40
0.2500000000000829
 50
155.9042037679521
 51
335.904203767931
  0
ARC
  8
0
 62
2
 10
220.8193867106311
 20
218.0587955711928
 30
0
 40
3.414270827700484
 50
335.9042037679027
 51
4.59088985930565
  0
ARC
  8
0
 62
2
 10
221.7930049996662
 20
204.5445241496977
 30
0
 40
13.63750000000009
 50
99.32031906919924
 51
106.7487504768837
  0
ARC
  8
0
 62
2
 10
221.7930049996662
 20
204.5445241496977
 30
0
 40
13.63749999999999
 50
109.0503190691977
 51
116.4787504768799
  0
ARC
  8
0
 62
2
 10
221.7930049996662
 20
204.5445241496977
 30
0
 40
13.63749999999956
 50
118.7803190691947
 51
126.2087504768801
  0
ARC
  8
0
 62
2
 10
221.7930049996662
 20
204.5445241496977
 30
0
 40
13.6375000000003
 50
128.5103190692005
 51
135.9387504768812
  0
ARC
  8
0
 62
2
 10
221.7930049996662
 20
204.5445241496977
 30
0
 40
13.63749999999942
 50
138.2403190691972
 51
145.6687504768829
  0
ARC
  8
0
 62
2
 10
221.7930049996662
 20
204.5445241496977
 30
0
 40
13.63749999999986
 50
147.9703190691988
 51
155.3987504768843
  0
ARC
  8
0
 62
2
 10
221.7930049996662
 20
204.5445241496977
 30
0
 40
13.63749999999979
 50
157.7003190691992
 51
165.1287504768839
  0
ARC
  8
0
 62
2
 10
221.7930049996662
 20
204.5445241496977
 30
0
 40
13.63749999999894
 50
167.4303190691994
 51
174.858750476884
  0
ARC
  8
0
 62
2
 10
221.7930049996662
 20
204.5445241496977
 30
0
 40
13.63749999999945
 50
177.1603190692002
 51
184.5887504768841
  0
ARC
  8
0
 62
2
 10
221.7930049996665
 20
204.5445241496963
 30
0
 40
13.63749999999901
 50
186.8903190691933
 51
194.3187504768783
  0
ARC
  8
0
 62
2
 10
221.7930049996662
 20
204.5445241496977
 30
0
 40
13.63749999999888
 50
196.620319069201
 51
204.0487504768858
  0
ARC
  8
0
 62
2
 10
221.7930049996665
 20
204.5445241496963
 30
0
 40
13.63749999999943
 50
206.3503190691936
 51
213.7787504768799
  0
ARC
  8
0
 62
2
 10
221.7930049996665
 20
204.5445241496963
 30
0
 40
13.63749999999903
 50
216.0803190691943
 51
223.5087504768806
  0
ARC
  8
0
 62
2
 10
221.7930049996665
 20
204.5445241496963
 30
0
 40
13.63749999999881
 50
225.8103190691953
 51
233.2387504768807
  0
ARC
  8
0
 62
2
 10
221.793004999668
 20
204.544524149698
 30
0
 40
13.63750000000093
 50
235.5403190691955
 51
242.9687504768809
  0
ARC
  8
0
 62
2
 10
221.793004999668
 20
204.544524149698
 30
0
 40
13.63750000000082
 50
245.2703190691932
 51
252.6987504768797
  0
ARC
  8
0
 62
2
 10
221.793004999668
 20
204.544524149698
 30
0
 40
13.63750000000054
 50
255.0003190691965
 51
262.4287504768785
  0
ARC
  8
0
 62
2
 10
221.793004999668
 20
204.544524149698
 30
0
 40
13.63750000000029
 50
264.7303190691957
 51
272.1587504768762
  0
ARC
  8
0
 62
2
 10
221.793004999668
 20
204.544524149698
 30
0
 40
13.6375000000003
 50
274.4603190691921
 51
281.8887504768804
  0
ARC
  8
0
 62
2
 10
221.7930049996662
 20
204.5445241496977
 30
0
 40
13.63750000000034
 50
284.1903190692031
 51
291.6187504768855
  0
ARC
  8
0
 62
2
 10
221.7930049996662
 20
204.5445241496977
 30
0
 40
13.63750000000039
 50
293.9203190692008
 51
301.3487504768871
  0
ARC
  8
0
 62
2
 10
221.7930049996662
 20
204.5445241496977
 30
0
 40
13.63750000000051
 50
303.6503190692018
 51
311.078750476887
  0
ARC
  8
0
 62
2
 10
221.7930049996662
 20
204.5445241496977
 30
0
 40
13.63750000000105
 50
313.3803190692035
 51
320.8087504768855
  0
ARC
  8
0
 62
2
 10
221.7930049996662
 20
204.5445241496977
 30
0
 40
13.63750000000061
 50
323.1103190692004
 51
330.538750476885
  0
ARC
  8
0
 62
2
 10
221.7930049996661
 20
204.5445241496994
 30
0
 40
13.63750000000179
 50
332.8403190691944
 51
340.2687504768782
  0
ARC
  8
0
 62
2
 10
221.7930049996662
 20
204.5445241496977
 30
0
 40
13.63750000000094
 50
342.5703190692007
 51
349.9987504768844
  0
ARC
  8
0
 62
2
 10
221.7930049996661
 20
204.5445241496994
 30
0
 40
13.63750000000068
 50
352.3003190691919
 51
359.7287504768769
  0
ARC
  8
0
 62
2
 10
221.7930049996661
 20
204.5445241496994
 30
0
 40
13.6375000000001
 50
2.03031906919193
 51
9.458750476875924
  0
ARC
  8
0
 62
2
 10
221.7930049996661
 20
204.5445241496994
 30
0
 40
13.63750000000057
 50
11.76031906919138
 51
19.18875047687562
  0
ARC
  8
0
 62
2
 10
221.7930049996662
 20
204.5445241496977
 30
0
 40
13.63750000000033
 50
21.49031906919782
 51
28.91875047688185
  0
ARC
  8
0
 62
2
 10
221.7930049996662
 20
204.5445241496977
 30
0
 40
13.63750000000151
 50
31.2203190691967
 51
38.64875047688204
  0
ARC
  8
0
 62
2
 10
221.7930049996662
 20
204.5445241496977
 30
0
 40
13.63750000000038
 50
40.95031906919867
 51
48.37875047688106
  0
ARC
  8
0
 62
2
 10
221.7930049996662
 20
204.5445241496977
 30
0
 40
13.63750000000009
 50
50.68031906919988
 51
58.10875047688198
  0
ARC
  8
0
 62
2
 10
221.7930049996662
 20
204.5445241496977
 30
0
 40
13.63750000000059
 50
60.41031906919842
 51
67.8387504768835
  0
ARC
  8
0
 62
2
 10
221.7930049996662
 20
204.5445241496977
 30
0
 40
13.6375000000007
 50
70.14031906919519
 51
77.56875047688358
  0
ARC
  8
0
 62
2
 10
221.7930049996662
 20
204.5445241496977
 30
0
 40
12.83750000000014
 50
99.23743040020004
 51
106.5193573544829
  0
ARC
  8
0
 62
2
 10
221.7930049996662
 20
204.5445241496977
 30
0
 40
12.83749999999994
 50
108.967430400199
 51
116.2493573544838
  0
ARC
  8
0
 62
2
 10
221.7930049996662
 20
204.5445241496977
 30
0
 40
12.8374999999998
 50
118.6974304001991
 51
125.9793573544834
  0
ARC
  8
0
 62
2
 10
221.7930049996662
 20
204.5445241496977
 30
0
 40
12.83750000000022
 50
128.4274304002012
 51
135.7093573544849
  0
ARC
  8
0
 62
2
 10
221.7930049996662
 20
204.5445241496977
 30
0
 40
12.83750000000021
 50
138.1574304002002
 51
145.4393573544853
  0
ARC
  8
0
 62
2
 10
221.7930049996662
 20
204.5445241496977
 30
0
 40
12.83749999999925
 50
147.8874304001992
 51
155.1693573544848
  0
ARC
  8
0
 62
2
 10
221.7930049996662
 20
204.5445241496977
 30
0
 40
12.83749999999897
 50
157.6174304001988
 51
164.8993573544855
  0
ARC
  8
0
 62
2
 10
221.7930049996662
 20
204.5445241496977
 30
0
 40
12.83749999999962
 50
167.3474304002006
 51
174.629357354486
  0
ARC
  8
0
 62
2
 10
221.7930049996662
 20
204.5445241496977
 30
0
 40
12.83749999999943
 50
177.0774304002001
 51
184.359357354487
  0
ARC
  8
0
 62
2
 10
221.7930049996665
 20
204.5445241496963
 30
0
 40
12.83749999999965
 50
186.8074304001945
 51
194.0893573544807
  0
ARC
  8
0
 62
2
 10
221.7930049996665
 20
204.5445241496963
 30
0
 40
12.83749999999916
 50
196.5374304001948
 51
203.8193573544827
  0
ARC
  8
0
 62
2
 10
221.7930049996665
 20
204.5445241496963
 30
0
 40
12.83749999999949
 50
206.2674304001943
 51
213.5493573544842
  0
ARC
  8
0
 62
2
 10
221.7930049996665
 20
204.5445241496963
 30
0
 40
12.83749999999825
 50
215.9974304001977
 51
223.2793573544841
  0
ARC
  8
0
 62
2
 10
221.793004999668
 20
204.544524149698
 30
0
 40
12.83750000000129
 50
225.7274304001973
 51
233.009357354481
  0
ARC
  8
0
 62
2
 10
221.793004999668
 20
204.544524149698
 30
0
 40
12.83750000000091
 50
235.4574304001952
 51
242.7393573544843
  0
ARC
  8
0
 62
2
 10
221.793004999668
 20
204.544524149698
 30
0
 40
12.83750000000059
 50
245.1874304001968
 51
252.4693573544845
  0
ARC
  8
0
 62
2
 10
221.793004999668
 20
204.544524149698
 30
0
 40
12.83750000000059
 50
254.9174304001941
 51
262.1993573544817
  0
ARC
  8
0
 62
2
 10
221.793004999668
 20
204.544524149698
 30
0
 40
12.83750000000027
 50
264.647430400198
 51
271.9293573544842
  0
ARC
  8
0
 62
2
 10
221.793004999668
 20
204.544524149698
 30
0
 40
12.83750000000029
 50
274.3774304001924
 51
281.6593573544845
  0
ARC
  8
0
 62
2
 10
221.7930049996662
 20
204.5445241496977
 30
0
 40
12.83750000000032
 50
284.1074304002027
 51
291.389357354488
  0
ARC
  8
0
 62
2
 10
221.7930049996662
 20
204.5445241496977
 30
0
 40
12.83750000000052
 50
293.8374304002043
 51
301.1193573544883
  0
ARC
  8
0
 62
2
 10
221.7930049996662
 20
204.5445241496977
 30
0
 40
12.83750000000044
 50
303.5674304002025
 51
310.8493573544885
  0
ARC
  8
0
 62
2
 10
221.7930049996662
 20
204.5445241496977
 30
0
 40
12.83750000000033
 50
313.2974304002014
 51
320.5793573544886
  0
ARC
  8
0
 62
2
 10
221.7930049996661
 20
204.5445241496994
 30
0
 40
12.83750000000243
 50
323.0274304001968
 51
330.3093573544811
  0
ARC
  8
0
 62
2
 10
221.7930049996662
 20
204.5445241496977
 30
0
 40
12.83750000000134
 50
332.7574304002028
 51
340.0393573544873
  0
ARC
  8
0
 62
2
 10
221.7930049996662
 20
204.5445241496977
 30
0
 40
12.83750000000078
 50
342.4874304002013
 51
349.7693573544872
  0
ARC
  8
0
 62
2
 10
221.7930049996661
 20
204.5445241496994
 30
0
 40
12.83750000000115
 50
352.2174304001927
 51
359.4993573544779
  0
ARC
  8
0
 62
2
 10
221.7930049996661
 20
204.5445241496994
 30
0
 40
12.83750000000087
 50
1.947430400193069
 51
9.229357354478845
  0
ARC
  8
0
 62
2
 10
221.7930049996661
 20
204.5445241496994
 30
0
 40
12.83750000000016
 50
11.67743040019221
 51
18.95935735447799
  0
ARC
  8
0
 62
2
 10
221.7930049996661
 20
204.5445241496994
 30
0
 40
12.83750000000013
 50
21.40743040019224
 51
28.68935735447746
  0
ARC
  8
0
 62
2
 10
221.7930049996662
 20
204.5445241496977
 30
0
 40
12.83750000000049
 50
31.13743040019869
 51
38.41935735448576
  0
ARC
  8
0
 62
2
 10
221.7930049996662
 20
204.5445241496977
 30
0
 40
12.83750000000088
 50
40.86743040019882
 51
48.14935735448469
  0
ARC
  8
0
 62
2
 10
221.7930049996662
 20
204.5445241496977
 30
0
 40
12.83750000000068
 50
50.59743040019761
 51
57.87935735448656
  0
ARC
  8
0
 62
2
 10
221.7930049996662
 20
204.5445241496977
 30
0
 40
12.83750000000118
 50
60.32743040019554
 51
67.60935735448662
  0
ARC
  8
0
 62
2
 10
221.7930049996662
 20
204.5445241496977
 30
0
 40
12.8375000000006
 50
70.05743040019809
 51
77.33935735448489
  0
ARC
  8
0
 62
2
 10
221.7930049996662
 20
204.5445241496977
 30
0
 40
12.8000000000001
 50
99.35384612329929
 51
106.5259465742691
  0
ARC
  8
0
 62
2
 10
221.7930049996662
 20
204.5445241496977
 30
0
 40
12.80000000000002
 50
109.0838461232979
 51
116.2559465742641
  0
ARC
  8
0
 62
2
 10
221.7930049996662
 20
204.5445241496977
 30
0
 40
12.79999999999978
 50
118.813846123298
 51
125.9859465742648
  0
ARC
  8
0
 62
2
 10
221.7930049996662
 20
204.5445241496977
 30
0
 40
12.79999999999983
 50
128.543846123298
 51
135.715946574268
  0
ARC
  8
0
 62
2
 10
221.7930049996662
 20
204.5445241496977
 30
0
 40
12.79999999999938
 50
138.2738461232973
 51
145.4459465742671
  0
ARC
  8
0
 62
2
 10
221.7930049996662
 20
204.5445241496977
 30
0
 40
12.79999999999984
 50
148.0038461233
 51
155.1759465742669
  0
ARC
  8
0
 62
2
 10
221.7930049996662
 20
204.5445241496977
 30
0
 40
12.7999999999993
 50
157.7338461232988
 51
164.9059465742681
  0
ARC
  8
0
 62
2
 10
221.7930049996662
 20
204.5445241496977
 30
0
 40
12.79999999999903
 50
167.4638461232988
 51
174.6359465742681
  0
ARC
  8
0
 62
2
 10
221.7930049996662
 20
204.5445241496977
 30
0
 40
12.79999999999987
 50
177.1938461232997
 51
184.3659465742688
  0
ARC
  8
0
 62
2
 10
221.7930049996665
 20
204.5445241496963
 30
0
 40
12.79999999999917
 50
186.9238461232942
 51
194.0959465742632
  0
ARC
  8
0
 62
2
 10
221.7930049996665
 20
204.5445241496963
 30
0
 40
12.79999999999852
 50
196.6538461232945
 51
203.8259465742652
  0
ARC
  8
0
 62
2
 10
221.7930049996665
 20
204.5445241496963
 30
0
 40
12.79999999999875
 50
206.3838461232949
 51
213.5559465742636
  0
ARC
  8
0
 62
2
 10
221.7930049996665
 20
204.5445241496963
 30
0
 40
12.79999999999913
 50
216.113846123294
 51
223.2859465742665
  0
ARC
  8
0
 62
2
 10
221.793004999668
 20
204.544524149698
 30
0
 40
12.80000000000123
 50
225.8438461232953
 51
233.0159465742645
  0
ARC
  8
0
 62
2
 10
221.7930049996665
 20
204.5445241496963
 30
0
 40
12.79999999999862
 50
235.5738461232961
 51
242.745946574266
  0
ARC
  8
0
 62
2
 10
221.793004999668
 20
204.544524149698
 30
0
 40
12.80000000000061
 50
245.3038461232943
 51
252.4759465742642
  0
ARC
  8
0
 62
2
 10
221.793004999668
 20
204.544524149698
 30
0
 40
12.80000000000035
 50
255.0338461232934
 51
262.2059465742649
  0
ARC
  8
0
 62
2
 10
221.793004999668
 20
204.544524149698
 30
0
 40
12.80000000000038
 50
264.7638461232921
 51
271.9359465742656
  0
ARC
  8
0
 62
2
 10
221.793004999668
 20
204.544524149698
 30
0
 40
12.80000000000027
 50
274.493846123294
 51
281.6659465742607
  0
ARC
  8
0
 62
2
 10
221.7930049996662
 20
204.5445241496977
 30
0
 40
12.80000000000023
 50
284.2238461233035
 51
291.3959465742736
  0
ARC
  8
0
 62
2
 10
221.7930049996662
 20
204.5445241496977
 30
0
 40
12.80000000000021
 50
293.9538461233016
 51
301.12594657427
  0
ARC
  8
0
 62
2
 10
221.7930049996662
 20
204.5445241496977
 30
0
 40
12.80000000000029
 50
303.6838461233011
 51
310.8559465742705
  0
ARC
  8
0
 62
2
 10
221.7930049996662
 20
204.5445241496977
 30
0
 40
12.80000000000002
 50
313.4138461233005
 51
320.5859465742717
  0
ARC
  8
0
 62
2
 10
221.7930049996662
 20
204.5445241496977
 30
0
 40
12.80000000000092
 50
323.1438461233034
 51
330.3159465742692
  0
ARC
  8
0
 62
2
 10
221.7930049996662
 20
204.5445241496977
 30
0
 40
12.80000000000067
 50
332.8738461232999
 51
340.04594657427
  0
ARC
  8
0
 62
2
 10
221.7930049996661
 20
204.5445241496994
 30
0
 40
12.80000000000123
 50
342.6038461232934
 51
349.7759465742614
  0
ARC
  8
0
 62
2
 10
221.7930049996661
 20
204.5445241496994
 30
0
 40
12.80000000000056
 50
352.3338461232912
 51
359.5059465742594
  0
ARC
  8
0
 62
2
 10
221.7930049996661
 20
204.5445241496994
 30
0
 40
12.80000000000088
 50
2.063846123290937
 51
9.235946574259605
  0
ARC
  8
0
 62
2
 10
221.7930049996662
 20
204.5445241496977
 30
0
 40
12.80000000000083
 50
11.79384612329889
 51
18.96594657426746
  0
ARC
  8
0
 62
2
 10
221.7930049996662
 20
204.5445241496977
 30
0
 40
12.80000000000071
 50
21.5238461232986
 51
28.69594657426704
  0
ARC
  8
0
 62
2
 10
221.7930049996662
 20
204.5445241496977
 30
0
 40
12.80000000000067
 50
31.25384612329798
 51
38.42594657426613
  0
ARC
  8
0
 62
2
 10
221.7930049996662
 20
204.5445241496977
 30
0
 40
12.80000000000082
 50
40.98384612329729
 51
48.1559465742654
  0
ARC
  8
0
 62
2
 10
221.7930049996662
 20
204.5445241496977
 30
0
 40
12.80000000000065
 50
50.7138461232968
 51
57.88594657426584
  0
ARC
  8
0
 62
2
 10
221.7930049996662
 20
204.5445241496977
 30
0
 40
12.80000000000032
 50
60.44384612329964
 51
67.61594657426799
  0
ARC
  8
0
 62
2
 10
221.7930049996662
 20
204.5445241496977
 30
0
 40
12.80000000000068
 50
70.17384612329549
 51
77.34594657426779
  0
ARC
  8
0
 62
2
 10
221.7930049996662
 20
204.5445241496977
 30
0
 40
13.63749999999996
 50
79.9653061068946
 51
87.29875047688223
  0
ARC
  8
0
 62
2
 10
221.7930049996662
 20
204.5445241496977
 30
0
 40
12.83750000000003
 50
79.88586629402724
 51
87.06935735448249
  0
ARC
  8
0
 62
2
 10
221.7930049996662
 20
204.5445241496977
 30
0
 40
12.79999999999997
 50
79.89845572070884
 51
87.07594657426813
  0
CIRCLE
  8
1
 62
2
 10
221.7930049996662
 20
204.5445241496977
 30
0
 40
3
  0
CIRCLE
  8
0
 62
3
 10
221.7930049996662
 20
204.5445241496977
 30
0
 40
14
  0
CIRCLE
  8
0
 62
3
 10
202.0930049996673
 20
182.9345241496978
 30
0
 40
1.75
  0
CIRCLE
  8
0
 62
3
 10
240.893004999667
 20
221.7345241496979
 30
0
 40
1.75
  0
CIRCLE
  8
0
 62
3
 10
221.7930049996662
 20
204.5445241496977
 30
0
 40
1.5
  0
CIRCLE
  8
0
 62
3
 10
221.7930049996662
 20
204.5445241496977
 30
0
 40
10.39999999999918
  0
POLYLINE
  8
1
 62
2
 66
1
 70
1
  0
VERTEX
  8
1
 10
161.391479716993
 20
261.091032771112
 30
0
  0
VERTEX
  8
1
 10
189.691479716993
 20
261.091032771112
 30
0
  0
VERTEX
  8
1
 10
189.691479716993
 20
269.091032771112
 30
0
  0
VERTEX
  8
1
 10
161.391479716993
 20
269.091032771112
 30
0
  0
SEQEND
  8
1
  0
LINE
  8
1
 62
2
 10
146.2573995947663
 20
236.324314181601
 30
0
 11
183.3987975387593
 21
236.324314181601
 31
0
  0
LINE
  8
1
 62
2
 10
183.3987975387593
 20
236.324314181601
 30
0
 11
192.8509449408504
 21
231.7201489023754
 31
0
  0
SOLID
  8
1
 62
2
 10
189.7896025259647
 20
232.7427271102698
 30
0
 11
190.158577954508
 21
233.5002173233336
 31
0
 12
192.8509449408504
 22
231.7201489023754
 32
0
 13
192.8509449408504
 23
231.7201489023754
 33
0
  0
TEXT
  8
1
 62
2
 10
163.391479716993
 20
263.091032771112
 30
0
 40
4
  1
E0525H
 41
0.9
  0
TEXT
  8
1
 62
2
 10
145.1837935326513
 20
237.298600937291
 30
0
 40
3.5
  1
âèü[âhÉ³ÆÀé%%d300ü}30
 41
0.72
  0
TEXT
  8
1
 62
2
 10
290.7806451120545
 20
198.2103324694119
 30
0
 40
3.5
  1
ïzì×î¹
 41
0.8910000000000004
  0
TEXT
  8
1
 62
2
 10
246.8744191133752
 20
189.7861350121833
 30
0
 40
3.5
  1
ôfÅoî¹
 41
0.8910000000000004
  0
TEXT
  8
1
 62
2
 10
237.993004999666
 20
190.8345241496982
 30
0
 40
5
  1
H
 41
0.891
  0
TEXT
  8
1
 62
2
 10
148.842694269739
 20
232.363409909098
 30
0
 40
3
  1
üiéPéPüDéWü}éPüDéQüj
 41
0.9
  0
TEXT
  8
1
 62
2
 10
222.662297848333
 20
231.024501238743
 30
0
 40
3
  1
(0.752ü}0.012)
 41
0.72
  0
TEXT
  8
1
 62
2
 10
200.81637392756
 20
159.45061113964
 30
0
 40
3
  1
(0.776ü}0.012)
 41
0.72
  0
TEXT
  8
1
 62
2
 10
228.570873032387
 20
159.935829655459
 30
0
 40
3
  1
(0.93)
 41
0.9
  0
TEXT
  8
1
 62
2
 10
216.44041013692
 20
145.67040529039
 30
0
 40
3
  1
(1.89)
 41
0.9
  0
TEXT
  8
1
 62
2
 10
284.502870148766
 20
204.8819492802329
 30
0
 40
3
  1
(0.677ü}0.012)
 50
90
 41
0.72
  0
TEXT
  8
1
 62
2
 10
190.284500966974
 20
183.263480754074
 30
0
 40
3
  1
(0.850ü}0.012)
 50
90
 41
0.72
  0
TEXT
  8
1
 62
2
 10
284.502870148766
 20
186.0313797198209
 30
0
 40
3
  1
(1.03)
 50
90
 41
0.9
  0
TEXT
  8
1
 62
2
 10
268.94260551577
 20
185.2661208034439
 30
0
 40
3
  1
(0.86)
 50
90
 41
0.9
  0
TEXT
  8
1
 62
2
 10
314.156823515858
 20
244.829339288389
 30
0
 40
3
  1
(0.98)
 41
0.9
  0
TEXT
  8
1
 62
2
 10
291.44041013692
 20
230.67040529039
 30
0
 40
3
  1
(0.37)
 41
0.9
  0
TEXT
  8
1
 62
2
 10
335.033910051094
 20
230.620359129621
 30
0
 40
3
  1
(0.37)
 41
0.9
  0
TEXT
  8
1
 62
2
 10
153.552313419428
 20
215.304812157578
 30
0
 40
3
  1
(1.10dia. Intake)
 41
0.72
  0
TEXT
  8
1
 62
2
 10
251.489181452604
 20
230.730083164439
 30
0
 40
3
  1
(2-0.14dia. HOLES)
 41
0.72
  0
DIMENSION
  8
1
  6
CONTINUOUS
 62
2
  2
*D0
  3
DMST_1
 10
240.893004999667
 20
235.039337872488
 30
0
 11
232.198723143721
 21
238.639337872488
 31
0
 12
0
 22
0
 32
0
 70
0
 13
221.7930049996663
 23
231.2345241496979
 33
0
 14
240.893004999667
 24
224.9845241496979
 34
0
 53
0
  0
DIMENSION
  8
1
  6
CONTINUOUS
 62
2
  2
*D1
  3
DMST_2
 10
245.493004999666
 20
165
 30
0
 11
235
 21
168.6
 31
0
 12
0
 22
0
 32
0
 70
0
 13
221.7930049996662
 23
173.3345241496977
 33
0
 14
245.493004999666
 24
178.3345241496977
 34
0
 53
0
  0
DIMENSION
  8
1
  6
CONTINUOUS
 62
2
  2
*D2
  3
DMST_2
 10
245.493004999666
 20
149.918146811728
 30
0
 11
221.693049106938
 21
153.518146811728
 31
0
 12
0
 22
0
 32
0
 70
0
 13
197.5930049996673
 23
205.8392414592976
 33
0
 14
245.493004999666
 24
178.3345241496977
 34
0
 53
0
  0
DIMENSION
  8
1
  6
CONTINUOUS
 62
2
  2
*D3
  3
DMST_1
 10
221.7930049996662
 20
164.897072871189
 30
0
 11
212.121229215183
 21
168.497072871189
 31
0
 12
0
 22
0
 32
0
 70
0
 13
202.0930049996673
 23
180.6595241496978
 33
0
 14
221.7930049996662
 24
173.3345241496977
 34
0
 53
0
  0
DIMENSION
  8
1
  6
CONTINUOUS
 62
2
  2
*D4
  3
DMST_3
 10
280.022034537097
 20
221.7345241496979
 30
0
 11
276.422034537097
 21
213.199588877131
 31
0
 12
0
 22
0
 32
0
 70
0
 13
248.0976932246057
 23
204.5445241496977
 33
0
 14
244.143004999667
 24
221.7345241496979
 34
0
 50
90
 53
0
  0
DIMENSION
  8
1
  6
CONTINUOUS
 62
2
  2
*D5
  3
DMST_2
 10
265
 20
200.1345241496978
 30
0
 11
261.4
 21
190
 31
0
 12
0
 22
0
 32
0
 70
0
 13
245.493004999666
 23
178.3345241496977
 33
0
 14
245.493004999666
 24
200.1345241496978
 34
0
 50
90
 53
0
  0
DIMENSION
  8
1
  6
CONTINUOUS
 62
2
  2
*D6
  3
DMST_4
 10
280
 20
178.3345241496977
 30
0
 11
276.4
 21
190
 31
0
 12
0
 22
0
 32
0
 70
0
 13
248.0976932246057
 23
204.5445241496977
 33
0
 14
245.493004999666
 24
178.3345241496977
 34
0
 50
90
 53
0
  0
DIMENSION
  8
1
  6
CONTINUOUS
 62
2
  2
*D7
  3
DMST_3
 10
185.507666954081
 20
182.9345241496978
 30
0
 11
181.907666954081
 21
193.293249743664
 31
0
 12
0
 22
0
 32
0
 70
0
 13
194.4660422083957
 23
204.5445241496977
 33
0
 14
199.8180049996672
 24
182.9345241496978
 34
0
 50
90
 53
0
  0
DIMENSION
  8
1
  6
CONTINUOUS
 62
2
  2
*D8
  3
DMST_5
 10
332.3303257968422
 20
250
 30
0
 11
320
 21
253.6
 31
0
 12
0
 22
0
 32
0
 70
1
 13
307.3303257968422
 23
225.2345241496979
 33
0
 14
332.3303257968422
 24
225.2345241496979
 34
0
 53
0
  0
DIMENSION
  8
1
  6
CONTINUOUS
 62
2
  2
*D9
  3
DMST_6
 10
307.3303257968422
 20
235.013591583894
 30
0
 11
298.522350853292
 21
238.613591583894
 31
0
 12
0
 22
0
 32
0
 70
0
 13
316.8303257968422
 23
225.5345241496978
 33
0
 14
307.3303257968422
 24
225.2345241496979
 34
0
 53
0
  0
DIMENSION
  8
1
  6
CONTINUOUS
 62
2
  2
*D10
  3
DMST_6
 10
332.3303257968422
 20
235.013591583894
 30
0
 11
338.437812303151
 21
238.613591583894
 31
0
 12
0
 22
0
 32
0
 70
0
 13
322.8303257968422
 23
225.5345241496978
 33
0
 14
332.3303257968422
 24
225.2345241496979
 34
0
 53
0
  0
DIMENSION
  8
1
  6
CONTINUOUS
 62
2
  2
*D11
  3
DMST_7
 10
234.7257734520831
 20
199.18322765014
 30
0
 11
165
 21
223.6
 31
0
 12
0
 22
0
 32
0
 70
3
 15
208.8602365472493
 25
209.9058206492555
 35
0
 40
0
 53
0
  0
DIMENSION
  8
1
  6
CONTINUOUS
 62
2
  2
*D12
  3
DMST_8
 10
240.1454764946985
 20
220.152215351056
 30
0
 11
260
 21
238.6
 31
0
 12
0
 22
0
 32
0
 70
3
  1
2-%%c<>
 15
241.6405335046355
 25
223.3168329483398
 35
0
 40
0
 53
0
  0
INSERT
  8
0
  2
_X0
 10
580.568907614925
 20
-1.063514388457008
 30
0
  0
INSERT
  8
0
  2
_X10
 10
21.53587179855219
 20
0
 30
0
  0
ENDSEC
  0
EOF
