  0
SECTION
  2
HEADER
  9
$ACADVER
  1
AC1009
  9
$INSBASE
 10
0
 20
0
  9
$EXTMIN
 10
-184.7983009209484
 20
-83.7999999999997
  9
$EXTMAX
 10
175.1999999999999
 20
84.69999999999999
  9
$LIMMIN
 10
-184.7983009209484
 20
-83.7999999999997
  9
$LIMMAX
 10
175.1999999999999
 20
84.69999999999999
  9
$VIEWCTR
 10
10
 20
10
  9
$VIEWSIZE
 40
10
  9
$SNAPMODE
 70
0
  9
$SNAPUNIT
 10
1
 20
1
  9
$SNAPBASE
 10
0
 20
0
  9
$SNAPANG
 50
0
  9
$SNAPSTYLE
 70
0
  9
$SNAPISOPAIR
 70
0
  9
$GRIDMODE
 70
0
  9
$GRIDUNIT
 10
0
 20
0
  9
$ORTHOMODE
 70
0
  9
$REGENMODE
 70
1
  9
$FILLMODE
 70
1
  9
$QTEXTMODE
 70
0
  9
$DRAGMODE
 70
2
  9
$LTSCALE
 40
1
  9
$OSMODE
 70
0
  9
$ATTMODE
 70
1
  9
$TEXTSIZE
 40
3.5
  9
$TRACEWID
 40
0.5
  9
$TEXTSTYLE
  7
STANDARD
  9
$CLAYER
  8
0
  9
$CELTYPE
  6
BYLAYER
  9
$CECOLOR
 62
256
  9
$DIMSCALE
 40
1
  9
$DIMASZ
 40
0.18
  9
$DIMEXO
 40
0.0625
  9
$DIMDLI
 40
0.38
  9
$DIMRND
 40
0
  9
$DIMDLE
 40
0
  9
$DIMEXE
 40
0.18
  9
$DIMTP
 40
0
  9
$DIMTM
 40
0
  9
$DIMTXT
 40
0.18
  9
$DIMCEN
 40
0.09
  9
$DIMTSZ
 40
0
  9
$DIMTOL
 70
0
  9
$DIMLIM
 70
0
  9
$DIMTIH
 70
1
  9
$DIMTOH
 70
1
  9
$DIMSE1
 70
0
  9
$DIMSE2
 70
0
  9
$DIMTAD
 70
0
  9
$DIMZIN
 70
0
  9
$DIMBLK
  1

  9
$DIMASO
 70
1
  9
$DIMSHO
 70
1
  9
$DIMPOST
  1

  9
$DIMAPOST
  1

  9
$DIMALT
 70
0
  9
$DIMALTD
 70
2
  9
$DIMALTF
 40
25.4
  9
$DIMLFAC
 40
1
  9
$DIMTOFL
 70
0
  9
$DIMTVP
 40
0
  9
$DIMTIX
 70
0
  9
$DIMSOXD
 70
0
  9
$DIMSAH
 70
0
  9
$DIMBLK1
  1

  9
$DIMBLK2
  1

  9
$DIMSTYLE
  2
*UNNAMED
  9
$DIMCLRD
 70
0
  9
$DIMCLRE
 70
0
  9
$DIMCLRT
 70
0
  9
$DIMTFAC
 40
1
  9
$DIMGAP
 40
0.09
  9
$LUNITS
 70
2
  9
$LUPREC
 70
4
  9
$AXISMODE
 70
0
  9
$AXISUNIT
 10
0
 20
0
  9
$SKETCHINC
 40
0.1
  9
$FILLETRAD
 40
2
  9
$AUNITS
 70
0
  9
$AUPREC
 70
0
  9
$MENU
  1
ACAD
  9
$ELEVATION
 40
0
  9
$THICKNESS
 40
0
  9
$VIEWDIR
 10
0
 20
0
 30
1
  9
$LIMCHECK
 70
0
  9
$BLIPMODE
 70
1
  9
$CHAMFERA
 40
0
  9
$CHAMFERB
 40
0
  9
$FASTZOOM
 70
1
  9
$SKPOLY
 70
0
  9
$ANGBASE
 50
0
  9
$ANGDIR
 70
0
  9
$PDMODE
 70
0
  9
$PDSIZE
 40
0
  9
$PLINEWID
 40
0
  9
$COORDS
 70
2
  0
ENDSEC
  0
SECTION
  2
TABLES
  0
TABLE
  2
DIMSTYLE
 70
5
  0
DIMSTYLE
  2
DMST_1
 70
0
  3

  4

  5

  6

  7

 40
1
 41
3.2
 42
1
 43
7
 44
1
 45
0
 46
0
 47
0
 48
0
140
3.2
141
0
142
0
143
25.4
144
1
145
0
146
1
147
0.09
 71
0
 72
0
 73
0
 74
0
 75
0
 76
0
 77
1
 78
9
170
0
171
2
172
0
173
0
174
0
175
0
176
2
177
2
178
2
  0
DIMSTYLE
  2
DMST_2
 70
0
  3
)
  4

  5

  6

  7

 40
1
 41
3.2
 42
1
 43
7
 44
1
 45
0
 46
0
 47
0
 48
0
140
3.2
141
0
142
0
143
25.4
144
1
145
0
146
1
147
0.09
 71
0
 72
0
 73
0
 74
0
 75
0
 76
0
 77
1
 78
9
170
0
171
2
172
0
173
0
174
0
175
0
176
2
177
2
178
2
  0
DIMSTYLE
  2
DMST_3
 70
0
  3

  4

  5

  6

  7

 40
1
 41
3.2
 42
1
 43
7
 44
1
 45
0
 46
0
 47
0.3
 48
0.3
140
3.2
141
0
142
0
143
25.4
144
1
145
0
146
0.6
147
0.09
 71
1
 72
0
 73
0
 74
0
 75
0
 76
0
 77
1
 78
9
170
0
171
2
172
0
173
0
174
0
175
0
176
2
177
2
178
2
  0
DIMSTYLE
  2
DMST_4
 70
0
  3

  4

  5

  6

  7

 40
1
 41
3.2
 42
1
 43
7
 44
1
 45
0
 46
0
 47
0.5
 48
0.5
140
3.2
141
0
142
0
143
25.4
144
1
145
0
146
0.6
147
0.09
 71
1
 72
0
 73
0
 74
0
 75
0
 76
0
 77
1
 78
9
170
0
171
2
172
0
173
0
174
0
175
0
176
2
177
2
178
2
  0
DIMSTYLE
  2
DMST_5
 70
0
  3

  4

  5

  6

  7

 40
1
 41
3.2
 42
1
 43
7
 44
1
 45
0
 46
0
 47
0
 48
0.02
140
3.2
141
0
142
0
143
25.4
144
1
145
0
146
0.6
147
0.09
 71
1
 72
0
 73
0
 74
0
 75
0
 76
0
 77
1
 78
9
170
0
171
2
172
0
173
0
174
0
175
0
176
2
177
2
178
2
  0
ENDTAB
  0
TABLE
  2
LTYPE
 70
9
  0
LTYPE
  2
CONTINUOUS
 70
64
  3
Solid line
 72
65
 73
0
 40
0
  0
LTYPE
  2
BORDER
 70
64
  3
__ __ . __ __ .
 72
65
 73
6
 40
16.57886912135946
 49
4.736819748959846
 49
-2.368409874479923
 49
4.736819748959846
 49
-2.368409874479923
 49
0
 49
-2.368409874479923
  0
LTYPE
  2
CENTER
 70
64
  3
____ _ ____ _
 72
65
 73
4
 40
18.94727899583938
 49
11.84204937239962
 49
-2.368409874479923
 49
2.368409874479923
 49
-2.368409874479923
  0
LTYPE
  2
DASHDOT
 70
64
  3
__ . __ . __ .
 72
65
 73
4
 40
9.473639497919692
 49
4.736819748959846
 49
-2.368409874479923
 49
0
 49
-2.368409874479923
  0
LTYPE
  2
DASHED
 70
64
  3
__ __ __ __ __
 72
65
 73
2
 40
7.105229623439769
 49
4.736819748959846
 49
-2.368409874479923
  0
LTYPE
  2
DIVIDE
 70
64
  3
__ . . __ . . 
 72
65
 73
6
 40
11.84204937239962
 49
4.736819748959846
 49
-2.368409874479923
 49
0
 49
-2.368409874479923
 49
0
 49
-2.368409874479923
  0
LTYPE
  2
DOT
 70
64
  3
..............
 72
65
 73
4
 40
4.736819748959846
 49
0
 49
-2.368409874479923
 49
0
 49
-2.368409874479923
  0
LTYPE
  2
HIDDEN
 70
64
  3
_ _ _ _ _ _ _
 72
65
 73
2
 40
3.552614811719884
 49
2.368409874479923
 49
-1.184204937239962
  0
LTYPE
  2
PHANTOM
 70
64
  3
_____ _ _ _____ _ _ 
 72
65
 73
6
 40
23.68409874479923
 49
11.84204937239962
 49
-2.368409874479923
 49
2.368409874479923
 49
-2.368409874479923
 49
2.368409874479923
 49
-2.368409874479923
  0
ENDTAB
  0
TABLE
  2
LAYER
 70
4
  0
LAYER
  2
1
 70
0
 62
7
  6
CONTINUOUS
  0
LAYER
  2
CONSTRUCTION
 70
0
 62
7
  6
CONTINUOUS
  0
LAYER
  2
0
 70
0
 62
7
  6
CONTINUOUS
  0
ENDTAB
  0
TABLE
  2
STYLE
 70
4
  0
STYLE
  2
STANDARD
 70
0
 40
0
 41
1
 50
0
 71
0
 42
3.5
  3
txt
  4

  0
STYLE
  2
SIMPLEX
 70
0
 40
0
 41
1
 50
0
 71
0
 42
3.5
  3
simplex
  4

  0
STYLE
  2
COMPLEX
 70
0
 40
0
 41
1
 50
0
 71
0
 42
3.5
  3
complex
  4

  0
STYLE
  2
ITALIC
 70
0
 40
0
 41
1
 50
0
 71
0
 42
3.5
  3
italic
  4

  0
ENDTAB
  0
TABLE
  2
VIEW
 70
0
  0
ENDTAB
  0
ENDSEC
  0
SECTION
  2
BLOCKS
  0
BLOCK
  8
1
  2
*D0
 70
1
 10
0
 20
0
 30
0
  0
LINE
  8
1
 62
2
 10
-85.50000000000011
 20
21
 30
0
 11
-85.50000000000011
 21
39
 31
0
  0
LINE
  8
1
 62
2
 10
-36.00000000000012
 20
21
 30
0
 11
-86.50000000000011
 21
21
 31
0
  0
LINE
  8
1
 62
2
 10
-36.00000000000012
 20
39
 30
0
 11
-86.50000000000011
 21
39
 31
0
  0
SOLID
  8
1
 62
2
 10
-85.50000000000011
 20
39
 30
0
 11
-85.08400000000012
 21
35.8
 31
0
 12
-85.91600000000011
 22
35.8
 32
0
 13
-85.91600000000011
 23
35.8
 33
0
  0
SOLID
  8
1
 62
2
 10
-85.50000000000011
 20
21
 30
0
 11
-85.91600000000011
 21
24.2
 31
0
 12
-85.08400000000012
 22
24.2
 32
0
 13
-85.08400000000012
 23
24.2
 33
0
  0
TEXT
  8
1
 62
2
 10
-86.50000000000011
 20
30
 30
0
 40
3.2
  1
18
 50
90
 41
0.9
  0
TEXT
  8
1
 62
2
 10
-86.50000000000011
 20
26.16
 30
0
 40
3.2
  1
%%c
 50
90
 41
0.9
  0
ENDBLK
  8
0
  0
BLOCK
  8
1
  2
*D1
 70
1
 10
0
 20
0
 30
0
  0
LINE
  8
1
 62
2
 10
-30.50000000000023
 20
70.49999999999999
 30
0
 11
-24.10000000000023
 21
70.49999999999999
 31
0
  0
LINE
  8
1
 62
2
 10
-35.50000000000013
 20
70.49999999999999
 30
0
 11
-41.90000000000013
 21
70.49999999999999
 31
0
  0
LINE
  8
1
 62
2
 10
-35.50000000000013
 20
70.49999999999999
 30
0
 11
-30.50000000000023
 21
70.49999999999999
 31
0
  0
LINE
  8
1
 62
2
 10
-30.50000000000023
 20
50.99999999999999
 30
0
 11
-30.50000000000023
 21
71.49999999999999
 31
0
  0
LINE
  8
1
 62
2
 10
-35.50000000000013
 20
39.5
 30
0
 11
-35.50000000000013
 21
71.49999999999999
 31
0
  0
SOLID
  8
1
 62
2
 10
-35.50000000000013
 20
70.49999999999999
 30
0
 11
-38.70000000000013
 21
70.08399999999999
 31
0
 12
-38.70000000000013
 22
70.91599999999998
 32
0
 13
-38.70000000000013
 23
70.91599999999998
 33
0
  0
SOLID
  8
1
 62
2
 10
-30.50000000000023
 20
70.49999999999999
 30
0
 11
-27.30000000000023
 21
70.91599999999998
 31
0
 12
-27.30000000000023
 22
70.08399999999999
 32
0
 13
-27.30000000000023
 23
70.08399999999999
 33
0
  0
TEXT
  8
1
 62
2
 10
-33.96000000000018
 20
71.49999999999999
 30
0
 40
3.2
  1
5
 41
0.9
  0
ENDBLK
  8
0
  0
BLOCK
  8
1
  2
*D2
 70
1
 10
0
 20
0
 30
0
  0
LINE
  8
1
 62
2
 10
-30.50000000000023
 20
80.5
 30
0
 11
58.19999999992797
 21
80.5
 31
0
  0
LINE
  8
1
 62
2
 10
58.19999999992797
 20
27.30000000000006
 30
0
 11
58.19999999992797
 21
81.5
 31
0
  0
LINE
  8
1
 62
2
 10
-30.50000000000023
 20
50.99999999999999
 30
0
 11
-30.50000000000023
 21
81.5
 31
0
  0
SOLID
  8
1
 62
2
 10
-30.50000000000023
 20
80.5
 30
0
 11
-27.30000000000023
 21
80.916
 31
0
 12
-27.30000000000023
 22
80.084
 32
0
 13
-27.30000000000023
 23
80.084
 33
0
  0
SOLID
  8
1
 62
2
 10
58.19999999992797
 20
80.5
 30
0
 11
54.99999999992797
 21
80.084
 31
0
 12
54.99999999992797
 22
80.916
 32
0
 13
54.99999999992797
 23
80.916
 33
0
  0
TEXT
  8
1
 62
2
 10
12.88999999996387
 20
81.5
 30
0
 40
3.2
  1
L
 41
0.9
  0
ENDBLK
  8
0
  0
BLOCK
  8
1
  2
*D3
 70
1
 10
0
 20
0
 30
0
  0
LINE
  8
1
 62
2
 10
-30.50000000000023
 20
70.5
 30
0
 11
-1.499999999999989
 21
70.5
 31
0
  0
LINE
  8
1
 62
2
 10
-1.499999999999989
 20
50.99999999999994
 30
0
 11
-1.499999999999989
 21
71.5
 31
0
  0
LINE
  8
1
 62
2
 10
-30.50000000000023
 20
50.99999999999999
 30
0
 11
-30.50000000000023
 21
71.5
 31
0
  0
SOLID
  8
1
 62
2
 10
-30.50000000000023
 20
70.5
 30
0
 11
-27.30000000000023
 21
70.916
 31
0
 12
-27.30000000000023
 22
70.084
 32
0
 13
-27.30000000000023
 23
70.084
 33
0
  0
SOLID
  8
1
 62
2
 10
-1.499999999999989
 20
70.5
 30
0
 11
-4.69999999999999
 21
70.084
 31
0
 12
-4.69999999999999
 22
70.916
 32
0
 13
-4.69999999999999
 23
70.916
 33
0
  0
TEXT
  8
1
 62
2
 10
-18.40000000000011
 20
71.5
 30
0
 40
3.2
  1
29
 41
0.9
  0
ENDBLK
  8
0
  0
BLOCK
  8
1
  2
*D4
 70
1
 10
0
 20
0
 30
0
  0
LINE
  8
1
 62
2
 10
-55.50000000000011
 20
80.49999999999999
 30
0
 11
-30.50000000000023
 21
80.49999999999999
 31
0
  0
LINE
  8
1
 62
2
 10
-30.50000000000023
 20
50.99999999999999
 30
0
 11
-30.50000000000023
 21
81.49999999999999
 31
0
  0
LINE
  8
1
 62
2
 10
-55.50000000000011
 20
33.5
 30
0
 11
-55.50000000000011
 21
81.49999999999999
 31
0
  0
SOLID
  8
1
 62
2
 10
-55.50000000000011
 20
80.49999999999999
 30
0
 11
-52.30000000000011
 21
80.91599999999998
 31
0
 12
-52.30000000000011
 22
80.08399999999999
 32
0
 13
-52.30000000000011
 23
80.08399999999999
 33
0
  0
SOLID
  8
1
 62
2
 10
-30.50000000000023
 20
80.49999999999999
 30
0
 11
-33.70000000000023
 21
80.08399999999999
 31
0
 12
-33.70000000000023
 22
80.91599999999998
 32
0
 13
-33.70000000000023
 23
80.91599999999998
 33
0
  0
TEXT
  8
1
 62
2
 10
-45.40000000000018
 20
81.49999999999999
 30
0
 40
3.2
  1
25
 41
0.9
  0
ENDBLK
  8
0
  0
BLOCK
  8
1
  2
*D5
 70
1
 10
0
 20
0
 30
0
  0
LINE
  8
1
 62
2
 10
46.09999999999999
 20
70.5
 30
0
 11
52.5
 21
70.5
 31
0
  0
LINE
  8
1
 62
2
 10
52.5
 20
70.5
 30
0
 11
58.19999999992797
 21
70.5
 31
0
  0
LINE
  8
1
 62
2
 10
58.19999999992797
 20
70.5
 30
0
 11
70.23367890891031
 21
70.5
 31
0
  0
LINE
  8
1
 62
2
 10
52.5
 20
39.21804153555615
 30
0
 11
52.5
 21
71.5
 31
0
  0
LINE
  8
1
 62
2
 10
58.19999999992797
 20
27.30000000000006
 30
0
 11
58.19999999992797
 21
71.5
 31
0
  0
SOLID
  8
1
 62
2
 10
52.5
 20
70.5
 30
0
 11
49.3
 21
70.084
 31
0
 12
49.3
 22
70.916
 32
0
 13
49.3
 23
70.916
 33
0
  0
SOLID
  8
1
 62
2
 10
58.19999999992797
 20
70.5
 30
0
 11
61.39999999992797
 21
70.916
 31
0
 12
61.39999999992797
 22
70.084
 32
0
 13
61.39999999992797
 23
70.084
 33
0
  0
TEXT
  8
1
 62
2
 10
62.31367890891031
 20
71.5
 30
0
 40
3.2
  1
5.7
 41
0.9
  0
TEXT
  8
1
 62
2
 10
60.23367890891031
 20
71.5
 30
0
 40
3.2
  1
(
 41
0.9
  0
TEXT
  8
1
 62
2
 10
69.7536789089103
 20
71.5
 30
0
 40
3.2
  1
)
 41
0.9
  0
ENDBLK
  8
0
  0
BLOCK
  8
1
  2
*D6
 70
1
 10
0
 20
0
 30
0
  0
LINE
  8
1
 62
2
 10
83.19999999992795
 20
1.400000000000492
 30
0
 11
83.19999999992795
 21
38.60000000000048
 31
0
  0
LINE
  8
1
 62
2
 10
54.20000000000005
 20
1.400000000000492
 30
0
 11
84.19999999992795
 21
1.400000000000492
 31
0
  0
LINE
  8
1
 62
2
 10
54.20000000000005
 20
38.60000000000048
 30
0
 11
84.19999999992795
 21
38.60000000000048
 31
0
  0
SOLID
  8
1
 62
2
 10
83.19999999992795
 20
38.60000000000048
 30
0
 11
83.61599999992795
 21
35.40000000000048
 31
0
 12
82.78399999992796
 22
35.40000000000048
 32
0
 13
82.78399999992796
 23
35.40000000000048
 33
0
  0
SOLID
  8
1
 62
2
 10
83.19999999992795
 20
1.400000000000492
 30
0
 11
82.78399999992796
 21
4.600000000000494
 31
0
 12
83.61599999992795
 22
4.600000000000494
 32
0
 13
83.61599999992795
 23
4.600000000000494
 33
0
  0
TEXT
  8
1
 62
2
 10
82.19999999992795
 20
17.56000000000051
 30
0
 40
3.2
  1
37.2
 50
90
 41
0.9
  0
TEXT
  8
1
 62
2
 10
82.19999999992795
 20
13.72000000000051
 30
0
 40
3.2
  1
%%c
 50
90
 41
0.9
  0
ENDBLK
  8
0
  0
BLOCK
  8
1
  2
*D7
 70
1
 10
0
 20
0
 30
0
  0
LINE
  8
1
 62
2
 10
73.19999999992795
 20
12.69999999999993
 30
0
 11
73.19999999992795
 21
27.30000000000007
 31
0
  0
LINE
  8
1
 62
2
 10
58.19999999992797
 20
12.69999999999993
 30
0
 11
74.19999999992795
 21
12.69999999999993
 31
0
  0
LINE
  8
1
 62
2
 10
58.19999999992797
 20
27.30000000000007
 30
0
 11
74.19999999992795
 21
27.30000000000007
 31
0
  0
SOLID
  8
1
 62
2
 10
73.19999999992795
 20
27.30000000000007
 30
0
 11
73.61599999992795
 21
24.10000000000007
 31
0
 12
72.78399999992796
 22
24.10000000000007
 32
0
 13
72.78399999992796
 23
24.10000000000007
 33
0
  0
SOLID
  8
1
 62
2
 10
73.19999999992795
 20
12.69999999999993
 30
0
 11
72.78399999992796
 21
15.89999999999993
 31
0
 12
73.61599999992795
 22
15.89999999999993
 32
0
 13
73.61599999992795
 23
15.89999999999993
 33
0
  0
TEXT
  8
1
 62
2
 10
72.19999999992795
 20
18.04
 30
0
 40
3.2
  1
14.6
 50
90
 41
0.9
  0
TEXT
  8
1
 62
2
 10
72.19999999992795
 20
14.2
 30
0
 40
3.2
  1
%%c
 50
90
 41
0.9
  0
ENDBLK
  8
0
  0
BLOCK
  8
1
  2
*D8
 70
1
 10
0
 20
0
 30
0
  0
LINE
  8
1
 62
2
 10
174.1999999999999
 20
2.999999999999968
 30
0
 11
174.1999999999999
 21
37.00000000000117
 31
0
  0
LINE
  8
1
 62
2
 10
143.5861380996319
 20
37.00000000000117
 30
0
 11
175.1999999999999
 21
37.00000000000117
 31
0
  0
LINE
  8
1
 62
2
 10
143.5861380996319
 20
2.999999999999968
 30
0
 11
175.1999999999999
 21
2.999999999999968
 31
0
  0
SOLID
  8
1
 62
2
 10
174.1999999999999
 20
37.00000000000117
 30
0
 11
174.6159999999999
 21
33.80000000000116
 31
0
 12
173.7839999999999
 22
33.80000000000116
 32
0
 13
173.7839999999999
 23
33.80000000000116
 33
0
  0
SOLID
  8
1
 62
2
 10
174.1999999999999
 20
2.999999999999968
 30
0
 11
173.7839999999999
 21
6.199999999999969
 31
0
 12
174.6159999999999
 22
6.199999999999969
 32
0
 13
174.6159999999999
 23
6.199999999999969
 33
0
  0
TEXT
  8
1
 62
2
 10
173.1999999999999
 20
17.60000000000057
 30
0
 40
3.2
  1
34
 50
90
 41
0.9
  0
TEXT
  8
1
 62
2
 10
173.1999999999999
 20
15.52000000000057
 30
0
 40
3.2
  1
(
 50
90
 41
0.9
  0
TEXT
  8
1
 62
2
 10
173.1999999999999
 20
24.00000000000057
 30
0
 40
3.2
  1
)
 50
90
 41
0.9
  0
ENDBLK
  8
0
  0
BLOCK
  8
1
  2
*D9
 70
1
 10
0
 20
0
 30
0
  0
LINE
  8
1
 62
2
 10
-55.50000000000011
 20
60.50000000000003
 30
0
 11
-43.50000000000023
 21
60.50000000000003
 31
0
  0
LINE
  8
1
 62
2
 10
-43.50000000000023
 20
33.50000000000003
 30
0
 11
-43.50000000000023
 21
61.50000000000003
 31
0
  0
LINE
  8
1
 62
2
 10
-55.50000000000011
 20
33.50000000000003
 30
0
 11
-55.50000000000011
 21
61.50000000000003
 31
0
  0
SOLID
  8
1
 62
2
 10
-55.50000000000011
 20
60.50000000000003
 30
0
 11
-52.30000000000011
 21
60.91600000000003
 31
0
 12
-52.30000000000011
 22
60.08400000000003
 32
0
 13
-52.30000000000011
 23
60.08400000000003
 33
0
  0
SOLID
  8
1
 62
2
 10
-43.50000000000023
 20
60.50000000000003
 30
0
 11
-46.70000000000023
 21
60.08400000000003
 31
0
 12
-46.70000000000023
 22
60.91600000000003
 32
0
 13
-46.70000000000023
 23
60.91600000000003
 33
0
  0
TEXT
  8
1
 62
2
 10
-51.42000000000017
 20
61.50000000000002
 30
0
 40
3.2
  1
12
 41
0.9
  0
ENDBLK
  8
0
  0
BLOCK
  8
1
  2
*D10
 70
1
 10
0
 20
0
 30
0
  0
LINE
  8
1
 62
2
 10
-65.50000000000014
 20
32.5
 30
0
 11
-65.50000000000014
 21
55.14400000000001
 31
0
  0
LINE
  8
1
 62
2
 10
-65.50000000000014
 20
27.00000000000022
 30
0
 11
-65.50000000000014
 21
32.5
 31
0
  0
LINE
  8
1
 62
2
 10
-65.50000000000014
 20
20.60000000000022
 30
0
 11
-65.50000000000014
 21
27.00000000000022
 31
0
  0
LINE
  8
1
 62
2
 10
-56.50000000000011
 20
32.5
 30
0
 11
-66.50000000000014
 21
32.5
 31
0
  0
LINE
  8
1
 62
2
 10
-56.00000000000011
 20
27.00000000000022
 30
0
 11
-66.50000000000014
 21
27.00000000000022
 31
0
  0
SOLID
  8
1
 62
2
 10
-65.50000000000014
 20
32.5
 30
0
 11
-65.91600000000014
 21
35.7
 31
0
 12
-65.08400000000015
 22
35.7
 32
0
 13
-65.08400000000015
 23
35.7
 33
0
  0
SOLID
  8
1
 62
2
 10
-65.50000000000014
 20
27.00000000000022
 30
0
 11
-65.08400000000015
 21
23.80000000000022
 31
0
 12
-65.91600000000014
 22
23.80000000000022
 32
0
 13
-65.91600000000014
 23
23.80000000000022
 33
0
  0
TEXT
  8
1
 62
2
 10
-66.50000000000014
 20
42.856
 30
0
 40
3.2
  1
5.5
 50
90
 41
0.9
  0
TEXT
  8
1
 62
2
 10
-67.14000000000014
 20
50.296
 30
0
 40
1.92
  1
%%p0.3
 50
90
 41
0.9
  0
ENDBLK
  8
0
  0
BLOCK
  8
1
  2
*D11
 70
1
 10
0
 20
0
 30
0
  0
LINE
  8
1
 62
2
 10
-174.7499999999999
 20
60.50000000000003
 30
0
 11
-125.2499999999999
 21
60.50000000000003
 31
0
  0
LINE
  8
1
 62
2
 10
-125.2499999999999
 20
53.77579593310057
 30
0
 11
-125.2499999999999
 21
61.50000000000003
 31
0
  0
LINE
  8
1
 62
2
 10
-174.7499999999999
 20
53.40783652817063
 30
0
 11
-174.7499999999999
 21
61.50000000000003
 31
0
  0
SOLID
  8
1
 62
2
 10
-174.7499999999999
 20
60.50000000000003
 30
0
 11
-171.5499999999999
 21
60.91600000000003
 31
0
 12
-171.5499999999999
 22
60.08400000000003
 32
0
 13
-171.5499999999999
 23
60.08400000000003
 33
0
  0
SOLID
  8
1
 62
2
 10
-125.2499999999999
 20
60.50000000000003
 30
0
 11
-128.4499999999999
 21
60.08400000000003
 31
0
 12
-128.4499999999999
 22
60.91600000000003
 32
0
 13
-128.4499999999999
 23
60.91600000000003
 33
0
  0
TEXT
  8
1
 62
2
 10
-157.5839999999999
 20
61.50000000000002
 30
0
 40
3.2
  1
49.5
 41
0.9
  0
TEXT
  8
1
 62
2
 10
-147.2639999999999
 20
62.14000000000002
 30
0
 40
1.92
  1
%%p0.3
 41
0.9
  0
ENDBLK
  8
0
  0
BLOCK
  8
1
  2
*D12
 70
1
 10
0
 20
0
 30
0
  0
LINE
  8
1
 62
2
 10
-99.5
 20
-4.75
 30
0
 11
-99.5
 21
44.75
 31
0
  0
LINE
  8
1
 62
2
 10
-116.6557121239622
 20
44.75
 30
0
 11
-98.5
 21
44.75
 31
0
  0
LINE
  8
1
 62
2
 10
-115.9197933141023
 20
-4.75
 30
0
 11
-98.5
 21
-4.75
 31
0
  0
SOLID
  8
1
 62
2
 10
-99.5
 20
44.75
 30
0
 11
-99.084
 21
41.55
 31
0
 12
-99.916
 22
41.55
 32
0
 13
-99.916
 23
41.55
 33
0
  0
SOLID
  8
1
 62
2
 10
-99.5
 20
-4.75
 30
0
 11
-99.916
 21
-1.549999999999999
 31
0
 12
-99.084
 22
-1.549999999999999
 32
0
 13
-99.084
 23
-1.549999999999999
 33
0
  0
TEXT
  8
1
 62
2
 10
-100.5
 20
12.416
 30
0
 40
3.2
  1
49.5
 50
90
 41
0.9
  0
TEXT
  8
1
 62
2
 10
-101.14
 20
22.736
 30
0
 40
1.92
  1
%%p0.3
 50
90
 41
0.9
  0
ENDBLK
  8
0
  0
BLOCK
  8
1
  2
*D13
 70
1
 10
0
 20
0
 30
0
  0
LINE
  8
1
 62
2
 10
-109.5
 20
20.00000000000001
 30
0
 11
-109.5
 21
5.883414550744313
 31
0
  0
LINE
  8
1
 62
2
 10
-109.5
 20
20.00000000000001
 30
0
 11
-109.5
 21
30.00000000000001
 31
0
  0
LINE
  8
1
 62
2
 10
-137.4454185024993
 20
30.00000000000001
 30
0
 11
-108.5
 21
30.00000000000001
 31
0
  0
LINE
  8
1
 62
2
 10
-115.3944887593822
 20
20.00000000000001
 30
0
 11
-108.5
 21
20.00000000000001
 31
0
  0
SOLID
  8
1
 62
2
 10
-109.5
 20
30.00000000000001
 30
0
 11
-109.084
 21
26.80000000000001
 31
0
 12
-109.916
 22
26.80000000000001
 32
0
 13
-109.916
 23
26.80000000000001
 33
0
  0
SOLID
  8
1
 62
2
 10
-109.5
 20
20.00000000000001
 30
0
 11
-109.916
 21
23.20000000000001
 31
0
 12
-109.084
 22
23.20000000000001
 32
0
 13
-109.084
 23
23.20000000000001
 33
0
  0
TEXT
  8
1
 62
2
 10
-110.5
 20
5.883414550744311
 30
0
 40
3.2
  1
10
 50
90
 41
0.9
  0
TEXT
  8
1
 62
2
 10
-111.14
 20
11.32341455074431
 30
0
 40
1.92
  1
%%p0.5
 50
90
 41
0.9
  0
ENDBLK
  8
0
  0
BLOCK
  8
1
  2
*D14
 70
1
 10
0
 20
0
 30
0
  0
LINE
  8
1
 62
2
 10
-180.5
 20
70.50000000000003
 30
0
 11
-119.5
 21
70.50000000000003
 31
0
  0
LINE
  8
1
 62
2
 10
-119.5
 20
45.75000000000003
 30
0
 11
-119.5
 21
71.50000000000003
 31
0
  0
LINE
  8
1
 62
2
 10
-180.5
 20
45.75000000000003
 30
0
 11
-180.5
 21
71.50000000000003
 31
0
  0
SOLID
  8
1
 62
2
 10
-180.5
 20
70.50000000000003
 30
0
 11
-177.3
 21
70.91600000000003
 31
0
 12
-177.3
 22
70.08400000000003
 32
0
 13
-177.3
 23
70.08400000000003
 33
0
  0
SOLID
  8
1
 62
2
 10
-119.5
 20
70.50000000000003
 30
0
 11
-122.7
 21
70.08400000000003
 31
0
 12
-122.7
 22
70.91600000000003
 32
0
 13
-122.7
 23
70.91600000000003
 33
0
  0
TEXT
  8
1
 62
2
 10
-149.8494117647059
 20
71.50000000000003
 30
0
 40
3.2
  1
61
 41
0.9
  0
TEXT
  8
1
 62
2
 10
-153.9905882352941
 20
71.50000000000003
 30
0
 40
3.2
  1
üá
 41
0.9
  0
ENDBLK
  8
0
  0
BLOCK
  8
1
  2
*D15
 70
1
 10
0
 20
0
 30
0
  0
LINE
  8
1
 62
2
 10
-75.5000000000001
 20
20.60000000000023
 30
0
 11
-75.5000000000001
 21
27.00000000000023
 31
0
  0
LINE
  8
1
 62
2
 10
-75.5000000000001
 20
27.00000000000023
 30
0
 11
-75.5000000000001
 21
33.00000000000023
 31
0
  0
LINE
  8
1
 62
2
 10
-75.5000000000001
 20
33.00000000000023
 30
0
 11
-75.5000000000001
 21
55.5195847600047
 31
0
  0
LINE
  8
1
 62
2
 10
-56.00000000000013
 20
27.00000000000023
 30
0
 11
-76.5000000000001
 21
27.00000000000023
 31
0
  0
LINE
  8
1
 62
2
 10
-40.65942712606476
 20
33.00000000000023
 30
0
 11
-76.5000000000001
 21
33.00000000000023
 31
0
  0
SOLID
  8
1
 62
2
 10
-75.5000000000001
 20
33.00000000000023
 30
0
 11
-75.9160000000001
 21
36.20000000000023
 31
0
 12
-75.0840000000001
 22
36.20000000000023
 32
0
 13
-75.0840000000001
 23
36.20000000000023
 33
0
  0
SOLID
  8
1
 62
2
 10
-75.5000000000001
 20
27.00000000000023
 30
0
 11
-75.0840000000001
 21
23.80000000000023
 31
0
 12
-75.9160000000001
 22
23.80000000000023
 32
0
 13
-75.9160000000001
 23
23.80000000000023
 33
0
  0
TEXT
  8
1
 62
2
 10
-77.30000000000011
 20
45.23158476000469
 30
0
 40
3.2
  1
6
 50
90
 41
0.9
  0
TEXT
  8
1
 62
2
 10
-79.38000000000011
 20
48.7515847600047
 30
0
 40
1.92
  1
 0
 50
90
 41
0.9
  0
TEXT
  8
1
 62
2
 10
-76.5000000000001
 20
48.7515847600047
 30
0
 40
1.92
  1
-0.02
 50
90
 41
0.9
  0
TEXT
  8
1
 62
2
 10
-77.30000000000011
 20
41.3915847600047
 30
0
 40
3.2
  1
%%c
 50
90
 41
0.9
  0
ENDBLK
  8
0
  0
ENDSEC
  0
SECTION
  2
ENTITIES
  0
LINE
  8
1
 62
3
 10
-31.50000000000023
 20
48.55
 30
0
 11
-31.50000000000023
 21
40.94999999999998
 31
0
  0
LINE
  8
1
 62
3
 10
-31.85907292720344
 20
48.78999999999996
 30
0
 11
-34.34092707279706
 21
48.78999999999996
 31
0
  0
LINE
  8
1
 62
3
 10
-31.85907292720344
 20
42.73000000000001
 30
0
 11
-34.34092707279706
 21
42.73000000000001
 31
0
  0
LINE
  8
1
 62
3
 10
-31.85907292720344
 20
46.76999999999998
 30
0
 11
-34.34092707279706
 21
46.76999999999998
 31
0
  0
LINE
  8
1
 62
3
 10
-31.50000000000023
 20
41.71999999999996
 30
0
 11
-31.50000000000023
 21
47.77999999999997
 31
0
  0
LINE
  8
1
 62
3
 10
-34.70000000000016
 20
47.77999999999997
 30
0
 11
-34.70000000000016
 21
41.71999999999996
 31
0
  0
LINE
  8
1
 62
3
 10
-46.00000000000023
 20
46.74999999999999
 30
0
 11
-34.70000000000016
 21
46.74999999999999
 31
0
  0
LINE
  8
1
 62
3
 10
-46.50000000000023
 20
46.24999999999999
 30
0
 11
-46.50000000000023
 21
43.24999999999999
 31
0
  0
LINE
  8
1
 62
1
 10
-46.00000000000023
 20
46.74999999999999
 30
0
 11
-46.00000000000023
 21
42.74999999999999
 31
0
  0
LINE
  8
1
 62
1
 10
-46.50000000000023
 20
46.24999999999999
 30
0
 11
-34.70000000000016
 21
46.24999999999999
 31
0
  0
LINE
  8
1
 62
1
 10
-46.50000000000023
 20
43.24999999999999
 30
0
 11
-34.70000000000016
 21
43.24999999999999
 31
0
  0
LINE
  8
1
 62
3
 10
-46.00000000000023
 20
42.74999999999999
 30
0
 11
-34.70000000000016
 21
42.74999999999999
 31
0
  0
LINE
  8
1
 62
3
 10
-46.50000000000023
 20
46.24999999999999
 30
0
 11
-46.00000000000023
 21
46.74999999999999
 31
0
  0
LINE
  8
1
 62
3
 10
-46.00000000000023
 20
42.74999999999999
 30
0
 11
-46.50000000000023
 21
43.24999999999999
 31
0
  0
LINE
  8
1
 62
3
 10
-31.85907292720344
 20
40.70999999999997
 30
0
 11
-34.34092707279706
 21
40.70999999999997
 31
0
  0
LINE
  8
1
 62
3
 10
-31.50000000000023
 20
40.94999999999998
 30
0
 11
-30.50000000000023
 21
40.94999999999998
 31
0
  0
LINE
  8
1
 62
3
 10
-30.50000000000023
 20
44.99999999999999
 30
0
 11
-31.50000000000023
 21
44.87499999999999
 31
0
  0
LINE
  8
1
 62
3
 10
-30.50000000000023
 20
44.62499999999999
 30
0
 11
-31.50000000000023
 21
44.49999999999999
 31
0
  0
LINE
  8
1
 62
3
 10
-30.50000000000023
 20
48.55
 30
0
 11
-31.50000000000023
 21
48.55
 31
0
  0
LINE
  8
1
 62
3
 10
-31.50000000000023
 20
-0.9499999999999886
 30
0
 11
-31.50000000000023
 21
-8.550000000000011
 31
0
  0
LINE
  8
1
 62
3
 10
-31.85907292720344
 20
-0.7099999999999795
 30
0
 11
-34.34092707279706
 21
-0.7099999999999795
 31
0
  0
LINE
  8
1
 62
3
 10
-31.85907292720344
 20
-8.789999999999964
 30
0
 11
-34.34092707279706
 21
-8.789999999999964
 31
0
  0
LINE
  8
1
 62
3
 10
-31.85907292720344
 20
-6.769999999999982
 30
0
 11
-34.34092707279706
 21
-6.769999999999982
 31
0
  0
LINE
  8
1
 62
3
 10
-31.85907292720344
 20
-2.730000000000018
 30
0
 11
-34.34092707279706
 21
-2.730000000000018
 31
0
  0
LINE
  8
1
 62
3
 10
-31.50000000000023
 20
-7.779999999999973
 30
0
 11
-31.50000000000023
 21
-1.71999999999997
 31
0
  0
LINE
  8
1
 62
3
 10
-34.70000000000016
 20
-1.71999999999997
 30
0
 11
-34.70000000000016
 21
-7.779999999999973
 31
0
  0
LINE
  8
1
 62
3
 10
-46.00000000000023
 20
-2.75
 30
0
 11
-34.70000000000016
 21
-2.75
 31
0
  0
LINE
  8
1
 62
3
 10
-46.50000000000023
 20
-3.25
 30
0
 11
-46.50000000000023
 21
-6.25
 31
0
  0
LINE
  8
1
 62
1
 10
-46.00000000000023
 20
-2.75
 30
0
 11
-46.00000000000023
 21
-6.75
 31
0
  0
LINE
  8
1
 62
1
 10
-46.50000000000023
 20
-3.25
 30
0
 11
-34.70000000000016
 21
-3.25
 31
0
  0
LINE
  8
1
 62
1
 10
-46.50000000000023
 20
-6.25
 30
0
 11
-34.70000000000016
 21
-6.25
 31
0
  0
LINE
  8
1
 62
3
 10
-46.00000000000023
 20
-6.75
 30
0
 11
-34.70000000000016
 21
-6.75
 31
0
  0
LINE
  8
1
 62
3
 10
-46.50000000000023
 20
-3.25
 30
0
 11
-46.00000000000023
 21
-2.75
 31
0
  0
LINE
  8
1
 62
3
 10
-46.00000000000023
 20
-6.75
 30
0
 11
-46.50000000000023
 21
-6.25
 31
0
  0
LINE
  8
1
 62
3
 10
-30.50000000000023
 20
-0.9499999999999886
 30
0
 11
-31.50000000000023
 21
-0.9499999999999886
 31
0
  0
LINE
  8
1
 62
3
 10
-31.50000000000023
 20
-8.550000000000011
 30
0
 11
-30.50000000000023
 21
-8.550000000000011
 31
0
  0
LINE
  8
1
 62
3
 10
-30.50000000000023
 20
-4.5
 30
0
 11
-31.50000000000023
 21
-4.625
 31
0
  0
LINE
  8
1
 62
3
 10
-30.50000000000023
 20
-4.875
 30
0
 11
-31.50000000000023
 21
-5
 31
0
  0
LINE
  8
1
 62
3
 10
-171.2512573687104
 20
42.7300000000003
 30
0
 11
-171.2512573687106
 21
46.7700000000003
 31
0
  0
LINE
  8
1
 62
3
 10
-174.7499999999997
 20
40.7099999999999
 30
0
 11
-171.2512573687104
 21
42.7300000000003
 31
0
  0
LINE
  8
1
 62
3
 10
-178.2487426312891
 20
42.7300000000003
 30
0
 11
-174.7499999999997
 21
40.7099999999999
 31
0
  0
LINE
  8
1
 62
3
 10
-178.2487426312889
 20
46.7700000000003
 30
0
 11
-178.2487426312891
 21
42.7300000000003
 31
0
  0
LINE
  8
1
 62
3
 10
-174.7499999999997
 20
48.79000000000011
 30
0
 11
-178.2487426312889
 21
46.7700000000003
 31
0
  0
LINE
  8
1
 62
3
 10
-171.2512573687106
 20
46.7700000000003
 30
0
 11
-174.7499999999997
 21
48.79000000000011
 31
0
  0
LINE
  8
1
 62
3
 10
-128.7487426312888
 20
46.7700000000003
 30
0
 11
-128.7487426312891
 21
42.7300000000003
 31
0
  0
LINE
  8
1
 62
3
 10
-128.7487426312891
 20
42.7300000000003
 30
0
 11
-125.2499999999997
 21
40.7099999999999
 31
0
  0
LINE
  8
1
 62
3
 10
-125.2499999999997
 20
40.7099999999999
 30
0
 11
-121.7512573687103
 21
42.7300000000003
 31
0
  0
LINE
  8
1
 62
3
 10
-121.7512573687103
 20
42.7300000000003
 30
0
 11
-121.7512573687106
 21
46.7700000000003
 31
0
  0
LINE
  8
1
 62
3
 10
-121.7512573687106
 20
46.7700000000003
 30
0
 11
-125.2499999999997
 21
48.79000000000011
 31
0
  0
LINE
  8
1
 62
3
 10
-125.2499999999997
 20
48.79000000000011
 30
0
 11
-128.7487426312888
 21
46.7700000000003
 31
0
  0
LINE
  8
1
 62
1
 10
-123.625
 20
-4.750000000000057
 30
0
 11
-123.25
 21
-4.750000000000057
 31
0
  0
LINE
  8
1
 62
3
 10
-121.7512573687106
 20
-2.729999999999706
 30
0
 11
-125.2499999999997
 21
-0.7099999999998943
 31
0
  0
LINE
  8
1
 62
3
 10
-121.7512573687103
 20
-6.769999999999712
 30
0
 11
-121.7512573687106
 21
-2.729999999999706
 31
0
  0
LINE
  8
1
 62
3
 10
-125.2499999999997
 20
-8.790000000000106
 30
0
 11
-121.7512573687103
 21
-6.769999999999712
 31
0
  0
LINE
  8
1
 62
3
 10
-128.7487426312891
 20
-6.769999999999712
 30
0
 11
-125.2499999999997
 21
-8.790000000000106
 31
0
  0
LINE
  8
1
 62
3
 10
-128.7487426312888
 20
-2.729999999999706
 30
0
 11
-128.7487426312891
 21
-6.769999999999712
 31
0
  0
LINE
  8
1
 62
3
 10
-125.2499999999997
 20
-0.7099999999998943
 30
0
 11
-128.7487426312888
 21
-2.729999999999706
 31
0
  0
LINE
  8
1
 62
1
 10
-173.125
 20
-4.750000000000057
 30
0
 11
-172.75
 21
-4.750000000000057
 31
0
  0
LINE
  8
1
 62
3
 10
-171.2512573687104
 20
-6.769999999999712
 30
0
 11
-171.2512573687106
 21
-2.729999999999706
 31
0
  0
LINE
  8
1
 62
3
 10
-174.7499999999997
 20
-8.790000000000106
 30
0
 11
-171.2512573687104
 21
-6.769999999999712
 31
0
  0
LINE
  8
1
 62
3
 10
-178.2487426312891
 20
-6.769999999999712
 30
0
 11
-174.7499999999997
 21
-8.790000000000106
 31
0
  0
LINE
  8
1
 62
3
 10
-178.2487426312889
 20
-2.729999999999706
 30
0
 11
-178.2487426312891
 21
-6.769999999999712
 31
0
  0
LINE
  8
1
 62
3
 10
-174.7499999999997
 20
-0.7099999999998943
 30
0
 11
-178.2487426312889
 21
-2.729999999999706
 31
0
  0
LINE
  8
1
 62
3
 10
-171.2512573687106
 20
-2.729999999999706
 30
0
 11
-174.7499999999997
 21
-0.7099999999998943
 31
0
  0
LINE
  8
1
 62
3
 10
-30.00097782196584
 20
40.99999999999999
 30
0
 11
-30.00097782196584
 21
-1
 31
0
  0
LINE
  8
1
 62
3
 10
-30.50000000000023
 20
39.50146966030768
 30
0
 11
-30.50000000000023
 21
49.99999999999999
 31
0
  0
LINE
  8
1
 62
3
 10
-35.50000000000013
 20
38.5
 30
0
 11
-35.50000000000013
 21
21.5
 31
0
  0
LINE
  8
1
 62
3
 10
-30.50000000000012
 20
39
 30
0
 11
-35.00000000000012
 21
39
 31
0
  0
LINE
  8
1
 62
3
 10
-30.46860386934371
 20
39
 30
0
 11
-30.50000000000012
 21
39
 31
0
  0
LINE
  8
1
 62
3
 10
-35.00000000000012
 20
21
 30
0
 11
-30.50000000000012
 21
21
 31
0
  0
LINE
  8
1
 62
3
 10
-30.50000000000012
 20
21
 30
0
 11
-30.46860386934371
 21
21
 31
0
  0
LINE
  8
1
 62
3
 10
-30.50000000000023
 20
-10
 30
0
 11
-30.50000000000023
 21
0.4985303396923086
 31
0
  0
LINE
  8
1
 62
2
 10
-88.24494479186772
 20
-63.03267296689353
 30
0
 11
-145.708826922088
 21
-63.03267296689353
 31
0
  0
LINE
  8
1
 62
2
 10
-88.24494479186772
 20
-70.03267296689353
 30
0
 11
-145.708826922088
 21
-70.03267296689353
 31
0
  0
LINE
  8
1
 62
3
 10
52.5
 20
38.21804153555615
 30
0
 11
52.5
 21
1.781958464444813
 31
0
  0
LINE
  8
1
 62
3
 10
53.20000000000005
 20
1.781958464444813
 30
0
 11
39.20000000000005
 21
1.781958464444813
 31
0
  0
LINE
  8
1
 62
3
 10
52.5
 20
10.80000000000592
 30
0
 11
53.20000000000005
 21
10.80000000000592
 31
0
  0
LINE
  8
1
 62
3
 10
53.20000000000005
 20
10.80000000000592
 30
0
 11
53.20000000000005
 21
1.400000000000489
 31
0
  0
LINE
  8
1
 62
3
 10
58.19999999992797
 20
3.249999999999886
 30
0
 11
58.19999999992797
 21
2.749999999999886
 31
0
  0
LINE
  8
1
 62
2
 10
57.69999999992797
 20
3.249999999999886
 30
0
 11
57.69999999992797
 21
2.749999999999886
 31
0
  0
LINE
  8
1
 62
3
 10
58.19999999992797
 20
2.749999999999886
 30
0
 11
53.20000000000005
 21
2.749999999999886
 31
0
  0
LINE
  8
1
 62
3
 10
53.20000000000005
 20
3.249999999999886
 30
0
 11
58.19999999992797
 21
3.249999999999886
 31
0
  0
LINE
  8
1
 62
2
 10
53.70000000000016
 20
3.249999999999886
 30
0
 11
53.70000000000016
 21
2.749999999999886
 31
0
  0
LINE
  8
1
 62
1
 10
56.19999999992797
 20
4.358805784780088
 30
0
 11
56.19999999992797
 21
1.781958464444813
 31
0
  0
LINE
  8
1
 62
3
 10
39.20000000000005
 20
38.21804153555615
 30
0
 11
53.20000000000005
 21
38.21804153555615
 31
0
  0
LINE
  8
1
 62
3
 10
39.20000000000005
 20
38.21804153555615
 30
0
 11
39.20000000000005
 21
38.60000000000048
 31
0
  0
LINE
  8
1
 62
3
 10
53.20000000000005
 20
38.60000000000048
 30
0
 11
53.20000000000005
 21
29.19999999999504
 31
0
  0
LINE
  8
1
 62
3
 10
53.20000000000005
 20
29.19999999999504
 30
0
 11
52.5
 21
29.19999999999504
 31
0
  0
LINE
  8
1
 62
3
 10
58.19999999992797
 20
37.25000000000114
 30
0
 11
58.19999999992797
 21
36.75000000000114
 31
0
  0
LINE
  8
1
 62
2
 10
57.69999999992797
 20
37.25000000000114
 30
0
 11
57.69999999992797
 21
36.75000000000114
 31
0
  0
LINE
  8
1
 62
3
 10
53.20000000000005
 20
37.25000000000114
 30
0
 11
58.19999999992797
 21
37.25000000000114
 31
0
  0
LINE
  8
1
 62
3
 10
58.19999999992797
 20
36.75000000000114
 30
0
 11
53.20000000000005
 21
36.75000000000114
 31
0
  0
LINE
  8
1
 62
2
 10
53.70000000000016
 20
37.25000000000114
 30
0
 11
53.70000000000016
 21
36.75000000000114
 31
0
  0
LINE
  8
1
 62
1
 10
56.19999999992797
 20
38.21804153555615
 30
0
 11
56.19999999992797
 21
35.64119421522088
 31
0
  0
LINE
  8
1
 62
3
 10
2
 20
1.400000000000034
 30
0
 11
53.20000000000005
 21
1.400000000000489
 31
0
  0
LINE
  8
1
 62
3
 10
58.19999999992797
 20
26.30000000000007
 30
0
 11
58.19999999992797
 21
13.69999999999993
 31
0
  0
LINE
  8
1
 62
3
 10
57.19999999992797
 20
12.69999999999993
 30
0
 11
52.5
 21
12.69999999999993
 31
0
  0
LINE
  8
1
 62
3
 10
52.5
 20
27.30000000000007
 30
0
 11
57.19999999992797
 21
27.30000000000007
 31
0
  0
LINE
  8
1
 62
3
 10
53.20000000000005
 20
38.60000000000048
 30
0
 11
2
 21
38.59999999999997
 31
0
  0
LINE
  8
1
 62
3
 10
11.20000000000076
 20
27.30565662694152
 30
0
 11
29.80000000000112
 21
27.30565662694146
 31
0
  0
LINE
  8
1
 62
3
 10
31
 20
28.50565662694219
 30
0
 11
31
 21
38.60000000000024
 31
0
  0
LINE
  8
1
 62
3
 10
10
 20
28.50565662694219
 30
0
 11
10
 21
38.60000000000024
 31
0
  0
LINE
  8
1
 62
1
 10
151.1347943248003
 20
33.26993113937948
 30
0
 11
148.2873574488424
 21
29.87648801277175
 31
0
  0
LINE
  8
1
 62
1
 10
128.8652056751994
 20
6.73006886062268
 30
0
 11
131.7126425511573
 21
10.12351198723053
 31
0
  0
LINE
  8
1
 62
1
 10
139.9999999999996
 20
42.88000000000051
 30
0
 11
140.0000000000001
 21
-2.879999999999029
 31
0
  0
LINE
  8
1
 62
1
 10
131.7126425511577
 20
29.87648801277175
 30
0
 11
128.8652056752
 21
33.26993113937948
 31
0
  0
LINE
  8
1
 62
1
 10
148.2873574488431
 20
10.12351198723047
 30
0
 11
151.1347943248007
 21
6.73006886062268
 31
0
  0
LINE
  8
1
 62
3
 10
143.7499383193361
 20
38.2180669282231
 30
0
 11
143.7499383193361
 21
29.1999999999951
 31
0
  0
LINE
  8
1
 62
3
 10
143.7499383193361
 20
29.1999999999951
 30
0
 11
136.2499383193361
 21
29.1999999999951
 31
0
  0
LINE
  8
1
 62
3
 10
136.2499383193361
 20
29.1999999999951
 30
0
 11
136.2499383193361
 21
38.21804153555621
 31
0
  0
LINE
  8
1
 62
3
 10
141.0000000000001
 20
38.57309882599128
 30
0
 11
141.0000000000001
 21
37.25000000000119
 31
0
  0
LINE
  8
1
 62
3
 10
139.0000000000001
 20
29.1999999999951
 30
0
 11
139.0000000000001
 21
36.75000000000119
 31
0
  0
LINE
  8
1
 62
3
 10
141.7500000000001
 20
37.25000000000119
 30
0
 11
141.7500000000001
 21
36.75000000000119
 31
0
  0
LINE
  8
1
 62
3
 10
138.2500000000001
 20
36.75000000000119
 30
0
 11
138.2500000000001
 21
37.25000000000119
 31
0
  0
LINE
  8
1
 62
2
 10
138.7500000000001
 20
37.25000000000119
 30
0
 11
138.7500000000001
 21
36.75000000000119
 31
0
  0
LINE
  8
1
 62
3
 10
138.2500000000001
 20
37.25000000000119
 30
0
 11
141.7500000000001
 21
37.25000000000119
 31
0
  0
LINE
  8
1
 62
2
 10
141.2500000000001
 20
37.25000000000119
 30
0
 11
141.2500000000001
 21
36.75000000000119
 31
0
  0
LINE
  8
1
 62
3
 10
141.7500000000001
 20
36.75000000000119
 30
0
 11
138.2500000000001
 21
36.75000000000119
 31
0
  0
LINE
  8
1
 62
2
 10
144.2499383193361
 20
38.10795472387429
 30
0
 11
144.2499383193361
 21
37.07916930889445
 31
0
  0
LINE
  8
1
 62
3
 10
141.0000000000001
 20
36.75000000000119
 30
0
 11
141.0000000000001
 21
29.1999999999951
 31
0
  0
LINE
  8
1
 62
3
 10
139.0000000000001
 20
37.25000000000119
 30
0
 11
139.0000000000001
 21
38.57309882599128
 31
0
  0
LINE
  8
1
 62
2
 10
135.750061680664
 20
37.07916930889445
 30
0
 11
135.750061680664
 21
38.10795472387429
 31
0
  0
LINE
  8
1
 62
3
 10
143.749938319336
 20
10.80000000000666
 30
0
 11
143.749938319336
 21
1.781933071778667
 31
0
  0
LINE
  8
1
 62
3
 10
136.2499383193361
 20
10.80000000000666
 30
0
 11
143.749938319336
 21
10.80000000000666
 31
0
  0
LINE
  8
1
 62
3
 10
136.2499383193361
 20
1.781958464445722
 30
0
 11
136.2499383193361
 21
10.80000000000666
 31
0
  0
LINE
  8
1
 62
3
 10
141.0000000000001
 20
2.750000000000568
 30
0
 11
141.0000000000001
 21
1.426901174010482
 31
0
  0
LINE
  8
1
 62
3
 10
139.0000000000001
 20
3.250000000000568
 30
0
 11
139.0000000000001
 21
10.80000000000666
 31
0
  0
LINE
  8
1
 62
3
 10
141.7500000000001
 20
3.250000000000568
 30
0
 11
141.7500000000001
 21
2.750000000000568
 31
0
  0
LINE
  8
1
 62
3
 10
138.2500000000001
 20
2.750000000000568
 30
0
 11
138.2500000000001
 21
3.250000000000568
 31
0
  0
LINE
  8
1
 62
2
 10
138.7500000000001
 20
3.250000000000568
 30
0
 11
138.7500000000001
 21
2.750000000000568
 31
0
  0
LINE
  8
1
 62
3
 10
141.7500000000001
 20
2.750000000000568
 30
0
 11
138.2500000000001
 21
2.750000000000568
 31
0
  0
LINE
  8
1
 62
2
 10
141.2500000000001
 20
3.250000000000568
 30
0
 11
141.2500000000001
 21
2.750000000000568
 31
0
  0
LINE
  8
1
 62
3
 10
138.2500000000001
 20
3.250000000000568
 30
0
 11
141.7500000000001
 21
3.250000000000568
 31
0
  0
LINE
  8
1
 62
2
 10
144.249938319336
 20
2.920830691107369
 30
0
 11
144.249938319336
 21
1.892045276127476
 31
0
  0
LINE
  8
1
 62
3
 10
141.0000000000001
 20
10.80000000000666
 30
0
 11
141.0000000000001
 21
3.250000000000568
 31
0
  0
LINE
  8
1
 62
3
 10
139.0000000000001
 20
1.426901174010595
 30
0
 11
139.0000000000001
 21
2.750000000000568
 31
0
  0
LINE
  8
1
 62
2
 10
135.750061680664
 20
1.892045276127476
 30
0
 11
135.750061680664
 21
2.920830691107369
 31
0
  0
LINE
  8
1
 62
1
 10
117.1200000000005
 20
20.00000000000051
 30
0
 11
162.8800000000006
 21
20.00000000000051
 31
0
  0
LINE
  8
1
 62
1
 10
142.5861380996317
 20
37.00000000000119
 30
0
 11
137.3767271302735
 21
37.00000000000119
 31
0
  0
LINE
  8
1
 62
1
 10
137.3767271302734
 20
3
 30
0
 11
142.5861380996317
 21
3
 31
0
  0
LINE
  8
0
 62
1
 10
-47.5470983690175
 20
-4.749999999999893
 30
0
 11
3.5
 21
-4.75
 31
0
  0
LINE
  8
1
 62
3
 10
1.221245327087672e-015
 20
3.399999999999977
 30
0
 11
1.221245327087672e-015
 21
36.59999999999997
 31
0
  0
LINE
  8
1
 62
3
 10
-1.499999999999999
 20
49.99999999999994
 30
0
 11
-1.499999999999999
 21
-10
 31
0
  0
LINE
  8
1
 62
3
 10
-0.1663915190631887
 20
-1.295966478992231
 30
0
 11
-1.39128442572521
 21
-1.250380530190849
 31
0
  0
LINE
  8
1
 62
3
 10
-0.1663915190631887
 20
-8.204033521007769
 30
0
 11
-1.39128442572521
 21
-8.249619469809201
 31
0
  0
LINE
  8
1
 62
3
 10
-3.499999999999999
 20
-10.5
 30
0
 11
-30.00000000000022
 21
-10.5
 31
0
  0
LINE
  8
1
 62
3
 10
-3.499999999999999
 20
50.5
 30
0
 11
-3.499999999999999
 21
-10.5
 31
0
  0
LINE
  8
0
 62
3
 10
-1.499999999999999
 20
-10
 30
0
 11
-3.499999999999999
 21
-10
 31
0
  0
LINE
  8
1
 62
3
 10
-0.9999999999999986
 20
1
 30
0
 11
-0.4999999999999986
 21
1
 31
0
  0
LINE
  8
1
 62
3
 10
1.221245327087672e-015
 20
1.5
 30
0
 11
1.221245327087672e-015
 21
38.49999999999994
 31
0
  0
LINE
  8
1
 62
3
 10
-0.4999999999999986
 20
38.99999999999994
 30
0
 11
-0.9999999999999986
 21
38.99999999999994
 31
0
  0
LINE
  8
1
 62
3
 10
-0.1663915190631887
 20
48.20403352100772
 30
0
 11
-1.39128442572521
 21
48.24961946980915
 31
0
  0
LINE
  8
1
 62
3
 10
-0.1663915190631887
 20
41.29596647899223
 30
0
 11
-1.39128442572521
 21
41.2503805301908
 31
0
  0
LINE
  8
1
 62
3
 10
-3.499999999999999
 20
50.5
 30
0
 11
-30.00000000000022
 21
50.49999999999999
 31
0
  0
LINE
  8
1
 62
3
 10
-24.1226895768377
 20
51.3629393324681
 30
0
 11
-10.9932783055228
 21
51.3629393324681
 31
0
  0
LINE
  8
0
 62
1
 10
3.5
 20
44.75
 30
0
 11
-47.5470983690175
 21
44.74999999999989
 31
0
  0
LINE
  8
0
 62
3
 10
-3.499999999999999
 20
49.99999999999994
 30
0
 11
-1.499999999999999
 21
49.99999999999994
 31
0
  0
LINE
  8
1
 62
1
 10
-147.5000000000003
 20
30
 30
0
 11
-161.8108407155454
 21
30
 31
0
  0
LINE
  8
1
 62
2
 10
-55.00000000000012
 20
27.00000000000023
 30
0
 11
-55.00000000000012
 21
32.5
 31
0
  0
LINE
  8
1
 62
3
 10
-55.50000000000012
 20
27.50000000000023
 30
0
 11
-55.00000000000012
 21
27.00000000000023
 31
0
  0
LINE
  8
1
 62
3
 10
-119.5
 20
-4.75
 30
0
 11
-119.5
 21
44.75
 31
0
  0
LINE
  8
1
 62
1
 10
-117.6557121239622
 20
44.75
 30
0
 11
-132.5580680236214
 21
44.75
 31
0
  0
LINE
  8
1
 62
1
 10
-182.9685064990122
 20
44.75
 30
0
 11
-167.6981911944231
 21
44.75
 31
0
  0
LINE
  8
1
 62
1
 10
-167.5142114919581
 20
-4.75
 30
0
 11
-183.1524862014773
 21
-4.75
 31
0
  0
LINE
  8
1
 62
1
 10
-116.9197933141022
 20
-4.75
 30
0
 11
-132.5580680236214
 21
-4.75
 31
0
  0
LINE
  8
1
 62
1
 10
-174.7499999999999
 20
37.68946033097609
 30
0
 11
-174.7499999999999
 21
52.40783652817061
 31
0
  0
LINE
  8
1
 62
1
 10
-125.25
 20
-12.72097814441469
 30
0
 11
-125.25
 21
2.549337160174499
 31
0
  0
LINE
  8
1
 62
3
 10
-125.25
 20
50.5
 30
0
 11
-174.7499999999999
 21
50.5
 31
0
  0
LINE
  8
1
 62
3
 10
-174.7499999999999
 20
-10.5
 30
0
 11
-125.25
 21
-10.5
 31
0
  0
LINE
  8
1
 62
1
 10
-153.9580657785315
 20
-3.5
 30
0
 11
-146.1646034221224
 21
-3.5
 31
0
  0
LINE
  8
1
 62
1
 10
-150
 20
54.2136930292794
 30
0
 11
-150
 21
-13.40594546015416
 31
0
  0
LINE
  8
1
 62
1
 10
-133.6405020987129
 20
32.5
 30
0
 11
-125.7232833159694
 21
32.5
 31
0
  0
LINE
  8
1
 62
1
 10
-129.4999999999999
 20
36.37902647817771
 30
0
 11
-129.4999999999999
 21
28.83156791330981
 31
0
  0
LINE
  8
1
 62
1
 10
-174.1739005991351
 20
32.5
 30
0
 11
-166.9072225205681
 21
32.5
 31
0
  0
LINE
  8
1
 62
1
 10
-170.4999999999999
 20
36.09626866450839
 30
0
 11
-170.4999999999999
 21
29.06027877891182
 31
0
  0
LINE
  8
1
 62
3
 10
-151.6583123951777
 20
32.5
 30
0
 11
-148.3416876048223
 21
32.5
 31
0
  0
LINE
  8
1
 62
1
 10
-174.7499999999999
 20
1.997398052779829
 30
0
 11
-174.7499999999999
 21
-12.72097814441469
 31
0
  0
LINE
  8
1
 62
1
 10
-125.25
 20
52.77579593310054
 30
0
 11
-125.25
 21
38.05741973590614
 31
0
  0
LINE
  8
1
 62
1
 10
-138.4454185024992
 20
30
 30
0
 11
-147.5000000000003
 21
30
 31
0
  0
LINE
  8
1
 62
1
 10
-184.659808977786
 20
20
 30
0
 11
-116.3944887593821
 21
20
 31
0
  0
LINE
  8
1
 62
3
 10
-180.5
 20
44.75
 30
0
 11
-180.4999999999999
 21
-4.75
 31
0
  0
LINE
  8
1
 62
3
 10
-169.4941176470587
 20
32.80000000000001
 30
0
 11
-169.0999999999999
 21
32.80000000000001
 31
0
  0
LINE
  8
1
 62
3
 10
-169.4941176470587
 20
32.19999999999999
 30
0
 11
-169.0999999999999
 21
32.19999999999999
 31
0
  0
LINE
  8
1
 62
3
 10
-169.4999999999999
 20
32.80000000000001
 30
0
 11
-169.4941176470587
 21
32.80000000000001
 31
0
  0
LINE
  8
1
 62
3
 10
-169.4999999999999
 20
32.19999999999999
 30
0
 11
-169.4941176470587
 21
32.19999999999999
 31
0
  0
LINE
  8
1
 62
3
 10
-170.1999999999999
 20
31.5
 30
0
 11
-170.1999999999999
 21
31.10000000000002
 31
0
  0
LINE
  8
1
 62
3
 10
-170.6999999999999
 20
34
 30
0
 11
-170.2999999999999
 21
34
 31
0
  0
LINE
  8
1
 62
3
 10
-170.6999999999999
 20
31
 30
0
 11
-170.2999999999999
 21
31
 31
0
  0
LINE
  8
1
 62
3
 10
-168.9999999999999
 20
32.69999999999999
 30
0
 11
-168.9999999999999
 21
32.30000000000001
 31
0
  0
LINE
  8
1
 62
3
 10
-171.9999999999999
 20
32.69999999999999
 30
0
 11
-171.9999999999999
 21
32.30000000000001
 31
0
  0
LINE
  8
1
 62
3
 10
-171.8999999999999
 20
32.80000000000001
 30
0
 11
-171.4999999999999
 21
32.80000000000001
 31
0
  0
LINE
  8
1
 62
3
 10
-171.8999999999999
 20
32.19999999999999
 30
0
 11
-171.4999999999999
 21
32.19999999999999
 31
0
  0
LINE
  8
1
 62
3
 10
-170.7999999999999
 20
31.10000000000002
 30
0
 11
-170.7999999999999
 21
31.5
 31
0
  0
LINE
  8
1
 62
3
 10
-170.7999999999999
 20
33.90000000000003
 30
0
 11
-170.7999999999999
 21
33.5
 31
0
  0
LINE
  8
1
 62
3
 10
-170.1999999999999
 20
33.90000000000003
 30
0
 11
-170.1999999999999
 21
33.5
 31
0
  0
LINE
  8
1
 62
3
 10
-128.4941176470586
 20
32.80000000000001
 30
0
 11
-128.0999999999999
 21
32.80000000000001
 31
0
  0
LINE
  8
1
 62
3
 10
-128.4941176470586
 20
32.19999999999999
 30
0
 11
-128.0999999999999
 21
32.19999999999999
 31
0
  0
LINE
  8
1
 62
3
 10
-128.4999999999999
 20
32.80000000000001
 30
0
 11
-128.4941176470586
 21
32.80000000000001
 31
0
  0
LINE
  8
1
 62
3
 10
-128.4999999999999
 20
32.19999999999999
 30
0
 11
-128.4941176470586
 21
32.19999999999999
 31
0
  0
LINE
  8
1
 62
3
 10
-129.2
 20
31.5
 30
0
 11
-129.2
 21
31.10000000000002
 31
0
  0
LINE
  8
1
 62
3
 10
-129.7
 20
34
 30
0
 11
-129.2999999999999
 21
34
 31
0
  0
LINE
  8
1
 62
3
 10
-129.7
 20
31
 30
0
 11
-129.2999999999999
 21
31
 31
0
  0
LINE
  8
1
 62
3
 10
-128
 20
32.69999999999999
 30
0
 11
-128
 21
32.30000000000001
 31
0
  0
LINE
  8
1
 62
3
 10
-130.9999999999999
 20
32.69999999999999
 30
0
 11
-130.9999999999999
 21
32.30000000000001
 31
0
  0
LINE
  8
1
 62
3
 10
-130.8999999999998
 20
32.80000000000001
 30
0
 11
-130.4999999999999
 21
32.80000000000001
 31
0
  0
LINE
  8
1
 62
3
 10
-130.8999999999998
 20
32.19999999999999
 30
0
 11
-130.4999999999999
 21
32.19999999999999
 31
0
  0
LINE
  8
1
 62
3
 10
-129.7999999999999
 20
31.10000000000002
 30
0
 11
-129.7999999999999
 21
31.5
 31
0
  0
LINE
  8
1
 62
3
 10
-129.7999999999999
 20
33.90000000000003
 30
0
 11
-129.7999999999999
 21
33.5
 31
0
  0
LINE
  8
1
 62
3
 10
-129.2
 20
33.90000000000003
 30
0
 11
-129.2
 21
33.5
 31
0
  0
LINE
  8
1
 62
3
 10
-148.994117647059
 20
-3.199999999999989
 30
0
 11
-148.6
 21
-3.199999999999989
 31
0
  0
LINE
  8
1
 62
3
 10
-148.994117647059
 20
-3.800000000000011
 30
0
 11
-148.6
 21
-3.800000000000011
 31
0
  0
LINE
  8
1
 62
3
 10
-149
 20
-3.199999999999989
 30
0
 11
-148.994117647059
 21
-3.199999999999989
 31
0
  0
LINE
  8
1
 62
3
 10
-149
 20
-3.800000000000011
 30
0
 11
-148.994117647059
 21
-3.800000000000011
 31
0
  0
LINE
  8
1
 62
3
 10
-149.7
 20
-4.5
 30
0
 11
-149.7
 21
-4.899999999999981
 31
0
  0
LINE
  8
1
 62
3
 10
-150.2
 20
-2
 30
0
 11
-149.8
 21
-2
 31
0
  0
LINE
  8
1
 62
3
 10
-150.2
 20
-5
 30
0
 11
-149.8
 21
-5
 31
0
  0
LINE
  8
1
 62
3
 10
-148.5
 20
-3.300000000000011
 30
0
 11
-148.5
 21
-3.699999999999989
 31
0
  0
LINE
  8
1
 62
3
 10
-151.5
 20
-3.300000000000011
 30
0
 11
-151.5
 21
-3.699999999999989
 31
0
  0
LINE
  8
1
 62
3
 10
-151.4
 20
-3.199999999999989
 30
0
 11
-151
 21
-3.199999999999989
 31
0
  0
LINE
  8
1
 62
3
 10
-151.4
 20
-3.800000000000011
 30
0
 11
-151
 21
-3.800000000000011
 31
0
  0
LINE
  8
1
 62
3
 10
-150.3
 20
-4.899999999999981
 30
0
 11
-150.3
 21
-4.5
 31
0
  0
LINE
  8
1
 62
3
 10
-150.3
 20
-2.099999999999969
 30
0
 11
-150.3
 21
-2.5
 31
0
  0
LINE
  8
1
 62
3
 10
-149.7
 20
-2.099999999999969
 30
0
 11
-149.7
 21
-2.5
 31
0
  0
LINE
  8
1
 62
1
 10
-26.41717049876376
 20
30
 30
0
 11
-58.82728113355893
 21
30
 31
0
  0
LINE
  8
1
 62
3
 10
-55.50000000000012
 20
32.5
 30
0
 11
-55.50000000000012
 21
27.50000000000023
 31
0
  0
LINE
  8
1
 62
3
 10
-55.00000000000012
 20
27.00000000000023
 30
0
 11
-35.50000000000023
 21
27
 31
0
  0
LINE
  8
1
 62
3
 10
-43.50000000000023
 20
32.5
 30
0
 11
-55.50000000000012
 21
32.5
 31
0
  0
LINE
  8
1
 62
3
 10
-39.65942712606477
 20
33.00000000000023
 30
0
 11
-35.50000000000023
 21
33
 31
0
  0
LINE
  8
1
 62
3
 10
-35.50000000000023
 20
33
 30
0
 11
-35.50000000000023
 21
27
 31
0
  0
LINE
  8
1
 62
1
 10
61.78800145276794
 20
20
 30
0
 11
-33.99999999999997
 21
20
 31
0
  0
LINE
  8
1
 62
2
 10
-116.901801378908
 20
-49.03267296689353
 30
0
 11
-116.901801378908
 21
-77.03267296689353
 31
0
  0
LINE
  8
1
 62
2
 10
-88.24494479186771
 20
-49.03267296689353
 30
0
 11
-88.24494479186771
 21
-77.03267296689353
 31
0
  0
LINE
  8
1
 62
2
 10
-145.708826922088
 20
-49.03267296689353
 30
0
 11
-145.708826922088
 21
-77.03267296689353
 31
0
  0
LINE
  8
1
 62
2
 10
-145.708826922088
 20
-56.03267296689353
 30
0
 11
-88.24494479186772
 21
-56.03267296689353
 31
0
  0
LINE
  8
1
 62
2
 10
-88.24494479186771
 20
-77.03267296689353
 30
0
 11
-145.708826922088
 21
-77.03267296689353
 31
0
  0
LINE
  8
1
 62
2
 10
-145.708826922088
 20
-49.03267296689353
 30
0
 11
-88.24494479186771
 21
-49.03267296689353
 31
0
  0
LINE
  8
1
 62
3
 10
39.20000000000005
 20
1.399999999999523
 30
0
 11
39.20000000000005
 21
1.781958464444813
 31
0
  0
ARC
  8
1
 62
3
 10
-33.10000000000025
 20
47.77999999999997
 30
0
 40
1.600000000000014
 50
320.8575944035885
 51
39.14240559641129
  0
ARC
  8
1
 62
3
 10
-37.36139060919538
 20
44.74999999999999
 30
0
 40
5.861390609195153
 50
339.8409037848016
 51
20.15909621519845
  0
ARC
  8
1
 62
3
 10
-33.10000000000025
 20
47.77999999999997
 30
0
 40
1.600000000000007
 50
140.8575944035886
 51
219.1424055964116
  0
ARC
  8
1
 62
3
 10
-28.838609390805
 20
44.74999999999999
 30
0
 40
5.861390609195261
 50
159.8409037848019
 51
200.159096215198
  0
ARC
  8
1
 62
3
 10
-33.10000000000025
 20
41.71999999999996
 30
0
 40
1.600000000000014
 50
320.8575944035885
 51
39.14240559641308
  0
ARC
  8
1
 62
3
 10
-33.10000000000025
 20
41.71999999999996
 30
0
 40
1.600000000000047
 50
140.8575944035868
 51
219.1424055964116
  0
ARC
  8
1
 62
3
 10
-33.10000000000025
 20
-7.779999999999973
 30
0
 40
1.600000000000014
 50
320.8575944035885
 51
39.14240559641149
  0
ARC
  8
1
 62
3
 10
-33.10000000000025
 20
-1.71999999999997
 30
0
 40
1.60000000000005
 50
320.8575944035869
 51
39.14240559641148
  0
ARC
  8
1
 62
3
 10
-37.36139060919538
 20
-4.75
 30
0
 40
5.861390609195153
 50
339.8409037848016
 51
20.15909621519839
  0
ARC
  8
1
 62
3
 10
-33.10000000000025
 20
-7.779999999999973
 30
0
 40
1.600000000000011
 50
140.8575944035884
 51
219.1424055964116
  0
ARC
  8
1
 62
3
 10
-33.10000000000025
 20
-1.71999999999997
 30
0
 40
1.600000000000011
 50
140.8575944035885
 51
219.1424055964131
  0
ARC
  8
1
 62
3
 10
-28.838609390805
 20
-4.75
 30
0
 40
5.861390609195259
 50
159.840903784802
 51
200.159096215198
  0
CIRCLE
  8
1
 62
3
 10
-174.7499999999999
 20
44.75
 30
0
 40
3.49874263128909
  0
CIRCLE
  8
1
 62
1
 10
-174.7499999999999
 20
44.75
 30
0
 40
1.750000000000007
  0
CIRCLE
  8
1
 62
3
 10
-125.25
 20
44.75
 30
0
 40
3.49874263128909
  0
CIRCLE
  8
1
 62
1
 10
-125.25
 20
44.75
 30
0
 40
1.750000000000007
  0
CIRCLE
  8
1
 62
3
 10
-125.25
 20
-4.75
 30
0
 40
3.498742631289105
  0
CIRCLE
  8
1
 62
1
 10
-125.25
 20
-4.75
 30
0
 40
1.750000000000114
  0
CIRCLE
  8
1
 62
3
 10
-174.7499999999999
 20
-4.75
 30
0
 40
3.498742631289105
  0
CIRCLE
  8
1
 62
1
 10
-174.7499999999999
 20
-4.75
 30
0
 40
1.750000000000114
  0
ARC
  8
1
 62
1
 10
139.9999999999998
 20
20.00000000000051
 30
0
 40
15.00000000000054
 50
122.0832660772876
 51
137.7157356079381
  0
ARC
  8
1
 62
1
 10
139.9999999999998
 20
20.00000000000051
 30
0
 40
15.00000000000046
 50
42.28426439206166
 51
57.91673392271171
  0
ARC
  8
1
 62
1
 10
139.9999999999998
 20
20.00000000000051
 30
0
 40
14.99999999999946
 50
222.2842643920581
 51
237.9167339227101
  0
ARC
  8
1
 62
1
 10
139.9999999999998
 20
20.00000000000051
 30
0
 40
14.99999999999968
 50
302.0832660772906
 51
317.7157356079422
  0
ARC
  8
1
 62
3
 10
139.9999999999998
 20
20.00000000000051
 30
0
 40
18.60000000000066
 50
78.36890089693895
 51
270
  0
ARC
  8
1
 62
3
 10
139.9999999999998
 20
20.00000000000051
 30
0
 40
17.5999999999992
 50
282.3020108937138
 51
77.69798910628686
  0
ARC
  8
1
 62
3
 10
139.9999999999998
 20
20.00000000000051
 30
0
 40
18.59999999999963
 50
270
 51
78.36890089693895
  0
ARC
  8
1
 62
3
 10
139.9999999999998
 20
20.00000000000051
 30
0
 40
17.60000000000121
 50
102.3024219278002
 51
257.6975780721986
  0
ARC
  8
1
 62
3
 10
-6.89492957746478
 20
-4.73478246325698
 30
0
 40
8
 50
2.040035164553993
 51
21.50479479967081
  0
ARC
  8
1
 62
3
 10
-6.89492957746478
 20
-4.76521753674308
 30
0
 40
7.999999999999996
 50
338.4952052003292
 51
357.9599648354464
  0
ARC
  8
1
 62
3
 10
1.975000000000065
 20
-4.75
 30
0
 40
0.9250000000000574
 50
161.0753555839492
 51
198.9246444160507
  0
ARC
  8
1
 62
3
 10
-6.89492957746478
 20
44.76521753674302
 30
0
 40
8
 50
2.040035164553967
 51
21.50479479967077
  0
ARC
  8
1
 62
3
 10
-6.89492957746478
 20
44.73478246325692
 30
0
 40
7.999999999999994
 50
338.4952052003292
 51
357.9599648354464
  0
ARC
  8
1
 62
3
 10
1.975000000000065
 20
44.75
 30
0
 40
0.9250000000000574
 50
161.0753555839492
 51
198.9246444160507
  0
ARC
  8
1
 62
3
 10
-171.5029411764706
 20
33.50294117647064
 30
0
 40
0.7029473295325524
 50
270.2397298960922
 51
359.7602701039148
  0
ARC
  8
1
 62
3
 10
-169.4970588235293
 20
33.50294117647064
 30
0
 40
0.7029473295325237
 50
180.2397298960852
 51
270.2397298960829
  0
ARC
  8
1
 62
3
 10
-169.4970588235293
 20
31.49705882352941
 30
0
 40
0.7029473295324986
 50
89.76027010391704
 51
179.7602701039191
  0
ARC
  8
1
 62
3
 10
-171.5029411764706
 20
31.49705882352941
 30
0
 40
0.7029473295326371
 50
0.2397298960808802
 51
89.76027010390777
  0
ARC
  8
1
 62
3
 10
-130.5029411764704
 20
33.50294117647064
 30
0
 40
0.7029473295325515
 50
270.2397298960736
 51
359.7602701039147
  0
ARC
  8
1
 62
3
 10
-128.4970588235293
 20
33.50294117647064
 30
0
 40
0.702947329532609
 50
180.2397298960852
 51
270.2397298960899
  0
ARC
  8
1
 62
3
 10
-128.4970588235293
 20
31.49705882352941
 30
0
 40
0.7029473295324989
 50
89.76027010391009
 51
179.7602701039191
  0
ARC
  8
1
 62
3
 10
-130.5029411764704
 20
31.49705882352941
 30
0
 40
0.7029473295324097
 50
0.2397298960809578
 51
89.76027010392632
  0
ARC
  8
1
 62
3
 10
-151.0029411764707
 20
-2.497058823529361
 30
0
 40
0.7029473295325491
 50
270.2397298960899
 51
359.7602701039151
  0
ARC
  8
1
 62
3
 10
-148.9970588235294
 20
-2.497058823529361
 30
0
 40
0.7029473295325237
 50
180.239729896085
 51
270.2397298960644
  0
ARC
  8
1
 62
3
 10
-148.9970588235294
 20
-4.502941176470589
 30
0
 40
0.7029473295324982
 50
89.76027010393558
 51
179.7602701039191
  0
ARC
  8
1
 62
3
 10
-151.0029411764707
 20
-4.502941176470589
 30
0
 40
0.7029473295326086
 50
0.2397298960808899
 51
89.76027010391009
  0
ARC
  8
1
 62
3
 10
-43.50000000000023
 20
47.5
 30
0
 40
15
 50
270
 51
284.8351115819802
  0
CIRCLE
  8
1
 62
3
 10
-174.7499999999999
 20
44.75
 30
0
 40
1.999999999999886
  0
CIRCLE
  8
1
 62
3
 10
-125.25
 20
44.75
 30
0
 40
2
  0
CIRCLE
  8
1
 62
3
 10
-125.25
 20
-4.75
 30
0
 40
2
  0
CIRCLE
  8
1
 62
3
 10
-174.7499999999999
 20
-4.75
 30
0
 40
1.999999999999886
  0
CIRCLE
  8
1
 62
3
 10
139.9999999999998
 20
20.00000000000051
 30
0
 40
5.000000000000085
  0
CIRCLE
  8
1
 62
3
 10
139.9999999999998
 20
20.00000000000051
 30
0
 40
7.699999999994191
  0
CIRCLE
  8
1
 62
3
 10
130.3581858547018
 20
31.49066664678577
 30
0
 40
1.25
  0
CIRCLE
  8
1
 62
3
 10
149.641814145298
 20
31.49066664678549
 30
0
 40
1.249999999999886
  0
CIRCLE
  8
1
 62
3
 10
130.3581858547021
 20
8.509333353216164
 30
0
 40
1.250000000000313
  0
CIRCLE
  8
1
 62
3
 10
149.641814145298
 20
8.509333353216391
 30
0
 40
1.249999999999886
  0
CIRCLE
  8
1
 62
3
 10
139.9999999999998
 20
20.00000000000051
 30
0
 40
2.500000000000313
  0
CIRCLE
  8
1
 62
2
 10
-150
 20
30
 30
0
 40
2.499999999999687
  0
CIRCLE
  8
1
 62
3
 10
-170.4999999999999
 20
32.5
 30
0
 40
3
  0
CIRCLE
  8
1
 62
3
 10
-129.4999999999999
 20
32.5
 30
0
 40
2.999999999999986
  0
CIRCLE
  8
1
 62
3
 10
-150
 20
30
 30
0
 40
3
  0
CIRCLE
  8
1
 62
3
 10
-150
 20
30
 30
0
 40
5.249999999999886
  0
CIRCLE
  8
1
 62
3
 10
-150
 20
-3.5
 30
0
 40
2.999999999999886
  0
CIRCLE
  8
1
 62
3
 10
-174.7499999999999
 20
-4.75
 30
0
 40
5.75
  0
CIRCLE
  8
1
 62
3
 10
-174.7499999999999
 20
44.75
 30
0
 40
5.75
  0
CIRCLE
  8
1
 62
3
 10
-125.25
 20
44.75
 30
0
 40
5.75
  0
CIRCLE
  8
1
 62
3
 10
-125.25
 20
-4.75
 30
0
 40
5.75
  0
CIRCLE
  8
1
 62
3
 10
-150
 20
30
 30
0
 40
9.000000000000114
  0
ARC
  8
1
 62
3
 10
-30.46860386934371
 20
39.5
 30
0
 40
0.5
 50
270
 51
297.8545067897596
  0
ARC
  8
1
 62
3
 10
-30.00137591799494
 20
39.49999999999999
 30
0
 40
0.5
 50
180
 51
270
  0
ARC
  8
1
 62
3
 10
-30.00000000000023
 20
49.99999999999999
 30
0
 40
0.5
 50
90
 51
180
  0
ARC
  8
1
 62
3
 10
-35.00000000000012
 20
38.5
 30
0
 40
0.5
 50
90
 51
180
  0
ARC
  8
1
 62
3
 10
-35.00000000000012
 20
21.5
 30
0
 40
0.5000000000000071
 50
180
 51
270
  0
ARC
  8
1
 62
3
 10
-30.46860386934371
 20
20.5
 30
0
 40
0.5
 50
0
 51
90
  0
ARC
  8
1
 62
3
 10
-30.00137591799494
 20
0.5
 30
0
 40
0.5
 50
90
 51
180
  0
ARC
  8
1
 62
3
 10
-30.00000000000023
 20
-10
 30
0
 40
0.5
 50
180
 51
270
  0
ARC
  8
1
 62
3
 10
57.19999999992797
 20
13.69999999999993
 30
0
 40
1
 50
270
 51
0
  0
ARC
  8
1
 62
3
 10
57.19999999992797
 20
26.30000000000007
 30
0
 40
1
 50
0
 51
90
  0
ARC
  8
1
 62
3
 10
11.20000000000076
 20
28.50565662694219
 30
0
 40
1.20000000000076
 50
180
 51
270
  0
ARC
  8
1
 62
3
 10
29.80000000000112
 20
28.50565662694219
 30
0
 40
1.200000000000731
 50
270
 51
0
  0
ARC
  8
1
 62
3
 10
2
 20
36.60000000000002
 30
0
 40
1.99999999999995
 50
90
 51
180
  0
ARC
  8
1
 62
3
 10
2
 20
3.399999999999977
 30
0
 40
1.999999999999999
 50
180
 51
270
  0
ARC
  8
1
 62
3
 10
-0.1961439402770576
 20
-2.095413033448441
 30
0
 40
0.7999999999999734
 50
21.50479479966987
 51
87.86864827538464
  0
ARC
  8
1
 62
3
 10
-0.1961439402770576
 20
-7.404586966551559
 30
0
 40
0.7999999999999963
 50
272.1313517246153
 51
338.4952052003268
  0
ARC
  8
1
 62
3
 10
-1.399999999999988
 20
-8.150000000000031
 30
0
 40
0.100000000000001
 50
180
 51
275.0000000000072
  0
ARC
  8
1
 62
3
 10
-1.399999999999988
 20
-1.350000000000019
 30
0
 40
0.09999999999999644
 50
84.99999999999284
 51
180
  0
ARC
  8
1
 62
3
 10
-0.4999999999999986
 20
1.5
 30
0
 40
0.5
 50
270
 51
0
  0
ARC
  8
1
 62
3
 10
-0.9999999999999986
 20
0.5
 30
0
 40
0.5
 50
90
 51
180
  0
ARC
  8
1
 62
3
 10
-0.4999999999999986
 20
38.49999999999994
 30
0
 40
0.4999999999999998
 50
0
 51
90
  0
ARC
  8
1
 62
3
 10
-0.9999999999999986
 20
39.49999999999994
 30
0
 40
0.5000000000000003
 50
180
 51
270
  0
ARC
  8
1
 62
3
 10
-0.1961439402770576
 20
47.40458696655151
 30
0
 40
0.7999999999999888
 50
21.50479479967271
 51
87.86864827538464
  0
ARC
  8
1
 62
3
 10
-0.1961439402770576
 20
42.09541303344844
 30
0
 40
0.7999999999999963
 50
272.1313517246153
 51
338.4952052003273
  0
ARC
  8
1
 62
3
 10
-1.399999999999988
 20
41.34999999999997
 30
0
 40
0.100000000000001
 50
180
 51
275.0000000000072
  0
ARC
  8
1
 62
3
 10
-1.399999999999988
 20
48.14999999999998
 30
0
 40
0.09999999999999644
 50
84.99999999999284
 51
180
  0
ARC
  8
1
 62
3
 10
-171.8999999999999
 20
32.69999999999999
 30
0
 40
0.1000000000000227
 50
90
 51
180
  0
ARC
  8
1
 62
3
 10
-171.8999999999999
 20
32.30000000000001
 30
0
 40
0.09999999999999432
 50
180
 51
270
  0
ARC
  8
1
 62
3
 10
-170.6999999999999
 20
31.10000000000002
 30
0
 40
0.09999999999999432
 50
180
 51
270
  0
ARC
  8
1
 62
3
 10
-170.2999999999999
 20
31.10000000000002
 30
0
 40
0.1000000000000192
 50
270
 51
0
  0
ARC
  8
1
 62
3
 10
-169.0999999999999
 20
32.30000000000001
 30
0
 40
0.1000000000000227
 50
270
 51
0
  0
ARC
  8
1
 62
3
 10
-169.0999999999999
 20
32.69999999999999
 30
0
 40
0.1000000000000227
 50
0
 51
90
  0
ARC
  8
1
 62
3
 10
-170.2999999999999
 20
33.90000000000003
 30
0
 40
0.09999999999999432
 50
0
 51
90
  0
ARC
  8
1
 62
3
 10
-170.6999999999999
 20
33.90000000000003
 30
0
 40
0.099999999999973
 50
90
 51
180
  0
ARC
  8
1
 62
3
 10
-130.8999999999998
 20
32.69999999999999
 30
0
 40
0.1000000000000227
 50
90
 51
180
  0
ARC
  8
1
 62
3
 10
-130.8999999999998
 20
32.30000000000001
 30
0
 40
0.1000000000000796
 50
180
 51
270
  0
ARC
  8
1
 62
3
 10
-129.7
 20
31.10000000000002
 30
0
 40
0.09999999999990905
 50
180
 51
270
  0
ARC
  8
1
 62
3
 10
-129.2999999999999
 20
31.10000000000002
 30
0
 40
0.1000000000000192
 50
270
 51
0
  0
ARC
  8
1
 62
3
 10
-128.0999999999999
 20
32.30000000000001
 30
0
 40
0.1000000000000227
 50
270
 51
0
  0
ARC
  8
1
 62
3
 10
-128.0999999999999
 20
32.69999999999999
 30
0
 40
0.09999999999990905
 50
0
 51
90
  0
ARC
  8
1
 62
3
 10
-129.2999999999999
 20
33.90000000000003
 30
0
 40
0.09999999999990905
 50
0
 51
90
  0
ARC
  8
1
 62
3
 10
-129.7
 20
33.90000000000003
 30
0
 40
0.099999999999973
 50
90
 51
180
  0
ARC
  8
1
 62
3
 10
-151.4
 20
-3.300000000000011
 30
0
 40
0.1000000000000219
 50
90
 51
180
  0
ARC
  8
1
 62
3
 10
-151.4
 20
-3.699999999999989
 30
0
 40
0.09999999999999432
 50
180
 51
270
  0
ARC
  8
1
 62
3
 10
-150.2
 20
-4.899999999999981
 30
0
 40
0.1000000000000227
 50
180
 51
270
  0
ARC
  8
1
 62
3
 10
-149.8
 20
-4.899999999999981
 30
0
 40
0.1000000000000192
 50
270
 51
0
  0
ARC
  8
1
 62
3
 10
-148.6
 20
-3.699999999999989
 30
0
 40
0.1000000000000219
 50
270
 51
0
  0
ARC
  8
1
 62
3
 10
-148.6
 20
-3.300000000000011
 30
0
 40
0.09999999999999432
 50
0
 51
90
  0
ARC
  8
1
 62
3
 10
-149.8
 20
-2.099999999999969
 30
0
 40
0.1000000000000227
 50
0
 51
90
  0
ARC
  8
1
 62
3
 10
-150.2
 20
-2.099999999999969
 30
0
 40
0.099999999999969
 50
90
 51
180
  0
LINE
  8
1
 62
2
 10
-75.54206010452708
 20
-20.98910424671922
 30
0
 11
-52.69691202119202
 21
-20.98910424671922
 31
0
  0
LINE
  8
1
 62
2
 10
-52.69691202119202
 20
-20.98910424671922
 30
0
 11
-44.25404603884942
 21
-6.749999999999687
 31
0
  0
SOLID
  8
1
 62
2
 10
-45.64276891257924
 20
-9.99557705754459
 30
0
 11
-46.43546648298384
 21
-9.525558773002812
 31
0
 12
-44.25404603884942
 22
-6.749999999999687
 32
0
 13
-44.25404603884942
 23
-6.749999999999687
 33
0
  0
LINE
  8
1
 62
2
 10
-124.3156081072832
 20
-30.57593543191621
 30
0
 11
-184.7983009209484
 21
-30.57593543191621
 31
0
  0
LINE
  8
1
 62
2
 10
-184.7983009209484
 20
-30.57593543191621
 30
0
 11
-176.4993713156445
 21
-7.779999999999944
 31
0
  0
SOLID
  8
1
 62
2
 10
-177.1981849567686
 20
-10.9310542787165
 30
0
 11
-177.989926318853
 21
-10.64281842855057
 31
0
 12
-176.4993713156445
 22
-7.779999999999944
 32
0
 13
-176.4993713156445
 23
-7.779999999999944
 33
0
  0
LINE
  8
1
 62
2
 10
-3.041668467440658
 20
60.2674004705421
 30
0
 11
-29.45384315115579
 21
60.2674004705421
 31
0
  0
LINE
  8
1
 62
2
 10
-29.45384315115579
 20
60.2674004705421
 30
0
 11
-20.5493820130818
 21
51.3629393324681
 31
0
  0
SOLID
  8
1
 62
2
 10
-23.35007905554939
 20
53.51198975830634
 30
0
 11
-22.69843243892004
 21
54.16363637493569
 31
0
 12
-20.5493820130818
 22
51.3629393324681
 32
0
 13
-20.5493820130818
 23
51.3629393324681
 33
0
  0
LINE
  8
1
 62
2
 10
35.86070579706471
 20
50.50000000000028
 30
0
 11
7.197609288734086
 21
50.50000000000028
 31
0
  0
LINE
  8
1
 62
2
 10
7.197609288734086
 20
50.50000000000028
 30
0
 11
19.51143057539411
 21
38.60000000000025
 31
0
  0
SOLID
  8
1
 62
2
 10
16.67441991678631
 20
40.70087890641727
 30
0
 11
17.31483618322236
 21
41.36356558322093
 31
0
 12
19.51143057539411
 22
38.60000000000025
 32
0
 13
19.51143057539411
 23
38.60000000000025
 33
0
  0
LINE
  8
1
 62
2
 10
173.4705744347958
 20
-9.199999999999477
 30
0
 11
144.4705744347958
 21
-9.199999999999477
 31
0
  0
LINE
  8
1
 62
2
 10
144.4705744347958
 20
-9.199999999999477
 30
0
 11
141.7500000000001
 21
2.750000000000568
 31
0
  0
SOLID
  8
1
 62
2
 10
142.9762281261716
 20
-0.5603906475013725
 30
0
 11
142.0776532696884
 21
-0.7649630142208932
 31
0
 12
141.7500000000001
 22
2.750000000000568
 32
0
 13
141.7500000000001
 23
2.750000000000568
 33
0
  0
LINE
  8
1
 62
2
 10
106.5294255652045
 20
49.20000000000056
 30
0
 11
135.5294255652045
 21
49.20000000000056
 31
0
  0
LINE
  8
1
 62
2
 10
135.5294255652045
 20
49.20000000000056
 30
0
 11
138.2500000000001
 21
37.25000000000119
 31
0
  0
SOLID
  8
1
 62
2
 10
137.0237718738287
 20
40.56039064750312
 30
0
 11
137.9223467303118
 21
40.76496301422264
 31
0
 12
138.2500000000001
 22
37.25000000000119
 32
0
 13
138.2500000000001
 23
37.25000000000119
 33
0
  0
TEXT
  8
1
 62
2
 10
-76.92623318208607
 20
-19.77109817150523
 30
0
 40
3.5
  1
4-M4ü~45
 41
0.9
 72
1
 73
2
 11
-64.32623318208607
 21
-18.02109817150523
 31
0
  0
TEXT
  8
1
 62
2
 10
-181.9032334516624
 20
-29.60600568897883
 30
0
 40
3.5
  1
âéü[â^üEéfégêÛæ╠î^üiÄ%%cÆìÉÂÄYòiüj
 41
0.9
  0
TEXT
  8
1
 62
2
 10
-177.727911586199
 20
-35.44308625420383
 30
0
 40
3.5
  1
4-M4 DEPTH 6MAX.
 41
0.9
  0
TEXT
  8
1
 62
2
 10
-67.68162874449038
 20
-83.7999999999997
 30
0
 40
5
  1
DMN37üá6HP
 41
0.9
  0
TEXT
  8
1
 62
2
 10
-38.5662781748087
 20
61.11740047054212
 30
0
 40
3.5
  1
émé`élédü@éoéké`éséd
 41
0.6300000000000001
 72
1
 73
2
 11
-16.5162781748087
 21
62.86740047054212
 31
0
  0
TEXT
  8
1
 62
2
 10
-3.964825734918819
 20
51.35000000000031
 30
0
 40
3.5
  1
émé`élédü@éoéké`éséd
 41
0.72
 72
1
 73
2
 11
21.23517426508118
 21
53.10000000000031
 31
0
  0
TEXT
  8
1
 62
2
 10
135.0335382300909
 20
-8.403338888214471
 30
0
 40
3.5
  1
(-)ésédéqéléhémé`ék
 41
0.72
 72
1
 73
2
 11
158.9735382300909
 21
-6.653338888214471
 31
0
  0
TEXT
  8
1
 62
2
 10
141.3335382300909
 20
-14.00333888821444
 30
0
 40
3.5
  1
üiéaéké`ébéjüj
 41
0.72
 72
1
 73
2
 11
158.9735382300909
 21
-12.25333888821444
 31
0
  0
TEXT
  8
1
 62
2
 10
108.4323893604996
 20
44.39666111178559
 30
0
 40
3.5
  1
üiéqédécüj
 41
0.72
 72
1
 73
2
 11
121.0323893604996
 21
46.14666111178559
 31
0
  0
TEXT
  8
1
 62
2
 10
97.0923893604996
 20
49.99666111178556
 30
0
 40
3.5
  1
(+)ésédéqéléhémé`ék
 41
0.72
 72
1
 73
2
 11
121.0323893604996
 21
51.74666111178556
 31
0
  0
TEXT
  8
1
 62
2
 10
-113.9133730853878
 20
-62.18267296689351
 30
0
 40
3.5
  1
éVéTüDéV
 41
0.8100000000000001
 72
1
 73
2
 11
-102.5733730853878
 21
-60.43267296689351
 31
0
  0
TEXT
  8
1
 62
2
 10
-149.72011861547
 20
-62.18267296689351
 30
0
 40
3.5
  1
écéléméRéVér
 41
0.8100000000000001
 72
1
 73
2
 11
-132.71011861547
 21
-60.43267296689351
 31
0
  0
TEXT
  8
1
 62
2
 10
-113.9133730853878
 20
-69.18267296689351
 30
0
 40
3.5
  1
éWéRüDéV
 41
0.8100000000000001
 72
1
 73
2
 11
-102.5733730853878
 21
-67.43267296689351
 31
0
  0
TEXT
  8
1
 62
2
 10
-149.72011861547
 20
-69.18267296689351
 30
0
 40
3.5
  1
écéléméRéVéa
 41
0.8100000000000001
 72
1
 73
2
 11
-132.71011861547
 21
-67.43267296689351
 31
0
  0
TEXT
  8
1
 62
2
 10
-113.9133730853878
 20
-76.18267296689351
 30
0
 40
3.5
  1
éWéWüDéV
 41
0.8100000000000001
 72
1
 73
2
 11
-102.5733730853878
 21
-74.43267296689351
 31
0
  0
TEXT
  8
1
 62
2
 10
-105.4083730853878
 20
-55.18267296689351
 30
0
 40
3.5
  1
ék
 41
0.8100000000000001
 72
1
 73
2
 11
-102.5733730853878
 21
-53.43267296689351
 31
0
  0
TEXT
  8
1
 62
2
 10
-149.72011861547
 20
-76.18267296689351
 30
0
 40
3.5
  1
écéléméRéVéj
 41
0.8100000000000001
 72
1
 73
2
 11
-132.71011861547
 21
-74.43267296689351
 31
0
  0
DIMENSION
  8
1
  6
CONTINUOUS
 62
2
  2
*D0
  3
DMST_1
 10
-85.50000000000011
 20
21
 30
0
 11
-88.10000000000011
 21
30
 31
0
 12
0
 22
0
 32
0
 70
0
  1
%%c<>
 13
-35.00000000000012
 23
39
 33
0
 14
-35.00000000000012
 24
21
 34
0
 50
90
 53
0
  0
DIMENSION
  8
1
  6
CONTINUOUS
 62
2
  2
*D1
  3
DMST_1
 10
-30.50000000000023
 20
70.49999999999999
 30
0
 11
-33.00000000000018
 21
73.09999999999998
 31
0
 12
0
 22
0
 32
0
 70
0
 13
-35.50000000000013
 23
38.5
 33
0
 14
-30.50000000000023
 24
49.99999999999999
 34
0
 53
0
  0
DIMENSION
  8
1
  6
CONTINUOUS
 62
2
  2
*D2
  3
DMST_1
 10
58.19999999992797
 20
80.5
 30
0
 11
13.84999999996387
 21
83.09999999999999
 31
0
 12
0
 22
0
 32
0
 70
0
  1
L
 13
-30.50000000000023
 23
49.99999999999999
 33
0
 14
58.19999999992797
 24
26.30000000000007
 34
0
 53
0
  0
DIMENSION
  8
1
  6
CONTINUOUS
 62
2
  2
*D3
  3
DMST_1
 10
-1.499999999999989
 20
70.5
 30
0
 11
-16.00000000000011
 21
73.09999999999999
 31
0
 12
0
 22
0
 32
0
 70
0
 13
-30.50000000000023
 23
49.99999999999999
 33
0
 14
-1.499999999999999
 24
49.99999999999994
 34
0
 53
0
  0
DIMENSION
  8
1
  6
CONTINUOUS
 62
2
  2
*D4
  3
DMST_1
 10
-55.50000000000011
 20
80.49999999999999
 30
0
 11
-43.00000000000018
 21
83.09999999999998
 31
0
 12
0
 22
0
 32
0
 70
0
 13
-30.50000000000023
 23
49.99999999999999
 33
0
 14
-55.50000000000012
 24
32.5
 34
0
 53
0
  0
DIMENSION
  8
1
  6
CONTINUOUS
 62
2
  2
*D5
  3
DMST_2
 10
58.19999999992797
 20
70.5
 30
0
 11
65.23367890891031
 21
73.09999999999999
 31
0
 12
0
 22
0
 32
0
 70
0
  1
(<>
 13
52.5
 23
38.21804153555615
 33
0
 14
58.19999999992797
 24
26.30000000000007
 34
0
 53
0
  0
DIMENSION
  8
1
  6
CONTINUOUS
 62
2
  2
*D6
  3
DMST_1
 10
83.19999999992795
 20
38.60000000000048
 30
0
 11
80.59999999992796
 21
20.00000000000051
 31
0
 12
0
 22
0
 32
0
 70
0
  1
%%c<>
 13
53.20000000000005
 23
1.400000000000489
 33
0
 14
53.20000000000005
 24
38.60000000000048
 34
0
 50
90
 53
0
  0
DIMENSION
  8
1
  6
CONTINUOUS
 62
2
  2
*D7
  3
DMST_1
 10
73.19999999992795
 20
12.69999999999993
 30
0
 11
70.59999999992796
 21
20
 31
0
 12
0
 22
0
 32
0
 70
0
  1
%%c<>
 13
57.19999999992797
 23
27.30000000000007
 33
0
 14
57.19999999992797
 24
12.69999999999993
 34
0
 50
90
 53
0
  0
DIMENSION
  8
1
  6
CONTINUOUS
 62
2
  2
*D8
  3
DMST_2
 10
174.1999999999999
 20
37.00000000000117
 30
0
 11
171.5999999999999
 21
20.00000000000057
 31
0
 12
0
 22
0
 32
0
 70
0
  1
(<>
 13
142.5861380996317
 23
3
 33
0
 14
142.5861380996317
 24
37.00000000000119
 34
0
 50
90
 53
0
  0
DIMENSION
  8
1
  6
CONTINUOUS
 62
2
  2
*D9
  3
DMST_1
 10
-43.50000000000023
 20
60.50000000000003
 30
0
 11
-49.50000000000017
 21
63.10000000000002
 31
0
 12
0
 22
0
 32
0
 70
0
 13
-55.50000000000012
 23
32.5
 33
0
 14
-43.50000000000023
 24
32.5
 34
0
 53
0
  0
DIMENSION
  8
1
  6
CONTINUOUS
 62
2
  2
*D10
  3
DMST_3
 10
-65.50000000000014
 20
32.5
 30
0
 11
-68.10000000000014
 21
49
 31
0
 12
0
 22
0
 32
0
 70
0
 13
-55.00000000000012
 23
27.00000000000023
 33
0
 14
-55.50000000000012
 24
32.5
 34
0
 50
90
 53
0
  0
DIMENSION
  8
1
  6
CONTINUOUS
 62
2
  2
*D11
  3
DMST_3
 10
-125.2499999999999
 20
60.50000000000003
 30
0
 11
-149.9999999999999
 21
63.10000000000002
 31
0
 12
0
 22
0
 32
0
 70
0
 13
-174.7499999999999
 23
52.40783652817061
 33
0
 14
-125.25
 24
52.77579593310054
 34
0
 53
0
  0
DIMENSION
  8
1
  6
CONTINUOUS
 62
2
  2
*D12
  3
DMST_3
 10
-99.5
 20
44.75
 30
0
 11
-102.1
 21
20
 31
0
 12
0
 22
0
 32
0
 70
0
 13
-116.9197933141022
 23
-4.75
 33
0
 14
-117.6557121239622
 24
44.75
 34
0
 50
90
 53
0
  0
DIMENSION
  8
1
  6
CONTINUOUS
 62
2
  2
*D13
  3
DMST_4
 10
-109.5
 20
20.00000000000001
 30
0
 11
-112.1
 21
11.02741455074431
 31
0
 12
0
 22
0
 32
0
 70
0
 13
-138.4454185024992
 23
30
 33
0
 14
-116.3944887593821
 24
20
 34
0
 50
90
 53
0
  0
DIMENSION
  8
1
  6
CONTINUOUS
 62
2
  2
*D14
  3
DMST_1
 10
-119.5
 20
70.50000000000003
 30
0
 11
-150
 21
73.10000000000002
 31
0
 12
0
 22
0
 32
0
 70
0
  1
üá<>
 13
-180.5
 23
44.75
 33
0
 14
-119.5
 24
44.75
 34
0
 53
0
  0
DIMENSION
  8
1
  6
CONTINUOUS
 62
2
  2
*D15
  3
DMST_5
 10
-75.5000000000001
 20
33.00000000000023
 30
0
 11
-78.90000000000011
 21
48.4555847600047
 31
0
 12
0
 22
0
 32
0
 70
0
  1
%%c<>
 13
-55.00000000000012
 23
27.00000000000023
 33
0
 14
-39.65942712606477
 24
33.00000000000023
 34
0
 50
90
 53
0
  0
ENDSEC
  0
EOF
