  0
SECTION
  2
HEADER
  9
$ACADVER
  1
AC1014
  9
$ACADMAINTVER
 70
             0
  9
$DWGCODEPAGE
  3
ANSI_1252
  9
$INSBASE
 10
0.0
 20
0.0
 30
0.0
  9
$EXTMIN
 10
-162.88000000000059
 20
-112.1675251999997
 30
0.0
  9
$EXTMAX
 10
163.4705744347965
 20
73.41494749336499
 30
0.0
  9
$LIMMIN
 10
0.0
 20
0.0
  9
$LIMMAX
 10
0.0
 20
0.0
  9
$ORTHOMODE
 70
             0
  9
$REGENMODE
 70
             1
  9
$FILLMODE
 70
             1
  9
$QTEXTMODE
 70
             0
  9
$MIRRTEXT
 70
             1
  9
$DRAGMODE
 70
             2
  9
$LTSCALE
 40
1.0
  9
$OSMODE
 70
             0
  9
$ATTMODE
 70
             1
  9
$TEXTSIZE
 40
0.2
  9
$TRACEWID
 40
0.05
  9
$TEXTSTYLE
  7
STANDARD
  9
$CLAYER
  8
0
  9
$CELTYPE
  6
CONTINUOUS
  9
$CECOLOR
 62
           256
  9
$CELTSCALE
 40
1.0
  9
$DELOBJ
 70
             1
  9
$DISPSILH
 70
             0
  9
$DIMSCALE
 40
1.0
  9
$DIMASZ
 40
0.18
  9
$DIMEXO
 40
0.0625
  9
$DIMDLI
 40
0.38
  9
$DIMRND
 40
0.0
  9
$DIMDLE
 40
0.0
  9
$DIMEXE
 40
0.18
  9
$DIMTP
 40
0.0
  9
$DIMTM
 40
0.0
  9
$DIMTXT
 40
0.18
  9
$DIMCEN
 40
0.09
  9
$DIMTSZ
 40
0.0
  9
$DIMTOL
 70
             0
  9
$DIMLIM
 70
             0
  9
$DIMTIH
 70
             1
  9
$DIMTOH
 70
             1
  9
$DIMSE1
 70
             0
  9
$DIMSE2
 70
             0
  9
$DIMTAD
 70
             0
  9
$DIMZIN
 70
             0
  9
$DIMBLK
  1

  9
$DIMASO
 70
             1
  9
$DIMSHO
 70
             1
  9
$DIMPOST
  1

  9
$DIMAPOST
  1

  9
$DIMALT
 70
             0
  9
$DIMALTD
 70
             2
  9
$DIMALTF
 40
25.4
  9
$DIMLFAC
 40
1.0
  9
$DIMTOFL
 70
             0
  9
$DIMTVP
 40
0.0
  9
$DIMTIX
 70
             0
  9
$DIMSOXD
 70
             0
  9
$DIMSAH
 70
             0
  9
$DIMBLK1
  1

  9
$DIMBLK2
  1

  9
$DIMSTYLE
  2
STANDARD
  9
$DIMCLRD
 70
             0
  9
$DIMCLRE
 70
             0
  9
$DIMCLRT
 70
             0
  9
$DIMTFAC
 40
1.0
  9
$DIMGAP
 40
0.09
  9
$DIMJUST
 70
             0
  9
$DIMSD1
 70
             0
  9
$DIMSD2
 70
             0
  9
$DIMTOLJ
 70
             1
  9
$DIMTZIN
 70
             0
  9
$DIMALTZ
 70
             0
  9
$DIMALTTZ
 70
             0
  9
$DIMFIT
 70
             3
  9
$DIMUPT
 70
             0
  9
$DIMUNIT
 70
             2
  9
$DIMDEC
 70
             4
  9
$DIMTDEC
 70
             4
  9
$DIMALTU
 70
             2
  9
$DIMALTTD
 70
             2
  9
$DIMTXSTY
  7
STANDARD
  9
$DIMAUNIT
 70
             0
  9
$LUNITS
 70
             2
  9
$LUPREC
 70
             4
  9
$SKETCHINC
 40
0.1
  9
$FILLETRAD
 40
0.0
  9
$AUNITS
 70
             0
  9
$AUPREC
 70
             0
  9
$MENU
  1
acad
  9
$ELEVATION
 40
0.0
  9
$PELEVATION
 40
0.0
  9
$THICKNESS
 40
0.0
  9
$LIMCHECK
 70
             0
  9
$BLIPMODE
 70
             1
  9
$CHAMFERA
 40
0.0
  9
$CHAMFERB
 40
0.0
  9
$CHAMFERC
 40
0.0
  9
$CHAMFERD
 40
0.0
  9
$SKPOLY
 70
             0
  9
$TDCREATE
 40
0.000000000
  9
$TDUPDATE
 40
0.000000000
  9
$TDINDWG
 40
0.0000000000
  9
$TDUSRTIMER
 40
0.0000000000
  9
$USRTIMER
 70
             1
  9
$ANGBASE
 50
0.0
  9
$ANGDIR
 70
             0
  9
$PDMODE
 70
             0
  9
$PDSIZE
 40
0.0
  9
$PLINEWID
 40
0.0
  9
$COORDS
 70
             0
  9
$SPLFRAME
 70
             0
  9
$SPLINETYPE
 70
             6
  9
$SPLINESEGS
 70
             8
  9
$ATTDIA
 70
             0
  9
$ATTREQ
 70
             1
  9
$HANDLING
 70
             1
  9
$HANDSEED
  5
217
  9
$SURFTAB1
 70
             6
  9
$SURFTAB2
 70
             6
  9
$SURFTYPE
 70
             6
  9
$SURFU
 70
             6
  9
$SURFV
 70
             6
  9
$UCSNAME
  2

  9
$UCSORG
 10
0.0
 20
0.0
 30
0.0
  9
$UCSXDIR
 10
1.0
 20
0.0
 30
0.0
  9
$UCSYDIR
 10
0.0
 20
1.0
 30
0.0
  9
$PUCSNAME
  2

  9
$PUCSORG
 10
0.0
 20
0.0
 30
0.0
  9
$PUCSXDIR
 10
1.0
 20
0.0
 30
0.0
  9
$PUCSYDIR
 10
0.0
 20
1.0
 30
0.0
  9
$USERI1
 70
             0
  9
$USERI2
 70
             0
  9
$USERI3
 70
             0
  9
$USERI4
 70
             0
  9
$USERI5
 70
             0
  9
$USERR1
 40
12.01
  9
$USERR2
 40
0.0
  9
$USERR3
 40
0.0
  9
$USERR4
 40
0.0
  9
$USERR5
 40
0.0
  9
$WORLDVIEW
 70
             1
  9
$SHADEDGE
 70
             3
  9
$SHADEDIF
 70
            70
  9
$TILEMODE
 70
             1
  9
$MAXACTVP
 70
            16
  9
$PINSBASE
 10
0.0
 20
0.0
 30
0.0
  9
$PLIMCHECK
 70
             0
  9
$PEXTMIN
 10
1.00000000000000E+20
 20
1.00000000000000E+20
 30
1.00000000000000E+20
  9
$PEXTMAX
 10
-1.00000000000000E+20
 20
-1.00000000000000E+20
 30
-1.00000000000000E+20
  9
$PLIMMIN
 10
0.0
 20
0.0
  9
$PLIMMAX
 10
12.0
 20
9.0
  9
$UNITMODE
 70
             0
  9
$VISRETAIN
 70
             0
  9
$PLINEGEN
 70
             1
  9
$PSLTSCALE
 70
             0
  9
$TREEDEPTH
 70
          3020
  9
$PICKSTYLE
 70
             1
  9
$CMLSTYLE
  2
STANDARD
  9
$CMLJUST
 70
             0
  9
$CMLSCALE
 40
1.0
  9
$PROXYGRAPHICS
 70
             0
  9
$MEASUREMENT
 70
             1
  0
ENDSEC
  0
SECTION
  2
CLASSES
  0
CLASS
  1
LWPOLYLINE
  2
AcDbPolyline
  3
"AutoCAD"
 90
        0
280
             0
281
             1
  0
CLASS
  1
IMAGE
  2
AcDbRasterImage
  3
ISM
 90
      127
280
             0
281
             1
  0
CLASS
  1
OLE2FRAME
  2
AcDbOle2Frame
  3
""
 90
        0
280
             0
281
             1
  0
CLASS
  1
HATCH
  2
AcDbHatch
  3
"ACAD_SEDONA"
 90
        0
280
             0
281
             1
  0
CLASS
  1
DICTIONARYVAR
  2
AcDbDictionaryVar
  3
"AutoCAD"
 90
        0
280
             0
281
             0
  0
CLASS
  1
RASTERVARIABLES
  2
AcDbRasterVariables
  3
ISM
 90
        0
280
             0
281
             0
  0
CLASS
  1
IMAGEDEF
  2
AcDbRasterImageDef
  3
ISM
 90
        0
280
             0
281
             0
  0
CLASS
  1
IMAGEDEF_REACTOR
  2
AcDbRasterImageDefReactor
  3
ISM
 90
        1
280
             0
281
             0
  0
CLASS
  1
IDBUFFER
  2
AcDbIdBuffer
  3
"Acad"
 90
        0
280
             0
281
             0
  0
CLASS
  1
SPATIAL_FILTER
  2
AcDbSpatialFilter
  3
"Acad"
 90
        0
280
             0
281
             0
  0
CLASS
  1
XRECORD
  2
AcDbXrecord
  3
"<Built In>"
 90
        0
280
             0
281
             0
  0
CLASS
  1
SORTENTSTABLE
  2
AcDbSortentsTable
  3
"AutoCAD"
 90
        0
280
             0
281
             0
  0
CLASS
  1
LAYER_INDEX
  2
AcDbLayerIndex
  3
"Acad"
 90
        0
280
             0
281
             0
  0
CLASS
  1
SPATIAL_INDEX
  2
AcDbSpatialIndex
  3
"Acad"
 90
        0
280
             0
281
             0
  0
CLASS
  1
OBJECT_PTR
  2
CAseDLPNTableRecord
  3
"ASE-LPNTableRecord"
 90
        1
280
             0
281
             0
  0
CLASS
  1
LAYOUT
  2
AcDbLayout
  3
"AutoCAD 2000"
 90
        0
280
             0
281
             0
  0
CLASS
  1
PLOTSETTINGS
  2
AcDbPlotSettings
  3
"AutoCAD 2000"
 90
        0
280
             0
281
             0
  0
CLASS
  1
ACDBDICTIONARYWDFLT
  2
AcDbDictionaryWithDefault
  3
"AutoCAD 2000"
 90
        0
280
             0
281
             0
  0
CLASS
  1
ACDBPLACEHOLDER
  2
AcDbPlaceHolder
  3
"AutoCAD 2000"
 90
        0
280
             0
281
             0
  0
ENDSEC
  0
SECTION
  2
TABLES
  0
TABLE
  2
VPORT
  5
7
100
AcDbSymbolTable
 70
             1
  0
VPORT
  5
15
100
AcDbSymbolTableRecord
100
AcDbViewportTableRecord
  2
*ACTIVE
 70
             0
 10
0.0
 20
0.0
 11
1.0
 21
1.0
 12
0.29528721739796
 22
-19.37628885331736
 13
0.0
 23
0.0
 14
1.0
 24
1.0
 15
0.0
 25
0.0
 16
0.0
 26
0.0
 36
1.0
 17
0.0
 27
0.0
 37
0.0
 40
223.99103493240679
 41
1.60267857142857
 42
50.0
 43
0.0
 44
0.0
 50
0.0
 51
0.0
 71
             0
 72
           100
 73
             1
 74
             1
 75
             0
 76
             0
 77
             0
 78
             0
  0
ENDTAB
  0
TABLE
  2
LTYPE
  5
4
100
AcDbSymbolTable
 70
            10
  0
LTYPE
  5
11
100
AcDbSymbolTableRecord
100
AcDbLinetypeTableRecord
  2
BYBLOCK
 70
            64
  3

 72
            65
 73
             0
 40
0.0
  0
LTYPE
  5
12
100
AcDbSymbolTableRecord
100
AcDbLinetypeTableRecord
  2
BYLAYER
 70
            64
  3

 72
            65
 73
             0
 40
0.0
  0
LTYPE
  5
13
100
AcDbSymbolTableRecord
100
AcDbLinetypeTableRecord
  2
CONTINUOUS
 70
            64
  3
Solid line
 72
            65
 73
             0
 40
0.0
  0
LTYPE
  5
1D
100
AcDbSymbolTableRecord
100
AcDbLinetypeTableRecord
  2
DASHED
 70
            64
  3
Dashed
 72
            65
 73
             2
 40
15.0
 49
7.0
 74
             0
 49
-8.0
 74
             0
  0
LTYPE
  5
1E
100
AcDbSymbolTableRecord
100
AcDbLinetypeTableRecord
  2
DOTTED
 70
            64
  3
Dotted
 72
            65
 73
             2
 40
1.0
 49
0.0
 74
             0
 49
-1.0
 74
             0
  0
LTYPE
  5
1F
100
AcDbSymbolTableRecord
100
AcDbLinetypeTableRecord
  2
DOT_CENTER
 70
            64
  3
Dot_Center
 72
            65
 73
             4
 40
14.0
 49
12.0
 74
             0
 49
-1.0
 74
             0
 49
0.0
 74
             0
 49
-1.0
 74
             0
  0
LTYPE
  5
20
100
AcDbSymbolTableRecord
100
AcDbLinetypeTableRecord
  2
LONG_DASHED
 70
            64
  3
Long_Dashed
 72
            65
 73
             2
 40
15.0
 49
10.0
 74
             0
 49
-5.0
 74
             0
  0
LTYPE
  5
21
100
AcDbSymbolTableRecord
100
AcDbLinetypeTableRecord
  2
DASH_CENTER
 70
            64
  3
Dash_Center
 72
            65
 73
             4
 40
14.0
 49
11.0
 74
             0
 49
-1.0
 74
             0
 49
1.0
 74
             0
 49
-1.0
 74
             0
  0
LTYPE
  5
22
100
AcDbSymbolTableRecord
100
AcDbLinetypeTableRecord
  2
PHANTOM
 70
            64
  3
Phantom
 72
            65
 73
             6
 40
13.0
 49
10.0
 74
             0
 49
-1.0
 74
             0
 49
0.0
 74
             0
 49
-1.0
 74
             0
 49
0.0
 74
             0
 49
-1.0
 74
             0
  0
LTYPE
  5
23
100
AcDbSymbolTableRecord
100
AcDbLinetypeTableRecord
  2
CENTER_DASH_DASH
 70
            64
  3
Center_Dash_Dash
 72
            65
 73
             6
 40
14.0
 49
9.0
 74
             0
 49
-1.0
 74
             0
 49
1.0
 74
             0
 49
-1.0
 74
             0
 49
1.0
 74
             0
 49
-1.0
 74
             0
  0
ENDTAB
  0
TABLE
  2
LAYER
  5
2
100
AcDbSymbolTable
 70
             2
  0
LAYER
  5
14
100
AcDbSymbolTableRecord
100
AcDbLayerTableRecord
  2
0
 70
             0
 62
             7
  6
CONTINUOUS
  0
LAYER
  5
24
100
AcDbSymbolTableRecord
100
AcDbLayerTableRecord
  2
1
 70
             0
 62
             7
  6
CONTINUOUS
  0
ENDTAB
  0
TABLE
  2
STYLE
  5
3
100
AcDbSymbolTable
 70
             4
  0
STYLE
  5
17
100
AcDbSymbolTableRecord
100
AcDbTextStyleTableRecord
  2
STANDARD
 70
             0
 40
0.0
 41
1.0
 50
0.0
 71
             0
 42
0.0
  3
txt
  4

  0
STYLE
  5
4F
100
AcDbSymbolTableRecord
100
AcDbTextStyleTableRecord
  2
CONVERTER_1
 70
             0
 40
0.0
 41
0.9
 50
0.0
 71
             0
 42
0.0
  3
txt.shx
  4

  0
STYLE
  5
175
100
AcDbSymbolTableRecord
100
AcDbTextStyleTableRecord
  2
CONVERTER_2
 70
             0
 40
0.0
 41
0.72
 50
0.0
 71
             0
 42
0.0
  3
txt.shx
  4

  0
STYLE
  5
17C
100
AcDbSymbolTableRecord
100
AcDbTextStyleTableRecord
  2
CONVERTER_3
 70
             0
 40
0.0
 41
0.81
 50
0.0
 71
             0
 42
0.0
  3
txt.shx
  4

  0
ENDTAB
  0
TABLE
  2
VIEW
  5
5
100
AcDbSymbolTable
 70
             0
  0
ENDTAB
  0
TABLE
  2
UCS
  5
6
100
AcDbSymbolTable
 70
             0
  0
ENDTAB
  0
TABLE
  2
APPID
  5
8
100
AcDbSymbolTable
 70
             1
  0
APPID
  5
16
100
AcDbSymbolTableRecord
100
AcDbRegAppTableRecord
  2
ACAD
 70
             0
  0
ENDTAB
  0
TABLE
  2
DIMSTYLE
  5
9
100
AcDbSymbolTable
 70
            18
  0
DIMSTYLE
105
18
100
AcDbSymbolTableRecord
100
AcDbDimStyleTableRecord
  2
STANDARD
 70
             0
  3

  4

  5

  6

  7

 40
1.0
 41
0.18
 42
0.0625
 43
0.38
 44
0.18
 45
0.0
 46
0.0
 47
0.0
 48
0.0
 71
             0
 72
             0
 73
             1
 74
             1
 75
             0
 76
             0
 77
             0
 78
             0
140
0.18
141
0.09
142
0.0
143
25.4
144
1.0
145
0.0
146
1.0
147
0.09
170
             0
171
             2
172
             0
173
             0
174
             0
175
             0
176
             0
177
             0
178
             0
270
             2
271
             4
272
             4
273
             2
274
             2
275
             0
280
             0
281
             0
282
             0
283
             1
284
             0
285
             0
286
             0
287
             3
288
             0
340
17
  0
DIMSTYLE
105
55
100
AcDbSymbolTableRecord
100
AcDbDimStyleTableRecord
  2
ME10_DIM_0
 70
             0
  3

  4

  5

  6
_NONE
  7
_NONE
 40
1.0
 41
0.0
 42
0.5
 43
0.38
 44
0.5
 45
0.0
 46
0.0
 47
0.0
 48
0.0
 71
             0
 72
             0
 73
             0
 74
             0
 75
             0
 76
             0
 77
             1
 78
             8
140
1.6
141
0.09
142
0.0
143
25.4
144
1.0
145
0.0
146
1.0
147
0.625
170
             0
171
             2
172
             1
173
             1
174
             0
175
             0
176
             2
177
             2
178
             2
270
             2
271
             3
272
             4
273
             2
274
             2
275
             0
280
             0
281
             0
282
             0
283
             1
284
             0
285
             0
286
             0
287
             3
288
             0
340
4F
  0
DIMSTYLE
105
62
100
AcDbSymbolTableRecord
100
AcDbDimStyleTableRecord
  2
ME10_DIM_1
 70
             0
  3
2-<>×T0.5
  4

  5

  6

  7

 40
1.0
 41
1.6
 42
0.5
 43
0.38
 44
0.5
 45
0.0
 46
0.0
 47
0.0
 48
0.0
 71
             0
 72
             0
 73
             0
 74
             0
 75
             0
 76
             0
 77
             1
 78
             8
140
1.6
141
0.09
142
0.0
143
25.4
144
1.0
145
0.0
146
1.0
147
0.625
170
             0
171
             2
172
             1
173
             1
174
             0
175
             0
176
             2
177
             2
178
             2
270
             2
271
             3
272
             4
273
             2
274
             2
275
             0
280
             0
281
             0
282
             0
283
             1
284
             0
285
             0
286
             0
287
             3
288
             0
340
4F
  0
DIMSTYLE
105
77
100
AcDbSymbolTableRecord
100
AcDbDimStyleTableRecord
  2
ME10_DIM_2
 70
             0
  3

  4

  5

  6
_DOT
  7

 40
1.0
 41
1.6
 42
0.5
 43
0.38
 44
0.5
 45
0.0
 46
0.0
 47
0.0
 48
0.0
 71
             0
 72
             0
 73
             0
 74
             0
 75
             0
 76
             0
 77
             1
 78
             8
140
1.6
141
0.09
142
0.0
143
25.4
144
1.0
145
0.0
146
1.0
147
0.625
170
             0
171
             2
172
             1
173
             1
174
             0
175
             0
176
             2
177
             2
178
             2
270
             2
271
             3
272
             4
273
             2
274
             2
275
             0
280
             0
281
             0
282
             0
283
             1
284
             0
285
             0
286
             0
287
             3
288
             0
340
4F
  0
DIMSTYLE
105
84
100
AcDbSymbolTableRecord
100
AcDbDimStyleTableRecord
  2
ME10_DIM_3
 70
             0
  3

  4

  5

  6

  7

 40
1.0
 41
1.6
 42
0.5
 43
0.38
 44
0.5
 45
0.0
 46
0.0
 47
0.0
 48
0.0
 71
             0
 72
             0
 73
             0
 74
             0
 75
             0
 76
             0
 77
             1
 78
             8
140
1.6
141
0.09
142
0.0
143
25.4
144
1.0
145
0.0
146
1.0
147
0.625
170
             0
171
             2
172
             1
173
             1
174
             0
175
             0
176
             2
177
             2
178
             2
270
             2
271
             3
272
             4
273
             2
274
             2
275
             0
280
             0
281
             0
282
             0
283
             1
284
             0
285
             0
286
             0
287
             3
288
             0
340
4F
  0
DIMSTYLE
105
188
100
AcDbSymbolTableRecord
100
AcDbDimStyleTableRecord
  2
ME10_DIM_4
 70
             0
  3
(<>)
  4

  5

  6

  7

 40
1.0
 41
3.2
 42
1.0
 43
0.38
 44
1.0
 45
0.0
 46
0.0
 47
0.0
 48
0.0
 71
             0
 72
             0
 73
             0
 74
             0
 75
             0
 76
             0
 77
             1
 78
             8
140
3.2
141
0.09
142
0.0
143
25.4
144
1.0
145
0.0
146
1.0
147
0.625
170
             0
171
             2
172
             1
173
             1
174
             0
175
             0
176
             2
177
             2
178
             2
270
             2
271
             3
272
             4
273
             2
274
             2
275
             0
280
             0
281
             0
282
             0
283
             1
284
             0
285
             0
286
             0
287
             3
288
             0
340
4F
  0
DIMSTYLE
105
195
100
AcDbSymbolTableRecord
100
AcDbDimStyleTableRecord
  2
ME10_DIM_5
 70
             0
  3
(<>)
  4

  5

  6

  7

 40
1.0
 41
3.2
 42
1.0
 43
0.38
 44
1.0
 45
0.0
 46
0.0
 47
0.0
 48
0.0
 71
             0
 72
             0
 73
             0
 74
             0
 75
             0
 76
             0
 77
             1
 78
             8
140
3.2
141
0.09
142
0.0
143
25.4
144
1.0
145
0.0
146
1.0
147
0.625
170
             0
171
             2
172
             1
173
             1
174
             0
175
             0
176
             2
177
             2
178
             2
270
             2
271
             3
272
             4
273
             2
274
             2
275
             0
280
             0
281
             0
282
             0
283
             1
284
             0
285
             0
286
             0
287
             3
288
             0
340
4F
  0
DIMSTYLE
105
1A0
100
AcDbSymbolTableRecord
100
AcDbDimStyleTableRecord
  2
ME10_DIM_6
 70
             0
  3

  4

  5

  6

  7

 40
1.0
 41
3.2
 42
1.0
 43
0.38
 44
1.0
 45
0.0
 46
0.0
 47
0.0
 48
0.0
 71
             0
 72
             0
 73
             0
 74
             0
 75
             0
 76
             0
 77
             1
 78
             8
140
3.2
141
0.09
142
0.0
143
25.4
144
1.0
145
0.0
146
1.0
147
0.625
170
             0
171
             2
172
             1
173
             1
174
             0
175
             0
176
             2
177
             2
178
             2
270
             2
271
             3
272
             4
273
             2
274
             2
275
             0
280
             0
281
             0
282
             0
283
             1
284
             0
285
             0
286
             0
287
             3
288
             0
340
4F
  0
DIMSTYLE
105
1AB
100
AcDbSymbolTableRecord
100
AcDbDimStyleTableRecord
  2
ME10_DIM_7
 70
             0
  3
{\Fgdt;n}<>
  4

  5

  6

  7

 40
1.0
 41
3.2
 42
1.0
 43
0.38
 44
1.0
 45
0.0
 46
0.0
 47
0.0
 48
0.0
 71
             0
 72
             0
 73
             0
 74
             0
 75
             0
 76
             0
 77
             1
 78
             8
140
3.2
141
0.09
142
0.0
143
25.4
144
1.0
145
0.0
146
1.0
147
0.625
170
             0
171
             2
172
             1
173
             1
174
             0
175
             0
176
             2
177
             2
178
             2
270
             2
271
             3
272
             4
273
             2
274
             2
275
             0
280
             0
281
             0
282
             0
283
             1
284
             0
285
             0
286
             0
287
             3
288
             0
340
4F
  0
DIMSTYLE
105
1B6
100
AcDbSymbolTableRecord
100
AcDbDimStyleTableRecord
  2
ME10_DIM_8
 70
             0
  3
{\Fgdt;n}<>
  4

  5

  6

  7

 40
1.0
 41
3.2
 42
1.0
 43
0.38
 44
1.0
 45
0.0
 46
0.0
 47
0.0
 48
0.0
 71
             0
 72
             0
 73
             0
 74
             0
 75
             0
 76
             0
 77
             1
 78
             8
140
3.2
141
0.09
142
0.0
143
25.4
144
1.0
145
0.0
146
1.0
147
0.625
170
             0
171
             2
172
             1
173
             1
174
             0
175
             0
176
             2
177
             2
178
             2
270
             2
271
             3
272
             4
273
             2
274
             2
275
             0
280
             0
281
             0
282
             0
283
             1
284
             0
285
             0
286
             0
287
             3
288
             0
340
4F
  0
DIMSTYLE
105
1C1
100
AcDbSymbolTableRecord
100
AcDbDimStyleTableRecord
  2
ME10_DIM_9
 70
             0
  3

  4

  5

  6

  7

 40
1.0
 41
3.2
 42
1.0
 43
0.38
 44
1.0
 45
0.0
 46
0.0
 47
0.0
 48
0.0
 71
             0
 72
             0
 73
             0
 74
             0
 75
             0
 76
             0
 77
             1
 78
             8
140
3.2
141
0.09
142
0.0
143
25.4
144
1.0
145
0.0
146
1.0
147
0.625
170
             0
171
             2
172
             1
173
             1
174
             0
175
             0
176
             2
177
             2
178
             2
270
             2
271
             3
272
             4
273
             2
274
             2
275
             0
280
             0
281
             0
282
             0
283
             1
284
             0
285
             0
286
             0
287
             3
288
             0
340
4F
  0
DIMSTYLE
105
1CE
100
AcDbSymbolTableRecord
100
AcDbDimStyleTableRecord
  2
ME10_DIM_10
 70
             0
  3

  4

  5

  6

  7

 40
1.0
 41
3.2
 42
1.0
 43
0.38
 44
1.0
 45
0.0
 46
0.0
 47
0.0
 48
0.0
 71
             0
 72
             0
 73
             0
 74
             0
 75
             0
 76
             0
 77
             1
 78
             8
140
3.2
141
0.09
142
0.0
143
25.4
144
1.0
145
0.0
146
1.0
147
0.625
170
             0
171
             2
172
             1
173
             1
174
             0
175
             0
176
             2
177
             2
178
             2
270
             2
271
             3
272
             4
273
             2
274
             2
275
             0
280
             0
281
             0
282
             0
283
             1
284
             0
285
             0
286
             0
287
             3
288
             0
340
4F
  0
DIMSTYLE
105
1D9
100
AcDbSymbolTableRecord
100
AcDbDimStyleTableRecord
  2
ME10_DIM_11
 70
             0
  3
{\Fgdt;n}<>
  4

  5

  6

  7

 40
1.0
 41
3.2
 42
1.0
 43
0.38
 44
1.0
 45
0.0
 46
0.0
 47
0.0
 48
-0.1
 71
             1
 72
             0
 73
             0
 74
             0
 75
             0
 76
             0
 77
             1
 78
             8
140
3.2
141
0.09
142
0.0
143
25.4
144
1.0
145
0.0
146
0.6
147
0.625
170
             0
171
             2
172
             1
173
             1
174
             0
175
             0
176
             2
177
             2
178
             2
270
             2
271
             3
272
             0
273
             2
274
             2
275
             0
280
             0
281
             0
282
             0
283
             1
284
             0
285
             0
286
             0
287
             3
288
             0
340
4F
  0
DIMSTYLE
105
1E4
100
AcDbSymbolTableRecord
100
AcDbDimStyleTableRecord
  2
ME10_DIM_12
 70
             0
  3
{\Fgdt;n}<>
  4

  5

  6

  7

 40
1.0
 41
3.2
 42
1.0
 43
0.38
 44
1.0
 45
0.0
 46
0.0
 47
0.0
 48
0.0
 71
             0
 72
             0
 73
             0
 74
             0
 75
             0
 76
             0
 77
             1
 78
             8
140
3.2
141
0.09
142
0.0
143
25.4
144
1.0
145
0.0
146
1.0
147
0.625
170
             0
171
             2
172
             1
173
             1
174
             0
175
             0
176
             2
177
             2
178
             2
270
             2
271
             3
272
             4
273
             2
274
             2
275
             0
280
             0
281
             0
282
             0
283
             1
284
             0
285
             0
286
             0
287
             3
288
             0
340
4F
  0
DIMSTYLE
105
1EF
100
AcDbSymbolTableRecord
100
AcDbDimStyleTableRecord
  2
ME10_DIM_13
 70
             0
  3

  4

  5

  6

  7

 40
1.0
 41
3.2
 42
1.0
 43
0.38
 44
1.0
 45
0.0
 46
0.0
 47
0.0
 48
0.0
 71
             0
 72
             0
 73
             0
 74
             0
 75
             0
 76
             0
 77
             1
 78
             8
140
3.2
141
0.09
142
0.0
143
25.4
144
1.0
145
0.0
146
1.0
147
0.625
170
             0
171
             2
172
             1
173
             1
174
             0
175
             0
176
             2
177
             2
178
             2
270
             2
271
             3
272
             4
273
             2
274
             2
275
             0
280
             0
281
             0
282
             0
283
             1
284
             0
285
             0
286
             0
287
             3
288
             0
340
4F
  0
DIMSTYLE
105
1FA
100
AcDbSymbolTableRecord
100
AcDbDimStyleTableRecord
  2
ME10_DIM_14
 70
             0
  3

  4

  5

  6

  7

 40
1.0
 41
3.2
 42
1.0
 43
0.38
 44
1.0
 45
0.0
 46
0.0
 47
0.0
 48
0.0
 71
             0
 72
             0
 73
             0
 74
             0
 75
             0
 76
             0
 77
             1
 78
             8
140
3.2
141
0.09
142
0.0
143
25.4
144
1.0
145
0.0
146
1.0
147
0.625
170
             0
171
             2
172
             1
173
             1
174
             0
175
             0
176
             2
177
             2
178
             2
270
             2
271
             3
272
             4
273
             2
274
             2
275
             0
280
             0
281
             0
282
             0
283
             1
284
             0
285
             0
286
             0
287
             3
288
             0
340
4F
  0
DIMSTYLE
105
207
100
AcDbSymbolTableRecord
100
AcDbDimStyleTableRecord
  2
ME10_DIM_15
 70
             0
  3

  4

  5

  6

  7

 40
1.0
 41
3.2
 42
1.0
 43
0.38
 44
1.0
 45
0.0
 46
0.0
 47
0.2
 48
0.2
 71
             1
 72
             0
 73
             0
 74
             0
 75
             0
 76
             0
 77
             1
 78
             8
140
3.2
141
0.09
142
0.0
143
25.4
144
1.0
145
0.0
146
0.6
147
0.625
170
             0
171
             2
172
             1
173
             1
174
             0
175
             0
176
             2
177
             2
178
             2
270
             2
271
             3
272
             1
273
             2
274
             2
275
             0
280
             0
281
             0
282
             0
283
             1
284
             0
285
             0
286
             0
287
             3
288
             0
340
4F
  0
DIMSTYLE
105
214
100
AcDbSymbolTableRecord
100
AcDbDimStyleTableRecord
  2
ME10_DIM_16
 70
             0
  3
{\Fgdt;n}<>
  4

  5

  6

  7

 40
1.0
 41
3.2
 42
1.0
 43
0.38
 44
1.0
 45
0.0
 46
0.0
 47
0.0
 48
-0.012
 71
             1
 72
             0
 73
             0
 74
             0
 75
             0
 76
             0
 77
             1
 78
             8
140
3.2
141
0.09
142
0.0
143
25.4
144
1.0
145
0.0
146
0.6
147
0.625
170
             0
171
             2
172
             1
173
             1
174
             0
175
             0
176
             2
177
             2
178
             2
270
             2
271
             3
272
             0
273
             2
274
             2
275
             0
280
             0
281
             0
282
             0
283
             1
284
             0
285
             0
286
             0
287
             3
288
             0
340
4F
  0
ENDTAB
  0
TABLE
  2
BLOCK_RECORD
  5
1
100
AcDbSymbolTable
 70
            21
  0
BLOCK_RECORD
  5
A
100
AcDbSymbolTableRecord
100
AcDbBlockTableRecord
  2
*MODEL_SPACE
  0
BLOCK_RECORD
  5
B
100
AcDbSymbolTableRecord
100
AcDbBlockTableRecord
  2
*PAPER_SPACE
  0
BLOCK_RECORD
  5
25
100
AcDbSymbolTableRecord
100
AcDbBlockTableRecord
  2
_____V______
  0
BLOCK_RECORD
  5
4A
100
AcDbSymbolTableRecord
100
AcDbBlockTableRecord
  2
*D1
  0
BLOCK_RECORD
  5
52
100
AcDbSymbolTableRecord
100
AcDbBlockTableRecord
  2
_NONE
  0
BLOCK_RECORD
  5
57
100
AcDbSymbolTableRecord
100
AcDbBlockTableRecord
  2
*D3
  0
BLOCK_RECORD
  5
64
100
AcDbSymbolTableRecord
100
AcDbBlockTableRecord
  2
*D4
  0
BLOCK_RECORD
  5
6F
100
AcDbSymbolTableRecord
100
AcDbBlockTableRecord
  2
_DOT
  0
BLOCK_RECORD
  5
79
100
AcDbSymbolTableRecord
100
AcDbBlockTableRecord
  2
*D6
  0
BLOCK_RECORD
  5
86
100
AcDbSymbolTableRecord
100
AcDbBlockTableRecord
  2
*D7
  0
BLOCK_RECORD
  5
17F
100
AcDbSymbolTableRecord
100
AcDbBlockTableRecord
  2
*D8
  0
BLOCK_RECORD
  5
18A
100
AcDbSymbolTableRecord
100
AcDbBlockTableRecord
  2
*D9
  0
BLOCK_RECORD
  5
197
100
AcDbSymbolTableRecord
100
AcDbBlockTableRecord
  2
*D10
  0
BLOCK_RECORD
  5
1A2
100
AcDbSymbolTableRecord
100
AcDbBlockTableRecord
  2
*D11
  0
BLOCK_RECORD
  5
1AD
100
AcDbSymbolTableRecord
100
AcDbBlockTableRecord
  2
*D12
  0
BLOCK_RECORD
  5
1B8
100
AcDbSymbolTableRecord
100
AcDbBlockTableRecord
  2
*D13
  0
BLOCK_RECORD
  5
1C3
100
AcDbSymbolTableRecord
100
AcDbBlockTableRecord
  2
*D14
  0
BLOCK_RECORD
  5
1D0
100
AcDbSymbolTableRecord
100
AcDbBlockTableRecord
  2
*D15
  0
BLOCK_RECORD
  5
1DB
100
AcDbSymbolTableRecord
100
AcDbBlockTableRecord
  2
*D16
  0
BLOCK_RECORD
  5
1E6
100
AcDbSymbolTableRecord
100
AcDbBlockTableRecord
  2
*D17
  0
BLOCK_RECORD
  5
1F1
100
AcDbSymbolTableRecord
100
AcDbBlockTableRecord
  2
*D18
  0
BLOCK_RECORD
  5
1FC
100
AcDbSymbolTableRecord
100
AcDbBlockTableRecord
  2
*D19
  0
BLOCK_RECORD
  5
209
100
AcDbSymbolTableRecord
100
AcDbBlockTableRecord
  2
*D20
  0
ENDTAB
  0
ENDSEC
  0
SECTION
  2
BLOCKS
  0
BLOCK
  5
D
100
AcDbEntity
  8
0
100
AcDbBlockBegin
  2
*MODEL_SPACE
 70
             0
 10
0.0
 20
0.0
 30
0.0
  3
*MODEL_SPACE
  1

  0
ENDBLK
  5
E
100
AcDbEntity
  8
0
100
AcDbBlockEnd
  0
BLOCK
  5
F
100
AcDbEntity
 67
             1
  8
0
100
AcDbBlockBegin
  2
*PAPER_SPACE
 70
             0
 10
0.0
 20
0.0
 30
0.0
  3
*PAPER_SPACE
  1

  0
ENDBLK
  5
10
100
AcDbEntity
 67
             1
  8
0
100
AcDbBlockEnd
  0
BLOCK
  5
26
100
AcDbEntity
  8
0
100
AcDbBlockBegin
  2
_____V______
 70
             0
 10
44.5452488657938
 20
-73.34927644553748
 30
0.0
  3
_____V______
  1

  0
DIMENSION
  5
85
100
AcDbEntity
  8
1
100
AcDbDimension
  2
*D6
 10
56.19999999989194
 20
-47.9027859574819
 11
60.70486472089847
 21
-46.6027859574819
 31
0.0
 53
0.00013888888889
  1
<>
  3
ME10_DIM_3
100
AcDbAlignedDimension
 13
58.19999999989194
 23
-54.72427644553747
 14
56.19999999989194
 24
-54.17427644553717
100
AcDbRotatedDimension
  0
DIMENSION
  5
78
100
AcDbEntity
  8
1
100
AcDbDimension
  2
*D4
 10
52.49999999996395
 20
-43.83316961478697
 11
49.11265825428707
 21
-42.53316961478697
 31
0.0
 53
0.00013888888889
  1
<>
  3
ME10_DIM_2
100
AcDbAlignedDimension
 13
53.19999999996401
 23
-52.22433812620145
 14
52.49999999996395
 24
-48.83316961478697
100
AcDbRotatedDimension
  0
DIMENSION
  5
63
100
AcDbEntity
  8
1
100
AcDbDimension
  2
*D3
 10
65.69999999989194
 20
-54.22427644553747
 11
64.39999999989195
 21
-46.12977852317647
 31
0.0
 53
90.0
  1
<>
  3
ME10_DIM_1
100
AcDbAlignedDimension
 13
57.69999999989194
 23
-57.72427644553747
 14
57.69999999989194
 24
-54.22427644553747
 50
90.0
100
AcDbRotatedDimension
  0
DIMENSION
  5
56
100
AcDbEntity
  8
1
100
AcDbDimension
  2
*D1
 10
53.19999999996401
 20
-43.83316961478697
 11
55.69999999992798
 21
-42.53316961478697
 31
0.0
 53
0.00013888888889
  1
<>
  3
ME10_DIM_0
100
AcDbAlignedDimension
 13
58.19999999989194
 23
-54.72427644553747
 14
53.19999999996401
 24
-52.22433812620145
100
AcDbRotatedDimension
  0
LEADER
  5
49
100
AcDbEntity
  8
1
  6
CONTINUOUS
 62
             2
100
AcDbLeader
  3
Standard
 71
             0
 73
             3
 74
             0
 75
             0
 40
0.0
 76
             2
 10
57.69999999989194
 20
-43.83316961478697
 30
0.0
 10
60.49782273428247
 20
-43.83316961478697
 30
0.0
 77
             2
  0
XLINE
  5
47
100
AcDbEntity
  8
1
  6
DOT_CENTER
 62
             3
 60
             1
100
AcDbXline
 10
44.89999999989197
 20
-55.97427644553747
 30
0.0
 11
1.0
 21
0.0
 31
0.0
  0
SPLINE
  5
46
100
AcDbEntity
  8
1
  6
CONTINUOUS
 62
             2
100
AcDbSpline
210
0.0
220
0.0
230
1.0
 70
             0
 71
             3
 72
            11
 73
             7
 74
            11
 42
0.00000000001
 43
0.00000000001
 44
0.00000000001
 40
0.0
 40
0.0
 40
0.0
 40
0.0
 40
8.8172586376120421
 40
13.80450422862512
 40
17.652653168574769
 40
26.23093779383856
 40
26.23093779383856
 40
26.23093779383856
 40
26.23093779383856
 10
52.499999999963947
 20
-64.012489058437865
 30
0.0
 10
48.049658858464149
 20
-61.82711533500175
 30
0.0
 10
48.797388566922358
 20
-61.092546887838211
 30
0.0
 10
46.011837191510743
 20
-57.383734186712587
 30
0.0
 10
48.495747784729922
 20
-51.857764163768977
 30
0.0
 10
48.476603354318762
 20
-49.393885841506531
 30
0.0
 10
52.499999999963947
 20
-48.833169614786968
 30
0.0
 11
52.499999999963947
 21
-64.012489058437865
 31
0.0
 11
49.465574952784877
 21
-62.302891120511383
 31
0.0
 11
48.356068423427239
 21
-61.159697584655554
 31
0.0
 11
47.811109905661063
 21
-60.005187697447546
 31
0.0
 11
47.070537768967156
 21
-58.643067484044053
 31
0.0
 11
46.677860007080369
 21
-56.842530577234193
 31
0.0
 11
47.039142512459208
 21
-55.18579908536757
 31
0.0
 11
47.649217063006652
 21
-53.50067984695869
 31
0.0
 11
48.386340279849151
 21
-51.345892278803852
 31
0.0
 11
49.641013806575636
 21
-49.75782410768285
 31
0.0
 11
52.499999999963947
 21
-48.833169614786968
 31
0.0
  0
CIRCLE
  5
45
100
AcDbEntity
  8
1
  6
CONTINUOUS
 62
             3
100
AcDbCircle
 10
56.19999999989194
 20
-55.97427644553747
 40
1.0
  0
LINE
  5
44
100
AcDbEntity
  8
1
  6
CONTINUOUS
 62
             3
100
AcDbLine
 10
53.69999999996401
 20
-57.72427644553747
 11
53.19999999996401
 21
-57.41460667510594
  0
LINE
  5
43
100
AcDbEntity
  8
1
  6
CONTINUOUS
 62
             3
100
AcDbLine
 10
53.19999999996401
 20
-54.53394621596917
 11
53.69999999996401
 21
-54.22427644553747
  0
LINE
  5
42
100
AcDbEntity
  8
1
  6
CONTINUOUS
 62
             3
100
AcDbLine
 10
48.06433484835473
 20
-52.22429287316726
 11
53.19999999996401
 21
-52.22433812620145
  0
LINE
  5
41
100
AcDbEntity
  8
1
  6
CONTINUOUS
 62
             3
100
AcDbLine
 10
52.49999999996395
 20
-48.83316961478697
 11
52.49999999996395
 21
-52.22433812620145
  0
LINE
  5
40
100
AcDbEntity
  8
1
  6
CONTINUOUS
 62
             3
100
AcDbLine
 10
50.49999999996395
 20
-58.72433812620145
 11
51.69999999996401
 21
-58.72433812620145
  0
LINE
  5
3F
100
AcDbEntity
  8
1
  6
CONTINUOUS
 62
             3
100
AcDbLine
 10
51.69999999996401
 20
-58.72433812620145
 11
51.69999999996401
 21
-59.72433812620145
  0
LINE
  5
3E
100
AcDbEntity
  8
1
  6
CONTINUOUS
 62
             3
100
AcDbLine
 10
51.69999999996401
 20
-53.22433812620145
 11
50.49999999996395
 21
-53.22433812620145
  0
LINE
  5
3D
100
AcDbEntity
  8
1
  6
CONTINUOUS
 62
             3
100
AcDbLine
 10
51.69999999996401
 20
-52.22433812620145
 11
51.69999999996401
 21
-53.22433812620145
  0
LINE
  5
3C
100
AcDbEntity
  8
1
  6
CONTINUOUS
 62
             3
100
AcDbLine
 10
53.19999999996401
 20
-59.72433812620145
 11
53.19999999996401
 21
-56.97427644553724
  0
LINE
  5
3B
100
AcDbEntity
  8
1
  6
CONTINUOUS
 62
             3
100
AcDbLine
 10
53.19999999996401
 20
-56.97427644553724
 11
50.49999999996395
 21
-56.97427644553747
  0
LINE
  5
3A
100
AcDbEntity
  8
1
  6
CONTINUOUS
 62
             3
100
AcDbLine
 10
50.49999999996395
 20
-56.97427644553747
 11
50.49999999996395
 21
-54.97427644553747
  0
LINE
  5
39
100
AcDbEntity
  8
1
  6
CONTINUOUS
 62
             3
100
AcDbLine
 10
50.49999999996395
 20
-54.97427644553747
 11
53.19999999996401
 21
-54.97427644553747
  0
LINE
  5
38
100
AcDbEntity
  8
1
  6
CONTINUOUS
 62
             3
100
AcDbLine
 10
53.19999999996401
 20
-54.97427644553747
 11
53.19999999996401
 21
-52.22433812620145
  0
LINE
  5
37
100
AcDbEntity
  8
1
  6
CONTINUOUS
 62
             3
100
AcDbLine
 10
53.69999999996401
 20
-57.72427644553747
 11
57.69999999989194
 21
-57.72427644553747
  0
LINE
  5
36
100
AcDbEntity
  8
1
  6
CONTINUOUS
 62
             1
100
AcDbLine
 10
44.89999999989197
 20
-55.97427644553747
 11
59.4799999998919
 21
-55.97427644553747
  0
LINE
  5
35
100
AcDbEntity
  8
1
  6
CONTINUOUS
 62
             1
100
AcDbLine
 10
56.19999999989194
 20
-54.17427644553717
 11
56.19999999989194
 21
-57.77427644553777
  0
LINE
  5
34
100
AcDbEntity
  8
1
  6
CONTINUOUS
 62
             3
100
AcDbLine
 10
58.19999999989194
 20
-57.22427644553747
 11
57.69999999989194
 21
-57.72427644553747
  0
LINE
  5
33
100
AcDbEntity
  8
1
  6
CONTINUOUS
 62
             3
100
AcDbLine
 10
58.19999999989194
 20
-54.72427644553747
 11
57.69999999989194
 21
-54.22427644553747
  0
LINE
  5
32
100
AcDbEntity
  8
1
  6
CONTINUOUS
 62
             3
100
AcDbLine
 10
58.19999999989194
 20
-54.72427644553747
 11
58.19999999989194
 21
-57.22427644553747
  0
LINE
  5
31
100
AcDbEntity
  8
1
  6
CONTINUOUS
 62
             3
100
AcDbLine
 10
57.69999999989194
 20
-54.22427644553747
 11
53.69999999996401
 21
-54.22427644553747
  0
LINE
  5
30
100
AcDbEntity
  8
1
  6
CONTINUOUS
 62
             1
100
AcDbLine
 10
59.4799999998919
 20
-55.97427644553747
 11
44.89999999989197
 21
-55.97427644553747
  0
LINE
  5
2F
100
AcDbEntity
  8
1
  6
CONTINUOUS
 62
             3
100
AcDbLine
 10
50.49999999996395
 20
-58.72433812620145
 11
50.49999999996395
 21
-59.72433812620257
  0
LINE
  5
2E
100
AcDbEntity
  8
1
  6
CONTINUOUS
 62
             3
100
AcDbLine
 10
50.49999999996395
 20
-52.22421476487236
 11
50.49999999996395
 21
-53.22421476487349
  0
LINE
  5
2D
100
AcDbEntity
  8
1
  6
CONTINUOUS
 62
             3
100
AcDbLine
 10
51.49999999996395
 20
-52.22433812620145
 11
52.49999999996394
 21
-51.22433195809618
  0
LINE
  5
2C
100
AcDbEntity
  8
1
  6
CONTINUOUS
 62
             3
100
AcDbLine
 10
53.19999999996401
 20
-59.72433812620145
 11
47.65484335401585
 21
-59.72433812620189
  0
LINE
  5
2B
100
AcDbEntity
  8
1
  6
CONTINUOUS
 62
             3
100
AcDbLine
 10
52.49999999996395
 20
-59.72421476487349
 11
52.49999999996395
 21
-64.01248905843787
  0
LINE
  5
2A
100
AcDbEntity
  8
1
  6
CONTINUOUS
 62
             3
100
AcDbLine
 10
52.49999999996394
 20
-60.72422093297875
 11
51.49999999996395
 21
-59.72421476487347
  0
SOLID
  5
48
100
AcDbEntity
  8
1
 62
             2
100
AcDbTrace
 10
59.29999999989195
 20
-43.62252561864713
 11
59.29999999989195
 21
-44.0438136109268
 12
57.69999999989194
 22
-43.83316961478697
 13
57.69999999989194
 23
-43.83316961478697
  0
INSERT
  5
8D
100
AcDbEntity
  8
0
100
AcDbBlockReference
  2
*D7
 10
0.0
 20
0.0
  0
ENDBLK
  5
8E
100
AcDbEntity
  8
0
100
AcDbBlockEnd
  0
BLOCK
  5
4B
100
AcDbEntity
  8
0
100
AcDbBlockBegin
  2
*D1
 70
             1
 10
0.0
 20
0.0
 30
0.0
  3
*D1
  1

  0
LINE
  5
4C
100
AcDbEntity
  8
0
  6
CONTINUOUS
 62
             2
100
AcDbLine
 10
53.19999999996401
 20
-43.83316961478697
 11
58.19999999989194
 21
-43.83316961478697
  0
LINE
  5
4D
100
AcDbEntity
  8
0
  6
CONTINUOUS
 62
             2
100
AcDbLine
 10
53.19999999996401
 20
-51.72433812620145
 11
53.19999999996401
 21
-43.33316961478697
  0
LINE
  5
4E
100
AcDbEntity
  8
0
  6
CONTINUOUS
 62
             2
100
AcDbLine
 10
58.19999999989194
 20
-54.22427644553747
 11
58.19999999989194
 21
-43.33316961478697
  0
MTEXT
  5
50
100
AcDbEntity
  8
0
 62
             2
100
AcDbMText
 10
55.21999999992799
 20
-43.33316961478697
 30
0.0
 40
1.6
 41
0.0
 71
             7
 72
             1
  1
5
  7
CONVERTER_1
 11
0.99999999999706
 21
0.00000242406841
 31
0.0
  0
ENDBLK
  5
51
100
AcDbEntity
  8
0
100
AcDbBlockEnd
  0
BLOCK
  5
53
100
AcDbEntity
  8
0
 62
             0
100
AcDbBlockBegin
  2
_NONE
 70
             0
 10
0.0
 20
0.0
 30
0.0
  3
_NONE
  1

  0
ENDBLK
  5
54
100
AcDbEntity
  8
0
 62
             0
100
AcDbBlockEnd
  0
BLOCK
  5
58
100
AcDbEntity
  8
0
100
AcDbBlockBegin
  2
*D3
 70
             1
 10
0.0
 20
0.0
 30
0.0
  3
*D3
  1

  0
LINE
  5
59
100
AcDbEntity
  8
0
  6
CONTINUOUS
 62
             2
100
AcDbLine
 10
65.69999999989194
 20
-60.92427644553747
 11
65.69999999989194
 21
-57.72427644553747
  0
LINE
  5
5A
100
AcDbEntity
  8
0
  6
CONTINUOUS
 62
             2
100
AcDbLine
 10
65.69999999989194
 20
-57.72427644553747
 11
65.69999999989194
 21
-54.22427644553747
  0
LINE
  5
5B
100
AcDbEntity
  8
0
  6
CONTINUOUS
 62
             2
100
AcDbLine
 10
65.69999999989194
 20
-54.22427644553747
 11
65.69999999989194
 21
-39.54860205258824
  0
LINE
  5
5C
100
AcDbEntity
  8
0
  6
CONTINUOUS
 62
             2
100
AcDbLine
 10
58.19999999989195
 20
-57.72427644553747
 11
66.19999999989194
 21
-57.72427644553747
  0
LINE
  5
5D
100
AcDbEntity
  8
0
  6
CONTINUOUS
 62
             2
100
AcDbLine
 10
58.19999999989195
 20
-54.22427644553747
 11
66.19999999989194
 21
-54.22427644553747
  0
SOLID
  5
5E
100
AcDbEntity
  8
0
 62
             2
100
AcDbTrace
 10
65.48935600375211
 20
-52.62427644553747
 11
65.91064399603178
 21
-52.62427644553747
 12
65.69999999989194
 22
-54.22427644553747
 13
65.69999999989194
 23
-54.22427644553747
  0
SOLID
  5
5F
100
AcDbEntity
  8
0
 62
             2
100
AcDbTrace
 10
65.91064399603178
 20
-59.32427644553747
 11
65.48935600375211
 21
-59.32427644553747
 12
65.69999999989194
 22
-57.72427644553747
 13
65.69999999989194
 23
-57.72427644553747
  0
MTEXT
  5
60
100
AcDbEntity
  8
0
 62
             2
100
AcDbMText
 10
65.19999999989194
 20
-52.29495499376471
 30
0.0
 40
1.6
 41
0.0
 71
             7
 72
             1
  1
\C2;2-\C2;3.5\C2;×T0.5
  7
CONVERTER_1
 11
0.0
 21
1.0
 31
0.0
  0
ENDBLK
  5
61
100
AcDbEntity
  8
0
100
AcDbBlockEnd
  0
BLOCK
  5
65
100
AcDbEntity
  8
0
100
AcDbBlockBegin
  2
*D4
 70
             1
 10
0.0
 20
0.0
 30
0.0
  3
*D4
  1

  0
LINE
  5
66
100
AcDbEntity
  8
0
  6
CONTINUOUS
 62
             2
100
AcDbLine
 10
52.49999999996395
 20
-43.83316961478697
 11
53.19999999996401
 21
-43.83316961478697
  0
LINE
  5
67
100
AcDbEntity
  8
0
  6
CONTINUOUS
 62
             2
100
AcDbLine
 10
52.49999999996395
 20
-43.83316961478697
 11
47.65265825428707
 21
-43.83316961478697
  0
LINE
  5
68
100
AcDbEntity
  8
0
  6
CONTINUOUS
 62
             2
100
AcDbLine
 10
52.49999999996395
 20
-48.33316961478697
 11
52.49999999996395
 21
-43.33316961478697
  0
LINE
  5
69
100
AcDbEntity
  8
0
  6
CONTINUOUS
 62
             2
100
AcDbLine
 10
53.19999999996401
 20
-51.72433812620144
 11
53.19999999996401
 21
-43.33316961478697
  0
SOLID
  5
6A
100
AcDbEntity
  8
0
 62
             2
100
AcDbTrace
 10
50.89999999996395
 20
-44.0438136109268
 11
50.89999999996395
 21
-43.62252561864713
 12
52.49999999996395
 22
-43.83316961478697
 13
52.49999999996395
 23
-43.83316961478697
  0
CIRCLE
  5
6B
100
AcDbEntity
  8
0
 62
             2
100
AcDbCircle
 10
53.19999999996401
 20
-43.83316961478697
 40
0.375
  0
HATCH
  5
6C
100
AcDbEntity
  8
0
 62
             2
100
AcDbHatch
 10
0.0
 20
0.0
 30
0.0
210
0.0
220
0.0
230
1.0
  2
SOLID
 70
             1
 71
             1
 91
        1
 92
        1
 93
        1
 72
             2
 10
53.199999999964014
 20
-43.833169614786968
 40
0.375
 50
-180.0
 51
180.0
 73
             1
 97
        1
330
6B
 75
             0
 76
             1
 98
        1
 10
0.0
 20
0.0
  0
MTEXT
  5
6D
100
AcDbEntity
  8
0
 62
             2
100
AcDbMText
 10
47.65265825428707
 20
-43.33316961478697
 30
0.0
 40
1.6
 41
0.0
 71
             7
 72
             1
  1
0.7
  7
CONVERTER_1
 11
0.99999999999706
 21
0.00000242406841
 31
0.0
  0
ENDBLK
  5
6E
100
AcDbEntity
  8
0
100
AcDbBlockEnd
  0
BLOCK
  5
70
100
AcDbEntity
  8
0
 62
             0
100
AcDbBlockBegin
  2
_DOT
 70
             0
 10
0.0
 20
0.0
 30
0.0
  3
_DOT
  1

  0
POLYLINE
  5
71
100
AcDbEntity
  8
0
  6
BYBLOCK
 62
             0
100
AcDb2dPolyline
 66
             1
 10
0.0
 20
0.0
 30
0.0
 70
             1
 40
0.5
 41
0.5
  0
VERTEX
  5
72
100
AcDbEntity
  8
0
  6
BYBLOCK
 62
             0
100
AcDbVertex
100
AcDb2dVertex
 10
-0.25
 20
0.0
 42
1.0
  0
VERTEX
  5
73
100
AcDbEntity
  8
0
  6
BYBLOCK
 62
             0
100
AcDbVertex
100
AcDb2dVertex
 10
0.25
 20
0.0
 42
1.0
  0
SEQEND
  5
74
100
AcDbEntity
  8
0
 62
             0
  0
LINE
  5
75
100
AcDbEntity
  8
0
  6
BYBLOCK
 62
             0
100
AcDbLine
 10
-0.5
 20
0.0
 11
-1.0
 21
0.0
  0
ENDBLK
  5
76
100
AcDbEntity
  8
0
 62
             0
100
AcDbBlockEnd
  0
BLOCK
  5
7A
100
AcDbEntity
  8
0
100
AcDbBlockBegin
  2
*D6
 70
             1
 10
0.0
 20
0.0
 30
0.0
  3
*D6
  1

  0
LINE
  5
7B
100
AcDbEntity
  8
0
  6
CONTINUOUS
 62
             2
100
AcDbLine
 10
52.99999999989194
 20
-47.9027859574819
 11
56.19999999989194
 21
-47.9027859574819
  0
LINE
  5
7C
100
AcDbEntity
  8
0
  6
CONTINUOUS
 62
             2
100
AcDbLine
 10
56.19999999989194
 20
-47.9027859574819
 11
58.19999999989194
 21
-47.9027859574819
  0
LINE
  5
7D
100
AcDbEntity
  8
0
  6
CONTINUOUS
 62
             2
100
AcDbLine
 10
58.19999999989194
 20
-47.9027859574819
 11
61.39999999989195
 21
-47.9027859574819
  0
LINE
  5
7E
100
AcDbEntity
  8
0
  6
CONTINUOUS
 62
             2
100
AcDbLine
 10
56.19999999989194
 20
-53.67427644553717
 11
56.19999999989194
 21
-47.4027859574819
  0
LINE
  5
7F
100
AcDbEntity
  8
0
  6
CONTINUOUS
 62
             2
100
AcDbLine
 10
58.19999999989194
 20
-54.22427644553747
 11
58.19999999989194
 21
-47.4027859574819
  0
SOLID
  5
80
100
AcDbEntity
  8
0
 62
             2
100
AcDbTrace
 10
54.59999999989194
 20
-48.11342995362173
 11
54.59999999989194
 21
-47.69214196134206
 12
56.19999999989194
 22
-47.9027859574819
 13
56.19999999989194
 23
-47.9027859574819
  0
SOLID
  5
81
100
AcDbEntity
  8
0
 62
             2
100
AcDbTrace
 10
59.79999999989195
 20
-47.69214196134206
 11
59.79999999989195
 21
-48.11342995362173
 12
58.19999999989194
 22
-47.9027859574819
 13
58.19999999989194
 23
-47.9027859574819
  0
MTEXT
  5
82
100
AcDbEntity
  8
0
 62
             2
100
AcDbMText
 10
60.22486472089847
 20
-47.4027859574819
 30
0.0
 40
1.6
 41
0.0
 71
             7
 72
             1
  1
2
  7
CONVERTER_1
 11
0.99999999999706
 21
0.00000242406841
 31
0.0
  0
ENDBLK
  5
83
100
AcDbEntity
  8
0
100
AcDbBlockEnd
  0
BLOCK
  5
87
100
AcDbEntity
  8
0
100
AcDbBlockBegin
  2
*D7
 70
             1
 10
0.0
 20
0.0
 30
0.0
  3
*D7
  1

  0
LINE
  5
88
100
AcDbEntity
  8
0
  6
CONTINUOUS
 62
             2
100
AcDbLine
 10
60.24337371641247
 20
-64.01248905843787
 11
69.99262525082717
 21
-64.01248905843787
  0
LINE
  5
89
100
AcDbEntity
  8
0
  6
CONTINUOUS
 62
             2
100
AcDbLine
 10
56.64936990703608
 20
-56.86762222772558
 11
60.24337371641247
 21
-64.01248905843787
  0
SOLID
  5
8A
100
AcDbEntity
  8
0
 62
             2
100
AcDbTrace
 10
57.55653968396145
 20
-58.20231840624072
 11
57.18018383297191
 21
-58.39163255221237
 12
56.64936990703608
 22
-56.86762222772558
 13
56.64936990703608
 23
-56.86762222772558
  0
MTEXT
  5
8B
100
AcDbEntity
  8
0
 62
             2
100
AcDbMText
 10
61.87262525083873
 20
-63.51249859957111
 30
0.0
 40
1.6
 41
0.0
 71
             7
 72
             1
  1
\C2;2-{\Fgdt;n}\C2;\C2;2\C2;\H0.960000;{\Fgdt;`}0.5
  7
CONVERTER_1
 11
0.99999999999706
 21
0.00000242406841
 31
0.0
  0
ENDBLK
  5
8C
100
AcDbEntity
  8
0
100
AcDbBlockEnd
  0
BLOCK
  5
180
100
AcDbEntity
  8
0
100
AcDbBlockBegin
  2
*D8
 70
             1
 10
0.0
 20
0.0
 30
0.0
  3
*D8
  1

  0
LINE
  5
181
100
AcDbEntity
  8
0
  6
CONTINUOUS
 62
             2
100
AcDbLine
 10
159.2000000000005
 20
2.95000023236267
 11
159.2000000000005
 21
37.04999976763829
  0
LINE
  5
182
100
AcDbEntity
  8
0
  6
CONTINUOUS
 62
             2
100
AcDbLine
 10
133.25317550374507
 20
37.04999976763829
 11
160.2000000000005
 21
37.04999976763829
  0
LINE
  5
183
100
AcDbEntity
  8
0
  6
CONTINUOUS
 62
             2
100
AcDbLine
 10
133.25317550374507
 20
2.95000023236267
 11
160.2000000000005
 21
2.95000023236267
  0
SOLID
  5
184
100
AcDbEntity
  8
0
 62
             2
100
AcDbTrace
 10
159.62128799228017
 20
33.84999976763829
 11
158.77871200772083
 21
33.84999976763829
 12
159.2000000000005
 22
37.04999976763829
 13
159.2000000000005
 23
37.04999976763829
  0
SOLID
  5
185
100
AcDbEntity
  8
0
 62
             2
100
AcDbTrace
 10
158.77871200772083
 20
6.15000023236267
 11
159.62128799228017
 21
6.15000023236267
 12
159.2000000000005
 22
2.95000023236267
 13
159.2000000000005
 23
2.95000023236267
  0
MTEXT
  5
186
100
AcDbEntity
  8
0
 62
             2
100
AcDbMText
 10
158.2000000000005
 20
14.97600000000048
 30
0.0
 40
3.2
 41
0.0
 71
             7
 72
             1
  1
\C2;(\C2;34\C2;)
  7
CONVERTER_1
 11
0.0
 21
1.0
 31
0.0
  0
ENDBLK
  5
187
100
AcDbEntity
  8
0
100
AcDbBlockEnd
  0
BLOCK
  5
18B
100
AcDbEntity
  8
0
100
AcDbBlockBegin
  2
*D9
 70
             1
 10
0.0
 20
0.0
 30
0.0
  3
*D9
  1

  0
LINE
  5
18C
100
AcDbEntity
  8
0
  6
CONTINUOUS
 62
             2
100
AcDbLine
 10
31.1
 20
59.19999999999999
 11
37.5
 21
59.19999999999999
  0
LINE
  5
18D
100
AcDbEntity
  8
0
  6
CONTINUOUS
 62
             2
100
AcDbLine
 10
37.5
 20
59.19999999999999
 11
43.19999999992797
 21
59.19999999999999
  0
LINE
  5
18E
100
AcDbEntity
  8
0
  6
CONTINUOUS
 62
             2
100
AcDbLine
 10
43.19999999992797
 20
59.19999999999999
 11
55.5611819020705
 21
59.19999999999999
  0
LINE
  5
18F
100
AcDbEntity
  8
0
  6
CONTINUOUS
 62
             2
100
AcDbLine
 10
37.5
 20
39.21804153555613
 11
37.5
 21
60.19999999999999
  0
LINE
  5
190
100
AcDbEntity
  8
0
  6
CONTINUOUS
 62
             2
100
AcDbLine
 10
43.19999999992797
 20
27.30000000000007
 11
43.19999999992797
 21
60.19999999999999
  0
SOLID
  5
191
100
AcDbEntity
  8
0
 62
             2
100
AcDbTrace
 10
34.3
 20
58.77871200772032
 11
34.3
 21
59.62128799227966
 12
37.5
 22
59.19999999999999
 13
37.5
 23
59.19999999999999
  0
SOLID
  5
192
100
AcDbEntity
  8
0
 62
             2
100
AcDbTrace
 10
46.39999999992797
 20
59.62128799227966
 11
46.39999999992797
 21
58.77871200772032
 12
43.19999999992797
 22
59.19999999999999
 13
43.19999999992797
 23
59.19999999999999
  0
MTEXT
  5
193
100
AcDbEntity
  8
0
 62
             2
100
AcDbMText
 10
45.01718190207821
 20
60.19999363924449
 30
0.0
 40
3.2
 41
0.0
 71
             7
 72
             1
  1
\C2;(\C2;5.7\C2;)
  7
CONVERTER_1
 11
0.99999999999706
 21
0.00000242406841
 31
0.0
  0
ENDBLK
  5
194
100
AcDbEntity
  8
0
100
AcDbBlockEnd
  0
BLOCK
  5
198
100
AcDbEntity
  8
0
100
AcDbBlockBegin
  2
*D10
 70
             1
 10
0.0
 20
0.0
 30
0.0
  3
*D10
  1

  0
LINE
  5
199
100
AcDbEntity
  8
0
  6
CONTINUOUS
 62
             2
100
AcDbLine
 10
-30.0
 20
59.19999999999999
 11
37.5
 21
59.19999999999999
  0
LINE
  5
19A
100
AcDbEntity
  8
0
  6
CONTINUOUS
 62
             2
100
AcDbLine
 10
-30.0
 20
37.59999999999999
 11
-30.0
 21
60.19999999999999
  0
LINE
  5
19B
100
AcDbEntity
  8
0
  6
CONTINUOUS
 62
             2
100
AcDbLine
 10
37.5
 20
39.21804153555613
 11
37.5
 21
60.19999999999999
  0
SOLID
  5
19C
100
AcDbEntity
  8
0
 62
             2
100
AcDbTrace
 10
-26.8
 20
59.62128799227966
 11
-26.8
 21
58.77871200772032
 12
-30.0
 22
59.19999999999999
 13
-30.0
 23
59.19999999999999
  0
SOLID
  5
19D
100
AcDbEntity
  8
0
 62
             2
100
AcDbTrace
 10
34.3
 20
58.77871200772032
 11
34.3
 21
59.62128799227966
 12
37.5
 22
59.19999999999999
 13
37.5
 23
59.19999999999999
  0
MTEXT
  5
19E
100
AcDbEntity
  8
0
 62
             2
100
AcDbMText
 10
-0.61
 20
60.19999999999999
 30
0.0
 40
3.2
 41
0.0
 71
             7
 72
             1
  1
67.5
  7
CONVERTER_1
 11
0.99999999999706
 21
0.00000242406841
 31
0.0
  0
ENDBLK
  5
19F
100
AcDbEntity
  8
0
100
AcDbBlockEnd
  0
BLOCK
  5
1A3
100
AcDbEntity
  8
0
100
AcDbBlockBegin
  2
*D11
 70
             1
 10
0.0
 20
0.0
 30
0.0
  3
*D11
  1

  0
LINE
  5
1A4
100
AcDbEntity
  8
0
  6
CONTINUOUS
 62
             2
100
AcDbLine
 10
68.19999999992797
 20
1.4000000000005
 11
68.19999999992797
 21
38.60000000000047
  0
LINE
  5
1A5
100
AcDbEntity
  8
0
  6
CONTINUOUS
 62
             2
100
AcDbLine
 10
39.20000000000005
 20
1.4000000000005
 11
69.19999999992797
 21
1.4000000000005
  0
LINE
  5
1A6
100
AcDbEntity
  8
0
  6
CONTINUOUS
 62
             2
100
AcDbLine
 10
39.20000000000005
 20
38.60000000000047
 11
69.19999999992797
 21
38.60000000000047
  0
SOLID
  5
1A7
100
AcDbEntity
  8
0
 62
             2
100
AcDbTrace
 10
68.62128799220763
 20
35.40000000000047
 11
67.7787120076483
 21
35.40000000000047
 12
68.19999999992797
 22
38.60000000000047
 13
68.19999999992797
 23
38.60000000000047
  0
SOLID
  5
1A8
100
AcDbEntity
  8
0
 62
             2
100
AcDbTrace
 10
67.7787120076483
 20
4.6000000000005
 11
68.62128799220764
 21
4.6000000000005
 12
68.19999999992797
 22
1.4000000000005
 13
68.19999999992797
 23
1.4000000000005
  0
MTEXT
  5
1A9
100
AcDbEntity
  8
0
 62
             2
100
AcDbMText
 10
67.19999999992797
 20
12.31200000000049
 30
0.0
 40
3.2
 41
0.0
 71
             7
 72
             1
  1
\C2;{\Fgdt;n}\C2;37.2
  7
CONVERTER_1
 11
0.0
 21
1.0
 31
0.0
  0
ENDBLK
  5
1AA
100
AcDbEntity
  8
0
100
AcDbBlockEnd
  0
BLOCK
  5
1AE
100
AcDbEntity
  8
0
100
AcDbBlockBegin
  2
*D12
 70
             1
 10
0.0
 20
0.0
 30
0.0
  3
*D12
  1

  0
LINE
  5
1AF
100
AcDbEntity
  8
0
  6
CONTINUOUS
 62
             2
100
AcDbLine
 10
58.19999999992797
 20
12.69999999999993
 11
58.19999999992797
 21
27.30000000000007
  0
LINE
  5
1B0
100
AcDbEntity
  8
0
  6
CONTINUOUS
 62
             2
100
AcDbLine
 10
43.19999999992797
 20
12.69999999999993
 11
59.19999999992797
 21
12.69999999999993
  0
LINE
  5
1B1
100
AcDbEntity
  8
0
  6
CONTINUOUS
 62
             2
100
AcDbLine
 10
43.19999999992797
 20
27.30000000000007
 11
59.19999999992797
 21
27.30000000000007
  0
SOLID
  5
1B2
100
AcDbEntity
  8
0
 62
             2
100
AcDbTrace
 10
58.62128799220763
 20
24.10000000000007
 11
57.7787120076483
 21
24.10000000000007
 12
58.19999999992797
 22
27.30000000000007
 13
58.19999999992797
 23
27.30000000000007
  0
SOLID
  5
1B3
100
AcDbEntity
  8
0
 62
             2
100
AcDbTrace
 10
57.7787120076483
 20
15.89999999999993
 11
58.62128799220763
 21
15.89999999999993
 12
58.19999999992797
 22
12.69999999999993
 13
58.19999999992797
 23
12.69999999999993
  0
MTEXT
  5
1B4
100
AcDbEntity
  8
0
 62
             2
100
AcDbMText
 10
57.19999999992797
 20
12.792
 30
0.0
 40
3.2
 41
0.0
 71
             7
 72
             1
  1
\C2;{\Fgdt;n}\C2;14.6
  7
CONVERTER_1
 11
0.0
 21
1.0
 31
0.0
  0
ENDBLK
  5
1B5
100
AcDbEntity
  8
0
100
AcDbBlockEnd
  0
BLOCK
  5
1B9
100
AcDbEntity
  8
0
100
AcDbBlockBegin
  2
*D13
 70
             1
 10
0.0
 20
0.0
 30
0.0
  3
*D13
  1

  0
LINE
  5
1BA
100
AcDbEntity
  8
0
  6
CONTINUOUS
 62
             2
100
AcDbLine
 10
-29.99999999999999
 20
69.19999999999999
 11
43.19999999992796
 21
69.19999999999999
  0
LINE
  5
1BB
100
AcDbEntity
  8
0
  6
CONTINUOUS
 62
             2
100
AcDbLine
 10
-29.99999999999999
 20
37.59999999999998
 11
-29.99999999999999
 21
70.19999999999999
  0
LINE
  5
1BC
100
AcDbEntity
  8
0
  6
CONTINUOUS
 62
             2
100
AcDbLine
 10
43.19999999992796
 20
27.30000000000006
 11
43.19999999992796
 21
70.19999999999999
  0
SOLID
  5
1BD
100
AcDbEntity
  8
0
 62
             2
100
AcDbTrace
 10
39.99999999992796
 20
68.77871200772033
 11
39.99999999992796
 21
69.62128799227966
 12
43.19999999992796
 22
69.19999999999999
 13
43.19999999992796
 23
69.19999999999999
  0
SOLID
  5
1BE
100
AcDbEntity
  8
0
 62
             2
100
AcDbTrace
 10
-26.79999999999999
 20
69.62128799227966
 11
-26.79999999999999
 21
68.77871200772032
 12
-29.99999999999999
 22
69.19999999999999
 13
-29.99999999999999
 23
69.19999999999999
  0
MTEXT
  5
1BF
100
AcDbEntity
  8
0
 62
             2
100
AcDbMText
 10
2.23999999996398
 20
70.19999999999999
 30
0.0
 40
3.2
 41
0.0
 71
             7
 72
             1
  1
73.2
  7
CONVERTER_1
 11
0.99999999999706
 21
0.00000242406841
 31
0.0
  0
ENDBLK
  5
1C0
100
AcDbEntity
  8
0
100
AcDbBlockEnd
  0
BLOCK
  5
1C4
100
AcDbEntity
  8
0
100
AcDbBlockBegin
  2
*D14
 70
             1
 10
0.0
 20
0.0
 30
0.0
  3
*D14
  1

  0
LINE
  5
1C5
100
AcDbEntity
  8
0
  6
CONTINUOUS
 62
             2
100
AcDbLine
 10
-33.49999999999988
 20
59.19999999999999
 11
-42.7825602165197
 21
59.19999999999999
  0
LINE
  5
1C6
100
AcDbEntity
  8
0
  6
CONTINUOUS
 62
             2
100
AcDbLine
 10
-33.49999999999988
 20
59.19999999999999
 11
-30.0
 21
59.19999999999999
  0
LINE
  5
1C7
100
AcDbEntity
  8
0
  6
CONTINUOUS
 62
             2
100
AcDbLine
 10
-23.6
 20
59.19999999999999
 11
-30.0
 21
59.19999999999999
  0
LINE
  5
1C8
100
AcDbEntity
  8
0
  6
CONTINUOUS
 62
             2
100
AcDbLine
 10
-30.0
 20
37.59999999999999
 11
-30.0
 21
60.19999999999999
  0
LINE
  5
1C9
100
AcDbEntity
  8
0
  6
CONTINUOUS
 62
             2
100
AcDbLine
 10
-33.49999999999988
 20
28.30000000000012
 11
-33.49999999999988
 21
60.19999999999999
  0
SOLID
  5
1CA
100
AcDbEntity
  8
0
 62
             2
100
AcDbTrace
 10
-36.69999999999988
 20
58.77871200772032
 11
-36.69999999999988
 21
59.62128799227966
 12
-33.49999999999988
 22
59.19999999999999
 13
-33.49999999999988
 23
59.19999999999999
  0
SOLID
  5
1CB
100
AcDbEntity
  8
0
 62
             2
100
AcDbTrace
 10
-26.8
 20
59.62128799227966
 11
-26.8
 21
58.77871200772032
 12
-30.0
 22
59.19999999999999
 13
-30.0
 23
59.19999999999999
  0
MTEXT
  5
1CC
100
AcDbEntity
  8
0
 62
             2
100
AcDbMText
 10
-42.7825602165197
 20
60.19999999999999
 30
0.0
 40
3.2
 41
0.0
 71
             7
 72
             1
  1
3.5
  7
CONVERTER_1
 11
0.99999999999706
 21
0.00000242406841
 31
0.0
  0
ENDBLK
  5
1CD
100
AcDbEntity
  8
0
100
AcDbBlockEnd
  0
BLOCK
  5
1D1
100
AcDbEntity
  8
0
100
AcDbBlockBegin
  2
*D15
 70
             1
 10
0.0
 20
0.0
 30
0.0
  3
*D15
  1

  0
LINE
  5
1D2
100
AcDbEntity
  8
0
  6
CONTINUOUS
 62
             2
100
AcDbLine
 10
-82.99999999999999
 20
12.5
 11
-82.99999999999999
 21
27.50000000000005
  0
LINE
  5
1D3
100
AcDbEntity
  8
0
  6
CONTINUOUS
 62
             2
100
AcDbLine
 10
-33.39999999999989
 20
12.5
 11
-83.99999999999999
 21
12.5
  0
LINE
  5
1D4
100
AcDbEntity
  8
0
  6
CONTINUOUS
 62
             2
100
AcDbLine
 10
-33.39999999999989
 20
27.50000000000005
 11
-83.99999999999999
 21
27.50000000000005
  0
SOLID
  5
1D5
100
AcDbEntity
  8
0
 62
             2
100
AcDbTrace
 10
-82.57871200772033
 20
24.30000000000005
 11
-83.42128799227966
 21
24.30000000000005
 12
-82.99999999999999
 22
27.50000000000005
 13
-82.99999999999999
 23
27.50000000000005
  0
SOLID
  5
1D6
100
AcDbEntity
  8
0
 62
             2
100
AcDbTrace
 10
-83.42128799227966
 20
15.7
 11
-82.57871200772031
 21
15.7
 12
-82.99999999999999
 22
12.5
 13
-82.99999999999999
 23
12.5
  0
MTEXT
  5
1D7
100
AcDbEntity
  8
0
 62
             2
100
AcDbMText
 10
-84.8
 20
11.72000000000003
 30
0.0
 40
3.2
 41
0.0
 71
             7
 72
             1
  1
\C2;{\Fgdt;n}\C2;\C2;15\C2;\H1.920000;\S 0^ -0.1;
  7
CONVERTER_1
 11
0.0
 21
1.0
 31
0.0
  0
ENDBLK
  5
1D8
100
AcDbEntity
  8
0
100
AcDbBlockEnd
  0
BLOCK
  5
1DC
100
AcDbEntity
  8
0
100
AcDbBlockBegin
  2
*D16
 70
             1
 10
0.0
 20
0.0
 30
0.0
  3
*D16
  1

  0
LINE
  5
1DD
100
AcDbEntity
  8
0
  6
CONTINUOUS
 62
             2
100
AcDbLine
 10
-93.0
 20
0.79999999999999
 11
-93.0
 21
39.19999999999999
  0
LINE
  5
1DE
100
AcDbEntity
  8
0
  6
CONTINUOUS
 62
             2
100
AcDbLine
 10
-27.40000000000009
 20
0.79999999999999
 11
-94.0
 21
0.79999999999999
  0
LINE
  5
1DF
100
AcDbEntity
  8
0
  6
CONTINUOUS
 62
             2
100
AcDbLine
 10
-27.40000000000009
 20
39.19999999999999
 11
-94.0
 21
39.19999999999999
  0
SOLID
  5
1E0
100
AcDbEntity
  8
0
 62
             2
100
AcDbTrace
 10
-92.57871200772034
 20
35.99999999999999
 11
-93.42128799227967
 21
35.99999999999999
 12
-93.0
 22
39.19999999999999
 13
-93.0
 23
39.19999999999999
  0
SOLID
  5
1E1
100
AcDbEntity
  8
0
 62
             2
100
AcDbTrace
 10
-93.42128799227967
 20
3.99999999999999
 11
-92.57871200772033
 21
3.99999999999999
 12
-93.0
 22
0.79999999999999
 13
-93.0
 23
0.79999999999999
  0
MTEXT
  5
1E2
100
AcDbEntity
  8
0
 62
             2
100
AcDbMText
 10
-94.0
 20
12.31199999999999
 30
0.0
 40
3.2
 41
0.0
 71
             7
 72
             1
  1
\C2;{\Fgdt;n}\C2;38.4
  7
CONVERTER_1
 11
0.0
 21
1.0
 31
0.0
  0
ENDBLK
  5
1E3
100
AcDbEntity
  8
0
100
AcDbBlockEnd
  0
BLOCK
  5
1E7
100
AcDbEntity
  8
0
100
AcDbBlockBegin
  2
*D17
 70
             1
 10
0.0
 20
0.0
 30
0.0
  3
*D17
  1

  0
LINE
  5
1E8
100
AcDbEntity
  8
0
  6
CONTINUOUS
 62
             2
100
AcDbLine
 10
-53.0
 20
69.19999999999999
 11
-30.0
 21
69.19999999999999
  0
LINE
  5
1E9
100
AcDbEntity
  8
0
  6
CONTINUOUS
 62
             2
100
AcDbLine
 10
-53.0
 20
22.9999999999999
 11
-53.0
 21
70.19999999999999
  0
LINE
  5
1EA
100
AcDbEntity
  8
0
  6
CONTINUOUS
 62
             2
100
AcDbLine
 10
-30.0
 20
37.59999999999998
 11
-30.0
 21
70.19999999999999
  0
SOLID
  5
1EB
100
AcDbEntity
  8
0
 62
             2
100
AcDbTrace
 10
-49.8
 20
69.62128799227966
 11
-49.8
 21
68.77871200772032
 12
-53.0
 22
69.19999999999999
 13
-53.0
 23
69.19999999999999
  0
SOLID
  5
1EC
100
AcDbEntity
  8
0
 62
             2
100
AcDbTrace
 10
-33.2
 20
68.77871200772033
 11
-33.2
 21
69.62128799227966
 12
-30.0
 22
69.19999999999999
 13
-30.0
 23
69.19999999999999
  0
MTEXT
  5
1ED
100
AcDbEntity
  8
0
 62
             2
100
AcDbMText
 10
-43.9
 20
70.19999999999999
 30
0.0
 40
3.2
 41
0.0
 71
             7
 72
             1
  1
23
  7
CONVERTER_1
 11
0.99999999999706
 21
0.00000242406841
 31
0.0
  0
ENDBLK
  5
1EE
100
AcDbEntity
  8
0
100
AcDbBlockEnd
  0
BLOCK
  5
1F2
100
AcDbEntity
  8
0
100
AcDbBlockBegin
  2
*D18
 70
             1
 10
0.0
 20
0.0
 30
0.0
  3
*D18
  1

  0
LINE
  5
1F3
100
AcDbEntity
  8
0
  6
CONTINUOUS
 62
             2
100
AcDbLine
 10
-53.0
 20
49.19999999999999
 11
-36.0
 21
49.19999999999999
  0
LINE
  5
1F4
100
AcDbEntity
  8
0
  6
CONTINUOUS
 62
             2
100
AcDbLine
 10
-53.0
 20
22.99999999999991
 11
-53.0
 21
50.19999999999999
  0
LINE
  5
1F5
100
AcDbEntity
  8
0
  6
CONTINUOUS
 62
             2
100
AcDbLine
 10
-36.0
 20
23.50000000000009
 11
-36.0
 21
50.19999999999999
  0
SOLID
  5
1F6
100
AcDbEntity
  8
0
 62
             2
100
AcDbTrace
 10
-49.8
 20
49.62128799227966
 11
-49.8
 21
48.77871200772032
 12
-53.0
 22
49.19999999999999
 13
-53.0
 23
49.19999999999999
  0
SOLID
  5
1F7
100
AcDbEntity
  8
0
 62
             2
100
AcDbTrace
 10
-39.2
 20
48.77871200772032
 11
-39.2
 21
49.62128799227966
 12
-36.0
 22
49.19999999999999
 13
-36.0
 23
49.19999999999999
  0
MTEXT
  5
1F8
100
AcDbEntity
  8
0
 62
             2
100
AcDbMText
 10
-46.42
 20
50.19999999999999
 30
0.0
 40
3.2
 41
0.0
 71
             7
 72
             1
  1
17
  7
CONVERTER_1
 11
0.99999999999706
 21
0.00000242406841
 31
0.0
  0
ENDBLK
  5
1F9
100
AcDbEntity
  8
0
100
AcDbBlockEnd
  0
BLOCK
  5
1FD
100
AcDbEntity
  8
0
100
AcDbBlockBegin
  2
*D19
 70
             1
 10
0.0
 20
0.0
 30
0.0
  3
*D19
  1

  0
LINE
  5
1FE
100
AcDbEntity
  8
0
  6
CONTINUOUS
 62
             2
100
AcDbLine
 10
-63.0
 20
11.09999999999992
 11
-63.0
 21
17.49999999999992
  0
LINE
  5
1FF
100
AcDbEntity
  8
0
  6
CONTINUOUS
 62
             2
100
AcDbLine
 10
-63.0
 20
17.49999999999992
 11
-63.0
 21
21.99999999999991
  0
LINE
  5
200
100
AcDbEntity
  8
0
  6
CONTINUOUS
 62
             2
100
AcDbLine
 10
-63.0
 20
21.99999999999991
 11
-63.0
 21
54.2299388003278
  0
LINE
  5
201
100
AcDbEntity
  8
0
  6
CONTINUOUS
 62
             2
100
AcDbLine
 10
-53.49999999999999
 20
17.49999999999992
 11
-64.0
 21
17.49999999999992
  0
LINE
  5
202
100
AcDbEntity
  8
0
  6
CONTINUOUS
 62
             2
100
AcDbLine
 10
-54.0
 20
21.99999999999991
 11
-64.0
 21
21.99999999999991
  0
SOLID
  5
203
100
AcDbEntity
  8
0
 62
             2
100
AcDbTrace
 10
-63.42128799227967
 20
25.19999999999991
 11
-62.57871200772033
 21
25.19999999999991
 12
-63.0
 22
21.99999999999991
 13
-63.0
 23
21.99999999999991
  0
SOLID
  5
204
100
AcDbEntity
  8
0
 62
             2
100
AcDbTrace
 10
-62.57871200772033
 20
14.29999999999992
 11
-63.42128799227967
 21
14.29999999999992
 12
-63.0
 22
17.49999999999992
 13
-63.0
 23
17.49999999999992
  0
MTEXT
  5
205
100
AcDbEntity
  8
0
 62
             2
100
AcDbMText
 10
-63.99999999999999
 20
41.9419388003278
 30
0.0
 40
3.2
 41
0.0
 71
             7
 72
             1
  1
\C2;4.5\C2;\H1.920000;{\Fgdt;`}0.2
  7
CONVERTER_1
 11
0.0
 21
1.0
 31
0.0
  0
ENDBLK
  5
206
100
AcDbEntity
  8
0
100
AcDbBlockEnd
  0
BLOCK
  5
20A
100
AcDbEntity
  8
0
100
AcDbBlockBegin
  2
*D20
 70
             1
 10
0.0
 20
0.0
 30
0.0
  3
*D20
  1

  0
LINE
  5
20B
100
AcDbEntity
  8
0
  6
CONTINUOUS
 62
             2
100
AcDbLine
 10
-72.99999999999999
 20
11.09999999999991
 11
-72.99999999999999
 21
17.49999999999992
  0
LINE
  5
20C
100
AcDbEntity
  8
0
  6
CONTINUOUS
 62
             2
100
AcDbLine
 10
-72.99999999999999
 20
17.49999999999992
 11
-72.99999999999999
 21
22.50000000000009
  0
LINE
  5
20D
100
AcDbEntity
  8
0
  6
CONTINUOUS
 62
             2
100
AcDbLine
 10
-72.99999999999999
 20
22.50000000000009
 11
-72.99999999999999
 21
63.16787282240171
  0
LINE
  5
20E
100
AcDbEntity
  8
0
  6
CONTINUOUS
 62
             2
100
AcDbLine
 10
-53.49999999999999
 20
17.49999999999992
 11
-73.99999999999999
 21
17.49999999999992
  0
LINE
  5
20F
100
AcDbEntity
  8
0
  6
CONTINUOUS
 62
             2
100
AcDbLine
 10
-37.0
 20
22.50000000000009
 11
-73.99999999999999
 21
22.50000000000009
  0
SOLID
  5
210
100
AcDbEntity
  8
0
 62
             2
100
AcDbTrace
 10
-73.42128799227966
 20
25.70000000000009
 11
-72.57871200772031
 21
25.70000000000009
 12
-72.99999999999999
 22
22.50000000000009
 13
-72.99999999999999
 23
22.50000000000009
  0
SOLID
  5
211
100
AcDbEntity
  8
0
 62
             2
100
AcDbTrace
 10
-72.57871200772033
 20
14.29999999999991
 11
-73.42128799227966
 21
14.29999999999992
 12
-72.99999999999999
 22
17.49999999999992
 13
-72.99999999999999
 23
17.49999999999992
  0
MTEXT
  5
212
100
AcDbEntity
  8
0
 62
             2
100
AcDbMText
 10
-74.8
 20
40.71987282240171
 30
0.0
 40
3.2
 41
0.0
 71
             7
 72
             1
  1
\C2;{\Fgdt;n}\C2;\C2;5h7\C2;\H1.920000;\S 0^ -0.012;
  7
CONVERTER_1
 11
0.0
 21
1.0
 31
0.0
  0
ENDBLK
  5
213
100
AcDbEntity
  8
0
100
AcDbBlockEnd
  0
ENDSEC
  0
SECTION
  2
ENTITIES
  0
DIMENSION
  5
215
100
AcDbEntity
  8
1
100
AcDbDimension
  2
*D20
 10
-72.99999999999999
 20
22.50000000000009
 11
-76.39999999999999
 21
52.6478728224017
 31
0.0
 53
90.0
  1
{\Fgdt;n}5h7
  3
ME10_DIM_16
100
AcDbAlignedDimension
 13
-52.49999999999999
 23
17.49999999999992
 14
-36.0
 24
22.50000000000009
 50
90.0
100
AcDbRotatedDimension
  0
DIMENSION
  5
208
100
AcDbEntity
  8
1
100
AcDbDimension
  2
*D19
 10
-63.0
 20
21.99999999999991
 11
-65.59999999999999
 21
48.0859388003278
 31
0.0
 53
90.0
  1
<>
  3
ME10_DIM_15
100
AcDbAlignedDimension
 13
-52.49999999999999
 23
17.49999999999992
 14
-53.0
 24
21.99999999999991
 50
90.0
100
AcDbRotatedDimension
  0
DIMENSION
  5
1FB
100
AcDbEntity
  8
1
100
AcDbDimension
  2
*D18
 10
-53.0
 20
49.19999999999999
 11
-44.5
 21
51.79999999999999
 31
0.0
 53
0.00013888888889
  1
<>
  3
ME10_DIM_14
100
AcDbAlignedDimension
 13
-36.0
 23
22.50000000000009
 14
-53.0
 24
21.99999999999991
100
AcDbRotatedDimension
  0
DIMENSION
  5
1F0
100
AcDbEntity
  8
1
100
AcDbDimension
  2
*D17
 10
-53.0
 20
69.19999999999999
 11
-41.5
 21
71.79999999999998
 31
0.0
 53
0.00013888888889
  1
<>
  3
ME10_DIM_13
100
AcDbAlignedDimension
 13
-30.0
 23
36.59999999999999
 14
-53.0
 24
21.99999999999991
100
AcDbRotatedDimension
  0
DIMENSION
  5
1E5
100
AcDbEntity
  8
1
100
AcDbDimension
  2
*D16
 10
-93.0
 20
39.19999999999999
 11
-95.59999999999999
 21
19.99999999999999
 31
0.0
 53
90.0
  1
<>
  3
ME10_DIM_12
100
AcDbAlignedDimension
 13
-26.40000000000009
 23
0.79999999999999
 14
-26.40000000000009
 24
39.19999999999999
 50
90.0
100
AcDbRotatedDimension
  0
DIMENSION
  5
1DA
100
AcDbEntity
  8
1
100
AcDbDimension
  2
*D15
 10
-82.99999999999999
 20
27.50000000000005
 11
-86.39999999999999
 21
20.00000000000003
 31
0.0
 53
90.0
  1
<>
  3
ME10_DIM_11
100
AcDbAlignedDimension
 13
-32.39999999999989
 23
12.5
 14
-32.39999999999989
 24
27.50000000000005
 50
90.0
100
AcDbRotatedDimension
  0
DIMENSION
  5
1CF
100
AcDbEntity
  8
1
100
AcDbDimension
  2
*D14
 10
-33.49999999999988
 20
59.19999999999999
 11
-39.8625602165197
 21
61.79999999999999
 31
0.0
 53
0.00013888888889
  1
<>
  3
ME10_DIM_10
100
AcDbAlignedDimension
 13
-30.0
 23
36.59999999999999
 14
-33.49999999999988
 24
27.30000000000012
100
AcDbRotatedDimension
  0
DIMENSION
  5
1C2
100
AcDbEntity
  8
1
100
AcDbDimension
  2
*D13
 10
43.19999999992796
 20
69.19999999999999
 11
6.59999999996398
 21
71.79999999999998
 31
0.0
 53
0.00013888888889
  1
<>
  3
ME10_DIM_9
100
AcDbAlignedDimension
 13
-30.0
 23
36.59999999999999
 14
43.19999999992797
 24
26.30000000000007
100
AcDbRotatedDimension
  0
DIMENSION
  5
1B7
100
AcDbEntity
  8
1
100
AcDbDimension
  2
*D12
 10
58.19999999992797
 20
27.30000000000007
 11
55.59999999992797
 21
20.0
 31
0.0
 53
90.0
  1
<>
  3
ME10_DIM_8
100
AcDbAlignedDimension
 13
42.19999999992797
 23
12.69999999999993
 14
42.19999999992797
 24
27.30000000000007
 50
90.0
100
AcDbRotatedDimension
  0
DIMENSION
  5
1AC
100
AcDbEntity
  8
1
100
AcDbDimension
  2
*D11
 10
68.19999999992797
 20
38.60000000000047
 11
65.59999999992797
 21
20.00000000000049
 31
0.0
 53
90.0
  1
<>
  3
ME10_DIM_7
100
AcDbAlignedDimension
 13
38.20000000000005
 23
1.4000000000005
 14
38.20000000000005
 24
38.60000000000047
 50
90.0
100
AcDbRotatedDimension
  0
DIMENSION
  5
1A1
100
AcDbEntity
  8
1
100
AcDbDimension
  2
*D10
 10
-30.0
 20
59.19999999999999
 11
3.75
 21
61.79999999999999
 31
0.0
 53
0.00013888888889
  1
<>
  3
ME10_DIM_6
100
AcDbAlignedDimension
 13
37.5
 23
38.21804153555613
 14
-30.0
 24
36.59999999999999
100
AcDbRotatedDimension
  0
DIMENSION
  5
196
100
AcDbEntity
  8
1
100
AcDbDimension
  2
*D9
 10
37.5
 20
59.19999999999999
 11
50.5611819020705
 21
61.79999999999999
 31
0.0
 53
0.00013888888889
  1
<>
  3
ME10_DIM_5
100
AcDbAlignedDimension
 13
43.19999999992797
 23
26.30000000000007
 14
37.5
 24
38.21804153555613
100
AcDbRotatedDimension
  0
DIMENSION
  5
189
100
AcDbEntity
  8
1
100
AcDbDimension
  2
*D8
 10
159.2000000000005
 20
37.04999976763829
 11
156.60000000000051
 21
20.00000000000048
 31
0.0
 53
90.0
  1
(34
  3
ME10_DIM_4
100
AcDbAlignedDimension
 13
132.25317550374501
 23
2.95000023236267
 14
132.25317550374501
 24
37.04999976763829
 50
90.0
100
AcDbRotatedDimension
  0
MTEXT
  5
17E
100
AcDbEntity
  8
1
 62
             2
100
AcDbMText
 10
42.19999999985595
 20
-77.39999999999998
 30
0.0
 40
3.5
 41
0.0
 71
             5
 72
             1
  1
ＤＥＴＡＩＬ　ＤＲＡＷＩＮＧ　　(+)、(-)　ＴＥＲＭＩＮＡＬ
  7
CONVERTER_2
  0
MTEXT
  5
17D
100
AcDbEntity
  8
1
 62
             2
100
AcDbMText
 10
42.19999999985595
 20
-82.99999999999994
 30
0.0
 40
3.5
 41
0.0
 71
             5
 72
             1
  1
（２：１）
  7
CONVERTER_3
  0
MTEXT
  5
17B
100
AcDbEntity
  8
1
 62
             2
100
AcDbMText
 10
-158.9622642161699
 20
64.66494749336499
 30
0.0
 40
3.5
 41
0.0
 71
             4
 72
             1
  1
3-M3 DEPTH 4MAX\PP=120{\Fgdt;`}2{\Fgdt;~}\PP.C.D=θ28{\Fgdt;`}0.2
  7
CONVERTER_2
  0
MTEXT
  5
17A
100
AcDbEntity
  8
1
 62
             2
100
AcDbMText
 10
-6.62102179687692
 20
51.80000000000001
 30
0.0
 40
3.5
 41
0.0
 71
             5
 72
             1
  1
ＮＡＭＥ　ＰＬＡＴＥ
  7
CONVERTER_2
  0
MTEXT
  5
179
100
AcDbEntity
  8
1
 62
             2
100
AcDbMText
 10
111.0323893605003
 20
51.74666111178556
 30
0.0
 40
3.5
 41
0.0
 71
             5
 72
             1
  1
(+)ＴＥＲＭＩＮＡＬ
  7
CONVERTER_2
  0
MTEXT
  5
178
100
AcDbEntity
  8
1
 62
             2
100
AcDbMText
 10
111.0323893605003
 20
46.14666111178559
 30
0.0
 40
3.5
 41
0.0
 71
             5
 72
             1
  1
（ＲＥＤ）
  7
CONVERTER_2
  0
MTEXT
  5
177
100
AcDbEntity
  8
1
 62
             2
100
AcDbMText
 10
148.97353823009161
 20
-6.65333888821448
 30
0.0
 40
3.5
 41
0.0
 71
             5
 72
             1
  1
(-)ＴＥＲＭＩＮＡＬ
  7
CONVERTER_2
  0
MTEXT
  5
176
100
AcDbEntity
  8
1
 62
             2
100
AcDbMText
 10
148.97353823009161
 20
-12.25333888821444
 30
0.0
 40
3.5
 41
0.0
 71
             5
 72
             1
  1
（ＢＬＡＣＫ）
  7
CONVERTER_2
  0
TEXT
  5
174
100
AcDbEntity
  8
1
 62
             2
100
AcDbText
 10
108.11837130000011
 20
-112.1675251999997
 40
4.5
  1
DMN37HB
 41
0.9
  7
CONVERTER_1
100
AcDbText
  0
LEADER
  5
173
100
AcDbEntity
  8
1
  6
CONTINUOUS
 62
             2
100
AcDbLeader
  3
Standard
 71
             0
 73
             3
 74
             0
 75
             0
 40
0.0
 76
             3
 10
-132.25
 20
33.42339375865856
 30
0.0
 10
-118.9218363431998
 20
55.19999999999999
 30
0.0
 10
-161.15950717384001
 20
55.19999999999999
 30
0.0
 77
             2
  0
LEADER
  5
171
100
AcDbEntity
  8
1
  6
CONTINUOUS
 62
             2
100
AcDbLeader
  3
Standard
 71
             0
 73
             3
 74
             0
 75
             0
 40
0.0
 76
             3
 10
-10.66345657826197
 20
39.19999999999999
 30
0.0
 10
-20.66345657826197
 20
49.19999999999999
 30
0.0
 10
7.42141298450815
 20
49.19999999999999
 30
0.0
 77
             2
  0
LEADER
  5
16F
100
AcDbEntity
  8
1
  6
CONTINUOUS
 62
             2
100
AcDbLeader
  3
Standard
 71
             0
 73
             3
 74
             0
 75
             0
 40
0.0
 76
             3
 10
128.2500000000008
 20
37.25000000000114
 30
0.0
 10
125.5294255652052
 20
49.20000000000056
 30
0.0
 10
96.5294255652052
 20
49.20000000000056
 30
0.0
 77
             2
  0
LEADER
  5
16D
100
AcDbEntity
  8
1
  6
CONTINUOUS
 62
             2
100
AcDbLeader
  3
Standard
 71
             0
 73
             3
 74
             0
 75
             0
 40
0.0
 76
             3
 10
131.7500000000008
 20
2.75000000000051
 30
0.0
 10
134.4705744347965
 20
-9.19999999999948
 30
0.0
 10
163.4705744347965
 20
-9.19999999999948
 30
0.0
 77
             2
  0
ARC
  5
16B
100
AcDbEntity
  8
1
  6
CONTINUOUS
 62
             3
100
AcDbCircle
 10
-28.0
 20
36.60000000000003
 40
1.99999999999996
100
AcDbArc
 50
90.0
 51
-179.99999999999878
  0
ARC
  5
16A
100
AcDbEntity
  8
1
  6
CONTINUOUS
 62
             3
100
AcDbCircle
 10
-28.0
 20
3.39999999999998
 40
2.0
100
AcDbArc
 50
180.0
 51
-90.0
  0
ARC
  5
169
100
AcDbEntity
  8
1
  6
CONTINUOUS
 62
             3
100
AcDbCircle
 10
-52.5
 20
17.99999999999992
 40
0.5
100
AcDbArc
 50
180.0
 51
-89.99999999999919
  0
ARC
  5
168
100
AcDbEntity
  8
1
  6
CONTINUOUS
 62
             3
100
AcDbCircle
 10
42.19999999992797
 20
26.30000000000007
 40
1.0
100
AcDbArc
 50
0.0
 51
90.0
  0
ARC
  5
167
100
AcDbEntity
  8
1
  6
CONTINUOUS
 62
             3
100
AcDbCircle
 10
42.19999999992797
 20
13.69999999999993
 40
1.0
100
AcDbArc
 50
-90.0
 51
0.0
  0
XLINE
  5
166
100
AcDbEntity
  8
1
  6
DOT_CENTER
 62
             3
 60
             1
100
AcDbXline
 10
46.78800145276795
 20
20.0
 30
0.0
 11
1.0
 21
0.0
 31
0.0
  0
XLINE
  5
165
100
AcDbEntity
  8
1
  6
DOT_CENTER
 62
             3
 60
             1
100
AcDbXline
 10
130.0000000000008
 20
24.00000000000048
 30
0.0
 11
0.0
 21
1.0
 31
0.0
  0
XLINE
  5
164
100
AcDbEntity
  8
1
  6
DOT_CENTER
 62
             3
 60
             1
100
AcDbXline
 10
108.1943755399991
 20
20.00000000000048
 30
0.0
 11
1.0
 21
0.0
 31
0.0
  0
CIRCLE
  5
163
100
AcDbEntity
  8
1
  6
CONTINUOUS
 62
             3
100
AcDbCircle
 10
-140.0
 20
20.0
 40
2.50000000000001
  0
CIRCLE
  5
162
100
AcDbEntity
  8
1
  6
CONTINUOUS
 62
             2
100
AcDbCircle
 10
-140.0
 20
20.0
 40
7.30000000000007
  0
CIRCLE
  5
161
100
AcDbEntity
  8
1
  6
CONTINUOUS
 62
             3
100
AcDbCircle
 10
-140.0
 20
20.0
 40
7.50000000000005
  0
CIRCLE
  5
160
100
AcDbEntity
  8
1
  6
CONTINUOUS
 62
             3
100
AcDbCircle
 10
-140.0
 20
20.0
 40
18.60000000000019
  0
CIRCLE
  5
15F
100
AcDbEntity
  8
1
  6
CONTINUOUS
 62
             3
100
AcDbCircle
 10
-140.0
 20
20.0
 40
6.30000000000007
  0
CIRCLE
  5
15E
100
AcDbEntity
  8
1
  6
DASH_CENTER
 62
             1
100
AcDbCircle
 10
-140.0
 20
20.0
 40
14.0
  0
CIRCLE
  5
15D
100
AcDbEntity
  8
1
  6
CONTINUOUS
 62
             1
100
AcDbCircle
 10
-154.0000000000006
 20
20.0000000000006
 40
1.5
  0
CIRCLE
  5
15C
100
AcDbEntity
  8
1
  6
CONTINUOUS
 62
             3
100
AcDbCircle
 10
-154.0000000000006
 20
20.0000000000006
 40
1.2000000000001
  0
CIRCLE
  5
15B
100
AcDbEntity
  8
1
  6
CONTINUOUS
 62
             1
100
AcDbCircle
 10
-133.0000000000006
 20
32.1243556529827
 40
1.49999999999995
  0
CIRCLE
  5
15A
100
AcDbEntity
  8
1
  6
CONTINUOUS
 62
             3
100
AcDbCircle
 10
-133.0000000000006
 20
32.1243556529827
 40
1.20000000000003
  0
CIRCLE
  5
159
100
AcDbEntity
  8
1
  6
CONTINUOUS
 62
             1
100
AcDbCircle
 10
-133.0000000000006
 20
7.87564434701869
 40
1.49999999999995
  0
CIRCLE
  5
158
100
AcDbEntity
  8
1
  6
CONTINUOUS
 62
             3
100
AcDbCircle
 10
-133.0000000000006
 20
7.87564434701869
 40
1.20000000000002
  0
CIRCLE
  5
157
100
AcDbEntity
  8
1
  6
CONTINUOUS
 62
             3
100
AcDbCircle
 10
139.8994949366124
 20
29.89949493661223
 40
1.24999999999973
  0
CIRCLE
  5
156
100
AcDbEntity
  8
1
  6
CONTINUOUS
 62
             3
100
AcDbCircle
 10
130.0000000000008
 20
20.00000000000048
 40
7.29999999999438
  0
CIRCLE
  5
155
100
AcDbEntity
  8
1
  6
CONTINUOUS
 62
             3
100
AcDbCircle
 10
130.0000000000008
 20
20.00000000000048
 40
4.0
  0
CIRCLE
  5
154
100
AcDbEntity
  8
1
  6
CONTINUOUS
 62
             3
100
AcDbCircle
 10
130.0000000000008
 20
20.00000000000048
 40
2.5
  0
CIRCLE
  5
153
100
AcDbEntity
  8
1
  6
CONTINUOUS
 62
             3
100
AcDbCircle
 10
120.10050506338909
 20
29.89949493661211
 40
1.24999999999972
  0
CIRCLE
  5
152
100
AcDbEntity
  8
1
  6
CONTINUOUS
 62
             3
100
AcDbCircle
 10
139.8994949366124
 20
10.10050506338873
 40
1.24999999999973
  0
CIRCLE
  5
151
100
AcDbEntity
  8
1
  6
CONTINUOUS
 62
             3
100
AcDbCircle
 10
120.10050506338909
 20
10.10050506338873
 40
1.24999999999973
  0
CIRCLE
  5
150
100
AcDbEntity
  8
1
  6
CONTINUOUS
 62
             3
100
AcDbCircle
 10
130.0000000000008
 20
20.00000000000048
 40
18.59999999999282
  0
CIRCLE
  5
14F
100
AcDbEntity
  8
1
  6
CONTINUOUS
 62
             3
100
AcDbCircle
 10
-126.0
 20
20.00000000000006
 40
1.19999999999999
  0
ARC
  5
14E
100
AcDbEntity
  8
1
  6
CONTINUOUS
 62
             3
100
AcDbCircle
 10
130.0000000000008
 20
20.00000000000048
 40
19.19999999999964
100
AcDbArc
 50
-138.61449399425467
 51
-144.58550600574779
  0
ARC
  5
14D
100
AcDbEntity
  8
1
  6
CONTINUOUS
 62
             3
100
AcDbCircle
 10
-140.0
 20
20.0
 40
19.19999999999931
100
AcDbArc
 50
-35.4144939942512
 51
-41.38550600574445
  0
ARC
  5
14C
100
AcDbEntity
  8
1
  6
CONTINUOUS
 62
             3
100
AcDbCircle
 10
129.9999999999994
 20
20.00000000000776
 40
17.19999999999943
100
AcDbArc
 50
-78.2589759149751
 51
-77.40704422068367
  0
ARC
  5
14B
100
AcDbEntity
  8
1
  6
CONTINUOUS
 62
             3
100
AcDbCircle
 10
129.9999999999994
 20
20.00000000000776
 40
17.20000000000017
100
AcDbArc
 50
-102.5929557793109
 51
-101.74102408501939
  0
ARC
  5
14A
100
AcDbEntity
  8
1
  6
CONTINUOUS
 62
             3
100
AcDbCircle
 10
130.0000000000008
 20
20.00000000000048
 40
17.59999999999994
100
AcDbArc
 50
53.25719616101195
 51
77.69778358932462
  0
ARC
  5
149
100
AcDbEntity
  8
1
  6
DASH_CENTER
 62
             1
100
AcDbCircle
 10
130.0000000000008
 20
20.00000000000048
 40
14.00000000000006
100
AcDbArc
 50
33.27400204701857
 51
55.35591145831646
  0
ARC
  5
148
100
AcDbEntity
  8
1
  6
DASH_CENTER
 62
             1
100
AcDbCircle
 10
130.0000000000008
 20
20.00000000000048
 40
14.00000000000008
100
AcDbArc
 50
124.64408854168417
 51
146.7259979529814
  0
ARC
  5
147
100
AcDbEntity
  8
1
  6
DASH_CENTER
 62
             1
100
AcDbCircle
 10
130.0000000000008
 20
20.00000000000048
 40
14.00000000000016
100
AcDbArc
 50
-55.35591145831698
 51
-33.27400204701857
  0
ARC
  5
146
100
AcDbEntity
  8
1
  6
DASH_CENTER
 62
             1
100
AcDbCircle
 10
130.0000000000008
 20
20.00000000000048
 40
14.00000000000005
100
AcDbArc
 50
-146.7259979529814
 51
-124.64408854168364
  0
ARC
  5
145
100
AcDbEntity
  8
1
  6
CONTINUOUS
 62
             3
100
AcDbCircle
 10
130.0000000000008
 20
20.00000000000048
 40
17.60000000000017
100
AcDbArc
 50
-126.74280383898908
 51
-101.47051545007454
  0
ARC
  5
144
100
AcDbEntity
  8
1
  6
CONTINUOUS
 62
             3
100
AcDbCircle
 10
130.0000000000008
 20
20.00000000000048
 40
17.59999999999989
100
AcDbArc
 50
-46.74280383898784
 51
46.7428038389881
  0
ARC
  5
143
100
AcDbEntity
  8
1
  6
CONTINUOUS
 62
             3
100
AcDbCircle
 10
130.0000000000008
 20
20.00000000000048
 40
17.60000000000008
100
AcDbArc
 50
102.30221641067662
 51
126.74280383898882
  0
ARC
  5
142
100
AcDbEntity
  8
1
  6
CONTINUOUS
 62
             3
100
AcDbCircle
 10
130.0000000000008
 20
20.00000000000048
 40
17.60000000000018
100
AcDbArc
 50
133.25719616101208
 51
-133.25719616101208
  0
ARC
  5
141
100
AcDbEntity
  8
1
  6
CONTINUOUS
 62
             3
100
AcDbCircle
 10
130.0000000000008
 20
20.00000000000048
 40
17.59999999999987
100
AcDbArc
 50
-78.5294845499199
 51
-53.25719616101194
  0
LINE
  5
140
100
AcDbEntity
  8
1
  6
CONTINUOUS
 62
             3
100
AcDbLine
 10
-19.99999999999999
 20
33.45041284602962
 11
-20.0
 21
39.19999999999999
  0
LINE
  5
13F
100
AcDbEntity
  8
1
  6
CONTINUOUS
 62
             3
100
AcDbLine
 10
-19.99999999999999
 20
33.45041284602962
 11
-2.99999999999999
 21
33.45041284602962
  0
LINE
  5
13E
100
AcDbEntity
  8
1
  6
CONTINUOUS
 62
             3
100
AcDbLine
 10
-2.99999999999999
 20
33.45041284602962
 11
-2.99999999999999
 21
39.19999999999999
  0
LINE
  5
13D
100
AcDbEntity
  8
1
  6
CONTINUOUS
 62
             2
100
AcDbLine
 10
0.25566988424387
 20
-80.0
 11
84.91634118307593
 21
-80.0
  0
LINE
  5
13C
100
AcDbEntity
  8
1
  6
CONTINUOUS
 62
             2
100
AcDbLine
 10
-161.15950717384001
 20
69.19999999999999
 11
-118.9218363431998
 21
69.19999999999999
  0
LINE
  5
13B
100
AcDbEntity
  8
1
  6
CONTINUOUS
 62
             2
100
AcDbLine
 10
-118.9218363431998
 20
62.19999999999999
 11
-161.15950717384001
 21
62.19999999999999
  0
LINE
  5
13A
100
AcDbEntity
  8
1
  6
CONTINUOUS
 62
             3
100
AcDbLine
 10
-141.50000000000131
 20
21.99999999999905
 11
-138.5
 21
22.00000000000001
  0
LINE
  5
139
100
AcDbEntity
  8
1
  6
CONTINUOUS
 62
             3
100
AcDbLine
 10
-36.0
 20
22.00000000000009
 11
-53.0
 21
21.99999999999991
  0
LINE
  5
138
100
AcDbEntity
  8
1
  6
CONTINUOUS
 62
             3
100
AcDbLine
 10
-36.0
 20
22.50000000000009
 11
-36.0
 21
22.00000000000009
  0
LINE
  5
137
100
AcDbEntity
  8
1
  6
CONTINUOUS
 62
             3
100
AcDbLine
 10
-26.40000000000009
 20
39.19999999999999
 11
23.59999999999991
 21
39.19999999999999
  0
LINE
  5
136
100
AcDbEntity
  8
1
  6
CONTINUOUS
 62
             3
100
AcDbLine
 10
38.20000000000005
 20
38.60000000000047
 11
23.59999999999991
 21
38.59999999999999
  0
LINE
  5
135
100
AcDbEntity
  8
1
  6
CONTINUOUS
 62
             3
100
AcDbLine
 10
-28.0
 20
1.40000000000002
 11
-26.40000000000009
 21
1.40000000000002
  0
LINE
  5
134
100
AcDbEntity
  8
1
  6
CONTINUOUS
 62
             1
100
AcDbLine
 10
46.78800145276795
 20
20.0
 11
-55.99999999999997
 21
20.0
  0
LINE
  5
133
100
AcDbEntity
  8
1
  6
CONTINUOUS
 62
             3
100
AcDbLine
 10
-30.0
 20
3.39999999999998
 11
-30.0
 21
36.59999999999999
  0
LINE
  5
132
100
AcDbEntity
  8
1
  6
CONTINUOUS
 62
             1
100
AcDbLine
 10
-133.7500000000006
 20
30.8253175473061
 11
-133.60000000000051
 21
31.08512516844129
  0
LINE
  5
131
100
AcDbEntity
  8
1
  6
CONTINUOUS
 62
             1
100
AcDbLine
 10
-133.7500000000006
 20
9.17468245269529
 11
-133.60000000000051
 21
8.9148748315601
  0
LINE
  5
130
100
AcDbEntity
  8
1
  6
CONTINUOUS
 62
             1
100
AcDbLine
 10
-134.08973216632239
 20
9.76311582573041
 11
-131.93376023554751
 21
6.0288629019345
  0
LINE
  5
12F
100
AcDbEntity
  8
1
  6
CONTINUOUS
 62
             1
100
AcDbLine
 10
-131.93376023554751
 20
33.97113709806669
 11
-134.08973216632239
 21
30.23688417427078
  0
LINE
  5
12E
100
AcDbEntity
  8
1
  6
CONTINUOUS
 62
             3
100
AcDbLine
 10
-32.39999999999989
 20
27.50000000000005
 11
-30.0
 21
27.50000000000005
  0
LINE
  5
12D
100
AcDbEntity
  8
1
  6
CONTINUOUS
 62
             3
100
AcDbLine
 10
-32.39999999999989
 20
27.50000000000005
 11
-33.49999999999988
 21
27.30000000000012
  0
LINE
  5
12C
100
AcDbEntity
  8
1
  6
CONTINUOUS
 62
             3
100
AcDbLine
 10
-30.0
 20
12.5
 11
-32.39999999999989
 21
12.5
  0
LINE
  5
12B
100
AcDbEntity
  8
1
  6
CONTINUOUS
 62
             3
100
AcDbLine
 10
-33.49999999999988
 20
12.70000000000004
 11
-32.39999999999989
 21
12.5
  0
LINE
  5
12A
100
AcDbEntity
  8
1
  6
CONTINUOUS
 62
             3
100
AcDbLine
 10
-33.49999999999988
 20
27.30000000000012
 11
-33.49999999999988
 21
12.70000000000004
  0
LINE
  5
129
100
AcDbEntity
  8
1
  6
CONTINUOUS
 62
             3
100
AcDbLine
 10
-53.0
 20
17.99999999999992
 11
-53.0
 21
21.99999999999991
  0
LINE
  5
128
100
AcDbEntity
  8
1
  6
CONTINUOUS
 62
             3
100
AcDbLine
 10
-52.49999999999999
 20
17.49999999999992
 11
-33.49999999999988
 21
17.50000000000011
  0
LINE
  5
127
100
AcDbEntity
  8
1
  6
CONTINUOUS
 62
             3
100
AcDbLine
 10
-33.49999999999989
 20
22.50000000000011
 11
-36.0
 21
22.50000000000009
  0
LINE
  5
126
100
AcDbEntity
  8
1
  6
CONTINUOUS
 62
             2
100
AcDbLine
 10
-32.39999999999989
 20
27.50000000000005
 11
-32.39999999999989
 21
12.5
  0
LINE
  5
125
100
AcDbEntity
  8
1
  6
CONTINUOUS
 62
             3
100
AcDbLine
 10
37.5
 20
27.30000000000007
 11
42.19999999992797
 21
27.30000000000007
  0
LINE
  5
124
100
AcDbEntity
  8
1
  6
CONTINUOUS
 62
             3
100
AcDbLine
 10
42.19999999992797
 20
12.69999999999993
 11
37.5
 21
12.69999999999993
  0
LINE
  5
123
100
AcDbEntity
  8
1
  6
CONTINUOUS
 62
             3
100
AcDbLine
 10
43.19999999992797
 20
26.30000000000007
 11
43.19999999992797
 21
13.69999999999993
  0
LINE
  5
122
100
AcDbEntity
  8
1
  6
CONTINUOUS
 62
             3
100
AcDbLine
 10
23.59999999999991
 20
0.79999999999999
 11
-26.40000000000009
 21
0.79999999999999
  0
LINE
  5
121
100
AcDbEntity
  8
1
  6
CONTINUOUS
 62
             3
100
AcDbLine
 10
-26.40000000000009
 20
38.59999999999999
 11
-28.0
 21
38.59999999999999
  0
LINE
  5
120
100
AcDbEntity
  8
1
  6
CONTINUOUS
 62
             3
100
AcDbLine
 10
23.59999999999991
 20
1.39999999999999
 11
38.20000000000005
 21
1.4000000000005
  0
LINE
  5
11F
100
AcDbEntity
  8
1
  6
CONTINUOUS
 62
             1
100
AcDbLine
 10
-140.0
 20
-2.87999999999954
 11
-140.0
 21
42.88000000000045
  0
LINE
  5
11E
100
AcDbEntity
  8
1
  6
CONTINUOUS
 62
             1
100
AcDbLine
 10
-162.88000000000059
 20
20.0
 11
-117.1200000000006
 21
20.0
  0
LINE
  5
11D
100
AcDbEntity
  8
1
  6
CONTINUOUS
 62
             3
100
AcDbLine
 10
114.8232361875276
 20
9.2470543486732
 11
114.3523603821797
 21
8.87384278419668
  0
LINE
  5
11C
100
AcDbEntity
  8
1
  6
CONTINUOUS
 62
             3
100
AcDbLine
 10
116.0655317480843
 20
7.6796674340215
 11
115.5946559427363
 21
7.306455869545
  0
LINE
  5
11B
100
AcDbEntity
  8
1
  6
CONTINUOUS
 62
             3
100
AcDbLine
 10
23.59999999999991
 20
39.19999999999999
 11
23.59999999999991
 21
8.87384278419617
  0
LINE
  5
11A
100
AcDbEntity
  8
1
  6
CONTINUOUS
 62
             3
100
AcDbLine
 10
-26.40000000000009
 20
0.79999999999999
 11
-26.40000000000008
 21
7.67966743402098
  0
LINE
  5
119
100
AcDbEntity
  8
1
  6
CONTINUOUS
 62
             3
100
AcDbLine
 10
-26.40000000000008
 20
8.87384278419617
 11
23.59999999999991
 21
8.87384278419617
  0
LINE
  5
118
100
AcDbEntity
  8
1
  6
CONTINUOUS
 62
             3
100
AcDbLine
 10
-26.40000000000008
 20
8.87384278419617
 11
-26.40000000000009
 21
39.19999999999999
  0
LINE
  5
117
100
AcDbEntity
  8
1
  6
CONTINUOUS
 62
             3
100
AcDbLine
 10
23.59999999999991
 20
7.67966743402098
 11
-26.40000000000008
 21
7.67966743402098
  0
LINE
  5
116
100
AcDbEntity
  8
1
  6
CONTINUOUS
 62
             3
100
AcDbLine
 10
-26.40000000000011
 20
7.30645586954449
 11
23.5999999999999
 21
7.3064558695445
  0
LINE
  5
115
100
AcDbEntity
  8
1
  6
CONTINUOUS
 62
             3
100
AcDbLine
 10
23.59999999999991
 20
7.67966743402098
 11
23.59999999999991
 21
0.79999999999999
  0
LINE
  5
114
100
AcDbEntity
  8
1
  6
CONTINUOUS
 62
             3
100
AcDbLine
 10
-124.352360382179
 20
8.87384278419668
 11
-124.823236187527
 21
9.2470543486732
  0
LINE
  5
113
100
AcDbEntity
  8
1
  6
CONTINUOUS
 62
             3
100
AcDbLine
 10
-125.5946559427356
 20
7.306455869545
 11
-126.0655317480836
 21
7.6796674340215
  0
LINE
  5
112
100
AcDbEntity
  8
1
  6
CONTINUOUS
 62
             3
100
AcDbLine
 10
38.20000000000005
 20
29.19999999999502
 11
37.5
 21
29.19999999999502
  0
LINE
  5
111
100
AcDbEntity
  8
1
  6
CONTINUOUS
 62
             3
100
AcDbLine
 10
38.20000000000005
 20
38.60000000000047
 11
38.20000000000005
 21
29.19999999999502
  0
LINE
  5
110
100
AcDbEntity
  8
1
  6
CONTINUOUS
 62
             3
100
AcDbLine
 10
24.20000000000005
 20
38.21804153555613
 11
24.20000000000005
 21
38.60000000000047
  0
LINE
  5
10F
100
AcDbEntity
  8
1
  6
CONTINUOUS
 62
             3
100
AcDbLine
 10
24.20000000000005
 20
38.21804153555613
 11
38.20000000000005
 21
38.21804153555613
  0
LINE
  5
10E
100
AcDbEntity
  8
1
  6
CONTINUOUS
 62
             1
100
AcDbLine
 10
41.19999999992797
 20
4.30880601713519
 11
41.19999999992797
 21
1.73195869679995
  0
LINE
  5
10D
100
AcDbEntity
  8
1
  6
CONTINUOUS
 62
             2
100
AcDbLine
 10
38.70000000000016
 20
3.20000023235497
 11
38.70000000000016
 21
2.70000023235497
  0
LINE
  5
10C
100
AcDbEntity
  8
1
  6
CONTINUOUS
 62
             3
100
AcDbLine
 10
38.19999999999999
 20
3.20000023235497
 11
43.19999999992797
 21
3.20000023235497
  0
LINE
  5
10B
100
AcDbEntity
  8
1
  6
CONTINUOUS
 62
             3
100
AcDbLine
 10
43.19999999992797
 20
2.70000023235497
 11
38.20000000000005
 21
2.70000023235497
  0
LINE
  5
10A
100
AcDbEntity
  8
1
  6
CONTINUOUS
 62
             2
100
AcDbLine
 10
42.69999999992797
 20
3.20000023235497
 11
42.69999999992797
 21
2.70000023235497
  0
LINE
  5
109
100
AcDbEntity
  8
1
  6
CONTINUOUS
 62
             3
100
AcDbLine
 10
43.19999999992797
 20
3.20000023235497
 11
43.19999999992797
 21
2.70000023235497
  0
LINE
  5
108
100
AcDbEntity
  8
1
  6
CONTINUOUS
 62
             3
100
AcDbLine
 10
38.20000000000005
 20
10.80000000000595
 11
38.20000000000005
 21
1.4000000000005
  0
LINE
  5
107
100
AcDbEntity
  8
1
  6
CONTINUOUS
 62
             3
100
AcDbLine
 10
37.5
 20
10.80000000000595
 11
38.20000000000005
 21
10.80000000000595
  0
LINE
  5
106
100
AcDbEntity
  8
1
  6
CONTINUOUS
 62
             3
100
AcDbLine
 10
24.20000000000005
 20
1.4000000000005
 11
24.20000000000005
 21
1.78195846444484
  0
LINE
  5
105
100
AcDbEntity
  8
1
  6
CONTINUOUS
 62
             3
100
AcDbLine
 10
38.20000000000005
 20
1.73226888746183
 11
24.20000000000005
 21
1.73226888746183
  0
LINE
  5
104
100
AcDbEntity
  8
1
  6
CONTINUOUS
 62
             3
100
AcDbLine
 10
37.5
 20
38.21804153555613
 11
37.50000000000006
 21
3.20000023235497
  0
LINE
  5
103
100
AcDbEntity
  8
1
  6
CONTINUOUS
 62
             3
100
AcDbLine
 10
38.19999999999999
 20
3.20000023235497
 11
37.50000000000006
 21
3.20000023235497
  0
LINE
  5
102
100
AcDbEntity
  8
1
  6
CONTINUOUS
 62
             3
100
AcDbLine
 10
37.50000000000006
 20
3.20000023235497
 11
37.50000000000006
 21
1.95256250877344
  0
LINE
  5
101
100
AcDbEntity
  8
1
  6
CONTINUOUS
 62
             3
100
AcDbLine
 10
37.50000000000006
 20
1.95256250877344
 11
36.50000000000006
 21
1.73226888746183
  0
LINE
  5
100
100
AcDbEntity
  8
1
  6
CONTINUOUS
 62
             3
100
AcDbLine
 10
37.50000000000006
 20
1.95256250877344
 11
37.5
 21
1.73226888746183
  0
LINE
  5
FF
100
AcDbEntity
  8
1
  6
CONTINUOUS
 62
             1
100
AcDbLine
 10
41.19999999992797
 20
38.26804130320005
 11
41.19999999992797
 21
35.69119398286481
  0
LINE
  5
FE
100
AcDbEntity
  8
1
  6
CONTINUOUS
 62
             2
100
AcDbLine
 10
38.70000000000016
 20
37.29999976764503
 11
38.70000000000016
 21
36.79999976764503
  0
LINE
  5
FD
100
AcDbEntity
  8
1
  6
CONTINUOUS
 62
             2
100
AcDbLine
 10
42.69999999992797
 20
37.29999976764503
 11
42.69999999992797
 21
36.79999976764503
  0
LINE
  5
FC
100
AcDbEntity
  8
1
  6
CONTINUOUS
 62
             3
100
AcDbLine
 10
43.19999999992797
 20
37.29999976764503
 11
43.19999999992797
 21
36.79999976764503
  0
LINE
  5
FB
100
AcDbEntity
  8
1
  6
CONTINUOUS
 62
             3
100
AcDbLine
 10
43.19999999992797
 20
36.79999976764503
 11
38.19999999999999
 21
36.79999976764503
  0
LINE
  5
FA
100
AcDbEntity
  8
1
  6
CONTINUOUS
 62
             3
100
AcDbLine
 10
38.20000000000005
 20
37.29999976764503
 11
43.19999999992797
 21
37.29999976764503
  0
LINE
  5
F9
100
AcDbEntity
  8
1
  6
CONTINUOUS
 62
             3
100
AcDbLine
 10
130.95000000000081
 20
11.00000000000639
 11
130.95000000000081
 21
10.80000000000657
  0
LINE
  5
F8
100
AcDbEntity
  8
1
  6
CONTINUOUS
 62
             3
100
AcDbLine
 10
131.95000000000081
 20
11.00000000000639
 11
130.95000000000081
 21
11.00000000000639
  0
LINE
  5
F7
100
AcDbEntity
  8
1
  6
CONTINUOUS
 62
             3
100
AcDbLine
 10
131.95000000000081
 20
10.80000000000657
 11
131.95000000000081
 21
11.00000000000639
  0
LINE
  5
F6
100
AcDbEntity
  8
1
  6
CONTINUOUS
 62
             3
100
AcDbLine
 10
129.05000000000049
 20
10.80000000000635
 11
129.05000000000049
 21
11.00000000000639
  0
LINE
  5
F5
100
AcDbEntity
  8
1
  6
CONTINUOUS
 62
             3
100
AcDbLine
 10
129.05000000000049
 20
11.00000000000639
 11
128.05000000000049
 21
11.00000000000639
  0
LINE
  5
F4
100
AcDbEntity
  8
1
  6
CONTINUOUS
 62
             3
100
AcDbLine
 10
128.05000000000049
 20
11.00000000000639
 11
128.05000000000049
 21
10.80000000000635
  0
LINE
  5
F3
100
AcDbEntity
  8
1
  6
CONTINUOUS
 62
             3
100
AcDbLine
 10
130.95000000000081
 20
29.19999999999439
 11
130.95000000000081
 21
28.99999999999457
  0
LINE
  5
F2
100
AcDbEntity
  8
1
  6
CONTINUOUS
 62
             3
100
AcDbLine
 10
130.95000000000081
 20
28.99999999999457
 11
131.95000000000081
 21
28.99999999999457
  0
LINE
  5
F1
100
AcDbEntity
  8
1
  6
CONTINUOUS
 62
             3
100
AcDbLine
 10
131.95000000000081
 20
28.99999999999457
 11
131.95000000000081
 21
29.19999999999439
  0
LINE
  5
F0
100
AcDbEntity
  8
1
  6
CONTINUOUS
 62
             3
100
AcDbLine
 10
129.05000000000049
 20
28.99999999999445
 11
129.05000000000049
 21
29.19999999999439
  0
LINE
  5
EF
100
AcDbEntity
  8
1
  6
CONTINUOUS
 62
             3
100
AcDbLine
 10
128.05000000000049
 20
28.99999999999445
 11
129.05000000000049
 21
28.99999999999445
  0
LINE
  5
EE
100
AcDbEntity
  8
1
  6
CONTINUOUS
 62
             3
100
AcDbLine
 10
128.05000000000049
 20
29.19999999999439
 11
128.05000000000049
 21
28.99999999999445
  0
LINE
  5
ED
100
AcDbEntity
  8
0
  6
CONTINUOUS
 62
             3
100
AcDbLine
 10
128.25000000000031
 20
36.74999976763891
 11
128.25000000000031
 21
37.29999976763887
  0
LINE
  5
EC
100
AcDbEntity
  8
0
  6
CONTINUOUS
 62
             3
100
AcDbLine
 10
131.75000000000139
 20
37.29999976763887
 11
131.75000000000131
 21
36.74999976763891
  0
LINE
  5
EB
100
AcDbEntity
  8
1
  6
CONTINUOUS
 62
             3
100
AcDbLine
 10
128.25000000000031
 20
36.74999976763891
 11
129.00000000000071
 21
36.74999976763891
  0
LINE
  5
EA
100
AcDbEntity
  8
1
  6
CONTINUOUS
 62
             3
100
AcDbLine
 10
131.75000000000139
 20
37.29999976763887
 11
131.0000000000008
 21
37.29999976763887
  0
LINE
  5
E9
100
AcDbEntity
  8
1
  6
CONTINUOUS
 62
             3
100
AcDbLine
 10
129.0000000000008
 20
37.29999976763887
 11
129.0000000000006
 21
38.57309882598352
  0
LINE
  5
E8
100
AcDbEntity
  8
1
  6
CONTINUOUS
 62
             3
100
AcDbLine
 10
129.0000000000008
 20
37.29999976763887
 11
128.25000000000031
 21
37.29999976763887
  0
LINE
  5
E7
100
AcDbEntity
  8
1
  6
CONTINUOUS
 62
             3
100
AcDbLine
 10
131.0000000000008
 20
37.29999976763887
 11
131.0000000000008
 21
38.57309882598352
  0
LINE
  5
E6
100
AcDbEntity
  8
1
  6
CONTINUOUS
 62
             3
100
AcDbLine
 10
131.0000000000008
 20
37.29999976763887
 11
129.0000000000008
 21
37.29999976763887
  0
LINE
  5
E5
100
AcDbEntity
  8
1
  6
CONTINUOUS
 62
             3
100
AcDbLine
 10
129.00000000000071
 20
36.74999976763891
 11
129.00000000000071
 21
29.19999999999439
  0
LINE
  5
E4
100
AcDbEntity
  8
1
  6
CONTINUOUS
 62
             3
100
AcDbLine
 10
129.00000000000071
 20
36.74999976763891
 11
129.50000000000099
 21
36.74999976763891
  0
LINE
  5
E3
100
AcDbEntity
  8
1
  6
CONTINUOUS
 62
             3
100
AcDbLine
 10
131.00000000000071
 20
36.74999976763891
 11
131.0000000000008
 21
29.19999999999502
  0
LINE
  5
E2
100
AcDbEntity
  8
1
  6
CONTINUOUS
 62
             3
100
AcDbLine
 10
131.00000000000071
 20
36.74999976763891
 11
131.75000000000131
 21
36.74999976763891
  0
LINE
  5
E1
100
AcDbEntity
  8
1
  6
CONTINUOUS
 62
             3
100
AcDbLine
 10
126.2500000000007
 20
36.78622947537022
 11
126.2500000000007
 21
29.19999999999439
  0
LINE
  5
E0
100
AcDbEntity
  8
1
  6
CONTINUOUS
 62
             3
100
AcDbLine
 10
126.2500000000007
 20
29.19999999999439
 11
133.7500000000008
 21
29.19999999999439
  0
LINE
  5
DF
100
AcDbEntity
  8
1
  6
CONTINUOUS
 62
             3
100
AcDbLine
 10
133.7500000000008
 20
29.19999999999439
 11
133.7500000000008
 21
36.78622947537022
  0
LINE
  5
DE
100
AcDbEntity
  8
0
  6
CONTINUOUS
 62
             3
100
AcDbLine
 10
126.25000000000151
 20
38.21805423199115
 11
126.2500000000007
 21
36.78622947537022
  0
LINE
  5
DD
100
AcDbEntity
  8
0
  6
CONTINUOUS
 62
             3
100
AcDbLine
 10
133.75000000000139
 20
38.21805423199047
 11
133.7500000000008
 21
36.78622947537022
  0
LINE
  5
DC
100
AcDbEntity
  8
1
  6
CONTINUOUS
 62
             3
100
AcDbLine
 10
126.2499999999994
 20
10.80000000000657
 11
126.2500000000008
 21
3.21377052463074
  0
LINE
  5
DB
100
AcDbEntity
  8
1
  6
CONTINUOUS
 62
             3
100
AcDbLine
 10
133.74999999999969
 20
3.21377052463074
 11
133.74999999999969
 21
10.80000000000657
  0
LINE
  5
DA
100
AcDbEntity
  8
1
  6
CONTINUOUS
 62
             3
100
AcDbLine
 10
133.74999999999969
 20
10.80000000000657
 11
126.2499999999994
 21
10.80000000000657
  0
LINE
  5
D9
100
AcDbEntity
  8
1
  6
CONTINUOUS
 62
             3
100
AcDbLine
 10
128.99999999999969
 20
3.25000023236205
 11
128.99999999999969
 21
10.80000000000657
  0
LINE
  5
D8
100
AcDbEntity
  8
1
  6
CONTINUOUS
 62
             3
100
AcDbLine
 10
130.99999999999969
 20
3.25000023236205
 11
130.99999999999969
 21
10.80000000000657
  0
LINE
  5
D7
100
AcDbEntity
  8
1
  6
CONTINUOUS
 62
             3
100
AcDbLine
 10
128.9999999999996
 20
2.7000002323621
 11
128.9999999999996
 21
1.42690117401756
  0
LINE
  5
D6
100
AcDbEntity
  8
1
  6
CONTINUOUS
 62
             3
100
AcDbLine
 10
130.9999999999996
 20
2.7000002323621
 11
130.99999999999969
 21
1.42690117401756
  0
LINE
  5
D5
100
AcDbEntity
  8
0
  6
CONTINUOUS
 62
             3
100
AcDbLine
 10
126.5000000000006
 20
1.73226888746947
 11
126.5000000000021
 21
3.15986935918434
  0
LINE
  5
D4
100
AcDbEntity
  8
0
  6
CONTINUOUS
 62
             3
100
AcDbLine
 10
133.5000000000006
 20
1.73226888746924
 11
133.5000000000021
 21
3.15986935918548
  0
LINE
  5
D3
100
AcDbEntity
  8
1
  6
CONTINUOUS
 62
             2
100
AcDbLine
 10
131.2500000000008
 20
37.29999976763887
 11
131.2500000000008
 21
36.79999976763887
  0
LINE
  5
D2
100
AcDbEntity
  8
1
  6
CONTINUOUS
 62
             2
100
AcDbLine
 10
128.7500000000008
 20
37.29999976763887
 11
128.7500000000008
 21
36.79999976763887
  0
LINE
  5
D1
100
AcDbEntity
  8
1
  6
CONTINUOUS
 62
             3
100
AcDbLine
 10
131.75000000000139
 20
37.29999976763887
 11
131.7500000000008
 21
36.79999976763887
  0
LINE
  5
D0
100
AcDbEntity
  8
1
  6
CONTINUOUS
 62
             3
100
AcDbLine
 10
131.7500000000008
 20
36.79999976763887
 11
128.2500000000008
 21
36.79999976763887
  0
LINE
  5
CF
100
AcDbEntity
  8
1
  6
CONTINUOUS
 62
             3
100
AcDbLine
 10
128.2500000000008
 20
36.79999976763887
 11
128.25000000000031
 21
37.29999976763887
  0
LINE
  5
CE
100
AcDbEntity
  8
1
  6
CONTINUOUS
 62
             3
100
AcDbLine
 10
130.50000000000099
 20
36.79999976763887
 11
130.50000000000099
 21
36.59999976763893
  0
LINE
  5
CD
100
AcDbEntity
  8
1
  6
CONTINUOUS
 62
             3
100
AcDbLine
 10
130.50000000000099
 20
36.59999976763893
 11
129.50000000000099
 21
36.59999976763893
  0
LINE
  5
CC
100
AcDbEntity
  8
1
  6
CONTINUOUS
 62
             3
100
AcDbLine
 10
129.50000000000099
 20
36.59999976763893
 11
129.50000000000099
 21
36.79999976763887
  0
LINE
  5
CB
100
AcDbEntity
  8
1
  6
CONTINUOUS
 62
             3
100
AcDbLine
 10
130.50000000000099
 20
36.74999976763891
 11
131.00000000000071
 21
36.74999976763891
  0
LINE
  5
CA
100
AcDbEntity
  8
1
  6
CONTINUOUS
 62
             1
100
AcDbLine
 10
141.56456430550051
 20
31.56456430550022
 11
138.28111699246219
 21
28.28111699246201
  0
LINE
  5
C9
100
AcDbEntity
  8
1
  6
CONTINUOUS
 62
             1
100
AcDbLine
 10
121.7188830075394
 20
28.28111699246201
 11
118.43543569450109
 21
31.56456430550022
  0
LINE
  5
C8
100
AcDbEntity
  8
1
  6
CONTINUOUS
 62
             1
100
AcDbLine
 10
138.28111699246219
 20
11.71888300753883
 11
141.56456430550051
 21
8.43543569450074
  0
LINE
  5
C7
100
AcDbEntity
  8
1
  6
CONTINUOUS
 62
             1
100
AcDbLine
 10
118.43543569450109
 20
8.43543569450074
 11
121.7188830075394
 21
11.71888300753883
  0
LINE
  5
C6
100
AcDbEntity
  8
1
  6
CONTINUOUS
 62
             2
100
AcDbLine
 10
134.7500000000008
 20
37.9832561011556
 11
134.7500000000008
 21
36.94690237182047
  0
LINE
  5
C5
100
AcDbEntity
  8
1
  6
CONTINUOUS
 62
             2
100
AcDbLine
 10
125.2500000000007
 20
37.9832561011556
 11
125.2500000000007
 21
36.9469023718207
  0
LINE
  5
C4
100
AcDbEntity
  8
1
  6
CONTINUOUS
 62
             2
100
AcDbLine
 10
125.5000000000019
 20
2.98500661181449
 11
125.5000000000008
 21
1.95256250877392
  0
LINE
  5
C3
100
AcDbEntity
  8
1
  6
CONTINUOUS
 62
             2
100
AcDbLine
 10
134.5000000000019
 20
2.98500661181518
 11
134.5000000000008
 21
1.95256250877381
  0
LINE
  5
C2
100
AcDbEntity
  8
0
  6
CONTINUOUS
 62
             3
100
AcDbLine
 10
128.25000000000031
 20
2.70000023236198
 11
128.25000000000031
 21
3.25000023236194
  0
LINE
  5
C1
100
AcDbEntity
  8
0
  6
CONTINUOUS
 62
             3
100
AcDbLine
 10
131.75000000000131
 20
3.25000023236194
 11
131.75000000000139
 21
2.70000023236198
  0
LINE
  5
C0
100
AcDbEntity
  8
1
  6
CONTINUOUS
 62
             3
100
AcDbLine
 10
128.99999999999969
 20
3.25000023236205
 11
128.25000000000031
 21
3.25000023236194
  0
LINE
  5
BF
100
AcDbEntity
  8
1
  6
CONTINUOUS
 62
             3
100
AcDbLine
 10
130.9999999999996
 20
2.7000002323621
 11
131.75000000000139
 21
2.70000023236198
  0
LINE
  5
BE
100
AcDbEntity
  8
1
  6
CONTINUOUS
 62
             3
100
AcDbLine
 10
128.25000000000031
 20
2.70000023236198
 11
128.9999999999996
 21
2.7000002323621
  0
LINE
  5
BD
100
AcDbEntity
  8
1
  6
CONTINUOUS
 62
             3
100
AcDbLine
 10
128.9999999999996
 20
2.7000002323621
 11
130.9999999999996
 21
2.7000002323621
  0
LINE
  5
BC
100
AcDbEntity
  8
1
  6
CONTINUOUS
 62
             3
100
AcDbLine
 10
129.50000000000099
 20
3.25000023236194
 11
128.99999999999969
 21
3.25000023236205
  0
LINE
  5
BB
100
AcDbEntity
  8
1
  6
CONTINUOUS
 62
             3
100
AcDbLine
 10
131.75000000000131
 20
3.25000023236194
 11
130.99999999999969
 21
3.25000023236205
  0
LINE
  5
BA
100
AcDbEntity
  8
1
  6
CONTINUOUS
 62
             2
100
AcDbLine
 10
131.2500000000008
 20
3.20000023236198
 11
131.2500000000008
 21
2.70000023236198
  0
LINE
  5
B9
100
AcDbEntity
  8
1
  6
CONTINUOUS
 62
             2
100
AcDbLine
 10
128.7500000000008
 20
3.20000023236187
 11
128.7500000000008
 21
2.70000023236187
  0
LINE
  5
B8
100
AcDbEntity
  8
1
  6
CONTINUOUS
 62
             3
100
AcDbLine
 10
131.7500000000008
 20
3.20000023236198
 11
131.75000000000139
 21
2.70000023236198
  0
LINE
  5
B7
100
AcDbEntity
  8
1
  6
CONTINUOUS
 62
             3
100
AcDbLine
 10
128.2500000000008
 20
3.20000023236187
 11
131.7500000000008
 21
3.20000023236198
  0
LINE
  5
B6
100
AcDbEntity
  8
1
  6
CONTINUOUS
 62
             3
100
AcDbLine
 10
128.25000000000031
 20
2.70000023236198
 11
128.2500000000008
 21
3.20000023236187
  0
LINE
  5
B5
100
AcDbEntity
  8
1
  6
CONTINUOUS
 62
             3
100
AcDbLine
 10
130.50000000000099
 20
3.40000023236192
 11
130.50000000000099
 21
3.20000023236198
  0
LINE
  5
B4
100
AcDbEntity
  8
1
  6
CONTINUOUS
 62
             3
100
AcDbLine
 10
129.50000000000099
 20
3.40000023236192
 11
130.50000000000099
 21
3.40000023236192
  0
LINE
  5
B3
100
AcDbEntity
  8
1
  6
CONTINUOUS
 62
             3
100
AcDbLine
 10
129.50000000000099
 20
3.20000023236187
 11
129.50000000000099
 21
3.40000023236192
  0
LINE
  5
B2
100
AcDbEntity
  8
1
  6
CONTINUOUS
 62
             3
100
AcDbLine
 10
130.99999999999969
 20
3.25000023236205
 11
130.50000000000099
 21
3.25000023236194
  0
LINE
  5
B1
100
AcDbEntity
  8
1
  6
CONTINUOUS
 62
             1
100
AcDbLine
 10
108.1943755399991
 20
20.00000000000048
 11
152.2563930626865
 21
20.00000000000048
  0
LINE
  5
B0
100
AcDbEntity
  8
1
  6
CONTINUOUS
 62
             1
100
AcDbLine
 10
130.0000000000008
 20
-1.8056244600011
 11
130.0000000000008
 21
42.25639306268616
  0
LINE
  5
AF
100
AcDbEntity
  8
1
  6
CONTINUOUS
 62
             3
100
AcDbLine
 10
140.22562368251701
 20
33.74214758701604
 11
141.17251335570731
 21
34.870606756831
  0
LINE
  5
AE
100
AcDbEntity
  8
1
  6
CONTINUOUS
 62
             3
100
AcDbLine
 10
141.75771256875501
 20
32.45657236764285
 11
142.70460224194531
 21
33.58503153745781
  0
LINE
  5
AD
100
AcDbEntity
  8
1
  6
CONTINUOUS
 62
             3
100
AcDbLine
 10
141.75771256875501
 20
32.45657236764285
 11
140.22562368251701
 21
33.74214758701604
  0
LINE
  5
AC
100
AcDbEntity
  8
1
  6
CONTINUOUS
 62
             3
100
AcDbLine
 10
118.8274866442941
 20
34.870606756831
 11
119.7743763174846
 21
33.74214758701604
  0
LINE
  5
AB
100
AcDbEntity
  8
1
  6
CONTINUOUS
 62
             3
100
AcDbLine
 10
117.2953977580562
 20
33.58503153745781
 11
118.2422874312466
 21
32.45657236764285
  0
LINE
  5
AA
100
AcDbEntity
  8
1
  6
CONTINUOUS
 62
             3
100
AcDbLine
 10
119.7743763174846
 20
33.74214758701604
 11
118.2422874312466
 21
32.45657236764285
  0
LINE
  5
A9
100
AcDbEntity
  8
1
  6
CONTINUOUS
 62
             3
100
AcDbLine
 10
141.17251335570731
 20
5.12939324317008
 11
140.22562368251701
 21
6.25785241298493
  0
LINE
  5
A8
100
AcDbEntity
  8
1
  6
CONTINUOUS
 62
             3
100
AcDbLine
 10
142.70460224194531
 20
6.41496846254315
 11
141.75771256875501
 21
7.54342763235811
  0
LINE
  5
A7
100
AcDbEntity
  8
1
  6
CONTINUOUS
 62
             3
100
AcDbLine
 10
140.22562368251701
 20
6.25785241298493
 11
141.75771256875501
 21
7.54342763235811
  0
LINE
  5
A6
100
AcDbEntity
  8
1
  6
CONTINUOUS
 62
             3
100
AcDbLine
 10
119.7743763174846
 20
6.25785241298493
 11
118.8274866442941
 21
5.12939324317008
  0
LINE
  5
A5
100
AcDbEntity
  8
1
  6
CONTINUOUS
 62
             3
100
AcDbLine
 10
118.2422874312466
 20
7.54342763235811
 11
117.2953977580562
 21
6.41496846254315
  0
LINE
  5
A4
100
AcDbEntity
  8
1
  6
CONTINUOUS
 62
             3
100
AcDbLine
 10
118.2422874312466
 20
7.54342763235811
 11
119.7743763174846
 21
6.25785241298493
  0
LINE
  5
A3
100
AcDbEntity
  8
1
  6
CONTINUOUS
 62
             1
100
AcDbLine
 10
127.751049042681
 20
37.04999976764341
 11
132.25317550374501
 21
37.04999976763829
  0
LINE
  5
A2
100
AcDbEntity
  8
1
  6
CONTINUOUS
 62
             1
100
AcDbLine
 10
132.25317550374501
 20
2.95000023236267
 11
127.751049042681
 21
2.95000023235755
  0
LINE
  5
A1
100
AcDbEntity
  8
1
  6
CONTINUOUS
 62
             3
100
AcDbLine
 10
36.5
 20
38.21804153555613
 11
37.5
 21
37.9832561011556
  0
POINT
  5
A0
100
AcDbEntity
  8
1
 62
             3
 60
             1
100
AcDbPoint
 10
-26.40000000000008
 20
8.87384278419617
  0
POINT
  5
9F
100
AcDbEntity
  8
1
 62
             3
 60
             1
100
AcDbPoint
 10
23.59999999999991
 20
8.87384278419617
  0
POINT
  5
9E
100
AcDbEntity
  8
1
 62
             3
 60
             1
100
AcDbPoint
 10
23.59999999999991
 20
7.67966743402098
  0
POINT
  5
9D
100
AcDbEntity
  8
1
 62
             3
 60
             1
100
AcDbPoint
 10
-26.40000000000008
 20
7.67966743402098
  0
POINT
  5
9C
100
AcDbEntity
  8
1
 62
             3
 60
             1
100
AcDbPoint
 10
-26.40000000000011
 20
7.30645586954449
  0
POINT
  5
9B
100
AcDbEntity
  8
1
 62
             3
 60
             1
100
AcDbPoint
 10
38.19999999999999
 20
3.20000023235497
  0
POINT
  5
9A
100
AcDbEntity
  8
1
 62
             3
 60
             1
100
AcDbPoint
 10
37.50000000000006
 20
3.20000023235497
  0
POINT
  5
99
100
AcDbEntity
  8
1
 62
             3
 60
             1
100
AcDbPoint
 10
37.50000000000006
 20
1.95256250877344
  0
POINT
  5
98
100
AcDbEntity
  8
1
 62
             3
 60
             1
100
AcDbPoint
 10
36.50000000000006
 20
1.73226888746183
  0
POINT
  5
97
100
AcDbEntity
  8
1
 62
             3
 60
             1
100
AcDbPoint
 10
46.78800145276795
 20
20.0
  0
POINT
  5
96
100
AcDbEntity
  8
1
 62
             3
 60
             1
100
AcDbPoint
 10
38.19999999999999
 20
36.79999976764503
  0
POINT
  5
95
100
AcDbEntity
  8
1
 62
             3
 60
             1
100
AcDbPoint
 10
130.0000000000008
 20
24.00000000000048
  0
POINT
  5
94
100
AcDbEntity
  8
1
 62
             3
 60
             1
100
AcDbPoint
 10
127.751049042681
 20
37.04999976764341
  0
POINT
  5
93
100
AcDbEntity
  8
1
 62
             3
 60
             1
100
AcDbPoint
 10
132.25317550374501
 20
37.04999976763829
  0
POINT
  5
92
100
AcDbEntity
  8
1
 62
             3
 60
             1
100
AcDbPoint
 10
127.751049042681
 20
2.95000023235755
  0
POINT
  5
91
100
AcDbEntity
  8
1
 62
             3
 60
             1
100
AcDbPoint
 10
132.25317550374501
 20
2.95000023236267
  0
POINT
  5
90
100
AcDbEntity
  8
1
 62
             3
 60
             1
100
AcDbPoint
 10
36.5
 20
38.21804153555613
  0
INSERT
  5
29
100
AcDbEntity
  8
1
100
AcDbBlockReference
  2
_____V______
 10
20.89049773165964
 20
-84.75000000000003
 41
2.0
 42
2.0
 43
2.0
  0
SOLID
  5
16C
100
AcDbEntity
  8
1
 62
             2
100
AcDbTrace
 10
132.9762281261722
 20
-0.56039064750144
 11
132.07765326968905
 21
-0.76496301422095
 12
131.7500000000008
 22
2.75000000000051
 13
131.7500000000008
 23
2.75000000000051
  0
SOLID
  5
16E
100
AcDbEntity
  8
1
 62
             2
100
AcDbTrace
 10
127.02377187382938
 20
40.56039064750308
 11
127.92234673031254
 21
40.7649630142226
 12
128.2500000000008
 22
37.25000000000114
 13
128.2500000000008
 23
37.25000000000114
  0
SOLID
  5
170
100
AcDbEntity
  8
1
 62
             2
100
AcDbTrace
 10
-13.46415362072957
 20
41.34905042583823
 11
-12.81250700410021
 21
42.00069704246758
 12
-10.66345657826197
 22
39.19999999999999
 13
-10.66345657826197
 23
39.19999999999999
  0
SOLID
  5
172
100
AcDbEntity
  8
1
 62
             2
100
AcDbTrace
 10
-130.8159212541602
 20
36.64918665455451
 11
-130.02988966544683
 21
36.16810353546419
 12
-132.25
 22
33.42339375865856
 13
-132.25
 23
33.42339375865856
  0
ENDSEC
  0
SECTION
  2
OBJECTS
  0
DICTIONARY
  5
19
100
AcDbDictionary
  3
ACAD_GROUP
350
1A
  3
ACAD_MLINESTYLE
350
1B
  0
DICTIONARY
  5
1A
102
{ACAD_REACTORS
330
19
102
}
100
AcDbDictionary
  0
DICTIONARY
  5
1B
102
{ACAD_REACTORS
330
19
102
}
100
AcDbDictionary
  3
STANDARD
350
1C
  0
MLINESTYLE
  5
1C
102
{ACAD_REACTORS
330
1B
102
}
100
AcDbMlineStyle
  2
STANDARD
 70
             0
  3

 62
             0
 51
90.0
 52
90.0
 71
             2
 49
0.5
 62
           256
  6
BYLAYER
 49
-0.5
 62
           256
  6
BYLAYER
  0
ENDSEC
  0
EOF
