  0
SECTION
  2
HEADER
  9
$ACADVER
  1
AC1014
  9
$ACADMAINTVER
 70
             0
  9
$DWGCODEPAGE
  3
ANSI_1252
  9
$INSBASE
 10
0.0
 20
0.0
 30
0.0
  9
$EXTMIN
 10
-174.610424759117
 20
-112.1675251999997
 30
0.0
  9
$EXTMAX
 10
163.4705744347965
 20
74.24062500000002
 30
0.0
  9
$LIMMIN
 10
0.0
 20
0.0
  9
$LIMMAX
 10
0.0
 20
0.0
  9
$ORTHOMODE
 70
             0
  9
$REGENMODE
 70
             1
  9
$FILLMODE
 70
             1
  9
$QTEXTMODE
 70
             0
  9
$MIRRTEXT
 70
             1
  9
$DRAGMODE
 70
             2
  9
$LTSCALE
 40
1.0
  9
$OSMODE
 70
             0
  9
$ATTMODE
 70
             1
  9
$TEXTSIZE
 40
0.2
  9
$TRACEWID
 40
0.05
  9
$TEXTSTYLE
  7
STANDARD
  9
$CLAYER
  8
0
  9
$CELTYPE
  6
CONTINUOUS
  9
$CECOLOR
 62
           256
  9
$CELTSCALE
 40
1.0
  9
$DELOBJ
 70
             1
  9
$DISPSILH
 70
             0
  9
$DIMSCALE
 40
1.0
  9
$DIMASZ
 40
0.18
  9
$DIMEXO
 40
0.0625
  9
$DIMDLI
 40
0.38
  9
$DIMRND
 40
0.0
  9
$DIMDLE
 40
0.0
  9
$DIMEXE
 40
0.18
  9
$DIMTP
 40
0.0
  9
$DIMTM
 40
0.0
  9
$DIMTXT
 40
0.18
  9
$DIMCEN
 40
0.09
  9
$DIMTSZ
 40
0.0
  9
$DIMTOL
 70
             0
  9
$DIMLIM
 70
             0
  9
$DIMTIH
 70
             1
  9
$DIMTOH
 70
             1
  9
$DIMSE1
 70
             0
  9
$DIMSE2
 70
             0
  9
$DIMTAD
 70
             0
  9
$DIMZIN
 70
             0
  9
$DIMBLK
  1

  9
$DIMASO
 70
             1
  9
$DIMSHO
 70
             1
  9
$DIMPOST
  1

  9
$DIMAPOST
  1

  9
$DIMALT
 70
             0
  9
$DIMALTD
 70
             2
  9
$DIMALTF
 40
25.4
  9
$DIMLFAC
 40
1.0
  9
$DIMTOFL
 70
             0
  9
$DIMTVP
 40
0.0
  9
$DIMTIX
 70
             0
  9
$DIMSOXD
 70
             0
  9
$DIMSAH
 70
             0
  9
$DIMBLK1
  1

  9
$DIMBLK2
  1

  9
$DIMSTYLE
  2
STANDARD
  9
$DIMCLRD
 70
             0
  9
$DIMCLRE
 70
             0
  9
$DIMCLRT
 70
             0
  9
$DIMTFAC
 40
1.0
  9
$DIMGAP
 40
0.09
  9
$DIMJUST
 70
             0
  9
$DIMSD1
 70
             0
  9
$DIMSD2
 70
             0
  9
$DIMTOLJ
 70
             1
  9
$DIMTZIN
 70
             0
  9
$DIMALTZ
 70
             0
  9
$DIMALTTZ
 70
             0
  9
$DIMFIT
 70
             3
  9
$DIMUPT
 70
             0
  9
$DIMUNIT
 70
             2
  9
$DIMDEC
 70
             4
  9
$DIMTDEC
 70
             4
  9
$DIMALTU
 70
             2
  9
$DIMALTTD
 70
             2
  9
$DIMTXSTY
  7
STANDARD
  9
$DIMAUNIT
 70
             0
  9
$LUNITS
 70
             2
  9
$LUPREC
 70
             4
  9
$SKETCHINC
 40
0.1
  9
$FILLETRAD
 40
0.0
  9
$AUNITS
 70
             0
  9
$AUPREC
 70
             0
  9
$MENU
  1
acad
  9
$ELEVATION
 40
0.0
  9
$PELEVATION
 40
0.0
  9
$THICKNESS
 40
0.0
  9
$LIMCHECK
 70
             0
  9
$BLIPMODE
 70
             1
  9
$CHAMFERA
 40
0.0
  9
$CHAMFERB
 40
0.0
  9
$CHAMFERC
 40
0.0
  9
$CHAMFERD
 40
0.0
  9
$SKPOLY
 70
             0
  9
$TDCREATE
 40
0.000000000
  9
$TDUPDATE
 40
0.000000000
  9
$TDINDWG
 40
0.0000000000
  9
$TDUSRTIMER
 40
0.0000000000
  9
$USRTIMER
 70
             1
  9
$ANGBASE
 50
0.0
  9
$ANGDIR
 70
             0
  9
$PDMODE
 70
             0
  9
$PDSIZE
 40
0.0
  9
$PLINEWID
 40
0.0
  9
$COORDS
 70
             0
  9
$SPLFRAME
 70
             0
  9
$SPLINETYPE
 70
             6
  9
$SPLINESEGS
 70
             8
  9
$ATTDIA
 70
             0
  9
$ATTREQ
 70
             1
  9
$HANDLING
 70
             1
  9
$HANDSEED
  5
29E
  9
$SURFTAB1
 70
             6
  9
$SURFTAB2
 70
             6
  9
$SURFTYPE
 70
             6
  9
$SURFU
 70
             6
  9
$SURFV
 70
             6
  9
$UCSNAME
  2

  9
$UCSORG
 10
0.0
 20
0.0
 30
0.0
  9
$UCSXDIR
 10
1.0
 20
0.0
 30
0.0
  9
$UCSYDIR
 10
0.0
 20
1.0
 30
0.0
  9
$PUCSNAME
  2

  9
$PUCSORG
 10
0.0
 20
0.0
 30
0.0
  9
$PUCSXDIR
 10
1.0
 20
0.0
 30
0.0
  9
$PUCSYDIR
 10
0.0
 20
1.0
 30
0.0
  9
$USERI1
 70
             0
  9
$USERI2
 70
             0
  9
$USERI3
 70
             0
  9
$USERI4
 70
             0
  9
$USERI5
 70
             0
  9
$USERR1
 40
12.01
  9
$USERR2
 40
0.0
  9
$USERR3
 40
0.0
  9
$USERR4
 40
0.0
  9
$USERR5
 40
0.0
  9
$WORLDVIEW
 70
             1
  9
$SHADEDGE
 70
             3
  9
$SHADEDIF
 70
            70
  9
$TILEMODE
 70
             1
  9
$MAXACTVP
 70
            16
  9
$PINSBASE
 10
0.0
 20
0.0
 30
0.0
  9
$PLIMCHECK
 70
             0
  9
$PEXTMIN
 10
1.00000000000000E+20
 20
1.00000000000000E+20
 30
1.00000000000000E+20
  9
$PEXTMAX
 10
-1.00000000000000E+20
 20
-1.00000000000000E+20
 30
-1.00000000000000E+20
  9
$PLIMMIN
 10
0.0
 20
0.0
  9
$PLIMMAX
 10
12.0
 20
9.0
  9
$UNITMODE
 70
             0
  9
$VISRETAIN
 70
             0
  9
$PLINEGEN
 70
             1
  9
$PSLTSCALE
 70
             0
  9
$TREEDEPTH
 70
          3020
  9
$PICKSTYLE
 70
             1
  9
$CMLSTYLE
  2
STANDARD
  9
$CMLJUST
 70
             0
  9
$CMLSCALE
 40
1.0
  9
$PROXYGRAPHICS
 70
             0
  9
$MEASUREMENT
 70
             1
  0
ENDSEC
  0
SECTION
  2
CLASSES
  0
CLASS
  1
LWPOLYLINE
  2
AcDbPolyline
  3
"AutoCAD"
 90
        0
280
             0
281
             1
  0
CLASS
  1
IMAGE
  2
AcDbRasterImage
  3
ISM
 90
      127
280
             0
281
             1
  0
CLASS
  1
OLE2FRAME
  2
AcDbOle2Frame
  3
""
 90
        0
280
             0
281
             1
  0
CLASS
  1
HATCH
  2
AcDbHatch
  3
"ACAD_SEDONA"
 90
        0
280
             0
281
             1
  0
CLASS
  1
DICTIONARYVAR
  2
AcDbDictionaryVar
  3
"AutoCAD"
 90
        0
280
             0
281
             0
  0
CLASS
  1
RASTERVARIABLES
  2
AcDbRasterVariables
  3
ISM
 90
        0
280
             0
281
             0
  0
CLASS
  1
IMAGEDEF
  2
AcDbRasterImageDef
  3
ISM
 90
        0
280
             0
281
             0
  0
CLASS
  1
IMAGEDEF_REACTOR
  2
AcDbRasterImageDefReactor
  3
ISM
 90
        1
280
             0
281
             0
  0
CLASS
  1
IDBUFFER
  2
AcDbIdBuffer
  3
"Acad"
 90
        0
280
             0
281
             0
  0
CLASS
  1
SPATIAL_FILTER
  2
AcDbSpatialFilter
  3
"Acad"
 90
        0
280
             0
281
             0
  0
CLASS
  1
XRECORD
  2
AcDbXrecord
  3
"<Built In>"
 90
        0
280
             0
281
             0
  0
CLASS
  1
SORTENTSTABLE
  2
AcDbSortentsTable
  3
"AutoCAD"
 90
        0
280
             0
281
             0
  0
CLASS
  1
LAYER_INDEX
  2
AcDbLayerIndex
  3
"Acad"
 90
        0
280
             0
281
             0
  0
CLASS
  1
SPATIAL_INDEX
  2
AcDbSpatialIndex
  3
"Acad"
 90
        0
280
             0
281
             0
  0
CLASS
  1
OBJECT_PTR
  2
CAseDLPNTableRecord
  3
"ASE-LPNTableRecord"
 90
        1
280
             0
281
             0
  0
CLASS
  1
LAYOUT
  2
AcDbLayout
  3
"AutoCAD 2000"
 90
        0
280
             0
281
             0
  0
CLASS
  1
PLOTSETTINGS
  2
AcDbPlotSettings
  3
"AutoCAD 2000"
 90
        0
280
             0
281
             0
  0
CLASS
  1
ACDBDICTIONARYWDFLT
  2
AcDbDictionaryWithDefault
  3
"AutoCAD 2000"
 90
        0
280
             0
281
             0
  0
CLASS
  1
ACDBPLACEHOLDER
  2
AcDbPlaceHolder
  3
"AutoCAD 2000"
 90
        0
280
             0
281
             0
  0
ENDSEC
  0
SECTION
  2
TABLES
  0
TABLE
  2
VPORT
  5
7
100
AcDbSymbolTable
 70
             1
  0
VPORT
  5
15
100
AcDbSymbolTableRecord
100
AcDbViewportTableRecord
  2
*ACTIVE
 70
             0
 10
0.0
 20
0.0
 11
1.0
 21
1.0
 12
-5.56992516216025
 22
-18.96345009999984
 13
0.0
 23
0.0
 14
1.0
 24
1.0
 15
0.0
 25
0.0
 16
0.0
 26
0.0
 36
1.0
 17
0.0
 27
0.0
 37
0.0
 40
232.04222340217362
 41
1.60267857142857
 42
50.0
 43
0.0
 44
0.0
 50
0.0
 51
0.0
 71
             0
 72
           100
 73
             1
 74
             1
 75
             0
 76
             0
 77
             0
 78
             0
  0
ENDTAB
  0
TABLE
  2
LTYPE
  5
4
100
AcDbSymbolTable
 70
            10
  0
LTYPE
  5
11
100
AcDbSymbolTableRecord
100
AcDbLinetypeTableRecord
  2
BYBLOCK
 70
            64
  3

 72
            65
 73
             0
 40
0.0
  0
LTYPE
  5
12
100
AcDbSymbolTableRecord
100
AcDbLinetypeTableRecord
  2
BYLAYER
 70
            64
  3

 72
            65
 73
             0
 40
0.0
  0
LTYPE
  5
13
100
AcDbSymbolTableRecord
100
AcDbLinetypeTableRecord
  2
CONTINUOUS
 70
            64
  3
Solid line
 72
            65
 73
             0
 40
0.0
  0
LTYPE
  5
1D
100
AcDbSymbolTableRecord
100
AcDbLinetypeTableRecord
  2
DASHED
 70
            64
  3
Dashed
 72
            65
 73
             2
 40
15.0
 49
7.0
 74
             0
 49
-8.0
 74
             0
  0
LTYPE
  5
1E
100
AcDbSymbolTableRecord
100
AcDbLinetypeTableRecord
  2
DOTTED
 70
            64
  3
Dotted
 72
            65
 73
             2
 40
1.0
 49
0.0
 74
             0
 49
-1.0
 74
             0
  0
LTYPE
  5
1F
100
AcDbSymbolTableRecord
100
AcDbLinetypeTableRecord
  2
DOT_CENTER
 70
            64
  3
Dot_Center
 72
            65
 73
             4
 40
14.0
 49
12.0
 74
             0
 49
-1.0
 74
             0
 49
0.0
 74
             0
 49
-1.0
 74
             0
  0
LTYPE
  5
20
100
AcDbSymbolTableRecord
100
AcDbLinetypeTableRecord
  2
LONG_DASHED
 70
            64
  3
Long_Dashed
 72
            65
 73
             2
 40
15.0
 49
10.0
 74
             0
 49
-5.0
 74
             0
  0
LTYPE
  5
21
100
AcDbSymbolTableRecord
100
AcDbLinetypeTableRecord
  2
DASH_CENTER
 70
            64
  3
Dash_Center
 72
            65
 73
             4
 40
14.0
 49
11.0
 74
             0
 49
-1.0
 74
             0
 49
1.0
 74
             0
 49
-1.0
 74
             0
  0
LTYPE
  5
22
100
AcDbSymbolTableRecord
100
AcDbLinetypeTableRecord
  2
PHANTOM
 70
            64
  3
Phantom
 72
            65
 73
             6
 40
13.0
 49
10.0
 74
             0
 49
-1.0
 74
             0
 49
0.0
 74
             0
 49
-1.0
 74
             0
 49
0.0
 74
             0
 49
-1.0
 74
             0
  0
LTYPE
  5
23
100
AcDbSymbolTableRecord
100
AcDbLinetypeTableRecord
  2
CENTER_DASH_DASH
 70
            64
  3
Center_Dash_Dash
 72
            65
 73
             6
 40
14.0
 49
9.0
 74
             0
 49
-1.0
 74
             0
 49
1.0
 74
             0
 49
-1.0
 74
             0
 49
1.0
 74
             0
 49
-1.0
 74
             0
  0
ENDTAB
  0
TABLE
  2
LAYER
  5
2
100
AcDbSymbolTable
 70
             2
  0
LAYER
  5
14
100
AcDbSymbolTableRecord
100
AcDbLayerTableRecord
  2
0
 70
             0
 62
             7
  6
CONTINUOUS
  0
LAYER
  5
24
100
AcDbSymbolTableRecord
100
AcDbLayerTableRecord
  2
1
 70
             0
 62
             7
  6
CONTINUOUS
  0
ENDTAB
  0
TABLE
  2
STYLE
  5
3
100
AcDbSymbolTable
 70
             5
  0
STYLE
  5
17
100
AcDbSymbolTableRecord
100
AcDbTextStyleTableRecord
  2
STANDARD
 70
             0
 40
0.0
 41
1.0
 50
0.0
 71
             0
 42
0.0
  3
txt
  4

  0
STYLE
  5
4B
100
AcDbSymbolTableRecord
100
AcDbTextStyleTableRecord
  2
CONVERTER_1
 70
             0
 40
0.0
 41
0.72
 50
0.0
 71
             0
 42
0.0
  3
txt.shx
  4

  0
STYLE
  5
4D
100
AcDbSymbolTableRecord
100
AcDbTextStyleTableRecord
  2
CONVERTER_2
 70
             0
 40
0.0
 41
0.81
 50
0.0
 71
             0
 42
0.0
  3
txt.shx
  4

  0
STYLE
  5
54
100
AcDbSymbolTableRecord
100
AcDbTextStyleTableRecord
  2
CONVERTER_3
 70
             0
 40
0.0
 41
0.9
 50
0.0
 71
             0
 42
0.0
  3
txt.shx
  4

  0
STYLE
  5
204
100
AcDbSymbolTableRecord
100
AcDbTextStyleTableRecord
  2
CONVERTER_4
 70
             0
 40
0.0
 41
0.54
 50
0.0
 71
             0
 42
0.0
  3
txt.shx
  4

  0
ENDTAB
  0
TABLE
  2
VIEW
  5
5
100
AcDbSymbolTable
 70
             0
  0
ENDTAB
  0
TABLE
  2
UCS
  5
6
100
AcDbSymbolTable
 70
             0
  0
ENDTAB
  0
TABLE
  2
APPID
  5
8
100
AcDbSymbolTable
 70
             1
  0
APPID
  5
16
100
AcDbSymbolTableRecord
100
AcDbRegAppTableRecord
  2
ACAD
 70
             0
  0
ENDTAB
  0
TABLE
  2
DIMSTYLE
  5
9
100
AcDbSymbolTable
 70
            17
  0
DIMSTYLE
105
18
100
AcDbSymbolTableRecord
100
AcDbDimStyleTableRecord
  2
STANDARD
 70
             0
  3

  4

  5

  6

  7

 40
1.0
 41
0.18
 42
0.0625
 43
0.38
 44
0.18
 45
0.0
 46
0.0
 47
0.0
 48
0.0
 71
             0
 72
             0
 73
             1
 74
             1
 75
             0
 76
             0
 77
             0
 78
             0
140
0.18
141
0.09
142
0.0
143
25.4
144
1.0
145
0.0
146
1.0
147
0.09
170
             0
171
             2
172
             0
173
             0
174
             0
175
             0
176
             0
177
             0
178
             0
270
             2
271
             4
272
             4
273
             2
274
             2
275
             0
280
             0
281
             0
282
             0
283
             1
284
             0
285
             0
286
             0
287
             3
288
             0
340
17
  0
DIMSTYLE
105
5A
100
AcDbSymbolTableRecord
100
AcDbDimStyleTableRecord
  2
ME10_DIM_0
 70
             0
  3

  4

  5

  6
_NONE
  7
_NONE
 40
1.0
 41
0.0
 42
0.5
 43
0.38
 44
0.5
 45
0.0
 46
0.0
 47
0.0
 48
0.0
 71
             0
 72
             0
 73
             0
 74
             0
 75
             0
 76
             0
 77
             1
 78
             8
140
1.6
141
0.09
142
0.0
143
25.4
144
1.0
145
0.0
146
1.0
147
0.625
170
             0
171
             2
172
             1
173
             1
174
             0
175
             0
176
             2
177
             2
178
             2
270
             2
271
             3
272
             4
273
             2
274
             2
275
             0
280
             0
281
             0
282
             0
283
             1
284
             0
285
             0
286
             0
287
             3
288
             0
340
54
  0
DIMSTYLE
105
67
100
AcDbSymbolTableRecord
100
AcDbDimStyleTableRecord
  2
ME10_DIM_1
 70
             0
  3
2-<>~T0.5
  4

  5

  6

  7

 40
1.0
 41
1.6
 42
0.5
 43
0.38
 44
0.5
 45
0.0
 46
0.0
 47
0.0
 48
0.0
 71
             0
 72
             0
 73
             0
 74
             0
 75
             0
 76
             0
 77
             1
 78
             8
140
1.6
141
0.09
142
0.0
143
25.4
144
1.0
145
0.0
146
1.0
147
0.625
170
             0
171
             2
172
             1
173
             1
174
             0
175
             0
176
             2
177
             2
178
             2
270
             2
271
             3
272
             4
273
             2
274
             2
275
             0
280
             0
281
             0
282
             0
283
             1
284
             0
285
             0
286
             0
287
             3
288
             0
340
54
  0
DIMSTYLE
105
7C
100
AcDbSymbolTableRecord
100
AcDbDimStyleTableRecord
  2
ME10_DIM_2
 70
             0
  3

  4

  5

  6
_DOT
  7

 40
1.0
 41
1.6
 42
0.5
 43
0.38
 44
0.5
 45
0.0
 46
0.0
 47
0.0
 48
0.0
 71
             0
 72
             0
 73
             0
 74
             0
 75
             0
 76
             0
 77
             1
 78
             8
140
1.6
141
0.09
142
0.0
143
25.4
144
1.0
145
0.0
146
1.0
147
0.625
170
             0
171
             2
172
             1
173
             1
174
             0
175
             0
176
             2
177
             2
178
             2
270
             2
271
             3
272
             4
273
             2
274
             2
275
             0
280
             0
281
             0
282
             0
283
             1
284
             0
285
             0
286
             0
287
             3
288
             0
340
54
  0
DIMSTYLE
105
89
100
AcDbSymbolTableRecord
100
AcDbDimStyleTableRecord
  2
ME10_DIM_3
 70
             0
  3

  4

  5

  6

  7

 40
1.0
 41
1.6
 42
0.5
 43
0.38
 44
0.5
 45
0.0
 46
0.0
 47
0.0
 48
0.0
 71
             0
 72
             0
 73
             0
 74
             0
 75
             0
 76
             0
 77
             1
 78
             8
140
1.6
141
0.09
142
0.0
143
25.4
144
1.0
145
0.0
146
1.0
147
0.625
170
             0
171
             2
172
             1
173
             1
174
             0
175
             0
176
             2
177
             2
178
             2
270
             2
271
             3
272
             4
273
             2
274
             2
275
             0
280
             0
281
             0
282
             0
283
             1
284
             0
285
             0
286
             0
287
             3
288
             0
340
54
  0
DIMSTYLE
105
218
100
AcDbSymbolTableRecord
100
AcDbDimStyleTableRecord
  2
ME10_DIM_4
 70
             0
  3
(<>)
  4

  5

  6

  7

 40
1.0
 41
3.2
 42
1.0
 43
0.38
 44
1.0
 45
0.0
 46
0.0
 47
0.0
 48
0.0
 71
             0
 72
             0
 73
             0
 74
             0
 75
             0
 76
             0
 77
             1
 78
             8
140
3.2
141
0.09
142
0.0
143
25.4
144
1.0
145
0.0
146
1.0
147
0.625
170
             0
171
             2
172
             1
173
             1
174
             0
175
             0
176
             2
177
             2
178
             2
270
             2
271
             3
272
             4
273
             2
274
             2
275
             0
280
             0
281
             0
282
             0
283
             1
284
             0
285
             0
286
             0
287
             3
288
             0
340
54
  0
DIMSTYLE
105
223
100
AcDbSymbolTableRecord
100
AcDbDimStyleTableRecord
  2
ME10_DIM_5
 70
             0
  3
{\Fgdt;n}<>
  4

  5

  6

  7

 40
1.0
 41
3.2
 42
1.0
 43
0.38
 44
1.0
 45
0.0
 46
0.0
 47
0.0
 48
0.0
 71
             0
 72
             0
 73
             0
 74
             0
 75
             0
 76
             0
 77
             1
 78
             8
140
3.2
141
0.09
142
0.0
143
25.4
144
1.0
145
0.0
146
1.0
147
0.625
170
             0
171
             2
172
             1
173
             1
174
             0
175
             0
176
             2
177
             2
178
             2
270
             2
271
             3
272
             4
273
             2
274
             2
275
             0
280
             0
281
             0
282
             0
283
             1
284
             0
285
             0
286
             0
287
             3
288
             0
340
54
  0
DIMSTYLE
105
22E
100
AcDbSymbolTableRecord
100
AcDbDimStyleTableRecord
  2
ME10_DIM_6
 70
             0
  3
{\Fgdt;n}<>
  4

  5

  6

  7

 40
1.0
 41
3.2
 42
1.0
 43
0.38
 44
1.0
 45
0.0
 46
0.0
 47
0.0
 48
0.0
 71
             0
 72
             0
 73
             0
 74
             0
 75
             0
 76
             0
 77
             1
 78
             8
140
3.2
141
0.09
142
0.0
143
25.4
144
1.0
145
0.0
146
1.0
147
0.625
170
             0
171
             2
172
             1
173
             1
174
             0
175
             0
176
             2
177
             2
178
             2
270
             2
271
             3
272
             4
273
             2
274
             2
275
             0
280
             0
281
             0
282
             0
283
             1
284
             0
285
             0
286
             0
287
             3
288
             0
340
54
  0
DIMSTYLE
105
239
100
AcDbSymbolTableRecord
100
AcDbDimStyleTableRecord
  2
ME10_DIM_7
 70
             0
  3

  4

  5

  6

  7

 40
1.0
 41
3.2
 42
1.0
 43
0.38
 44
1.0
 45
0.0
 46
0.0
 47
0.3
 48
0.3
 71
             1
 72
             0
 73
             0
 74
             0
 75
             0
 76
             0
 77
             1
 78
             8
140
3.2
141
0.09
142
0.0
143
25.4
144
1.0
145
0.0
146
0.6
147
0.625
170
             0
171
             2
172
             1
173
             1
174
             0
175
             0
176
             2
177
             2
178
             2
270
             2
271
             3
272
             1
273
             2
274
             2
275
             0
280
             0
281
             0
282
             0
283
             1
284
             0
285
             0
286
             0
287
             3
288
             0
340
54
  0
DIMSTYLE
105
244
100
AcDbSymbolTableRecord
100
AcDbDimStyleTableRecord
  2
ME10_DIM_8
 70
             0
  3
 <>
  4

  5

  6

  7

 40
1.0
 41
3.2
 42
1.0
 43
0.38
 44
1.0
 45
0.0
 46
0.0
 47
0.0
 48
0.0
 71
             0
 72
             0
 73
             0
 74
             0
 75
             0
 76
             0
 77
             1
 78
             8
140
3.2
141
0.09
142
0.0
143
25.4
144
1.0
145
0.0
146
1.0
147
0.625
170
             0
171
             2
172
             1
173
             1
174
             0
175
             0
176
             2
177
             2
178
             2
270
             2
271
             3
272
             4
273
             2
274
             2
275
             0
280
             0
281
             0
282
             0
283
             1
284
             0
285
             0
286
             0
287
             3
288
             0
340
54
  0
DIMSTYLE
105
24F
100
AcDbSymbolTableRecord
100
AcDbDimStyleTableRecord
  2
ME10_DIM_9
 70
             0
  3

  4

  5

  6

  7

 40
1.0
 41
3.2
 42
1.0
 43
0.38
 44
1.0
 45
0.0
 46
0.0
 47
0.3
 48
0.3
 71
             1
 72
             0
 73
             0
 74
             0
 75
             0
 76
             0
 77
             1
 78
             8
140
3.2
141
0.09
142
0.0
143
25.4
144
1.0
145
0.0
146
0.6
147
0.625
170
             0
171
             2
172
             1
173
             1
174
             0
175
             0
176
             2
177
             2
178
             2
270
             2
271
             3
272
             1
273
             2
274
             2
275
             0
280
             0
281
             0
282
             0
283
             1
284
             0
285
             0
286
             0
287
             3
288
             0
340
54
  0
DIMSTYLE
105
25C
100
AcDbSymbolTableRecord
100
AcDbDimStyleTableRecord
  2
ME10_DIM_10
 70
             0
  3

  4

  5

  6

  7

 40
1.0
 41
3.2
 42
1.0
 43
0.38
 44
1.0
 45
0.0
 46
0.0
 47
0.0
 48
0.0
 71
             0
 72
             0
 73
             0
 74
             0
 75
             0
 76
             0
 77
             1
 78
             8
140
3.2
141
0.09
142
0.0
143
25.4
144
1.0
145
0.0
146
1.0
147
0.625
170
             0
171
             2
172
             1
173
             1
174
             0
175
             0
176
             2
177
             2
178
             2
270
             2
271
             3
272
             4
273
             2
274
             2
275
             0
280
             0
281
             0
282
             0
283
             1
284
             0
285
             0
286
             0
287
             3
288
             0
340
54
  0
DIMSTYLE
105
267
100
AcDbSymbolTableRecord
100
AcDbDimStyleTableRecord
  2
ME10_DIM_11
 70
             0
  3

  4

  5

  6

  7

 40
1.0
 41
3.2
 42
1.0
 43
0.38
 44
1.0
 45
0.0
 46
0.0
 47
0.0
 48
0.0
 71
             0
 72
             0
 73
             0
 74
             0
 75
             0
 76
             0
 77
             1
 78
             8
140
3.2
141
0.09
142
0.0
143
25.4
144
1.0
145
0.0
146
1.0
147
0.625
170
             0
171
             2
172
             1
173
             1
174
             0
175
             0
176
             2
177
             2
178
             2
270
             2
271
             3
272
             4
273
             2
274
             2
275
             0
280
             0
281
             0
282
             0
283
             1
284
             0
285
             0
286
             0
287
             3
288
             0
340
54
  0
DIMSTYLE
105
272
100
AcDbSymbolTableRecord
100
AcDbDimStyleTableRecord
  2
ME10_DIM_12
 70
             0
  3
{\Fgdt;n}<>
  4

  5

  6

  7

 40
1.0
 41
3.2
 42
1.0
 43
0.38
 44
1.0
 45
0.0
 46
0.0
 47
0.0
 48
-0.03
 71
             1
 72
             0
 73
             0
 74
             0
 75
             0
 76
             0
 77
             1
 78
             8
140
3.2
141
0.09
142
0.0
143
25.4
144
1.0
145
0.0
146
0.6
147
0.625
170
             0
171
             2
172
             1
173
             1
174
             0
175
             0
176
             2
177
             2
178
             2
270
             2
271
             3
272
             0
273
             2
274
             2
275
             0
280
             0
281
             0
282
             0
283
             1
284
             0
285
             0
286
             0
287
             3
288
             0
340
54
  0
DIMSTYLE
105
27D
100
AcDbSymbolTableRecord
100
AcDbDimStyleTableRecord
  2
ME10_DIM_13
 70
             0
  3

  4

  5

  6

  7

 40
1.0
 41
3.2
 42
1.0
 43
0.38
 44
1.0
 45
0.0
 46
0.0
 47
0.3
 48
0.3
 71
             1
 72
             0
 73
             0
 74
             0
 75
             0
 76
             0
 77
             1
 78
             8
140
3.2
141
0.09
142
0.0
143
25.4
144
1.0
145
0.0
146
0.6
147
0.625
170
             0
171
             2
172
             1
173
             1
174
             0
175
             0
176
             2
177
             2
178
             2
270
             2
271
             3
272
             1
273
             2
274
             2
275
             0
280
             0
281
             0
282
             0
283
             1
284
             0
285
             0
286
             0
287
             3
288
             0
340
54
  0
DIMSTYLE
105
288
100
AcDbSymbolTableRecord
100
AcDbDimStyleTableRecord
  2
ME10_DIM_14
 70
             0
  3
(<>)
  4

  5

  6

  7

 40
1.0
 41
3.2
 42
1.0
 43
0.38
 44
1.0
 45
0.0
 46
0.0
 47
0.0
 48
0.0
 71
             0
 72
             0
 73
             0
 74
             0
 75
             0
 76
             0
 77
             1
 78
             8
140
3.2
141
0.09
142
0.0
143
25.4
144
1.0
145
0.0
146
1.0
147
0.625
170
             0
171
             2
172
             1
173
             1
174
             0
175
             0
176
             2
177
             2
178
             2
270
             2
271
             3
272
             4
273
             2
274
             2
275
             0
280
             0
281
             0
282
             0
283
             1
284
             0
285
             0
286
             0
287
             3
288
             0
340
54
  0
DIMSTYLE
105
293
100
AcDbSymbolTableRecord
100
AcDbDimStyleTableRecord
  2
ME10_DIM_15
 70
             0
  3
{\Fgdt;n}<>
  4

  5

  6

  7

 40
1.0
 41
3.2
 42
1.0
 43
0.38
 44
1.0
 45
0.0
 46
0.0
 47
0.0
 48
0.0
 71
             0
 72
             0
 73
             0
 74
             0
 75
             0
 76
             0
 77
             1
 78
             8
140
3.2
141
0.09
142
0.0
143
25.4
144
1.0
145
0.0
146
1.0
147
0.625
170
             0
171
             2
172
             1
173
             1
174
             0
175
             0
176
             2
177
             2
178
             2
270
             2
271
             3
272
             4
273
             2
274
             2
275
             0
280
             0
281
             0
282
             0
283
             1
284
             0
285
             0
286
             0
287
             3
288
             0
340
54
  0
ENDTAB
  0
TABLE
  2
BLOCK_RECORD
  5
1
100
AcDbSymbolTable
 70
            21
  0
BLOCK_RECORD
  5
A
100
AcDbSymbolTableRecord
100
AcDbBlockTableRecord
  2
*MODEL_SPACE
  0
BLOCK_RECORD
  5
B
100
AcDbSymbolTableRecord
100
AcDbBlockTableRecord
  2
*PAPER_SPACE
  0
BLOCK_RECORD
  5
25
100
AcDbSymbolTableRecord
100
AcDbBlockTableRecord
  2
_____V______
  0
BLOCK_RECORD
  5
4F
100
AcDbSymbolTableRecord
100
AcDbBlockTableRecord
  2
*D1
  0
BLOCK_RECORD
  5
57
100
AcDbSymbolTableRecord
100
AcDbBlockTableRecord
  2
_NONE
  0
BLOCK_RECORD
  5
5C
100
AcDbSymbolTableRecord
100
AcDbBlockTableRecord
  2
*D3
  0
BLOCK_RECORD
  5
69
100
AcDbSymbolTableRecord
100
AcDbBlockTableRecord
  2
*D4
  0
BLOCK_RECORD
  5
74
100
AcDbSymbolTableRecord
100
AcDbBlockTableRecord
  2
_DOT
  0
BLOCK_RECORD
  5
7E
100
AcDbSymbolTableRecord
100
AcDbBlockTableRecord
  2
*D6
  0
BLOCK_RECORD
  5
8B
100
AcDbSymbolTableRecord
100
AcDbBlockTableRecord
  2
*D7
  0
BLOCK_RECORD
  5
20D
100
AcDbSymbolTableRecord
100
AcDbBlockTableRecord
  2
*D8
  0
BLOCK_RECORD
  5
21A
100
AcDbSymbolTableRecord
100
AcDbBlockTableRecord
  2
*D9
  0
BLOCK_RECORD
  5
225
100
AcDbSymbolTableRecord
100
AcDbBlockTableRecord
  2
*D10
  0
BLOCK_RECORD
  5
230
100
AcDbSymbolTableRecord
100
AcDbBlockTableRecord
  2
*D11
  0
BLOCK_RECORD
  5
23B
100
AcDbSymbolTableRecord
100
AcDbBlockTableRecord
  2
*D12
  0
BLOCK_RECORD
  5
246
100
AcDbSymbolTableRecord
100
AcDbBlockTableRecord
  2
*D13
  0
BLOCK_RECORD
  5
251
100
AcDbSymbolTableRecord
100
AcDbBlockTableRecord
  2
*D14
  0
BLOCK_RECORD
  5
25E
100
AcDbSymbolTableRecord
100
AcDbBlockTableRecord
  2
*D15
  0
BLOCK_RECORD
  5
269
100
AcDbSymbolTableRecord
100
AcDbBlockTableRecord
  2
*D16
  0
BLOCK_RECORD
  5
274
100
AcDbSymbolTableRecord
100
AcDbBlockTableRecord
  2
*D17
  0
BLOCK_RECORD
  5
27F
100
AcDbSymbolTableRecord
100
AcDbBlockTableRecord
  2
*D18
  0
BLOCK_RECORD
  5
28A
100
AcDbSymbolTableRecord
100
AcDbBlockTableRecord
  2
*D19
  0
BLOCK_RECORD
  5
295
100
AcDbSymbolTableRecord
100
AcDbBlockTableRecord
  2
*D20
  0
ENDTAB
  0
ENDSEC
  0
SECTION
  2
BLOCKS
  0
BLOCK
  5
D
100
AcDbEntity
  8
0
100
AcDbBlockBegin
  2
*MODEL_SPACE
 70
             0
 10
0.0
 20
0.0
 30
0.0
  3
*MODEL_SPACE
  1

  0
ENDBLK
  5
E
100
AcDbEntity
  8
0
100
AcDbBlockEnd
  0
BLOCK
  5
F
100
AcDbEntity
 67
             1
  8
0
100
AcDbBlockBegin
  2
*PAPER_SPACE
 70
             0
 10
0.0
 20
0.0
 30
0.0
  3
*PAPER_SPACE
  1

  0
ENDBLK
  5
10
100
AcDbEntity
 67
             1
  8
0
100
AcDbBlockEnd
  0
BLOCK
  5
26
100
AcDbEntity
  8
0
100
AcDbBlockBegin
  2
_____V______
 70
             0
 10
49.39524886579384
 20
-73.34927644553748
 30
0.0
  3
_____V______
  1

  0
DIMENSION
  5
8A
100
AcDbEntity
  8
1
100
AcDbDimension
  2
*D6
 10
61.04999999989198
 20
-47.9027859574819
 11
65.55486472089851
 21
-46.6027859574819
 31
0.0
 53
0.00013888888889
  1
<>
  3
ME10_DIM_3
100
AcDbAlignedDimension
 13
63.04999999989198
 23
-54.72427644553747
 14
61.04999999989198
 24
-54.17427644553717
100
AcDbRotatedDimension
  0
DIMENSION
  5
7D
100
AcDbEntity
  8
1
100
AcDbDimension
  2
*D4
 10
57.349999999964
 20
-43.83316961478697
 11
53.96265825428711
 21
-42.53316961478697
 31
0.0
 53
0.00013888888889
  1
<>
  3
ME10_DIM_2
100
AcDbAlignedDimension
 13
58.04999999996404
 23
-52.22433812620145
 14
57.34999999996398
 24
-48.83316961478697
100
AcDbRotatedDimension
  0
DIMENSION
  5
68
100
AcDbEntity
  8
1
100
AcDbDimension
  2
*D3
 10
70.54999999989197
 20
-54.22427644553747
 11
69.24999999989197
 21
-46.12977852317647
 31
0.0
 53
90.0
  1
<>
  3
ME10_DIM_1
100
AcDbAlignedDimension
 13
62.54999999989198
 23
-57.72427644553747
 14
62.54999999989198
 24
-54.22427644553747
 50
90.0
100
AcDbRotatedDimension
  0
DIMENSION
  5
5B
100
AcDbEntity
  8
1
100
AcDbDimension
  2
*D1
 10
58.04999999996404
 20
-43.83316961478697
 11
60.54999999992802
 21
-42.53316961478697
 31
0.0
 53
0.00013888888889
  1
<>
  3
ME10_DIM_0
100
AcDbAlignedDimension
 13
63.04999999989198
 23
-54.72427644553747
 14
58.04999999996404
 24
-52.22433812620145
100
AcDbRotatedDimension
  0
MTEXT
  5
4E
100
AcDbEntity
  8
1
 62
             2
100
AcDbMText
 10
60.049999999892
 20
-72.47427644553744
 30
0.0
 40
1.75
 41
0.0
 71
             5
 72
             1
  1
iQFPj
  7
CONVERTER_2
  0
MTEXT
  5
4C
100
AcDbEntity
  8
1
 62
             2
100
AcDbMText
 10
60.049999999892
 20
-69.67427644553746
 30
0.0
 40
1.75
 41
0.0
 71
             5
 72
             1
  1
cds`hk@cq`vhmf@@(+)A(-)@sdqlhm`k
  7
CONVERTER_1
  0
LEADER
  5
4A
100
AcDbEntity
  8
1
  6
CONTINUOUS
 62
             2
100
AcDbLeader
  3
Standard
 71
             0
 73
             3
 74
             0
 75
             0
 40
0.0
 76
             2
 10
62.54999999989198
 20
-43.83316961478697
 30
0.0
 10
65.34782273428252
 20
-43.83316961478697
 30
0.0
 77
             2
  0
XLINE
  5
48
100
AcDbEntity
  8
1
  6
DOT_CENTER
 62
             3
 60
             1
100
AcDbXline
 10
49.74999999989201
 20
-55.97427644553747
 30
0.0
 11
1.0
 21
0.0
 31
0.0
  0
SPLINE
  5
47
100
AcDbEntity
  8
1
  6
CONTINUOUS
 62
             2
100
AcDbSpline
210
0.0
220
0.0
230
1.0
 70
             0
 71
             3
 72
            11
 73
             7
 74
            11
 42
0.00000000001
 43
0.00000000001
 44
0.00000000001
 40
0.0
 40
0.0
 40
0.0
 40
0.0
 40
8.8172586376120421
 40
13.80450422862512
 40
17.652653168574769
 40
26.23093779383856
 40
26.23093779383856
 40
26.23093779383856
 40
26.23093779383856
 10
57.349999999963977
 20
-64.012489058437865
 30
0.0
 10
52.899658858464193
 20
-61.82711533500175
 30
0.0
 10
53.647388566922402
 20
-61.092546887838211
 30
0.0
 10
50.86183719151078
 20
-57.383734186712587
 30
0.0
 10
53.345747784729959
 20
-51.857764163768977
 30
0.0
 10
53.326603354318799
 20
-49.393885841506531
 30
0.0
 10
57.349999999963977
 20
-48.833169614786968
 30
0.0
 11
57.349999999963977
 21
-64.012489058437865
 31
0.0
 11
54.315574952784914
 21
-62.302891120511383
 31
0.0
 11
53.206068423427283
 21
-61.159697584655554
 31
0.0
 11
52.661109905661107
 21
-60.005187697447546
 31
0.0
 11
51.920537768967193
 21
-58.643067484044053
 31
0.0
 11
51.527860007080413
 21
-56.842530577234193
 31
0.0
 11
51.889142512459244
 21
-55.18579908536757
 31
0.0
 11
52.499217063006689
 21
-53.50067984695869
 31
0.0
 11
53.236340279849188
 21
-51.345892278803852
 31
0.0
 11
54.491013806575666
 21
-49.75782410768285
 31
0.0
 11
57.349999999963977
 21
-48.833169614786968
 31
0.0
  0
CIRCLE
  5
46
100
AcDbEntity
  8
1
  6
CONTINUOUS
 62
             3
100
AcDbCircle
 10
61.04999999989198
 20
-55.97427644553747
 40
1.0
  0
LINE
  5
45
100
AcDbEntity
  8
1
  6
CONTINUOUS
 62
             3
100
AcDbLine
 10
58.54999999996404
 20
-57.72427644553747
 11
58.04999999996404
 21
-57.41460667510594
  0
LINE
  5
44
100
AcDbEntity
  8
1
  6
CONTINUOUS
 62
             3
100
AcDbLine
 10
58.04999999996404
 20
-54.53394621596917
 11
58.54999999996404
 21
-54.22427644553747
  0
LINE
  5
43
100
AcDbEntity
  8
1
  6
CONTINUOUS
 62
             3
100
AcDbLine
 10
52.91433484835477
 20
-52.22429287316726
 11
58.04999999996404
 21
-52.22433812620145
  0
LINE
  5
42
100
AcDbEntity
  8
1
  6
CONTINUOUS
 62
             3
100
AcDbLine
 10
57.34999999996398
 20
-48.83316961478697
 11
57.34999999996398
 21
-52.22433812620145
  0
LINE
  5
41
100
AcDbEntity
  8
1
  6
CONTINUOUS
 62
             3
100
AcDbLine
 10
55.34999999996398
 20
-58.72433812620145
 11
56.54999999996404
 21
-58.72433812620145
  0
LINE
  5
40
100
AcDbEntity
  8
1
  6
CONTINUOUS
 62
             3
100
AcDbLine
 10
56.54999999996404
 20
-58.72433812620145
 11
56.54999999996404
 21
-59.72433812620145
  0
LINE
  5
3F
100
AcDbEntity
  8
1
  6
CONTINUOUS
 62
             3
100
AcDbLine
 10
56.54999999996404
 20
-53.22433812620145
 11
55.34999999996398
 21
-53.22433812620145
  0
LINE
  5
3E
100
AcDbEntity
  8
1
  6
CONTINUOUS
 62
             3
100
AcDbLine
 10
56.54999999996404
 20
-52.22433812620145
 11
56.54999999996404
 21
-53.22433812620145
  0
LINE
  5
3D
100
AcDbEntity
  8
1
  6
CONTINUOUS
 62
             3
100
AcDbLine
 10
58.04999999996404
 20
-59.72433812620145
 11
58.04999999996404
 21
-56.97427644553724
  0
LINE
  5
3C
100
AcDbEntity
  8
1
  6
CONTINUOUS
 62
             3
100
AcDbLine
 10
58.04999999996404
 20
-56.97427644553724
 11
55.34999999996398
 21
-56.97427644553747
  0
LINE
  5
3B
100
AcDbEntity
  8
1
  6
CONTINUOUS
 62
             3
100
AcDbLine
 10
55.34999999996398
 20
-56.97427644553747
 11
55.34999999996398
 21
-54.97427644553747
  0
LINE
  5
3A
100
AcDbEntity
  8
1
  6
CONTINUOUS
 62
             3
100
AcDbLine
 10
55.34999999996398
 20
-54.97427644553747
 11
58.04999999996404
 21
-54.97427644553747
  0
LINE
  5
39
100
AcDbEntity
  8
1
  6
CONTINUOUS
 62
             3
100
AcDbLine
 10
58.04999999996404
 20
-54.97427644553747
 11
58.04999999996404
 21
-52.22433812620145
  0
LINE
  5
38
100
AcDbEntity
  8
1
  6
CONTINUOUS
 62
             3
100
AcDbLine
 10
58.54999999996404
 20
-57.72427644553747
 11
62.54999999989198
 21
-57.72427644553747
  0
LINE
  5
37
100
AcDbEntity
  8
1
  6
CONTINUOUS
 62
             1
100
AcDbLine
 10
49.74999999989201
 20
-55.97427644553747
 11
64.32999999989194
 21
-55.97427644553747
  0
LINE
  5
36
100
AcDbEntity
  8
1
  6
CONTINUOUS
 62
             1
100
AcDbLine
 10
61.04999999989198
 20
-54.17427644553717
 11
61.04999999989198
 21
-57.77427644553777
  0
LINE
  5
35
100
AcDbEntity
  8
1
  6
CONTINUOUS
 62
             3
100
AcDbLine
 10
63.04999999989198
 20
-57.22427644553747
 11
62.54999999989198
 21
-57.72427644553747
  0
LINE
  5
34
100
AcDbEntity
  8
1
  6
CONTINUOUS
 62
             3
100
AcDbLine
 10
63.04999999989198
 20
-54.72427644553747
 11
62.54999999989198
 21
-54.22427644553747
  0
LINE
  5
33
100
AcDbEntity
  8
1
  6
CONTINUOUS
 62
             3
100
AcDbLine
 10
63.04999999989198
 20
-54.72427644553747
 11
63.04999999989198
 21
-57.22427644553747
  0
LINE
  5
32
100
AcDbEntity
  8
1
  6
CONTINUOUS
 62
             3
100
AcDbLine
 10
62.54999999989198
 20
-54.22427644553747
 11
58.54999999996404
 21
-54.22427644553747
  0
LINE
  5
31
100
AcDbEntity
  8
1
  6
CONTINUOUS
 62
             1
100
AcDbLine
 10
64.32999999989194
 20
-55.97427644553747
 11
49.74999999989201
 21
-55.97427644553747
  0
LINE
  5
30
100
AcDbEntity
  8
1
  6
CONTINUOUS
 62
             3
100
AcDbLine
 10
55.34999999996398
 20
-58.72433812620145
 11
55.34999999996398
 21
-59.72433812620257
  0
LINE
  5
2F
100
AcDbEntity
  8
1
  6
CONTINUOUS
 62
             3
100
AcDbLine
 10
55.34999999996398
 20
-52.22421476487236
 11
55.34999999996398
 21
-53.22421476487349
  0
LINE
  5
2E
100
AcDbEntity
  8
1
  6
CONTINUOUS
 62
             3
100
AcDbLine
 10
56.34999999996398
 20
-52.22433812620145
 11
57.34999999996398
 21
-51.22433195809618
  0
LINE
  5
2D
100
AcDbEntity
  8
1
  6
CONTINUOUS
 62
             3
100
AcDbLine
 10
58.04999999996404
 20
-59.72433812620145
 11
52.50484335401589
 21
-59.72433812620189
  0
LINE
  5
2C
100
AcDbEntity
  8
1
  6
CONTINUOUS
 62
             3
100
AcDbLine
 10
57.34999999996398
 20
-59.72421476487349
 11
57.34999999996398
 21
-64.01248905843787
  0
LINE
  5
2B
100
AcDbEntity
  8
1
  6
CONTINUOUS
 62
             3
100
AcDbLine
 10
57.34999999996398
 20
-60.72422093297875
 11
56.34999999996398
 21
-59.72421476487347
  0
LINE
  5
2A
100
AcDbEntity
  8
1
  6
CONTINUOUS
 62
             2
100
AcDbLine
 10
39.07783494208596
 20
-70.97427644553747
 11
81.40817059150199
 21
-70.97427644553747
  0
SOLID
  5
49
100
AcDbEntity
  8
1
 62
             2
100
AcDbTrace
 10
64.14999999989198
 20
-43.62252561864713
 11
64.14999999989198
 21
-44.0438136109268
 12
62.54999999989198
 22
-43.83316961478697
 13
62.54999999989198
 23
-43.83316961478697
  0
INSERT
  5
92
100
AcDbEntity
  8
0
100
AcDbBlockReference
  2
*D7
 10
0.0
 20
0.0
  0
ENDBLK
  5
93
100
AcDbEntity
  8
0
100
AcDbBlockEnd
  0
BLOCK
  5
50
100
AcDbEntity
  8
0
100
AcDbBlockBegin
  2
*D1
 70
             1
 10
0.0
 20
0.0
 30
0.0
  3
*D1
  1

  0
LINE
  5
51
100
AcDbEntity
  8
0
  6
CONTINUOUS
 62
             2
100
AcDbLine
 10
58.04999999996404
 20
-43.83316961478697
 11
63.04999999989198
 21
-43.83316961478697
  0
LINE
  5
52
100
AcDbEntity
  8
0
  6
CONTINUOUS
 62
             2
100
AcDbLine
 10
58.04999999996404
 20
-51.72433812620145
 11
58.04999999996404
 21
-43.33316961478697
  0
LINE
  5
53
100
AcDbEntity
  8
0
  6
CONTINUOUS
 62
             2
100
AcDbLine
 10
63.04999999989198
 20
-54.22427644553747
 11
63.04999999989198
 21
-43.33316961478697
  0
MTEXT
  5
55
100
AcDbEntity
  8
0
 62
             2
100
AcDbMText
 10
60.06999999992802
 20
-43.33316961478697
 30
0.0
 40
1.6
 41
0.0
 71
             7
 72
             1
  1
5
  7
CONVERTER_3
 11
0.99999999999706
 21
0.00000242406841
 31
0.0
  0
ENDBLK
  5
56
100
AcDbEntity
  8
0
100
AcDbBlockEnd
  0
BLOCK
  5
58
100
AcDbEntity
  8
0
 62
             0
100
AcDbBlockBegin
  2
_NONE
 70
             0
 10
0.0
 20
0.0
 30
0.0
  3
_NONE
  1

  0
ENDBLK
  5
59
100
AcDbEntity
  8
0
 62
             0
100
AcDbBlockEnd
  0
BLOCK
  5
5D
100
AcDbEntity
  8
0
100
AcDbBlockBegin
  2
*D3
 70
             1
 10
0.0
 20
0.0
 30
0.0
  3
*D3
  1

  0
LINE
  5
5E
100
AcDbEntity
  8
0
  6
CONTINUOUS
 62
             2
100
AcDbLine
 10
70.54999999989197
 20
-60.92427644553747
 11
70.54999999989197
 21
-57.72427644553747
  0
LINE
  5
5F
100
AcDbEntity
  8
0
  6
CONTINUOUS
 62
             2
100
AcDbLine
 10
70.54999999989197
 20
-57.72427644553747
 11
70.54999999989197
 21
-54.22427644553747
  0
LINE
  5
60
100
AcDbEntity
  8
0
  6
CONTINUOUS
 62
             2
100
AcDbLine
 10
70.54999999989197
 20
-54.22427644553747
 11
70.54999999989197
 21
-39.54860205258824
  0
LINE
  5
61
100
AcDbEntity
  8
0
  6
CONTINUOUS
 62
             2
100
AcDbLine
 10
63.04999999989197
 20
-57.72427644553747
 11
71.04999999989197
 21
-57.72427644553747
  0
LINE
  5
62
100
AcDbEntity
  8
0
  6
CONTINUOUS
 62
             2
100
AcDbLine
 10
63.04999999989197
 20
-54.22427644553747
 11
71.04999999989197
 21
-54.22427644553747
  0
SOLID
  5
63
100
AcDbEntity
  8
0
 62
             2
100
AcDbTrace
 10
70.33935600375213
 20
-52.62427644553747
 11
70.7606439960318
 21
-52.62427644553747
 12
70.54999999989197
 22
-54.22427644553747
 13
70.54999999989197
 23
-54.22427644553747
  0
SOLID
  5
64
100
AcDbEntity
  8
0
 62
             2
100
AcDbTrace
 10
70.7606439960318
 20
-59.32427644553747
 11
70.33935600375213
 21
-59.32427644553747
 12
70.54999999989197
 22
-57.72427644553747
 13
70.54999999989197
 23
-57.72427644553747
  0
MTEXT
  5
65
100
AcDbEntity
  8
0
 62
             2
100
AcDbMText
 10
70.04999999989197
 20
-52.29495499376471
 30
0.0
 40
1.6
 41
0.0
 71
             7
 72
             1
  1
\C2;2-\C2;3.5\C2;~T0.5
  7
CONVERTER_3
 11
0.0
 21
1.0
 31
0.0
  0
ENDBLK
  5
66
100
AcDbEntity
  8
0
100
AcDbBlockEnd
  0
BLOCK
  5
6A
100
AcDbEntity
  8
0
100
AcDbBlockBegin
  2
*D4
 70
             1
 10
0.0
 20
0.0
 30
0.0
  3
*D4
  1

  0
LINE
  5
6B
100
AcDbEntity
  8
0
  6
CONTINUOUS
 62
             2
100
AcDbLine
 10
57.349999999964
 20
-43.83316961478697
 11
58.04999999996406
 21
-43.83316961478697
  0
LINE
  5
6C
100
AcDbEntity
  8
0
  6
CONTINUOUS
 62
             2
100
AcDbLine
 10
57.349999999964
 20
-43.83316961478697
 11
52.50265825428711
 21
-43.83316961478697
  0
LINE
  5
6D
100
AcDbEntity
  8
0
  6
CONTINUOUS
 62
             2
100
AcDbLine
 10
57.349999999964
 20
-48.33316961478697
 11
57.349999999964
 21
-43.33316961478697
  0
LINE
  5
6E
100
AcDbEntity
  8
0
  6
CONTINUOUS
 62
             2
100
AcDbLine
 10
58.04999999996406
 20
-51.72433812620144
 11
58.04999999996406
 21
-43.33316961478697
  0
SOLID
  5
6F
100
AcDbEntity
  8
0
 62
             2
100
AcDbTrace
 10
55.749999999964
 20
-44.0438136109268
 11
55.749999999964
 21
-43.62252561864713
 12
57.349999999964
 22
-43.83316961478697
 13
57.349999999964
 23
-43.83316961478697
  0
CIRCLE
  5
70
100
AcDbEntity
  8
0
 62
             2
100
AcDbCircle
 10
58.04999999996406
 20
-43.83316961478697
 40
0.375
  0
HATCH
  5
71
100
AcDbEntity
  8
0
 62
             2
100
AcDbHatch
 10
0.0
 20
0.0
 30
0.0
210
0.0
220
0.0
230
1.0
  2
SOLID
 70
             1
 71
             1
 91
        1
 92
        1
 93
        1
 72
             2
 10
58.049999999964058
 20
-43.833169614786968
 40
0.375
 50
-180.0
 51
180.0
 73
             1
 97
        1
330
70
 75
             0
 76
             1
 98
        1
 10
0.0
 20
0.0
  0
MTEXT
  5
72
100
AcDbEntity
  8
0
 62
             2
100
AcDbMText
 10
52.50265825428711
 20
-43.33316961478697
 30
0.0
 40
1.6
 41
0.0
 71
             7
 72
             1
  1
0.7
  7
CONVERTER_3
 11
0.99999999999706
 21
0.00000242406841
 31
0.0
  0
ENDBLK
  5
73
100
AcDbEntity
  8
0
100
AcDbBlockEnd
  0
BLOCK
  5
75
100
AcDbEntity
  8
0
 62
             0
100
AcDbBlockBegin
  2
_DOT
 70
             0
 10
0.0
 20
0.0
 30
0.0
  3
_DOT
  1

  0
POLYLINE
  5
76
100
AcDbEntity
  8
0
  6
BYBLOCK
 62
             0
100
AcDb2dPolyline
 66
             1
 10
0.0
 20
0.0
 30
0.0
 70
             1
 40
0.5
 41
0.5
  0
VERTEX
  5
77
100
AcDbEntity
  8
0
  6
BYBLOCK
 62
             0
100
AcDbVertex
100
AcDb2dVertex
 10
-0.25
 20
0.0
 42
1.0
  0
VERTEX
  5
78
100
AcDbEntity
  8
0
  6
BYBLOCK
 62
             0
100
AcDbVertex
100
AcDb2dVertex
 10
0.25
 20
0.0
 42
1.0
  0
SEQEND
  5
79
100
AcDbEntity
  8
0
 62
             0
  0
LINE
  5
7A
100
AcDbEntity
  8
0
  6
BYBLOCK
 62
             0
100
AcDbLine
 10
-0.5
 20
0.0
 11
-1.0
 21
0.0
  0
ENDBLK
  5
7B
100
AcDbEntity
  8
0
 62
             0
100
AcDbBlockEnd
  0
BLOCK
  5
7F
100
AcDbEntity
  8
0
100
AcDbBlockBegin
  2
*D6
 70
             1
 10
0.0
 20
0.0
 30
0.0
  3
*D6
  1

  0
LINE
  5
80
100
AcDbEntity
  8
0
  6
CONTINUOUS
 62
             2
100
AcDbLine
 10
57.84999999989198
 20
-47.9027859574819
 11
61.04999999989198
 21
-47.9027859574819
  0
LINE
  5
81
100
AcDbEntity
  8
0
  6
CONTINUOUS
 62
             2
100
AcDbLine
 10
61.04999999989198
 20
-47.9027859574819
 11
63.04999999989198
 21
-47.9027859574819
  0
LINE
  5
82
100
AcDbEntity
  8
0
  6
CONTINUOUS
 62
             2
100
AcDbLine
 10
63.04999999989198
 20
-47.9027859574819
 11
66.24999999989198
 21
-47.9027859574819
  0
LINE
  5
83
100
AcDbEntity
  8
0
  6
CONTINUOUS
 62
             2
100
AcDbLine
 10
61.04999999989198
 20
-53.67427644553717
 11
61.04999999989198
 21
-47.4027859574819
  0
LINE
  5
84
100
AcDbEntity
  8
0
  6
CONTINUOUS
 62
             2
100
AcDbLine
 10
63.04999999989198
 20
-54.22427644553747
 11
63.04999999989198
 21
-47.4027859574819
  0
SOLID
  5
85
100
AcDbEntity
  8
0
 62
             2
100
AcDbTrace
 10
59.44999999989198
 20
-48.11342995362173
 11
59.44999999989198
 21
-47.69214196134206
 12
61.04999999989198
 22
-47.9027859574819
 13
61.04999999989198
 23
-47.9027859574819
  0
SOLID
  5
86
100
AcDbEntity
  8
0
 62
             2
100
AcDbTrace
 10
64.64999999989198
 20
-47.69214196134206
 11
64.64999999989198
 21
-48.11342995362173
 12
63.04999999989198
 22
-47.9027859574819
 13
63.04999999989198
 23
-47.9027859574819
  0
MTEXT
  5
87
100
AcDbEntity
  8
0
 62
             2
100
AcDbMText
 10
65.0748647208985
 20
-47.4027859574819
 30
0.0
 40
1.6
 41
0.0
 71
             7
 72
             1
  1
2
  7
CONVERTER_3
 11
0.99999999999706
 21
0.00000242406841
 31
0.0
  0
ENDBLK
  5
88
100
AcDbEntity
  8
0
100
AcDbBlockEnd
  0
BLOCK
  5
8C
100
AcDbEntity
  8
0
100
AcDbBlockBegin
  2
*D7
 70
             1
 10
0.0
 20
0.0
 30
0.0
  3
*D7
  1

  0
LINE
  5
8D
100
AcDbEntity
  8
0
  6
CONTINUOUS
 62
             2
100
AcDbLine
 10
65.09337371641252
 20
-64.01248905843787
 11
74.84262525082721
 21
-64.01248905843787
  0
LINE
  5
8E
100
AcDbEntity
  8
0
  6
CONTINUOUS
 62
             2
100
AcDbLine
 10
61.49936990703611
 20
-56.86762222772558
 11
65.09337371641252
 21
-64.01248905843787
  0
SOLID
  5
8F
100
AcDbEntity
  8
0
 62
             2
100
AcDbTrace
 10
62.40653968396149
 20
-58.20231840624072
 11
62.03018383297195
 21
-58.39163255221237
 12
61.49936990703611
 22
-56.86762222772558
 13
61.49936990703611
 23
-56.86762222772558
  0
MTEXT
  5
90
100
AcDbEntity
  8
0
 62
             2
100
AcDbMText
 10
66.72262525083876
 20
-63.51249859957111
 30
0.0
 40
1.6
 41
0.0
 71
             7
 72
             1
  1
\C2;2-{\Fgdt;n}\C2;\C2;2\C2;\H0.960000;{\Fgdt;`}0.5
  7
CONVERTER_3
 11
0.99999999999706
 21
0.00000242406841
 31
0.0
  0
ENDBLK
  5
91
100
AcDbEntity
  8
0
100
AcDbBlockEnd
  0
BLOCK
  5
20E
100
AcDbEntity
  8
0
100
AcDbBlockBegin
  2
*D8
 70
             1
 10
0.0
 20
0.0
 30
0.0
  3
*D8
  1

  0
LINE
  5
20F
100
AcDbEntity
  8
0
  6
CONTINUOUS
 62
             2
100
AcDbLine
 10
40.1
 20
58.60000000000058
 11
46.5
 21
58.60000000000058
  0
LINE
  5
210
100
AcDbEntity
  8
0
  6
CONTINUOUS
 62
             2
100
AcDbLine
 10
46.5
 20
58.60000000000058
 11
52.19999999992797
 21
58.60000000000058
  0
LINE
  5
211
100
AcDbEntity
  8
0
  6
CONTINUOUS
 62
             2
100
AcDbLine
 10
52.19999999992797
 20
58.60000000000058
 11
64.90243633368951
 21
58.60000000000058
  0
LINE
  5
212
100
AcDbEntity
  8
0
  6
CONTINUOUS
 62
             2
100
AcDbLine
 10
46.5
 20
39.21804153555613
 11
46.5
 21
59.60000000000058
  0
LINE
  5
213
100
AcDbEntity
  8
0
  6
CONTINUOUS
 62
             2
100
AcDbLine
 10
52.19999999992797
 20
27.30000000000008
 11
52.19999999992797
 21
59.60000000000058
  0
SOLID
  5
214
100
AcDbEntity
  8
0
 62
             2
100
AcDbTrace
 10
43.3
 20
58.17871200772091
 11
43.3
 21
59.02128799228024
 12
46.5
 22
58.60000000000058
 13
46.5
 23
58.60000000000058
  0
SOLID
  5
215
100
AcDbEntity
  8
0
 62
             2
100
AcDbTrace
 10
55.39999999992797
 20
59.02128799228024
 11
55.39999999992797
 21
58.17871200772091
 12
52.19999999992797
 22
58.60000000000058
 13
52.19999999992797
 23
58.60000000000058
  0
MTEXT
  5
216
100
AcDbEntity
  8
0
 62
             2
100
AcDbMText
 10
54.35843633369721
 20
59.59999363924508
 30
0.0
 40
3.2
 41
0.0
 71
             7
 72
             1
  1
\C2;(\C2;5.7\C2;)
  7
CONVERTER_3
 11
0.99999999999706
 21
0.00000242406841
 31
0.0
  0
ENDBLK
  5
217
100
AcDbEntity
  8
0
100
AcDbBlockEnd
  0
BLOCK
  5
21B
100
AcDbEntity
  8
0
100
AcDbBlockBegin
  2
*D9
 70
             1
 10
0.0
 20
0.0
 30
0.0
  3
*D9
  1

  0
LINE
  5
21C
100
AcDbEntity
  8
0
  6
CONTINUOUS
 62
             2
100
AcDbLine
 10
77.19999999992797
 20
1.4000000000005
 11
77.19999999992797
 21
38.60000000000047
  0
LINE
  5
21D
100
AcDbEntity
  8
0
  6
CONTINUOUS
 62
             2
100
AcDbLine
 10
48.20000000000005
 20
1.4000000000005
 11
78.19999999992797
 21
1.4000000000005
  0
LINE
  5
21E
100
AcDbEntity
  8
0
  6
CONTINUOUS
 62
             2
100
AcDbLine
 10
48.20000000000005
 20
38.60000000000047
 11
78.19999999992797
 21
38.60000000000047
  0
SOLID
  5
21F
100
AcDbEntity
  8
0
 62
             2
100
AcDbTrace
 10
77.62128799220763
 20
35.40000000000047
 11
76.7787120076483
 21
35.40000000000047
 12
77.19999999992797
 22
38.60000000000047
 13
77.19999999992797
 23
38.60000000000047
  0
SOLID
  5
220
100
AcDbEntity
  8
0
 62
             2
100
AcDbTrace
 10
76.7787120076483
 20
4.6000000000005
 11
77.62128799220764
 21
4.6000000000005
 12
77.19999999992797
 22
1.4000000000005
 13
77.19999999992797
 23
1.4000000000005
  0
MTEXT
  5
221
100
AcDbEntity
  8
0
 62
             2
100
AcDbMText
 10
76.19999999992797
 20
12.31200000000049
 30
0.0
 40
3.2
 41
0.0
 71
             7
 72
             1
  1
\C2;{\Fgdt;n}\C2;37.2
  7
CONVERTER_3
 11
0.0
 21
1.0
 31
0.0
  0
ENDBLK
  5
222
100
AcDbEntity
  8
0
100
AcDbBlockEnd
  0
BLOCK
  5
226
100
AcDbEntity
  8
0
100
AcDbBlockBegin
  2
*D10
 70
             1
 10
0.0
 20
0.0
 30
0.0
  3
*D10
  1

  0
LINE
  5
227
100
AcDbEntity
  8
0
  6
CONTINUOUS
 62
             2
100
AcDbLine
 10
67.19999999992797
 20
12.69999999999993
 11
67.19999999992797
 21
27.30000000000007
  0
LINE
  5
228
100
AcDbEntity
  8
0
  6
CONTINUOUS
 62
             2
100
AcDbLine
 10
52.19999999992797
 20
12.69999999999993
 11
68.19999999992797
 21
12.69999999999993
  0
LINE
  5
229
100
AcDbEntity
  8
0
  6
CONTINUOUS
 62
             2
100
AcDbLine
 10
52.19999999992797
 20
27.30000000000007
 11
68.19999999992797
 21
27.30000000000007
  0
SOLID
  5
22A
100
AcDbEntity
  8
0
 62
             2
100
AcDbTrace
 10
67.62128799220763
 20
24.10000000000007
 11
66.7787120076483
 21
24.10000000000007
 12
67.19999999992797
 22
27.30000000000007
 13
67.19999999992797
 23
27.30000000000007
  0
SOLID
  5
22B
100
AcDbEntity
  8
0
 62
             2
100
AcDbTrace
 10
66.7787120076483
 20
15.89999999999993
 11
67.62128799220764
 21
15.89999999999993
 12
67.19999999992797
 22
12.69999999999993
 13
67.19999999992797
 23
12.69999999999993
  0
MTEXT
  5
22C
100
AcDbEntity
  8
0
 62
             2
100
AcDbMText
 10
66.19999999992797
 20
12.792
 30
0.0
 40
3.2
 41
0.0
 71
             7
 72
             1
  1
\C2;{\Fgdt;n}\C2;14.6
  7
CONVERTER_3
 11
0.0
 21
1.0
 31
0.0
  0
ENDBLK
  5
22D
100
AcDbEntity
  8
0
100
AcDbBlockEnd
  0
BLOCK
  5
231
100
AcDbEntity
  8
0
100
AcDbBlockBegin
  2
*D11
 70
             1
 10
0.0
 20
0.0
 30
0.0
  3
*D11
  1

  0
LINE
  5
232
100
AcDbEntity
  8
0
  6
CONTINUOUS
 62
             2
100
AcDbLine
 10
-164.75
 20
60.0
 11
-115.25
 21
60.0
  0
LINE
  5
233
100
AcDbEntity
  8
0
  6
CONTINUOUS
 62
             2
100
AcDbLine
 10
-164.75
 20
49.75
 11
-164.75
 21
61.0
  0
LINE
  5
234
100
AcDbEntity
  8
0
  6
CONTINUOUS
 62
             2
100
AcDbLine
 10
-115.25
 20
49.75
 11
-115.25
 21
61.0
  0
SOLID
  5
235
100
AcDbEntity
  8
0
 62
             2
100
AcDbTrace
 10
-161.55000000000001
 20
60.42128799227967
 11
-161.55000000000001
 21
59.57871200772033
 12
-164.75
 22
60.0
 13
-164.75
 23
60.0
  0
SOLID
  5
236
100
AcDbEntity
  8
0
 62
             2
100
AcDbTrace
 10
-118.45
 20
59.57871200772033
 11
-118.45
 21
60.42128799227967
 12
-115.25
 22
60.0
 13
-115.25
 23
60.0
  0
MTEXT
  5
237
100
AcDbEntity
  8
0
 62
             2
100
AcDbMText
 10
-147.584
 20
61.0
 30
0.0
 40
3.2
 41
0.0
 71
             7
 72
             1
  1
\C2;49.5\C2;\H1.920000;{\Fgdt;`}0.3
  7
CONVERTER_3
 11
0.99999999999706
 21
0.00000242406841
 31
0.0
  0
ENDBLK
  5
238
100
AcDbEntity
  8
0
100
AcDbBlockEnd
  0
BLOCK
  5
23C
100
AcDbEntity
  8
0
100
AcDbBlockBegin
  2
*D12
 70
             1
 10
0.0
 20
0.0
 30
0.0
  3
*D12
  1

  0
LINE
  5
23D
100
AcDbEntity
  8
0
  6
CONTINUOUS
 62
             2
100
AcDbLine
 10
-170.0
 20
70.0
 11
-110.0
 21
70.0
  0
LINE
  5
23E
100
AcDbEntity
  8
0
  6
CONTINUOUS
 62
             2
100
AcDbLine
 10
-170.0
 20
45.5
 11
-170.0
 21
71.0
  0
LINE
  5
23F
100
AcDbEntity
  8
0
  6
CONTINUOUS
 62
             2
100
AcDbLine
 10
-110.0
 20
45.5
 11
-110.0
 21
71.0
  0
SOLID
  5
240
100
AcDbEntity
  8
0
 62
             2
100
AcDbTrace
 10
-166.80000000000001
 20
70.42128799227967
 11
-166.80000000000001
 21
69.57871200772033
 12
-170.0
 22
70.0
 13
-170.0
 23
70.0
  0
SOLID
  5
241
100
AcDbEntity
  8
0
 62
             2
100
AcDbTrace
 10
-113.2
 20
69.57871200772034
 11
-113.2
 21
70.42128799227967
 12
-110.0
 22
70.0
 13
-110.0
 23
70.0
  0
MTEXT
  5
242
100
AcDbEntity
  8
0
 62
             2
100
AcDbMText
 10
-145.57741176469048
 20
70.999987278489
 30
0.0
 40
3.2
 41
0.0
 71
             7
 72
             1
  1
\C2; \C2;60
  7
CONVERTER_3
 11
0.99999999999706
 21
0.00000242406841
 31
0.0
  0
ENDBLK
  5
243
100
AcDbEntity
  8
0
100
AcDbBlockEnd
  0
BLOCK
  5
247
100
AcDbEntity
  8
0
100
AcDbBlockBegin
  2
*D13
 70
             1
 10
0.0
 20
0.0
 30
0.0
  3
*D13
  1

  0
LINE
  5
248
100
AcDbEntity
  8
0
  6
CONTINUOUS
 62
             2
100
AcDbLine
 10
-94.82258783634413
 20
-4.75
 11
-94.82258783634413
 21
44.75
  0
LINE
  5
249
100
AcDbEntity
  8
0
  6
CONTINUOUS
 62
             2
100
AcDbLine
 10
-110.25
 20
-4.75
 11
-93.82258783634413
 21
-4.75
  0
LINE
  5
24A
100
AcDbEntity
  8
0
  6
CONTINUOUS
 62
             2
100
AcDbLine
 10
-110.25
 20
44.75
 11
-93.82258783634413
 21
44.75
  0
SOLID
  5
24B
100
AcDbEntity
  8
0
 62
             2
100
AcDbTrace
 10
-94.40129984406447
 20
41.55
 11
-95.2438758286238
 21
41.55
 12
-94.82258783634413
 22
44.75
 13
-94.82258783634413
 23
44.75
  0
SOLID
  5
24C
100
AcDbEntity
  8
0
 62
             2
100
AcDbTrace
 10
-95.2438758286238
 20
-1.55
 11
-94.40129984406445
 21
-1.55
 12
-94.82258783634413
 22
-4.75
 13
-94.82258783634413
 23
-4.75
  0
MTEXT
  5
24D
100
AcDbEntity
  8
0
 62
             2
100
AcDbMText
 10
-95.82258783634413
 20
12.416
 30
0.0
 40
3.2
 41
0.0
 71
             7
 72
             1
  1
\C2;49.5\C2;\H1.920000;{\Fgdt;`}0.3
  7
CONVERTER_3
 11
0.0
 21
1.0
 31
0.0
  0
ENDBLK
  5
24E
100
AcDbEntity
  8
0
100
AcDbBlockEnd
  0
BLOCK
  5
252
100
AcDbEntity
  8
0
100
AcDbBlockBegin
  2
*D14
 70
             1
 10
0.0
 20
0.0
 30
0.0
  3
*D14
  1

  0
LINE
  5
253
100
AcDbEntity
  8
0
  6
CONTINUOUS
 62
             2
100
AcDbLine
 10
-30.9
 20
60.0
 11
-24.5
 21
60.0
  0
LINE
  5
254
100
AcDbEntity
  8
0
  6
CONTINUOUS
 62
             2
100
AcDbLine
 10
-24.5
 20
60.0
 11
-21.0
 21
60.0
  0
LINE
  5
255
100
AcDbEntity
  8
0
  6
CONTINUOUS
 62
             2
100
AcDbLine
 10
-21.0
 20
60.0
 11
-12.6173486377395
 21
60.0
  0
LINE
  5
256
100
AcDbEntity
  8
0
  6
CONTINUOUS
 62
             2
100
AcDbLine
 10
-24.5
 20
51.0
 11
-24.5
 21
61.0
  0
LINE
  5
257
100
AcDbEntity
  8
0
  6
CONTINUOUS
 62
             2
100
AcDbLine
 10
-21.0
 20
38.2928932188135
 11
-21.0
 21
61.0
  0
SOLID
  5
258
100
AcDbEntity
  8
0
 62
             2
100
AcDbTrace
 10
-27.7
 20
59.57871200772033
 11
-27.7
 21
60.42128799227967
 12
-24.5
 22
60.0
 13
-24.5
 23
60.0
  0
SOLID
  5
259
100
AcDbEntity
  8
0
 62
             2
100
AcDbTrace
 10
-17.8
 20
60.42128799227967
 11
-17.8
 21
59.57871200772033
 12
-21.0
 22
60.0
 13
-21.0
 23
60.0
  0
MTEXT
  5
25A
100
AcDbEntity
  8
0
 62
             2
100
AcDbMText
 10
-18.4573486377395
 20
61.0
 30
0.0
 40
3.2
 41
0.0
 71
             7
 72
             1
  1
3.5
  7
CONVERTER_3
 11
0.99999999999706
 21
0.00000242406841
 31
0.0
  0
ENDBLK
  5
25B
100
AcDbEntity
  8
0
100
AcDbBlockEnd
  0
BLOCK
  5
25F
100
AcDbEntity
  8
0
100
AcDbBlockBegin
  2
*D15
 70
             1
 10
0.0
 20
0.0
 30
0.0
  3
*D15
  1

  0
LINE
  5
260
100
AcDbEntity
  8
0
  6
CONTINUOUS
 62
             2
100
AcDbLine
 10
-24.5
 20
70.0
 11
52.19999999992795
 21
70.0
  0
LINE
  5
261
100
AcDbEntity
  8
0
  6
CONTINUOUS
 62
             2
100
AcDbLine
 10
-24.5
 20
51.0
 11
-24.5
 21
71.0
  0
LINE
  5
262
100
AcDbEntity
  8
0
  6
CONTINUOUS
 62
             2
100
AcDbLine
 10
52.19999999992795
 20
27.30000000000006
 11
52.19999999992795
 21
71.0
  0
SOLID
  5
263
100
AcDbEntity
  8
0
 62
             2
100
AcDbTrace
 10
-21.3
 20
70.42128799227967
 11
-21.3
 21
69.57871200772033
 12
-24.5
 22
70.0
 13
-24.5
 23
70.0
  0
SOLID
  5
264
100
AcDbEntity
  8
0
 62
             2
100
AcDbTrace
 10
48.99999999992795
 20
69.57871200772034
 11
48.99999999992795
 21
70.42128799227967
 12
52.19999999992795
 22
70.0
 13
52.19999999992795
 23
70.0
  0
MTEXT
  5
265
100
AcDbEntity
  8
0
 62
             2
100
AcDbMText
 10
9.48999999996398
 20
71.0
 30
0.0
 40
3.2
 41
0.0
 71
             7
 72
             1
  1
76.7
  7
CONVERTER_3
 11
0.99999999999706
 21
0.00000242406841
 31
0.0
  0
ENDBLK
  5
266
100
AcDbEntity
  8
0
100
AcDbBlockEnd
  0
BLOCK
  5
26A
100
AcDbEntity
  8
0
100
AcDbBlockBegin
  2
*D16
 70
             1
 10
0.0
 20
0.0
 30
0.0
  3
*D16
  1

  0
LINE
  5
26B
100
AcDbEntity
  8
0
  6
CONTINUOUS
 62
             2
100
AcDbLine
 10
-47.49999999999988
 20
-7.0
 11
-47.49999999999988
 21
47.0
  0
LINE
  5
26C
100
AcDbEntity
  8
0
  6
CONTINUOUS
 62
             2
100
AcDbLine
 10
-27.0
 20
-7.0
 11
-48.49999999999988
 21
-7.0
  0
LINE
  5
26D
100
AcDbEntity
  8
0
  6
CONTINUOUS
 62
             2
100
AcDbLine
 10
-27.0
 20
47.0
 11
-48.49999999999988
 21
47.0
  0
SOLID
  5
26E
100
AcDbEntity
  8
0
 62
             2
100
AcDbTrace
 10
-47.07871200772021
 20
43.8
 11
-47.92128799227955
 21
43.8
 12
-47.49999999999988
 22
47.0
 13
-47.49999999999988
 23
47.0
  0
SOLID
  5
26F
100
AcDbEntity
  8
0
 62
             2
100
AcDbTrace
 10
-47.92128799227955
 20
-3.8
 11
-47.07871200772021
 21
-3.8
 12
-47.49999999999988
 22
-7.0
 13
-47.49999999999988
 23
-7.0
  0
MTEXT
  5
270
100
AcDbEntity
  8
0
 62
             2
100
AcDbMText
 10
-49.29999999999988
 20
7.208
 30
0.0
 40
3.2
 41
0.0
 71
             7
 72
             1
  3
\C2;{\Fgdt;n}5{\Fgdt;u}{\Fgdt;`}{\Fgdt;;}5{\Fgdt;u}{\Fgdt;`}{\Fgdt;;}{\Fgdt;G}{\Fgdt;"}{\Fgdt;o}{\Fgdt;7}5{\Fgdt;u}{\Fgdt;`}{\Fgdt;;}5{\Fgdt;a}{\Fgdt;n}{\Fgdt;9}{\Fgdt;`}{\Fgdt;~}{\Fgdt;~}{\Fgdt;~}{\Fgdt;~}{\Fgdt;;}5{\Fgdt;|}{\Fgdt;~}7{\Fgdt;~}{\Fgd
  1
t;~}{\Fgdt;'}{\Fgdt;;}
  7
CONVERTER_3
 11
0.0
 21
1.0
 31
0.0
  0
ENDBLK
  5
271
100
AcDbEntity
  8
0
100
AcDbBlockEnd
  0
BLOCK
  5
275
100
AcDbEntity
  8
0
100
AcDbBlockBegin
  2
*D17
 70
             1
 10
0.0
 20
0.0
 30
0.0
  3
*D17
  1

  0
LINE
  5
276
100
AcDbEntity
  8
0
  6
CONTINUOUS
 62
             2
100
AcDbLine
 10
-37.49999999999987
 20
70.0
 11
-24.5
 21
70.0
  0
LINE
  5
277
100
AcDbEntity
  8
0
  6
CONTINUOUS
 62
             2
100
AcDbLine
 10
-37.49999999999987
 20
24.10000000000043
 11
-37.49999999999987
 21
71.0
  0
LINE
  5
278
100
AcDbEntity
  8
0
  6
CONTINUOUS
 62
             2
100
AcDbLine
 10
-24.5
 20
51.0
 11
-24.5
 21
71.0
  0
SOLID
  5
279
100
AcDbEntity
  8
0
 62
             2
100
AcDbTrace
 10
-34.29999999999987
 20
70.42128799227967
 11
-34.29999999999987
 21
69.57871200772033
 12
-37.49999999999987
 22
70.0
 13
-37.49999999999987
 23
70.0
  0
SOLID
  5
27A
100
AcDbEntity
  8
0
 62
             2
100
AcDbTrace
 10
-27.7
 20
69.57871200772034
 11
-27.7
 21
70.42128799227967
 12
-24.5
 22
70.0
 13
-24.5
 23
70.0
  0
MTEXT
  5
27B
100
AcDbEntity
  8
0
 62
             2
100
AcDbMText
 10
-36.14399999999994
 20
71.0
 30
0.0
 40
3.2
 41
0.0
 71
             7
 72
             1
  1
\C2;13\C2;\H1.920000;{\Fgdt;`}0.3
  7
CONVERTER_3
 11
0.99999999999706
 21
0.00000242406841
 31
0.0
  0
ENDBLK
  5
27C
100
AcDbEntity
  8
0
100
AcDbBlockEnd
  0
BLOCK
  5
280
100
AcDbEntity
  8
0
100
AcDbBlockBegin
  2
*D18
 70
             1
 10
0.0
 20
0.0
 30
0.0
  3
*D18
  1

  0
LINE
  5
281
100
AcDbEntity
  8
0
  6
CONTINUOUS
 62
             2
100
AcDbLine
 10
159.2000000000005
 20
2.95000023236265
 11
159.2000000000005
 21
37.04999976763827
  0
LINE
  5
282
100
AcDbEntity
  8
0
  6
CONTINUOUS
 62
             2
100
AcDbLine
 10
133.25317550374507
 20
37.04999976763827
 11
160.2000000000005
 21
37.04999976763827
  0
LINE
  5
283
100
AcDbEntity
  8
0
  6
CONTINUOUS
 62
             2
100
AcDbLine
 10
133.25317550374507
 20
2.95000023236265
 11
160.2000000000005
 21
2.95000023236265
  0
SOLID
  5
284
100
AcDbEntity
  8
0
 62
             2
100
AcDbTrace
 10
159.62128799228017
 20
33.84999976763827
 11
158.77871200772083
 21
33.84999976763827
 12
159.2000000000005
 22
37.04999976763827
 13
159.2000000000005
 23
37.04999976763827
  0
SOLID
  5
285
100
AcDbEntity
  8
0
 62
             2
100
AcDbTrace
 10
158.77871200772083
 20
6.15000023236265
 11
159.62128799228017
 21
6.15000023236265
 12
159.2000000000005
 22
2.95000023236265
 13
159.2000000000005
 23
2.95000023236265
  0
MTEXT
  5
286
100
AcDbEntity
  8
0
 62
             2
100
AcDbMText
 10
158.2000000000005
 20
14.97600000000046
 30
0.0
 40
3.2
 41
0.0
 71
             7
 72
             1
  1
\C2;(\C2;34\C2;)
  7
CONVERTER_3
 11
0.0
 21
1.0
 31
0.0
  0
ENDBLK
  5
287
100
AcDbEntity
  8
0
100
AcDbBlockEnd
  0
BLOCK
  5
28B
100
AcDbEntity
  8
0
100
AcDbBlockBegin
  2
*D19
 70
             1
 10
0.0
 20
0.0
 30
0.0
  3
*D19
  1

  0
LINE
  5
28C
100
AcDbEntity
  8
0
  6
CONTINUOUS
 62
             2
100
AcDbLine
 10
87.19999999992797
 20
0.80000000000047
 11
87.19999999992797
 21
39.20000000000044
  0
LINE
  5
28D
100
AcDbEntity
  8
0
  6
CONTINUOUS
 62
             2
100
AcDbLine
 10
33.5999999999999
 20
0.80000000000047
 11
88.19999999992797
 21
0.80000000000047
  0
LINE
  5
28E
100
AcDbEntity
  8
0
  6
CONTINUOUS
 62
             2
100
AcDbLine
 10
33.5999999999999
 20
39.20000000000044
 11
88.19999999992797
 21
39.20000000000044
  0
SOLID
  5
28F
100
AcDbEntity
  8
0
 62
             2
100
AcDbTrace
 10
87.62128799220763
 20
36.00000000000044
 11
86.7787120076483
 21
36.00000000000044
 12
87.19999999992797
 22
39.20000000000044
 13
87.19999999992797
 23
39.20000000000044
  0
SOLID
  5
290
100
AcDbEntity
  8
0
 62
             2
100
AcDbTrace
 10
86.7787120076483
 20
4.00000000000047
 11
87.62128799220764
 21
4.00000000000047
 12
87.19999999992797
 22
0.80000000000047
 13
87.19999999992797
 23
0.80000000000047
  0
MTEXT
  5
291
100
AcDbEntity
  8
0
 62
             2
100
AcDbMText
 10
86.19999999992797
 20
12.31200000000046
 30
0.0
 40
3.2
 41
0.0
 71
             7
 72
             1
  1
\C2;{\Fgdt;n}\C2;38.4
  7
CONVERTER_3
 11
0.0
 21
1.0
 31
0.0
  0
ENDBLK
  5
292
100
AcDbEntity
  8
0
100
AcDbBlockEnd
  0
BLOCK
  5
296
100
AcDbEntity
  8
0
100
AcDbBlockBegin
  2
*D20
 70
             1
 10
0.0
 20
0.0
 30
0.0
  3
*D20
  1

  0
LINE
  5
297
100
AcDbEntity
  8
0
  6
CONTINUOUS
 62
             2
100
AcDbLine
 10
-113.78589530147232
 20
-6.45847810397107
 11
-102.1812948169195
 21
-19.99999999999992
  0
LINE
  5
298
100
AcDbEntity
  8
0
  6
CONTINUOUS
 62
             2
100
AcDbLine
 10
-102.1812948169195
 20
-19.99999999999992
 11
-71.35999987281601
 21
-19.99999999999992
  0
SOLID
  5
299
100
AcDbEntity
  8
0
 62
             2
100
AcDbTrace
 10
-111.38371914788809
 20
-8.61417597231679
 11
-112.02350697924435
 21
-9.16245128692121
 12
-113.78589530147232
 22
-6.45847810397107
 13
-113.78589530147232
 23
-6.45847810397107
  0
MTEXT
  5
29A
100
AcDbEntity
  8
0
 62
             2
100
AcDbMText
 10
-101.519999872816
 20
-18.99999999999992
 30
0.0
 40
3.2
 41
0.0
 71
             7
 72
             1
  1
4-{\Fgdt;n}4.5HOLES
  7
CONVERTER_3
 11
0.99999999999706
 21
0.00000242406841
 31
0.0
  0
ENDBLK
  5
29B
100
AcDbEntity
  8
0
100
AcDbBlockEnd
  0
ENDSEC
  0
SECTION
  2
ENTITIES
  0
DIMENSION
  5
294
100
AcDbEntity
  8
1
100
AcDbDimension
  2
*D19
 10
87.19999999992797
 20
39.20000000000044
 11
84.59999999992797
 21
20.00000000000046
 31
0.0
 53
90.0
  1
<>
  3
ME10_DIM_15
100
AcDbAlignedDimension
 13
32.59999999999991
 23
0.80000000000047
 14
32.59999999999991
 24
39.20000000000044
 50
90.0
100
AcDbRotatedDimension
  0
DIMENSION
  5
289
100
AcDbEntity
  8
1
100
AcDbDimension
  2
*D18
 10
159.2000000000005
 20
37.04999976763827
 11
156.60000000000051
 21
20.00000000000046
 31
0.0
 53
90.0
  1
(34
  3
ME10_DIM_14
100
AcDbAlignedDimension
 13
132.25317550374501
 23
2.95000023236264
 14
132.25317550374501
 24
37.04999976763827
 50
90.0
100
AcDbRotatedDimension
  0
DIMENSION
  5
27E
100
AcDbEntity
  8
1
100
AcDbDimension
  2
*D17
 10
-37.49999999999987
 20
70.0
 11
-30.99999999999994
 21
72.59999999999999
 31
0.0
 53
0.00013888888889
  1
<>
  3
ME10_DIM_13
100
AcDbAlignedDimension
 13
-24.5
 23
50.0
 14
-37.49999999999988
 24
23.10000000000042
100
AcDbRotatedDimension
  0
DIMENSION
  5
273
100
AcDbEntity
  8
1
100
AcDbDimension
  2
*D16
 10
-47.49999999999988
 20
47.0
 11
-50.89999999999988
 21
20.0
 31
0.0
 53
90.0
  1
{\Fgdt;n}54h7
  3
ME10_DIM_12
100
AcDbAlignedDimension
 13
-26.0
 23
-7.0
 14
-26.0
 24
47.0
 50
90.0
100
AcDbRotatedDimension
  0
DIMENSION
  5
268
100
AcDbEntity
  8
1
100
AcDbDimension
  2
*D15
 10
-24.5
 20
70.0
 11
13.84999999996398
 21
72.59999999999999
 31
0.0
 53
0.00013888888889
  1
<>
  3
ME10_DIM_11
100
AcDbAlignedDimension
 13
52.19999999992797
 23
26.30000000000007
 14
-24.5
 24
50.0
100
AcDbRotatedDimension
  0
DIMENSION
  5
25D
100
AcDbEntity
  8
1
100
AcDbDimension
  2
*D14
 10
-24.5
 20
60.0
 11
-15.5373486377395
 21
62.6
 31
0.0
 53
0.00013888888889
  1
<>
  3
ME10_DIM_10
100
AcDbAlignedDimension
 13
-21.0
 23
37.2928932188135
 14
-24.5
 24
50.0
100
AcDbRotatedDimension
  0
DIMENSION
  5
250
100
AcDbEntity
  8
1
100
AcDbDimension
  2
*D13
 10
-94.82258783634413
 20
44.75
 11
-97.42258783634412
 21
20.0
 31
0.0
 53
90.0
  1
<>
  3
ME10_DIM_9
100
AcDbAlignedDimension
 13
-111.25
 23
-4.75
 14
-111.25
 24
44.75
 50
90.0
100
AcDbRotatedDimension
  0
DIMENSION
  5
245
100
AcDbEntity
  8
1
100
AcDbDimension
  2
*D12
 10
-170.0
 20
70.0
 11
-140.0
 21
72.59999999999999
 31
0.0
 53
0.00013888888889
  1
<>
  3
ME10_DIM_8
100
AcDbAlignedDimension
 13
-110.0
 23
44.5
 14
-170.0
 24
44.5
100
AcDbRotatedDimension
  0
DIMENSION
  5
23A
100
AcDbEntity
  8
1
100
AcDbDimension
  2
*D11
 10
-164.75
 20
60.0
 11
-140.0
 21
62.6
 31
0.0
 53
0.00013888888889
  1
<>
  3
ME10_DIM_7
100
AcDbAlignedDimension
 13
-115.25
 23
48.75
 14
-164.75
 24
48.75
100
AcDbRotatedDimension
  0
DIMENSION
  5
22F
100
AcDbEntity
  8
1
100
AcDbDimension
  2
*D10
 10
67.19999999992797
 20
27.30000000000007
 11
64.59999999992797
 21
20.0
 31
0.0
 53
90.0
  1
<>
  3
ME10_DIM_6
100
AcDbAlignedDimension
 13
51.19999999992797
 23
12.69999999999993
 14
51.19999999992797
 24
27.30000000000007
 50
90.0
100
AcDbRotatedDimension
  0
DIMENSION
  5
224
100
AcDbEntity
  8
1
100
AcDbDimension
  2
*D9
 10
77.19999999992797
 20
38.60000000000047
 11
74.59999999992797
 21
20.00000000000049
 31
0.0
 53
90.0
  1
<>
  3
ME10_DIM_5
100
AcDbAlignedDimension
 13
47.20000000000005
 23
1.4000000000005
 14
47.20000000000005
 24
38.60000000000047
 50
90.0
100
AcDbRotatedDimension
  0
DIMENSION
  5
219
100
AcDbEntity
  8
1
100
AcDbDimension
  2
*D8
 10
46.5
 20
58.60000000000058
 11
59.9024363336895
 21
61.20000000000058
 31
0.0
 53
0.00013888888889
  1
<>
  3
ME10_DIM_4
100
AcDbAlignedDimension
 13
52.19999999992797
 23
26.30000000000007
 14
46.5
 24
38.21804153555613
100
AcDbRotatedDimension
  0
MTEXT
  5
20C
100
AcDbEntity
  8
1
 62
             2
100
AcDbMText
 10
2.3789782031231
 20
51.80000000000047
 30
0.0
 40
3.5
 41
0.0
 71
             5
 72
             1
  1
m`ld@ok`sd
  7
CONVERTER_1
  0
MTEXT
  5
20B
100
AcDbEntity
  8
1
 62
             2
100
AcDbMText
 10
111.0323893605003
 20
51.74666111178556
 30
0.0
 40
3.5
 41
0.0
 71
             5
 72
             1
  1
(+)sdqlhm`k
  7
CONVERTER_1
  0
MTEXT
  5
20A
100
AcDbEntity
  8
1
 62
             2
100
AcDbMText
 10
111.0323893605003
 20
46.14666111178559
 30
0.0
 40
3.5
 41
0.0
 71
             5
 72
             1
  1
iqdcj
  7
CONVERTER_1
  0
MTEXT
  5
209
100
AcDbEntity
  8
1
 62
             2
100
AcDbMText
 10
148.97353823009161
 20
-6.65333888821448
 30
0.0
 40
3.5
 41
0.0
 71
             5
 72
             1
  1
(-)sdqlhm`k
  7
CONVERTER_1
  0
MTEXT
  5
208
100
AcDbEntity
  8
1
 62
             2
100
AcDbMText
 10
148.97353823009161
 20
-12.25333888821444
 30
0.0
 40
3.5
 41
0.0
 71
             5
 72
             1
  1
iak`bjj
  7
CONVERTER_1
  0
MTEXT
  5
207
100
AcDbEntity
  8
1
 62
             2
100
AcDbMText
 10
-38.99248821135412
 20
72.60000000000002
 30
0.0
 40
3.5
 41
0.0
 71
             5
 72
             1
  1
Î
  7
CONVERTER_3
  0
MTEXT
  5
206
100
AcDbEntity
  8
1
 62
             2
100
AcDbMText
 10
-171.9089583252044
 20
-52.68864240382499
 30
0.0
 40
3.5
 41
0.0
 71
             4
 72
             1
  1
mnsd
  7
CONVERTER_4
  0
MTEXT
  5
205
100
AcDbEntity
  8
1
 62
             2
100
AcDbMText
 10
-160.9089583252044
 20
-62.68864240382499
 30
0.0
 40
3.5
 41
0.0
 71
             4
 72
             1
  1
Î@o`qsDvgdm@ntsots@rg`es@hr@otkkdc@toD
  7
CONVERTER_4
  0
MTEXT
  5
203
100
AcDbEntity
  8
1
 62
             2
100
AcDbMText
 10
-167.9089583252044
 20
-57.88864240382497
 30
0.0
 40
3.5
 41
0.0
 71
             4
 72
             1
  1
PDÎÀ²@ëAo%%dëýÞ½¨Ð¯§øå%%cñÕB
  7
CONVERTER_3
  0
MTEXT
  5
202
100
AcDbEntity
  8
1
 62
             2
100
AcDbMText
 10
-167.9089583252044
 20
-47.88864240382497
 30
0.0
 40
3.5
 41
0.0
 71
             5
 72
             1
  1
@L
  7
CONVERTER_3
  0
TEXT
  5
201
100
AcDbEntity
  8
1
 62
             2
100
AcDbText
 10
108.11837130000011
 20
-112.1675251999997
 40
4.5
  1
DMN37H6HFPB
 41
0.9
  7
CONVERTER_3
100
AcDbText
  0
LEADER
  5
200
100
AcDbEntity
  8
1
  6
CONTINUOUS
 62
             2
100
AcDbLeader
  3
Standard
 71
             0
 73
             3
 74
             0
 75
             0
 40
0.0
 76
             3
 10
-1.66345657826196
 20
39.20000000000044
 30
0.0
 10
-11.66345657826196
 20
49.20000000000044
 30
0.0
 10
16.42141298450815
 20
49.20000000000044
 30
0.0
 77
             2
  0
LEADER
  5
1FE
100
AcDbEntity
  8
1
  6
CONTINUOUS
 62
             2
100
AcDbLeader
  3
Standard
 71
             0
 73
             3
 74
             0
 75
             0
 40
0.0
 76
             3
 10
128.2500000000008
 20
37.25000000000114
 30
0.0
 10
125.5294255652052
 20
49.20000000000056
 30
0.0
 10
96.5294255652052
 20
49.20000000000056
 30
0.0
 77
             2
  0
LEADER
  5
1FC
100
AcDbEntity
  8
1
  6
CONTINUOUS
 62
             2
100
AcDbLeader
  3
Standard
 71
             0
 73
             3
 74
             0
 75
             0
 40
0.0
 76
             3
 10
131.7500000000008
 20
2.75000000000051
 30
0.0
 10
134.4705744347965
 20
-9.19999999999948
 30
0.0
 10
163.4705744347965
 20
-9.19999999999948
 30
0.0
 77
             2
  0
ARC
  5
1FA
100
AcDbEntity
  8
1
  6
CONTINUOUS
 62
             3
100
AcDbCircle
 10
-27.22426406871213
 20
21.80000000000047
 40
0.30000000000019
100
AcDbArc
 50
-90.0
 51
-44.99999999998369
  0
ARC
  5
1F9
100
AcDbEntity
  8
1
  6
CONTINUOUS
 62
             3
100
AcDbCircle
 10
-27.22426406871213
 20
18.20000000000022
 40
0.30000000000036
100
AcDbArc
 50
44.99999999998369
 51
90.0
  0
ARC
  5
1F8
100
AcDbEntity
  8
1
  6
CONTINUOUS
 62
             3
100
AcDbCircle
 10
-23.5
 20
2.70710678118655
 40
2.50000000000002
100
AcDbArc
 50
-45.00000000000005
 51
-0.0000000000013
  0
ARC
  5
1F7
100
AcDbEntity
  8
1
  6
CONTINUOUS
 62
             3
100
AcDbCircle
 10
-22.0
 20
-0.03553390593277
 40
0.50000000000005
100
AcDbArc
 50
134.99999999999571
 51
180.0
  0
ARC
  5
1F6
100
AcDbEntity
  8
1
  6
CONTINUOUS
 62
             3
100
AcDbCircle
 10
-115.5
 20
-4.5
 40
5.5
100
AcDbArc
 50
-90.0
 51
0.0
  0
ARC
  5
1F5
100
AcDbEntity
  8
1
  6
CONTINUOUS
 62
             3
100
AcDbCircle
 10
-115.5
 20
44.5
 40
5.5
100
AcDbArc
 50
0.0
 51
90.0
  0
ARC
  5
1F4
100
AcDbEntity
  8
1
  6
CONTINUOUS
 62
             3
100
AcDbCircle
 10
-164.5
 20
44.5
 40
5.5
100
AcDbArc
 50
90.0
 51
180.0
  0
ARC
  5
1F3
100
AcDbEntity
  8
1
  6
CONTINUOUS
 62
             3
100
AcDbCircle
 10
-164.5
 20
-4.5
 40
5.5
100
AcDbArc
 50
180.0
 51
-90.0
  0
ARC
  5
1F2
100
AcDbEntity
  8
1
  6
CONTINUOUS
 62
             3
100
AcDbCircle
 10
-23.49999999999994
 20
37.2928932188135
 40
2.49999999999994
100
AcDbArc
 50
0.0
 51
45.00000000000023
  0
ARC
  5
1F1
100
AcDbEntity
  8
1
  6
CONTINUOUS
 62
             3
100
AcDbCircle
 10
-22.0
 20
40.03553390593277
 40
0.5
100
AcDbArc
 50
180.0
 51
-134.99999999999511
  0
ARC
  5
1F0
100
AcDbEntity
  8
1
  6
CONTINUOUS
 62
             3
100
AcDbCircle
 10
-134.1124355652982
 20
32.99756073373902
 40
0.10000000000003
100
AcDbArc
 50
60.00000000000236
 51
150.00000000000847
  0
ARC
  5
1EF
100
AcDbEntity
  8
1
  6
CONTINUOUS
 62
             3
100
AcDbCircle
 10
-134.31243556529819
 20
32.65115057222528
 40
0.10000000000007
100
AcDbArc
 50
150.00000000002012
 51
-119.99999999999766
  0
ARC
  5
1EE
100
AcDbEntity
  8
1
  6
CONTINUOUS
 62
             3
100
AcDbCircle
 10
-133.87320508075689
 20
31.01192008768391
 40
0.09999999999997
100
AcDbArc
 50
149.99999999998582
 51
-120.00000000001495
  0
ARC
  5
1ED
100
AcDbEntity
  8
1
  6
CONTINUOUS
 62
             3
100
AcDbCircle
 10
-133.52679491924309
 20
30.81192008768392
 40
0.09999999999997
100
AcDbArc
 50
-120.00000000001597
 51
-30.00000000002233
  0
ARC
  5
1EC
100
AcDbEntity
  8
1
  6
CONTINUOUS
 62
             3
100
AcDbCircle
 10
-131.8875644347018
 20
31.25115057222524
 40
0.09999999999997
100
AcDbArc
 50
-120.00000000001597
 51
-29.99999999995979
  0
ARC
  5
1EB
100
AcDbEntity
  8
1
  6
CONTINUOUS
 62
             3
100
AcDbCircle
 10
-131.68756443470181
 20
31.59756073373904
 40
0.09999999999997
100
AcDbArc
 50
-30.00000000001596
 51
60.00000000000134
  0
ARC
  5
1EA
100
AcDbEntity
  8
1
  6
CONTINUOUS
 62
             3
100
AcDbCircle
 10
-132.12679491924311
 20
33.23679121828036
 40
0.09999999999997
100
AcDbArc
 50
-30.00000000001596
 51
59.99999999999829
  0
ARC
  5
1E9
100
AcDbEntity
  8
1
  6
CONTINUOUS
 62
             3
100
AcDbCircle
 10
-132.47320508075691
 20
33.43679121828035
 40
0.10000000000002
100
AcDbArc
 50
60.00000000000033
 51
150.00000000000847
  0
ARC
  5
1E8
100
AcDbEntity
  8
1
  6
CONTINUOUS
 62
             3
100
AcDbCircle
 10
-154.19999999999999
 20
18.59999999999997
 40
0.10000000000002
100
AcDbArc
 50
180.0
 51
-90.0
  0
ARC
  5
1E7
100
AcDbEntity
  8
1
  6
CONTINUOUS
 62
             3
100
AcDbCircle
 10
-153.80000000000001
 20
18.59999999999997
 40
0.09999999999997
100
AcDbArc
 50
-90.0
 51
0.0
  0
ARC
  5
1E6
100
AcDbEntity
  8
1
  6
CONTINUOUS
 62
             3
100
AcDbCircle
 10
-152.59999999999999
 20
19.80000000000001
 40
0.10000000000002
100
AcDbArc
 50
-90.0
 51
0.0
  0
ARC
  5
1E5
100
AcDbEntity
  8
1
  6
CONTINUOUS
 62
             3
100
AcDbCircle
 10
-152.59999999999999
 20
20.19999999999999
 40
0.09999999999999
100
AcDbArc
 50
0.0
 51
90.0
  0
ARC
  5
1E4
100
AcDbEntity
  8
1
  6
CONTINUOUS
 62
             3
100
AcDbCircle
 10
-153.80000000000001
 20
21.39999999999998
 40
0.10000000000002
100
AcDbArc
 50
0.0
 51
90.0
  0
ARC
  5
1E3
100
AcDbEntity
  8
1
  6
CONTINUOUS
 62
             3
100
AcDbCircle
 10
-154.19999999999999
 20
21.39999999999998
 40
0.10000000000002
100
AcDbArc
 50
90.0
 51
180.0
  0
ARC
  5
1E2
100
AcDbEntity
  8
1
  6
CONTINUOUS
 62
             3
100
AcDbCircle
 10
-155.40000000000001
 20
20.19999999999999
 40
0.10000000000002
100
AcDbArc
 50
90.0
 51
180.0
  0
ARC
  5
1E1
100
AcDbEntity
  8
1
  6
CONTINUOUS
 62
             3
100
AcDbCircle
 10
-155.40000000000001
 20
19.80000000000001
 40
0.09999999999999
100
AcDbArc
 50
180.0
 51
-90.0
  0
ARC
  5
1E0
100
AcDbEntity
  8
1
  6
CONTINUOUS
 62
             3
100
AcDbCircle
 10
-131.68756443470181
 20
8.40243926626096
 40
0.09999999999997
100
AcDbArc
 50
-59.99999999998404
 51
29.99999999998339
  0
ARC
  5
1DF
100
AcDbEntity
  8
1
  6
CONTINUOUS
 62
             3
100
AcDbCircle
 10
-131.8875644347018
 20
8.74884942777476
 40
0.10000000000005
100
AcDbArc
 50
29.99999999999153
 51
119.99999999999969
  0
ARC
  5
1DE
100
AcDbEntity
  8
1
  6
CONTINUOUS
 62
             3
100
AcDbCircle
 10
-133.52679491924309
 20
9.18807991231608
 40
0.09999999999995
100
AcDbArc
 50
30.0000000000241
 51
120.00000000001597
  0
ARC
  5
1DD
100
AcDbEntity
  8
1
  6
CONTINUOUS
 62
             3
100
AcDbCircle
 10
-133.87320508075689
 20
8.9880799123161
 40
0.09999999999997
100
AcDbArc
 50
120.00000000001597
 51
-149.99999999998406
  0
ARC
  5
1DC
100
AcDbEntity
  8
1
  6
CONTINUOUS
 62
             3
100
AcDbCircle
 10
-134.31243556529819
 20
7.34884942777478
 40
0.09999999999997
100
AcDbArc
 50
120.00000000001623
 51
-150.0000000000162
  0
ARC
  5
1DB
100
AcDbEntity
  8
1
  6
CONTINUOUS
 62
             3
100
AcDbCircle
 10
-134.1124355652982
 20
7.00243926626098
 40
0.10000000000005
100
AcDbArc
 50
-150.00000000000804
 51
-60.00000000000058
  0
ARC
  5
1DA
100
AcDbEntity
  8
1
  6
CONTINUOUS
 62
             3
100
AcDbCircle
 10
-132.47320508075691
 20
6.56320878171965
 40
0.09999999999995
100
AcDbArc
 50
-149.9999999999759
 51
-60.00000000000033
  0
ARC
  5
1D9
100
AcDbEntity
  8
1
  6
CONTINUOUS
 62
             3
100
AcDbCircle
 10
-132.12679491924311
 20
6.76320878171964
 40
0.09999999999997
100
AcDbArc
 50
-59.99999999998404
 51
30.00000000001596
  0
ARC
  5
1D8
100
AcDbEntity
  8
1
  6
CONTINUOUS
 62
             3
100
AcDbCircle
 10
-19.0
 20
36.60000000000003
 40
1.99999999999996
100
AcDbArc
 50
90.0
 51
-179.99999999999878
  0
ARC
  5
1D7
100
AcDbEntity
  8
1
  6
CONTINUOUS
 62
             3
100
AcDbCircle
 10
-19.0
 20
3.39999999999998
 40
2.0
100
AcDbArc
 50
180.0
 51
-90.0
  0
ARC
  5
1D6
100
AcDbEntity
  8
1
  6
CONTINUOUS
 62
             3
100
AcDbCircle
 10
51.19999999992797
 20
26.30000000000007
 40
1.0
100
AcDbArc
 50
0.0
 51
90.0
  0
ARC
  5
1D5
100
AcDbEntity
  8
1
  6
CONTINUOUS
 62
             3
100
AcDbCircle
 10
51.19999999992797
 20
13.69999999999993
 40
1.0
100
AcDbArc
 50
-90.0
 51
0.0
  0
XLINE
  5
1D4
100
AcDbEntity
  8
1
  6
DOT_CENTER
 62
             3
 60
             1
100
AcDbXline
 10
55.78800145276795
 20
20.0
 30
0.0
 11
1.0
 21
0.0
 31
0.0
  0
CIRCLE
  5
1D3
100
AcDbEntity
  8
1
  6
CONTINUOUS
 62
             3
100
AcDbCircle
 10
139.8994949366124
 20
29.8994949366122
 40
1.24999999999972
  0
CIRCLE
  5
1D2
100
AcDbEntity
  8
1
  6
CONTINUOUS
 62
             3
100
AcDbCircle
 10
130.0000000000008
 20
20.00000000000048
 40
7.29999999999436
  0
CIRCLE
  5
1D1
100
AcDbEntity
  8
1
  6
CONTINUOUS
 62
             3
100
AcDbCircle
 10
130.0000000000008
 20
20.00000000000048
 40
3.99999999999998
  0
CIRCLE
  5
1D0
100
AcDbEntity
  8
1
  6
CONTINUOUS
 62
             3
100
AcDbCircle
 10
130.0000000000008
 20
20.00000000000048
 40
2.5
  0
CIRCLE
  5
1CF
100
AcDbEntity
  8
1
  6
CONTINUOUS
 62
             3
100
AcDbCircle
 10
120.10050506338909
 20
29.89949493661209
 40
1.24999999999972
  0
CIRCLE
  5
1CE
100
AcDbEntity
  8
1
  6
CONTINUOUS
 62
             3
100
AcDbCircle
 10
139.8994949366124
 20
10.10050506338871
 40
1.24999999999973
  0
CIRCLE
  5
1CD
100
AcDbEntity
  8
1
  6
CONTINUOUS
 62
             3
100
AcDbCircle
 10
120.10050506338909
 20
10.10050506338871
 40
1.24999999999973
  0
CIRCLE
  5
1CC
100
AcDbEntity
  8
1
  6
CONTINUOUS
 62
             3
100
AcDbCircle
 10
130.0000000000008
 20
20.00000000000048
 40
18.59999999999284
  0
CIRCLE
  5
1CB
100
AcDbEntity
  8
1
  6
CONTINUOUS
 62
             3
100
AcDbCircle
 10
-140.0
 20
20.0
 40
3.4000000000004
  0
CIRCLE
  5
1CA
100
AcDbEntity
  8
1
  6
DASH_CENTER
 62
             1
100
AcDbCircle
 10
-140.0
 20
20.0
 40
2.9000000000004
  0
CIRCLE
  5
1C9
100
AcDbEntity
  8
1
  6
CONTINUOUS
 62
             3
100
AcDbCircle
 10
-140.0
 20
20.0
 40
1.50000000000031
  0
CIRCLE
  5
1C8
100
AcDbEntity
  8
1
  6
CONTINUOUS
 62
             3
100
AcDbCircle
 10
-115.25
 20
-4.74999999999994
 40
2.24999999999994
  0
CIRCLE
  5
1C7
100
AcDbEntity
  8
1
  6
CONTINUOUS
 62
             3
100
AcDbCircle
 10
-127.3
 20
20.0
 40
1.85000000000002
  0
CIRCLE
  5
1C6
100
AcDbEntity
  8
1
  6
CONTINUOUS
 62
             3
100
AcDbCircle
 10
-140.0
 20
20.0
 40
18.0
  0
CIRCLE
  5
1C5
100
AcDbEntity
  8
1
  6
CONTINUOUS
 62
             3
100
AcDbCircle
 10
-115.25
 20
44.75
 40
2.25
  0
CIRCLE
  5
1C4
100
AcDbEntity
  8
1
  6
CONTINUOUS
 62
             3
100
AcDbCircle
 10
-164.75
 20
44.75
 40
2.25
  0
CIRCLE
  5
1C3
100
AcDbEntity
  8
1
  6
CONTINUOUS
 62
             3
100
AcDbCircle
 10
-164.75
 20
-4.75
 40
2.25
  0
CIRCLE
  5
1C2
100
AcDbEntity
  8
1
  6
CONTINUOUS
 62
             3
100
AcDbCircle
 10
-140.0
 20
20.0
 40
7.5
  0
CIRCLE
  5
1C1
100
AcDbEntity
  8
1
  6
CONTINUOUS
 62
             2
100
AcDbCircle
 10
-140.0
 20
20.0
 40
7.30000000000007
  0
CIRCLE
  5
1C0
100
AcDbEntity
  8
1
  6
CONTINUOUS
 62
             3
100
AcDbCircle
 10
-140.0
 20
20.0
 40
6.30000000000007
  0
CIRCLE
  5
1BF
100
AcDbEntity
  8
1
  6
CONTINUOUS
 62
             3
100
AcDbCircle
 10
-133.0
 20
32.12435565298216
 40
2.75
  0
CIRCLE
  5
1BE
100
AcDbEntity
  8
1
  6
CONTINUOUS
 62
             3
100
AcDbCircle
 10
-154.0
 20
20.0
 40
2.75
  0
CIRCLE
  5
1BD
100
AcDbEntity
  8
1
  6
CONTINUOUS
 62
             3
100
AcDbCircle
 10
-133.0000000000006
 20
7.87564434701869
 40
2.75000000000009
  0
ARC
  5
1BC
100
AcDbEntity
  8
1
  6
CONTINUOUS
 62
             3
100
AcDbCircle
 10
130.0000000000008
 20
20.00000000000048
 40
19.19999999999964
100
AcDbArc
 50
-138.61449399425467
 51
-144.58550600574776
  0
ARC
  5
1BB
100
AcDbEntity
  8
1
  6
CONTINUOUS
 62
             3
100
AcDbCircle
 10
129.9999999999994
 20
20.00000000000773
 40
17.19999999999943
100
AcDbArc
 50
-78.2589759149751
 51
-77.40704422068366
  0
ARC
  5
1BA
100
AcDbEntity
  8
1
  6
CONTINUOUS
 62
             3
100
AcDbCircle
 10
129.9999999999994
 20
20.00000000000773
 40
17.20000000000016
100
AcDbArc
 50
-102.5929557793109
 51
-101.7410240850194
  0
ARC
  5
1B9
100
AcDbEntity
  8
1
  6
CONTINUOUS
 62
             3
100
AcDbCircle
 10
130.0000000000008
 20
20.00000000000048
 40
17.59999999999992
100
AcDbArc
 50
53.25719616101189
 51
77.69778358932459
  0
ARC
  5
1B8
100
AcDbEntity
  8
1
  6
DASH_CENTER
 62
             1
100
AcDbCircle
 10
130.0000000000008
 20
20.00000000000048
 40
14.00000000000005
100
AcDbArc
 50
33.27400204701847
 51
55.35591145831639
  0
ARC
  5
1B7
100
AcDbEntity
  8
1
  6
DASH_CENTER
 62
             1
100
AcDbCircle
 10
130.0000000000008
 20
20.00000000000048
 40
14.00000000000005
100
AcDbArc
 50
124.64408854168425
 51
146.72599795298149
  0
ARC
  5
1B6
100
AcDbEntity
  8
1
  6
DASH_CENTER
 62
             1
100
AcDbCircle
 10
130.0000000000008
 20
20.00000000000048
 40
14.00000000000018
100
AcDbArc
 50
-55.35591145831704
 51
-33.27400204701864
  0
ARC
  5
1B5
100
AcDbEntity
  8
1
  6
DASH_CENTER
 62
             1
100
AcDbCircle
 10
130.0000000000008
 20
20.00000000000048
 40
14.00000000000006
100
AcDbArc
 50
-146.72599795298134
 51
-124.64408854168359
  0
ARC
  5
1B4
100
AcDbEntity
  8
1
  6
CONTINUOUS
 62
             3
100
AcDbCircle
 10
130.0000000000008
 20
20.00000000000048
 40
17.60000000000019
100
AcDbArc
 50
-126.74280383898902
 51
-101.47051545007453
  0
ARC
  5
1B3
100
AcDbEntity
  8
1
  6
CONTINUOUS
 62
             3
100
AcDbCircle
 10
130.0000000000008
 20
20.00000000000048
 40
17.59999999999991
100
AcDbArc
 50
-46.7428038389879
 51
46.74280383898804
  0
ARC
  5
1B2
100
AcDbEntity
  8
1
  6
CONTINUOUS
 62
             3
100
AcDbCircle
 10
130.0000000000008
 20
20.00000000000048
 40
17.60000000000005
100
AcDbArc
 50
102.30221641067664
 51
126.74280383898879
  0
ARC
  5
1B1
100
AcDbEntity
  8
1
  6
CONTINUOUS
 62
             3
100
AcDbCircle
 10
130.0000000000008
 20
20.00000000000048
 40
17.60000000000015
100
AcDbArc
 50
133.25719616101216
 51
-133.25719616101202
  0
ARC
  5
1B0
100
AcDbEntity
  8
1
  6
CONTINUOUS
 62
             3
100
AcDbCircle
 10
130.0000000000008
 20
20.00000000000048
 40
17.5999999999999
100
AcDbArc
 50
-78.52948454991993
 51
-53.25719616101199
  0
ARC
  5
1AF
100
AcDbEntity
  8
1
  6
CONTINUOUS
 62
             3
100
AcDbCircle
 10
-140.0
 20
20.0
 40
22.99999999999995
100
AcDbArc
 50
-12.555857798586
 51
12.555857798586
  0
ARC
  5
1AE
100
AcDbEntity
  8
1
  6
CONTINUOUS
 62
             3
100
AcDbCircle
 10
-140.0
 20
20.0
 40
27.0
100
AcDbArc
 50
-10.67192928576215
 51
10.67192928576215
  0
ARC
  5
1AD
100
AcDbEntity
  8
1
  6
CONTINUOUS
 62
             3
100
AcDbCircle
 10
-140.0
 20
20.0
 40
22.99999999999998
100
AcDbArc
 50
-102.55585779858599
 51
-77.44414220141401
  0
ARC
  5
1AC
100
AcDbEntity
  8
1
  6
CONTINUOUS
 62
             3
100
AcDbCircle
 10
-140.0
 20
20.0
 40
26.99999999999999
100
AcDbArc
 50
-100.67192928576216
 51
-79.32807071423785
  0
ARC
  5
1AB
100
AcDbEntity
  8
1
  6
CONTINUOUS
 62
             3
100
AcDbCircle
 10
-140.0
 20
20.0
 40
22.99999999999997
100
AcDbArc
 50
77.44414220141401
 51
102.55585779858599
  0
ARC
  5
1AA
100
AcDbEntity
  8
1
  6
CONTINUOUS
 62
             3
100
AcDbCircle
 10
-140.0
 20
20.0
 40
26.99999999999998
100
AcDbArc
 50
79.32807071423784
 51
100.67192928576216
  0
ARC
  5
1A9
100
AcDbEntity
  8
1
  6
CONTINUOUS
 62
             3
100
AcDbCircle
 10
-140.0
 20
20.0
 40
23.00000000000006
100
AcDbArc
 50
167.44414220141405
 51
-167.44414220141405
  0
ARC
  5
1A8
100
AcDbEntity
  8
1
  6
CONTINUOUS
 62
             3
100
AcDbCircle
 10
-140.0
 20
20.0
 40
27.00000000000001
100
AcDbArc
 50
169.32807071423787
 51
-169.32807071423787
  0
ARC
  5
1A7
100
AcDbEntity
  8
1
  6
CONTINUOUS
 62
             3
100
AcDbCircle
 10
-152.69999999999999
 20
20.0
 40
1.85000000000006
100
AcDbArc
 50
-59.37908992467043
 51
59.37908992467043
  0
ARC
  5
1A6
100
AcDbEntity
  8
1
  6
CONTINUOUS
 62
             3
100
AcDbCircle
 10
-126.0
 20
20.00000000000006
 40
1.20000000000001
100
AcDbArc
 50
84.62062100888811
 51
-84.62062100888315
  0
ARC
  5
1A5
100
AcDbEntity
  8
1
  6
CONTINUOUS
 62
             3
100
AcDbCircle
 10
-133.36710194908969
 20
33.4943987785424
 40
0.70294732953246
100
AcDbArc
 50
-119.76027010391921
 51
-30.23972989607665
  0
ARC
  5
1A4
100
AcDbEntity
  8
1
  6
CONTINUOUS
 62
             3
100
AcDbCircle
 10
-131.6299568744397
 20
32.49145760207182
 40
0.70294732953257
100
AcDbArc
 50
150.23972989608052
 51
-119.76027010392481
  0
ARC
  5
1A3
100
AcDbEntity
  8
1
  6
CONTINUOUS
 62
             3
100
AcDbCircle
 10
-132.63289805091031
 20
30.75431252742186
 40
0.70294732953252
100
AcDbArc
 50
59.76027010392149
 51
149.76027010391911
  0
ARC
  5
1A2
100
AcDbEntity
  8
1
  6
CONTINUOUS
 62
             3
100
AcDbCircle
 10
-134.3700431255603
 20
31.75725370389245
 40
0.70294732953254
100
AcDbArc
 50
-29.76027010391548
 51
59.76027010392321
  0
ARC
  5
1A1
100
AcDbEntity
  8
1
  6
DASH_CENTER
 62
             1
100
AcDbCircle
 10
-140.0
 20
20.0
 40
13.99999999999997
100
AcDbArc
 50
44.67093421161029
 51
76.4123833630502
  0
ARC
  5
1A0
100
AcDbEntity
  8
1
  6
CONTINUOUS
 62
             3
100
AcDbCircle
 10
-20.0
 20
32.12435565298216
 40
5.0
100
AcDbArc
 50
154.15806723683284
 51
176.56018723248468
  0
ARC
  5
19F
100
AcDbEntity
  8
1
  6
CONTINUOUS
 62
             3
100
AcDbCircle
 10
-26.59328433515597
 20
32.12435565298216
 40
1.6301352994725
100
AcDbArc
 50
-10.60480627874453
 51
10.60480627874453
  0
ARC
  5
19E
100
AcDbEntity
  8
1
  6
CONTINUOUS
 62
             3
100
AcDbCircle
 10
-155.00294117647061
 20
18.99705882352941
 40
0.70294732953252
100
AcDbArc
 50
0.23972989608092
 51
89.76027010391704
  0
ARC
  5
19D
100
AcDbEntity
  8
1
  6
CONTINUOUS
 62
             3
100
AcDbCircle
 10
-155.00294117647061
 20
21.00294117647059
 40
0.7029473295325
100
AcDbArc
 50
-89.76027010391704
 51
0.23972989608034
  0
ARC
  5
19C
100
AcDbEntity
  8
1
  6
CONTINUOUS
 62
             3
100
AcDbCircle
 10
-152.99705882352939
 20
21.00294117647059
 40
0.70294732953252
100
AcDbArc
 50
179.76027010391968
 51
-90.23972989608296
  0
ARC
  5
19B
100
AcDbEntity
  8
1
  6
CONTINUOUS
 62
             3
100
AcDbCircle
 10
-152.99705882352939
 20
18.99705882352941
 40
0.7029473295325
100
AcDbArc
 50
90.23972989608296
 51
179.76027010391908
  0
ARC
  5
19A
100
AcDbEntity
  8
1
  6
DASH_CENTER
 62
             1
100
AcDbCircle
 10
-140.0
 20
20.0
 40
14.00000000000001
100
AcDbArc
 50
164.6709342116103
 51
-163.5876166369498
  0
ARC
  5
199
100
AcDbEntity
  8
1
  6
CONTINUOUS
 62
             3
100
AcDbCircle
 10
-131.6299568744397
 20
7.50854239792818
 40
0.70294732953256
100
AcDbArc
 50
120.23972989608467
 51
-150.23972989608453
  0
ARC
  5
198
100
AcDbEntity
  8
1
  6
CONTINUOUS
 62
             3
100
AcDbCircle
 10
-133.36710194908969
 20
6.5056012214576
 40
0.70294732953253
100
AcDbArc
 50
30.23972989608066
 51
120.23972989607866
  0
ARC
  5
197
100
AcDbEntity
  8
1
  6
CONTINUOUS
 62
             3
100
AcDbCircle
 10
-134.3700431255603
 20
8.24274629610755
 40
0.70294732953256
100
AcDbArc
 50
-60.23972989607734
 51
29.76027010391548
  0
ARC
  5
196
100
AcDbEntity
  8
1
  6
CONTINUOUS
 62
             3
100
AcDbCircle
 10
-132.63289805091031
 20
9.24568747257814
 40
0.70294732953253
100
AcDbArc
 50
-149.76027010391937
 51
-60.23972989608338
  0
ARC
  5
195
100
AcDbEntity
  8
1
  6
DASH_CENTER
 62
             1
100
AcDbCircle
 10
-140.0
 20
20.0
 40
13.99999999999997
100
AcDbArc
 50
-75.32906578838991
 51
-43.58761663694967
  0
ARC
  5
194
100
AcDbEntity
  8
1
  6
CONTINUOUS
 62
             3
100
AcDbCircle
 10
-20.0
 20
32.12435565298216
 40
5.0
100
AcDbArc
 50
-176.56018723248468
 51
-154.15806723683284
  0
ARC
  5
193
100
AcDbEntity
  8
1
  6
CONTINUOUS
 62
             3
100
AcDbCircle
 10
-20.0
 20
7.87564434701784
 40
5.0
100
AcDbArc
 50
-176.56018723248468
 51
-154.15806723683284
  0
ARC
  5
192
100
AcDbEntity
  8
1
  6
CONTINUOUS
 62
             3
100
AcDbCircle
 10
-26.59328433515597
 20
7.87564434701784
 40
1.6301352994725
100
AcDbArc
 50
-10.60480627874453
 51
10.60480627874453
  0
ARC
  5
191
100
AcDbEntity
  8
1
  6
CONTINUOUS
 62
             3
100
AcDbCircle
 10
-20.0
 20
7.87564434701784
 40
5.0
100
AcDbArc
 50
154.15806723683284
 51
176.56018723248468
  0
LINE
  5
190
100
AcDbEntity
  8
1
  6
CONTINUOUS
 62
             3
100
AcDbLine
 10
-11.00000000000004
 20
33.45041284602991
 11
-11.0
 21
39.20000000000044
  0
LINE
  5
18F
100
AcDbEntity
  8
1
  6
CONTINUOUS
 62
             3
100
AcDbLine
 10
-11.00000000000004
 20
33.45041284602991
 11
5.99999999999997
 21
33.45041284602991
  0
LINE
  5
18E
100
AcDbEntity
  8
1
  6
CONTINUOUS
 62
             3
100
AcDbLine
 10
5.99999999999997
 20
33.45041284602991
 11
5.99999999999997
 21
39.20000000000033
  0
LINE
  5
18D
100
AcDbEntity
  8
1
  6
CONTINUOUS
 62
             3
100
AcDbLine
 10
32.59999999999991
 20
1.40000000000037
 11
47.20000000000005
 21
1.4000000000005
  0
LINE
  5
18C
100
AcDbEntity
  8
1
  6
CONTINUOUS
 62
             3
100
AcDbLine
 10
-17.40000000000009
 20
38.6
 11
-19.0
 21
38.59999999999999
  0
LINE
  5
18B
100
AcDbEntity
  8
1
  6
CONTINUOUS
 62
             3
100
AcDbLine
 10
-17.40000000000009
 20
39.20000000000044
 11
32.59999999999991
 21
39.20000000000044
  0
LINE
  5
18A
100
AcDbEntity
  8
1
  6
CONTINUOUS
 62
             3
100
AcDbLine
 10
32.59999999999991
 20
0.80000000000047
 11
-17.40000000000009
 21
0.80000000000047
  0
LINE
  5
189
100
AcDbEntity
  8
1
  6
CONTINUOUS
 62
             3
100
AcDbLine
 10
32.59999999999991
 20
39.20000000000044
 11
32.59999999999991
 21
8.87384278419665
  0
LINE
  5
188
100
AcDbEntity
  8
1
  6
CONTINUOUS
 62
             3
100
AcDbLine
 10
-17.40000000000009
 20
0.80000000000047
 11
-17.40000000000009
 21
7.67966743402144
  0
LINE
  5
187
100
AcDbEntity
  8
1
  6
CONTINUOUS
 62
             3
100
AcDbLine
 10
-17.40000000000009
 20
8.87384278419665
 11
32.59999999999991
 21
8.87384278419665
  0
LINE
  5
186
100
AcDbEntity
  8
1
  6
CONTINUOUS
 62
             3
100
AcDbLine
 10
-17.40000000000009
 20
8.87384278419665
 11
-17.40000000000009
 21
39.20000000000044
  0
LINE
  5
185
100
AcDbEntity
  8
1
  6
CONTINUOUS
 62
             3
100
AcDbLine
 10
32.59999999999991
 20
7.67966743402144
 11
-17.40000000000009
 21
7.67966743402144
  0
LINE
  5
184
100
AcDbEntity
  8
1
  6
CONTINUOUS
 62
             3
100
AcDbLine
 10
-17.40000000000009
 20
7.30645586954495
 11
32.59999999999991
 21
7.30645586954495
  0
LINE
  5
183
100
AcDbEntity
  8
1
  6
CONTINUOUS
 62
             3
100
AcDbLine
 10
32.59999999999991
 20
7.67966743402144
 11
32.59999999999991
 21
0.80000000000047
  0
LINE
  5
182
100
AcDbEntity
  8
1
  6
CONTINUOUS
 62
             3
100
AcDbLine
 10
114.8232361875276
 20
9.2470543486732
 11
114.3523603821797
 21
8.87384278419665
  0
LINE
  5
181
100
AcDbEntity
  8
1
  6
CONTINUOUS
 62
             3
100
AcDbLine
 10
116.0655317480843
 20
7.6796674340215
 11
115.5946559427363
 21
7.306455869545
  0
LINE
  5
180
100
AcDbEntity
  8
1
  6
CONTINUOUS
 62
             3
100
AcDbLine
 10
130.95000000000081
 20
11.00000000000637
 11
130.95000000000081
 21
10.80000000000655
  0
LINE
  5
17F
100
AcDbEntity
  8
1
  6
CONTINUOUS
 62
             3
100
AcDbLine
 10
131.95000000000081
 20
11.00000000000637
 11
130.95000000000081
 21
11.00000000000637
  0
LINE
  5
17E
100
AcDbEntity
  8
1
  6
CONTINUOUS
 62
             3
100
AcDbLine
 10
131.95000000000081
 20
10.80000000000655
 11
131.95000000000081
 21
11.00000000000637
  0
LINE
  5
17D
100
AcDbEntity
  8
1
  6
CONTINUOUS
 62
             3
100
AcDbLine
 10
129.05000000000049
 20
10.80000000000632
 11
129.05000000000049
 21
11.00000000000637
  0
LINE
  5
17C
100
AcDbEntity
  8
1
  6
CONTINUOUS
 62
             3
100
AcDbLine
 10
129.05000000000049
 20
11.00000000000637
 11
128.05000000000049
 21
11.00000000000637
  0
LINE
  5
17B
100
AcDbEntity
  8
1
  6
CONTINUOUS
 62
             3
100
AcDbLine
 10
128.05000000000049
 20
11.00000000000637
 11
128.05000000000049
 21
10.80000000000632
  0
LINE
  5
17A
100
AcDbEntity
  8
1
  6
CONTINUOUS
 62
             3
100
AcDbLine
 10
130.95000000000081
 20
29.19999999999436
 11
130.95000000000081
 21
28.99999999999454
  0
LINE
  5
179
100
AcDbEntity
  8
1
  6
CONTINUOUS
 62
             3
100
AcDbLine
 10
130.95000000000081
 20
28.99999999999454
 11
131.95000000000081
 21
28.99999999999454
  0
LINE
  5
178
100
AcDbEntity
  8
1
  6
CONTINUOUS
 62
             3
100
AcDbLine
 10
131.95000000000081
 20
28.99999999999454
 11
131.95000000000081
 21
29.19999999999436
  0
LINE
  5
177
100
AcDbEntity
  8
1
  6
CONTINUOUS
 62
             3
100
AcDbLine
 10
129.05000000000049
 20
28.99999999999443
 11
129.05000000000049
 21
29.19999999999436
  0
LINE
  5
176
100
AcDbEntity
  8
1
  6
CONTINUOUS
 62
             3
100
AcDbLine
 10
128.05000000000049
 20
28.99999999999443
 11
129.05000000000049
 21
28.99999999999443
  0
LINE
  5
175
100
AcDbEntity
  8
1
  6
CONTINUOUS
 62
             3
100
AcDbLine
 10
128.05000000000049
 20
29.19999999999436
 11
128.05000000000049
 21
28.99999999999443
  0
LINE
  5
174
100
AcDbEntity
  8
0
  6
CONTINUOUS
 62
             3
100
AcDbLine
 10
128.25000000000031
 20
36.74999976763888
 11
128.25000000000031
 21
37.29999976763889
  0
LINE
  5
173
100
AcDbEntity
  8
0
  6
CONTINUOUS
 62
             3
100
AcDbLine
 10
131.75000000000139
 20
37.29999976763889
 11
131.75000000000131
 21
36.74999976763888
  0
LINE
  5
172
100
AcDbEntity
  8
1
  6
CONTINUOUS
 62
             3
100
AcDbLine
 10
128.25000000000031
 20
36.74999976763888
 11
129.00000000000071
 21
36.74999976763888
  0
LINE
  5
171
100
AcDbEntity
  8
1
  6
CONTINUOUS
 62
             3
100
AcDbLine
 10
131.75000000000139
 20
37.29999976763889
 11
131.0000000000008
 21
37.29999976763889
  0
LINE
  5
170
100
AcDbEntity
  8
1
  6
CONTINUOUS
 62
             3
100
AcDbLine
 10
129.0000000000008
 20
37.29999976763889
 11
129.0000000000006
 21
38.57309882598349
  0
LINE
  5
16F
100
AcDbEntity
  8
1
  6
CONTINUOUS
 62
             3
100
AcDbLine
 10
129.0000000000008
 20
37.29999976763889
 11
128.25000000000031
 21
37.29999976763889
  0
LINE
  5
16E
100
AcDbEntity
  8
1
  6
CONTINUOUS
 62
             3
100
AcDbLine
 10
131.0000000000008
 20
37.29999976763889
 11
131.0000000000008
 21
38.57309882598349
  0
LINE
  5
16D
100
AcDbEntity
  8
1
  6
CONTINUOUS
 62
             3
100
AcDbLine
 10
131.0000000000008
 20
37.29999976763889
 11
129.0000000000008
 21
37.29999976763889
  0
LINE
  5
16C
100
AcDbEntity
  8
1
  6
CONTINUOUS
 62
             3
100
AcDbLine
 10
129.00000000000071
 20
36.74999976763888
 11
129.00000000000071
 21
29.19999999999436
  0
LINE
  5
16B
100
AcDbEntity
  8
1
  6
CONTINUOUS
 62
             3
100
AcDbLine
 10
129.00000000000071
 20
36.74999976763888
 11
129.50000000000099
 21
36.74999976763888
  0
LINE
  5
16A
100
AcDbEntity
  8
1
  6
CONTINUOUS
 62
             3
100
AcDbLine
 10
131.00000000000071
 20
36.74999976763888
 11
131.0000000000008
 21
29.19999999999504
  0
LINE
  5
169
100
AcDbEntity
  8
1
  6
CONTINUOUS
 62
             3
100
AcDbLine
 10
131.00000000000071
 20
36.74999976763888
 11
131.75000000000131
 21
36.74999976763888
  0
LINE
  5
168
100
AcDbEntity
  8
1
  6
CONTINUOUS
 62
             3
100
AcDbLine
 10
126.2500000000007
 20
36.78622947537019
 11
126.2500000000007
 21
29.19999999999436
  0
LINE
  5
167
100
AcDbEntity
  8
1
  6
CONTINUOUS
 62
             3
100
AcDbLine
 10
126.2500000000007
 20
29.19999999999436
 11
133.7500000000008
 21
29.19999999999436
  0
LINE
  5
166
100
AcDbEntity
  8
1
  6
CONTINUOUS
 62
             3
100
AcDbLine
 10
133.7500000000008
 20
29.19999999999436
 11
133.7500000000008
 21
36.78622947537019
  0
LINE
  5
165
100
AcDbEntity
  8
0
  6
CONTINUOUS
 62
             3
100
AcDbLine
 10
126.25000000000151
 20
38.21805423199112
 11
126.2500000000007
 21
36.78622947537019
  0
LINE
  5
164
100
AcDbEntity
  8
0
  6
CONTINUOUS
 62
             3
100
AcDbLine
 10
133.75000000000139
 20
38.21805423199049
 11
133.7500000000008
 21
36.78622947537019
  0
LINE
  5
163
100
AcDbEntity
  8
1
  6
CONTINUOUS
 62
             3
100
AcDbLine
 10
126.2499999999994
 20
10.80000000000655
 11
126.2500000000008
 21
3.21377052463072
  0
LINE
  5
162
100
AcDbEntity
  8
1
  6
CONTINUOUS
 62
             3
100
AcDbLine
 10
133.74999999999969
 20
3.21377052463072
 11
133.74999999999969
 21
10.80000000000655
  0
LINE
  5
161
100
AcDbEntity
  8
1
  6
CONTINUOUS
 62
             3
100
AcDbLine
 10
133.74999999999969
 20
10.80000000000655
 11
126.2499999999994
 21
10.80000000000655
  0
LINE
  5
160
100
AcDbEntity
  8
1
  6
CONTINUOUS
 62
             3
100
AcDbLine
 10
128.99999999999969
 20
3.25000023236203
 11
128.99999999999969
 21
10.80000000000655
  0
LINE
  5
15F
100
AcDbEntity
  8
1
  6
CONTINUOUS
 62
             3
100
AcDbLine
 10
130.99999999999969
 20
3.25000023236203
 11
130.99999999999969
 21
10.80000000000655
  0
LINE
  5
15E
100
AcDbEntity
  8
1
  6
CONTINUOUS
 62
             3
100
AcDbLine
 10
128.9999999999996
 20
2.70000023236207
 11
128.9999999999996
 21
1.42690117401753
  0
LINE
  5
15D
100
AcDbEntity
  8
1
  6
CONTINUOUS
 62
             3
100
AcDbLine
 10
130.9999999999996
 20
2.70000023236207
 11
130.99999999999969
 21
1.42690117401753
  0
LINE
  5
15C
100
AcDbEntity
  8
0
  6
CONTINUOUS
 62
             3
100
AcDbLine
 10
126.5000000000006
 20
1.73226888746945
 11
126.5000000000021
 21
3.15986935918431
  0
LINE
  5
15B
100
AcDbEntity
  8
0
  6
CONTINUOUS
 62
             3
100
AcDbLine
 10
133.5000000000006
 20
1.73226888746922
 11
133.5000000000021
 21
3.15986935918545
  0
LINE
  5
15A
100
AcDbEntity
  8
1
  6
CONTINUOUS
 62
             2
100
AcDbLine
 10
131.2500000000008
 20
37.29999976763889
 11
131.2500000000008
 21
36.79999976763889
  0
LINE
  5
159
100
AcDbEntity
  8
1
  6
CONTINUOUS
 62
             2
100
AcDbLine
 10
128.7500000000008
 20
37.29999976763889
 11
128.7500000000008
 21
36.79999976763889
  0
LINE
  5
158
100
AcDbEntity
  8
1
  6
CONTINUOUS
 62
             3
100
AcDbLine
 10
131.75000000000139
 20
37.29999976763889
 11
131.7500000000008
 21
36.79999976763889
  0
LINE
  5
157
100
AcDbEntity
  8
1
  6
CONTINUOUS
 62
             3
100
AcDbLine
 10
131.7500000000008
 20
36.79999976763889
 11
128.2500000000008
 21
36.79999976763889
  0
LINE
  5
156
100
AcDbEntity
  8
1
  6
CONTINUOUS
 62
             3
100
AcDbLine
 10
128.2500000000008
 20
36.79999976763889
 11
128.25000000000031
 21
37.29999976763889
  0
LINE
  5
155
100
AcDbEntity
  8
1
  6
CONTINUOUS
 62
             3
100
AcDbLine
 10
130.50000000000099
 20
36.79999976763889
 11
130.50000000000099
 21
36.59999976763891
  0
LINE
  5
154
100
AcDbEntity
  8
1
  6
CONTINUOUS
 62
             3
100
AcDbLine
 10
130.50000000000099
 20
36.59999976763891
 11
129.50000000000099
 21
36.59999976763891
  0
LINE
  5
153
100
AcDbEntity
  8
1
  6
CONTINUOUS
 62
             3
100
AcDbLine
 10
129.50000000000099
 20
36.59999976763891
 11
129.50000000000099
 21
36.79999976763889
  0
LINE
  5
152
100
AcDbEntity
  8
1
  6
CONTINUOUS
 62
             3
100
AcDbLine
 10
130.50000000000099
 20
36.74999976763888
 11
131.00000000000071
 21
36.74999976763888
  0
LINE
  5
151
100
AcDbEntity
  8
1
  6
CONTINUOUS
 62
             1
100
AcDbLine
 10
141.56456430550051
 20
31.5645643055002
 11
138.28111699246219
 21
28.28111699246199
  0
LINE
  5
150
100
AcDbEntity
  8
1
  6
CONTINUOUS
 62
             1
100
AcDbLine
 10
121.7188830075394
 20
28.28111699246199
 11
118.43543569450109
 21
31.5645643055002
  0
LINE
  5
14F
100
AcDbEntity
  8
1
  6
CONTINUOUS
 62
             1
100
AcDbLine
 10
138.28111699246219
 20
11.71888300753881
 11
141.56456430550051
 21
8.43543569450071
  0
LINE
  5
14E
100
AcDbEntity
  8
1
  6
CONTINUOUS
 62
             1
100
AcDbLine
 10
118.43543569450109
 20
8.43543569450071
 11
121.7188830075394
 21
11.71888300753881
  0
LINE
  5
14D
100
AcDbEntity
  8
1
  6
CONTINUOUS
 62
             2
100
AcDbLine
 10
134.7500000000008
 20
37.98325610115558
 11
134.7500000000008
 21
36.94690237182044
  0
LINE
  5
14C
100
AcDbEntity
  8
1
  6
CONTINUOUS
 62
             2
100
AcDbLine
 10
125.2500000000007
 20
37.98325610115558
 11
125.2500000000007
 21
36.94690237182067
  0
LINE
  5
14B
100
AcDbEntity
  8
1
  6
CONTINUOUS
 62
             2
100
AcDbLine
 10
125.5000000000019
 20
2.98500661181447
 11
125.5000000000008
 21
1.95256250877389
  0
LINE
  5
14A
100
AcDbEntity
  8
1
  6
CONTINUOUS
 62
             2
100
AcDbLine
 10
134.5000000000019
 20
2.98500661181515
 11
134.5000000000008
 21
1.95256250877378
  0
LINE
  5
149
100
AcDbEntity
  8
0
  6
CONTINUOUS
 62
             3
100
AcDbLine
 10
128.25000000000031
 20
2.70000023236196
 11
128.25000000000031
 21
3.25000023236191
  0
LINE
  5
148
100
AcDbEntity
  8
0
  6
CONTINUOUS
 62
             3
100
AcDbLine
 10
131.75000000000131
 20
3.25000023236191
 11
131.75000000000139
 21
2.70000023236196
  0
LINE
  5
147
100
AcDbEntity
  8
1
  6
CONTINUOUS
 62
             3
100
AcDbLine
 10
128.99999999999969
 20
3.25000023236203
 11
128.25000000000031
 21
3.25000023236191
  0
LINE
  5
146
100
AcDbEntity
  8
1
  6
CONTINUOUS
 62
             3
100
AcDbLine
 10
130.9999999999996
 20
2.70000023236207
 11
131.75000000000139
 21
2.70000023236196
  0
LINE
  5
145
100
AcDbEntity
  8
1
  6
CONTINUOUS
 62
             3
100
AcDbLine
 10
128.25000000000031
 20
2.70000023236196
 11
128.9999999999996
 21
2.70000023236207
  0
LINE
  5
144
100
AcDbEntity
  8
1
  6
CONTINUOUS
 62
             3
100
AcDbLine
 10
128.9999999999996
 20
2.70000023236207
 11
130.9999999999996
 21
2.70000023236207
  0
LINE
  5
143
100
AcDbEntity
  8
1
  6
CONTINUOUS
 62
             3
100
AcDbLine
 10
129.50000000000099
 20
3.25000023236191
 11
128.99999999999969
 21
3.25000023236203
  0
LINE
  5
142
100
AcDbEntity
  8
1
  6
CONTINUOUS
 62
             3
100
AcDbLine
 10
131.75000000000131
 20
3.25000023236191
 11
130.99999999999969
 21
3.25000023236203
  0
LINE
  5
141
100
AcDbEntity
  8
1
  6
CONTINUOUS
 62
             2
100
AcDbLine
 10
131.2500000000008
 20
3.20000023236196
 11
131.2500000000008
 21
2.70000023236196
  0
LINE
  5
140
100
AcDbEntity
  8
1
  6
CONTINUOUS
 62
             2
100
AcDbLine
 10
128.7500000000008
 20
3.20000023236185
 11
128.7500000000008
 21
2.70000023236185
  0
LINE
  5
13F
100
AcDbEntity
  8
1
  6
CONTINUOUS
 62
             3
100
AcDbLine
 10
131.7500000000008
 20
3.20000023236196
 11
131.75000000000139
 21
2.70000023236196
  0
LINE
  5
13E
100
AcDbEntity
  8
1
  6
CONTINUOUS
 62
             3
100
AcDbLine
 10
128.2500000000008
 20
3.20000023236185
 11
131.7500000000008
 21
3.20000023236196
  0
LINE
  5
13D
100
AcDbEntity
  8
1
  6
CONTINUOUS
 62
             3
100
AcDbLine
 10
128.25000000000031
 20
2.70000023236196
 11
128.2500000000008
 21
3.20000023236185
  0
LINE
  5
13C
100
AcDbEntity
  8
1
  6
CONTINUOUS
 62
             3
100
AcDbLine
 10
130.50000000000099
 20
3.40000023236189
 11
130.50000000000099
 21
3.20000023236196
  0
LINE
  5
13B
100
AcDbEntity
  8
1
  6
CONTINUOUS
 62
             3
100
AcDbLine
 10
129.50000000000099
 20
3.40000023236189
 11
130.50000000000099
 21
3.40000023236189
  0
LINE
  5
13A
100
AcDbEntity
  8
1
  6
CONTINUOUS
 62
             3
100
AcDbLine
 10
129.50000000000099
 20
3.20000023236185
 11
129.50000000000099
 21
3.40000023236189
  0
LINE
  5
139
100
AcDbEntity
  8
1
  6
CONTINUOUS
 62
             3
100
AcDbLine
 10
130.99999999999969
 20
3.25000023236203
 11
130.50000000000099
 21
3.25000023236191
  0
LINE
  5
138
100
AcDbEntity
  8
1
  6
CONTINUOUS
 62
             1
100
AcDbLine
 10
108.1943755399991
 20
20.00000000000046
 11
152.2563930626865
 21
20.00000000000046
  0
LINE
  5
137
100
AcDbEntity
  8
1
  6
CONTINUOUS
 62
             1
100
AcDbLine
 10
130.0000000000008
 20
-1.80562446000113
 11
130.0000000000008
 21
42.25639306268613
  0
LINE
  5
136
100
AcDbEntity
  8
1
  6
CONTINUOUS
 62
             3
100
AcDbLine
 10
140.22562368251701
 20
33.74214758701606
 11
141.17251335570731
 21
34.87060675683102
  0
LINE
  5
135
100
AcDbEntity
  8
1
  6
CONTINUOUS
 62
             3
100
AcDbLine
 10
141.75771256875501
 20
32.45657236764282
 11
142.70460224194531
 21
33.58503153745778
  0
LINE
  5
134
100
AcDbEntity
  8
1
  6
CONTINUOUS
 62
             3
100
AcDbLine
 10
141.75771256875501
 20
32.45657236764282
 11
140.22562368251701
 21
33.74214758701606
  0
LINE
  5
133
100
AcDbEntity
  8
1
  6
CONTINUOUS
 62
             3
100
AcDbLine
 10
118.8274866442941
 20
34.87060675683102
 11
119.7743763174846
 21
33.74214758701606
  0
LINE
  5
132
100
AcDbEntity
  8
1
  6
CONTINUOUS
 62
             3
100
AcDbLine
 10
117.2953977580562
 20
33.58503153745778
 11
118.2422874312466
 21
32.45657236764282
  0
LINE
  5
131
100
AcDbEntity
  8
1
  6
CONTINUOUS
 62
             3
100
AcDbLine
 10
119.7743763174846
 20
33.74214758701606
 11
118.2422874312466
 21
32.45657236764282
  0
LINE
  5
130
100
AcDbEntity
  8
1
  6
CONTINUOUS
 62
             3
100
AcDbLine
 10
141.17251335570731
 20
5.12939324317006
 11
140.22562368251701
 21
6.2578524129849
  0
LINE
  5
12F
100
AcDbEntity
  8
1
  6
CONTINUOUS
 62
             3
100
AcDbLine
 10
142.70460224194531
 20
6.41496846254313
 11
141.75771256875501
 21
7.54342763235809
  0
LINE
  5
12E
100
AcDbEntity
  8
1
  6
CONTINUOUS
 62
             3
100
AcDbLine
 10
140.22562368251701
 20
6.2578524129849
 11
141.75771256875501
 21
7.54342763235809
  0
LINE
  5
12D
100
AcDbEntity
  8
1
  6
CONTINUOUS
 62
             3
100
AcDbLine
 10
119.7743763174846
 20
6.2578524129849
 11
118.8274866442941
 21
5.12939324317006
  0
LINE
  5
12C
100
AcDbEntity
  8
1
  6
CONTINUOUS
 62
             3
100
AcDbLine
 10
118.2422874312466
 20
7.54342763235809
 11
117.2953977580562
 21
6.41496846254313
  0
LINE
  5
12B
100
AcDbEntity
  8
1
  6
CONTINUOUS
 62
             3
100
AcDbLine
 10
118.2422874312466
 20
7.54342763235809
 11
119.7743763174846
 21
6.2578524129849
  0
LINE
  5
12A
100
AcDbEntity
  8
1
  6
CONTINUOUS
 62
             1
100
AcDbLine
 10
127.751049042681
 20
37.04999976764339
 11
132.25317550374501
 21
37.04999976763827
  0
LINE
  5
129
100
AcDbEntity
  8
1
  6
CONTINUOUS
 62
             1
100
AcDbLine
 10
132.25317550374501
 20
2.95000023236264
 11
127.751049042681
 21
2.95000023235753
  0
LINE
  5
128
100
AcDbEntity
  8
1
  6
CONTINUOUS
 62
             2
100
AcDbLine
 10
-168.8123262088622
 20
-60.488642403825
 11
-78.6905819939829
 21
-60.488642403825
  0
LINE
  5
127
100
AcDbEntity
  8
1
  6
CONTINUOUS
 62
             2
100
AcDbLine
 10
-174.610424759117
 20
-50.488642403825
 11
-161.3011530869413
 21
-50.488642403825
  0
LINE
  5
126
100
AcDbEntity
  8
1
  6
CONTINUOUS
 62
             1
100
AcDbLine
 10
-106.0
 20
20.0
 11
-174.0
 21
20.0
  0
LINE
  5
125
100
AcDbEntity
  8
1
  6
CONTINUOUS
 62
             3
100
AcDbLine
 10
-37.49999999999988
 20
16.90000000000038
 11
-37.49999999999988
 21
23.10000000000042
  0
LINE
  5
124
100
AcDbEntity
  8
1
  6
CONTINUOUS
 62
             3
100
AcDbLine
 10
-30.49999999999988
 20
23.10000000000042
 11
-30.49999999999988
 21
16.90000000000038
  0
LINE
  5
123
100
AcDbEntity
  8
1
  6
CONTINUOUS
 62
             3
100
AcDbLine
 10
-37.19999999999987
 20
16.60000000000042
 11
-30.79999999999989
 21
16.60000000000042
  0
LINE
  5
122
100
AcDbEntity
  8
1
  6
CONTINUOUS
 62
             1
100
AcDbLine
 10
-38.29999999999989
 20
17.10000000000042
 11
-35.7934734712341
 21
17.10000000000042
  0
LINE
  5
121
100
AcDbEntity
  8
1
  6
CONTINUOUS
 62
             1
100
AcDbLine
 10
-32.20652652876566
 20
17.10000000000042
 11
-29.69999999999987
 21
17.10000000000042
  0
LINE
  5
120
100
AcDbEntity
  8
1
  6
CONTINUOUS
 62
             1
100
AcDbLine
 10
-34.77747752107069
 20
17.10000000000042
 11
-33.22252247892907
 21
17.10000000000042
  0
LINE
  5
11F
100
AcDbEntity
  8
1
  6
CONTINUOUS
 62
             3
100
AcDbLine
 10
-37.19999999999987
 20
16.60000000000042
 11
-37.49999999999988
 21
16.90000000000038
  0
LINE
  5
11E
100
AcDbEntity
  8
1
  6
CONTINUOUS
 62
             3
100
AcDbLine
 10
-30.49999999999988
 20
16.90000000000038
 11
-30.79999999999989
 21
16.60000000000042
  0
LINE
  5
11D
100
AcDbEntity
  8
1
  6
CONTINUOUS
 62
             3
100
AcDbLine
 10
-26.09999999999976
 20
17.5000000000004
 11
-26.0
 21
17.50000000000039
  0
LINE
  5
11C
100
AcDbEntity
  8
1
  6
CONTINUOUS
 62
             3
100
AcDbLine
 10
-26.09999999999976
 20
22.5000000000004
 11
-26.09999999999976
 21
17.5000000000004
  0
LINE
  5
11B
100
AcDbEntity
  8
1
  6
CONTINUOUS
 62
             3
100
AcDbLine
 10
-26.09999999999976
 20
22.5000000000004
 11
-27.01213203435585
 21
21.58786796564431
  0
LINE
  5
11A
100
AcDbEntity
  8
1
  6
CONTINUOUS
 62
             3
100
AcDbLine
 10
-26.09999999999976
 20
17.5000000000004
 11
-27.01213203435585
 21
18.41213203435638
  0
LINE
  5
119
100
AcDbEntity
  8
1
  6
CONTINUOUS
 62
             2
100
AcDbLine
 10
-27.09999999999976
 20
21.50000000000028
 11
-27.09999999999976
 21
18.50000000000028
  0
LINE
  5
118
100
AcDbEntity
  8
1
  6
CONTINUOUS
 62
             2
100
AcDbLine
 10
-28.09999999999976
 20
21.50000000000028
 11
-28.09999999999976
 21
18.50000000000028
  0
LINE
  5
117
100
AcDbEntity
  8
1
  6
CONTINUOUS
 62
             3
100
AcDbLine
 10
-30.49999999999988
 20
18.50000000000028
 11
-27.22426406871213
 21
18.50000000000028
  0
LINE
  5
116
100
AcDbEntity
  8
1
  6
CONTINUOUS
 62
             3
100
AcDbLine
 10
-27.22426406871213
 20
21.50000000000028
 11
-30.49999999999988
 21
21.50000000000028
  0
LINE
  5
115
100
AcDbEntity
  8
1
  6
CONTINUOUS
 62
             3
100
AcDbLine
 10
-30.79999999999989
 20
23.40000000000038
 11
-37.19999999999987
 21
23.40000000000038
  0
LINE
  5
114
100
AcDbEntity
  8
1
  6
CONTINUOUS
 62
             1
100
AcDbLine
 10
-35.7934734712341
 20
22.90000000000038
 11
-38.29999999999989
 21
22.90000000000038
  0
LINE
  5
113
100
AcDbEntity
  8
1
  6
CONTINUOUS
 62
             1
100
AcDbLine
 10
-29.69999999999987
 20
22.90000000000038
 11
-32.20652652876566
 21
22.90000000000038
  0
LINE
  5
112
100
AcDbEntity
  8
1
  6
CONTINUOUS
 62
             1
100
AcDbLine
 10
-33.22252247892907
 20
22.90000000000038
 11
-34.77747752107069
 21
22.90000000000038
  0
LINE
  5
111
100
AcDbEntity
  8
1
  6
CONTINUOUS
 62
             3
100
AcDbLine
 10
-37.49999999999988
 20
23.10000000000042
 11
-37.19999999999987
 21
23.40000000000038
  0
LINE
  5
110
100
AcDbEntity
  8
1
  6
CONTINUOUS
 62
             3
100
AcDbLine
 10
-30.79999999999989
 20
23.40000000000038
 11
-30.49999999999988
 21
23.10000000000042
  0
LINE
  5
10F
100
AcDbEntity
  8
1
  6
CONTINUOUS
 62
             3
100
AcDbLine
 10
-21.0
 20
37.2928932188135
 11
-21.0
 21
2.7071067811865
  0
LINE
  5
10E
100
AcDbEntity
  8
1
  6
CONTINUOUS
 62
             1
100
AcDbLine
 10
-140.0
 20
54.0
 11
-140.0
 21
-14.0
  0
LINE
  5
10D
100
AcDbEntity
  8
1
  6
CONTINUOUS
 62
             1
100
AcDbLine
 10
-20.80437401536403
 20
44.75
 11
-27.87413891872458
 21
44.75
  0
LINE
  5
10C
100
AcDbEntity
  8
1
  6
CONTINUOUS
 62
             1
100
AcDbLine
 10
-27.87413891872458
 20
-4.75
 11
-20.80437401536403
 21
-4.75
  0
LINE
  5
10B
100
AcDbEntity
  8
1
  6
CONTINUOUS
 62
             3
100
AcDbLine
 10
-22.5
 20
-10.0
 11
-22.5
 21
50.0
  0
LINE
  5
10A
100
AcDbEntity
  8
1
  6
CONTINUOUS
 62
             3
100
AcDbLine
 10
-24.5
 20
50.0
 11
-24.5
 21
-10.0
  0
LINE
  5
109
100
AcDbEntity
  8
1
  6
CONTINUOUS
 62
             3
100
AcDbLine
 10
-24.5
 20
-7.0
 11
-26.0
 21
-7.0
  0
LINE
  5
108
100
AcDbEntity
  8
1
  6
CONTINUOUS
 62
             3
100
AcDbLine
 10
-26.0
 20
-7.0
 11
-26.0
 21
-3.0
  0
LINE
  5
107
100
AcDbEntity
  8
1
  6
CONTINUOUS
 62
             3
100
AcDbLine
 10
-26.0
 20
-3.0
 11
-24.5
 21
-3.0
  0
LINE
  5
106
100
AcDbEntity
  8
1
  6
CONTINUOUS
 62
             3
100
AcDbLine
 10
-24.5
 20
-10.0
 11
-22.5
 21
-10.0
  0
LINE
  5
105
100
AcDbEntity
  8
1
  6
CONTINUOUS
 62
             3
100
AcDbLine
 10
-22.35355339059328
 20
0.31801948466057
 11
-21.73223304703362
 21
0.93933982822017
  0
LINE
  5
104
100
AcDbEntity
  8
1
  6
CONTINUOUS
 62
             1
100
AcDbLine
 10
-127.3
 20
17.0
 11
-127.3
 21
23.0
  0
LINE
  5
103
100
AcDbEntity
  8
1
  6
CONTINUOUS
 62
             3
100
AcDbLine
 10
-117.5500556793564
 20
15.0
 11
-113.4670016771568
 21
15.0
  0
LINE
  5
102
100
AcDbEntity
  8
1
  6
CONTINUOUS
 62
             3
100
AcDbLine
 10
-135.0
 20
-2.44994432064362
 11
-135.0
 21
-6.53299832284318
  0
LINE
  5
101
100
AcDbEntity
  8
1
  6
CONTINUOUS
 62
             3
100
AcDbLine
 10
-110.0
 20
44.5
 11
-110.0
 21
-4.5
  0
LINE
  5
100
100
AcDbEntity
  8
1
  6
CONTINUOUS
 62
             3
100
AcDbLine
 10
-115.5
 20
-10.0
 11
-164.5
 21
-10.0
  0
LINE
  5
FF
100
AcDbEntity
  8
1
  6
CONTINUOUS
 62
             1
100
AcDbLine
 10
-115.25
 20
-8.75
 11
-115.25
 21
-0.75
  0
LINE
  5
FE
100
AcDbEntity
  8
1
  6
CONTINUOUS
 62
             1
100
AcDbLine
 10
-119.25
 20
-4.75
 11
-111.25
 21
-4.75
  0
LINE
  5
FD
100
AcDbEntity
  8
1
  6
CONTINUOUS
 62
             3
100
AcDbLine
 10
-135.0
 20
42.44994432064362
 11
-135.0
 21
46.53299832284318
  0
LINE
  5
FC
100
AcDbEntity
  8
1
  6
CONTINUOUS
 62
             3
100
AcDbLine
 10
-117.5500556793564
 20
25.0
 11
-113.4670016771568
 21
25.0
  0
LINE
  5
FB
100
AcDbEntity
  8
1
  6
CONTINUOUS
 62
             3
100
AcDbLine
 10
-164.5
 20
50.0
 11
-115.5
 21
50.0
  0
LINE
  5
FA
100
AcDbEntity
  8
1
  6
CONTINUOUS
 62
             1
100
AcDbLine
 10
-111.25
 20
44.75
 11
-119.25
 21
44.75
  0
LINE
  5
F9
100
AcDbEntity
  8
1
  6
CONTINUOUS
 62
             1
100
AcDbLine
 10
-115.25
 20
40.75
 11
-115.25
 21
48.75
  0
LINE
  5
F8
100
AcDbEntity
  8
1
  6
CONTINUOUS
 62
             3
100
AcDbLine
 10
-162.44994432064371
 20
25.0
 11
-166.53299832284321
 21
25.0
  0
LINE
  5
F7
100
AcDbEntity
  8
1
  6
CONTINUOUS
 62
             3
100
AcDbLine
 10
-145.0
 20
42.44994432064362
 11
-145.0
 21
46.53299832284318
  0
LINE
  5
F6
100
AcDbEntity
  8
1
  6
CONTINUOUS
 62
             3
100
AcDbLine
 10
-170.0
 20
-4.5
 11
-170.0
 21
44.5
  0
LINE
  5
F5
100
AcDbEntity
  8
1
  6
CONTINUOUS
 62
             1
100
AcDbLine
 10
-164.75
 20
48.75
 11
-164.75
 21
40.75
  0
LINE
  5
F4
100
AcDbEntity
  8
1
  6
CONTINUOUS
 62
             1
100
AcDbLine
 10
-160.75
 20
44.75
 11
-168.75
 21
44.75
  0
LINE
  5
F3
100
AcDbEntity
  8
1
  6
CONTINUOUS
 62
             3
100
AcDbLine
 10
-145.0
 20
-2.44994432064362
 11
-145.0
 21
-6.53299832284318
  0
LINE
  5
F2
100
AcDbEntity
  8
1
  6
CONTINUOUS
 62
             3
100
AcDbLine
 10
-162.44994432064371
 20
15.0
 11
-166.53299832284321
 21
15.0
  0
LINE
  5
F1
100
AcDbEntity
  8
1
  6
CONTINUOUS
 62
             1
100
AcDbLine
 10
-168.75
 20
-4.75
 11
-160.75
 21
-4.75
  0
LINE
  5
F0
100
AcDbEntity
  8
1
  6
CONTINUOUS
 62
             1
100
AcDbLine
 10
-164.75
 20
-0.75
 11
-164.75
 21
-8.75
  0
LINE
  5
EF
100
AcDbEntity
  8
1
  6
CONTINUOUS
 62
             3
100
AcDbLine
 10
-26.0
 20
47.0
 11
-24.5
 21
47.0
  0
LINE
  5
EE
100
AcDbEntity
  8
1
  6
CONTINUOUS
 62
             3
100
AcDbLine
 10
-26.0
 20
43.0
 11
-26.0
 21
47.0
  0
LINE
  5
ED
100
AcDbEntity
  8
1
  6
CONTINUOUS
 62
             3
100
AcDbLine
 10
-24.5
 20
43.0
 11
-26.0
 21
43.0
  0
LINE
  5
EC
100
AcDbEntity
  8
1
  6
CONTINUOUS
 62
             3
100
AcDbLine
 10
-22.5
 20
50.0
 11
-24.5
 21
50.0
  0
LINE
  5
EB
100
AcDbEntity
  8
1
  6
CONTINUOUS
 62
             3
100
AcDbLine
 10
-21.73223304703362
 20
39.06066017177983
 11
-22.35355339059328
 21
39.68198051533943
  0
LINE
  5
EA
100
AcDbEntity
  8
1
  6
CONTINUOUS
 62
             1
100
AcDbLine
 10
-131.41384858044171
 20
34.87165050015472
 11
-134.59586750788651
 21
29.36023204717452
  0
LINE
  5
E9
100
AcDbEntity
  8
1
  6
CONTINUOUS
 62
             3
100
AcDbLine
 10
-131.97888032913451
 20
31.88122209764691
 11
-131.6375644347018
 21
31.68416327411751
  0
LINE
  5
E8
100
AcDbEntity
  8
1
  6
CONTINUOUS
 62
             3
100
AcDbLine
 10
-132.27888032913449
 20
31.36160685537624
 11
-131.93756443470181
 21
31.16454803184683
  0
LINE
  5
E7
100
AcDbEntity
  8
1
  6
CONTINUOUS
 62
             3
100
AcDbLine
 10
-133.24019237886469
 20
31.10833024919771
 11
-133.44019237886471
 21
30.76192008768391
  0
LINE
  5
E6
100
AcDbEntity
  8
1
  6
CONTINUOUS
 62
             3
100
AcDbLine
 10
-132.4232050807569
 20
33.52339375865881
 11
-132.0767949192431
 21
33.32339375865882
  0
LINE
  5
E5
100
AcDbEntity
  8
1
  6
CONTINUOUS
 62
             3
100
AcDbLine
 10
-133.9232050807569
 20
30.9253175473055
 11
-133.5767949192431
 21
30.72531754730551
  0
LINE
  5
E4
100
AcDbEntity
  8
1
  6
CONTINUOUS
 62
             3
100
AcDbLine
 10
-131.6009618943234
 20
31.54756073373903
 11
-131.80096189432331
 21
31.20115057222529
  0
LINE
  5
E3
100
AcDbEntity
  8
1
  6
CONTINUOUS
 62
             3
100
AcDbLine
 10
-134.19903810567669
 20
33.04756073373903
 11
-134.39903810567671
 21
32.70115057222529
  0
LINE
  5
E2
100
AcDbEntity
  8
1
  6
CONTINUOUS
 62
             3
100
AcDbLine
 10
-134.06243556529819
 20
33.08416327411749
 11
-133.71602540378441
 21
32.8841632741175
  0
LINE
  5
E1
100
AcDbEntity
  8
1
  6
CONTINUOUS
 62
             3
100
AcDbLine
 10
-134.3624355652982
 20
32.56454803184681
 11
-134.01602540378451
 21
32.36454803184682
  0
LINE
  5
E0
100
AcDbEntity
  8
1
  6
CONTINUOUS
 62
             3
100
AcDbLine
 10
-133.9598076211353
 20
31.06192008768392
 11
-133.75980762113531
 21
31.40833024919772
  0
LINE
  5
DF
100
AcDbEntity
  8
1
  6
CONTINUOUS
 62
             3
100
AcDbLine
 10
-132.55980762113541
 20
33.48679121828036
 11
-132.75980762113531
 21
33.14038105676661
  0
LINE
  5
DE
100
AcDbEntity
  8
1
  6
CONTINUOUS
 62
             3
100
AcDbLine
 10
-132.0401923788647
 20
33.18679121828035
 11
-132.24019237886469
 21
32.8403810567666
  0
LINE
  5
DD
100
AcDbEntity
  8
1
  6
CONTINUOUS
 62
             3
100
AcDbLine
 10
-154.30000000000001
 20
21.00588235294117
 11
-154.30000000000001
 21
21.39999999999998
  0
LINE
  5
DC
100
AcDbEntity
  8
1
  6
CONTINUOUS
 62
             3
100
AcDbLine
 10
-153.69999999999999
 20
21.00588235294117
 11
-153.69999999999999
 21
21.39999999999998
  0
LINE
  5
DB
100
AcDbEntity
  8
1
  6
CONTINUOUS
 62
             3
100
AcDbLine
 10
-153.0
 20
20.30000000000001
 11
-152.59999999999999
 21
20.30000000000001
  0
LINE
  5
DA
100
AcDbEntity
  8
1
  6
CONTINUOUS
 62
             3
100
AcDbLine
 10
-155.5
 20
19.80000000000001
 11
-155.5
 21
20.19999999999999
  0
LINE
  5
D9
100
AcDbEntity
  8
1
  6
CONTINUOUS
 62
             3
100
AcDbLine
 10
-152.5
 20
19.80000000000001
 11
-152.5
 21
20.19999999999999
  0
LINE
  5
D8
100
AcDbEntity
  8
1
  6
CONTINUOUS
 62
             3
100
AcDbLine
 10
-154.19999999999999
 20
21.5
 11
-153.80000000000001
 21
21.5
  0
LINE
  5
D7
100
AcDbEntity
  8
1
  6
CONTINUOUS
 62
             3
100
AcDbLine
 10
-154.19999999999999
 20
18.5
 11
-153.80000000000001
 21
18.5
  0
LINE
  5
D6
100
AcDbEntity
  8
1
  6
CONTINUOUS
 62
             3
100
AcDbLine
 10
-154.30000000000001
 20
18.59999999999997
 11
-154.30000000000001
 21
19.0
  0
LINE
  5
D5
100
AcDbEntity
  8
1
  6
CONTINUOUS
 62
             3
100
AcDbLine
 10
-153.69999999999999
 20
18.59999999999997
 11
-153.69999999999999
 21
19.0
  0
LINE
  5
D4
100
AcDbEntity
  8
1
  6
CONTINUOUS
 62
             3
100
AcDbLine
 10
-152.59999999999999
 20
19.69999999999999
 11
-153.0
 21
19.69999999999999
  0
LINE
  5
D3
100
AcDbEntity
  8
1
  6
CONTINUOUS
 62
             3
100
AcDbLine
 10
-155.40000000000001
 20
19.69999999999999
 11
-155.0
 21
19.69999999999999
  0
LINE
  5
D2
100
AcDbEntity
  8
1
  6
CONTINUOUS
 62
             3
100
AcDbLine
 10
-155.40000000000001
 20
20.30000000000001
 11
-155.0
 21
20.30000000000001
  0
LINE
  5
D1
100
AcDbEntity
  8
1
  6
CONTINUOUS
 62
             1
100
AcDbLine
 10
-131.4138485804416
 20
5.12834949984529
 11
-134.5958675078864
 21
10.63976795282548
  0
LINE
  5
D0
100
AcDbEntity
  8
1
  6
CONTINUOUS
 62
             3
100
AcDbLine
 10
-133.72111967086551
 20
7.11289554941197
 11
-134.06243556529819
 21
6.91583672588251
  0
LINE
  5
CF
100
AcDbEntity
  8
1
  6
CONTINUOUS
 62
             3
100
AcDbLine
 10
-134.02111967086549
 20
7.63251079168259
 11
-134.3624355652982
 21
7.43545196815319
  0
LINE
  5
CE
100
AcDbEntity
  8
1
  6
CONTINUOUS
 62
             3
100
AcDbLine
 10
-133.75980762113531
 20
8.59166975080228
 11
-133.9598076211353
 21
8.93807991231608
  0
LINE
  5
CD
100
AcDbEntity
  8
1
  6
CONTINUOUS
 62
             3
100
AcDbLine
 10
-132.0767949192431
 20
6.67660624134123
 11
-132.4232050807569
 21
6.47660624134119
  0
LINE
  5
CC
100
AcDbEntity
  8
1
  6
CONTINUOUS
 62
             3
100
AcDbLine
 10
-133.5767949192431
 20
9.27468245269449
 11
-133.9232050807569
 21
9.0746824526945
  0
LINE
  5
CB
100
AcDbEntity
  8
1
  6
CONTINUOUS
 62
             3
100
AcDbLine
 10
-134.19903810567669
 20
6.95243926626097
 11
-134.39903810567671
 21
7.29884942777477
  0
LINE
  5
CA
100
AcDbEntity
  8
1
  6
CONTINUOUS
 62
             3
100
AcDbLine
 10
-131.60096189432329
 20
8.45243926626097
 11
-131.80096189432331
 21
8.79884942777477
  0
LINE
  5
C9
100
AcDbEntity
  8
1
  6
CONTINUOUS
 62
             3
100
AcDbLine
 10
-131.6375644347018
 20
8.31583672588255
 11
-131.9839745962156
 21
8.11583672588256
  0
LINE
  5
C8
100
AcDbEntity
  8
1
  6
CONTINUOUS
 62
             3
100
AcDbLine
 10
-131.93756443470181
 20
8.83545196815322
 11
-132.28397459621559
 21
8.63545196815318
  0
LINE
  5
C7
100
AcDbEntity
  8
1
  6
CONTINUOUS
 62
             3
100
AcDbLine
 10
-133.44019237886471
 20
9.2380799123161
 11
-133.24019237886469
 21
8.89166975080229
  0
LINE
  5
C6
100
AcDbEntity
  8
1
  6
CONTINUOUS
 62
             3
100
AcDbLine
 10
-132.0401923788647
 20
6.81320878171965
 11
-132.24019237886469
 21
7.15961894323345
  0
LINE
  5
C5
100
AcDbEntity
  8
1
  6
CONTINUOUS
 62
             3
100
AcDbLine
 10
-132.55980762113529
 20
6.51320878171964
 11
-132.75980762113531
 21
6.85961894323344
  0
LINE
  5
C4
100
AcDbEntity
  8
1
  6
CONTINUOUS
 62
             3
100
AcDbLine
 10
47.20000000000005
 20
38.60000000000047
 11
32.59999999999991
 21
38.60000000000034
  0
LINE
  5
C3
100
AcDbEntity
  8
1
  6
CONTINUOUS
 62
             1
100
AcDbLine
 10
55.78800145276795
 20
20.0
 11
-39.99205852673856
 21
20.00000000000046
  0
LINE
  5
C2
100
AcDbEntity
  8
1
  6
CONTINUOUS
 62
             3
100
AcDbLine
 10
46.5
 20
27.30000000000007
 11
51.19999999992797
 21
27.30000000000007
  0
LINE
  5
C1
100
AcDbEntity
  8
1
  6
CONTINUOUS
 62
             3
100
AcDbLine
 10
51.19999999992797
 20
12.69999999999993
 11
46.5
 21
12.69999999999993
  0
LINE
  5
C0
100
AcDbEntity
  8
1
  6
CONTINUOUS
 62
             3
100
AcDbLine
 10
52.19999999992797
 20
26.30000000000007
 11
52.19999999992797
 21
13.69999999999993
  0
LINE
  5
BF
100
AcDbEntity
  8
1
  6
CONTINUOUS
 62
             3
100
AcDbLine
 10
-19.0
 20
1.40000000000002
 11
-17.40000000000009
 21
1.40000000000003
  0
LINE
  5
BE
100
AcDbEntity
  8
1
  6
CONTINUOUS
 62
             3
100
AcDbLine
 10
47.20000000000005
 20
29.19999999999502
 11
46.5
 21
29.19999999999502
  0
LINE
  5
BD
100
AcDbEntity
  8
1
  6
CONTINUOUS
 62
             3
100
AcDbLine
 10
47.20000000000005
 20
38.60000000000047
 11
47.20000000000005
 21
29.19999999999502
  0
LINE
  5
BC
100
AcDbEntity
  8
1
  6
CONTINUOUS
 62
             3
100
AcDbLine
 10
33.20000000000005
 20
38.21804153555613
 11
33.20000000000005
 21
38.60000000000047
  0
LINE
  5
BB
100
AcDbEntity
  8
1
  6
CONTINUOUS
 62
             3
100
AcDbLine
 10
33.20000000000005
 20
38.21804153555613
 11
47.20000000000005
 21
38.21804153555613
  0
LINE
  5
BA
100
AcDbEntity
  8
1
  6
CONTINUOUS
 62
             1
100
AcDbLine
 10
50.19999999992797
 20
4.30880601713519
 11
50.19999999992797
 21
1.73195869679995
  0
LINE
  5
B9
100
AcDbEntity
  8
1
  6
CONTINUOUS
 62
             2
100
AcDbLine
 10
47.70000000000016
 20
3.20000023235497
 11
47.70000000000016
 21
2.70000023235497
  0
LINE
  5
B8
100
AcDbEntity
  8
1
  6
CONTINUOUS
 62
             3
100
AcDbLine
 10
47.19999999999999
 20
3.20000023235497
 11
52.19999999992797
 21
3.20000023235497
  0
LINE
  5
B7
100
AcDbEntity
  8
1
  6
CONTINUOUS
 62
             3
100
AcDbLine
 10
52.19999999992797
 20
2.70000023235497
 11
47.20000000000005
 21
2.70000023235497
  0
LINE
  5
B6
100
AcDbEntity
  8
1
  6
CONTINUOUS
 62
             2
100
AcDbLine
 10
51.69999999992797
 20
3.20000023235497
 11
51.69999999992797
 21
2.70000023235497
  0
LINE
  5
B5
100
AcDbEntity
  8
1
  6
CONTINUOUS
 62
             3
100
AcDbLine
 10
52.19999999992797
 20
3.20000023235497
 11
52.19999999992797
 21
2.70000023235497
  0
LINE
  5
B4
100
AcDbEntity
  8
1
  6
CONTINUOUS
 62
             3
100
AcDbLine
 10
47.20000000000005
 20
10.80000000000595
 11
47.20000000000005
 21
1.4000000000005
  0
LINE
  5
B3
100
AcDbEntity
  8
1
  6
CONTINUOUS
 62
             3
100
AcDbLine
 10
46.5
 20
10.80000000000595
 11
47.20000000000005
 21
10.80000000000595
  0
LINE
  5
B2
100
AcDbEntity
  8
1
  6
CONTINUOUS
 62
             3
100
AcDbLine
 10
33.20000000000005
 20
1.4000000000005
 11
33.20000000000005
 21
1.78195846444484
  0
LINE
  5
B1
100
AcDbEntity
  8
1
  6
CONTINUOUS
 62
             3
100
AcDbLine
 10
47.20000000000005
 20
1.73226888746183
 11
33.20000000000005
 21
1.73226888746183
  0
LINE
  5
B0
100
AcDbEntity
  8
1
  6
CONTINUOUS
 62
             3
100
AcDbLine
 10
46.5
 20
38.21804153555613
 11
46.50000000000006
 21
3.20000023235497
  0
LINE
  5
AF
100
AcDbEntity
  8
1
  6
CONTINUOUS
 62
             3
100
AcDbLine
 10
47.19999999999999
 20
3.20000023235497
 11
46.50000000000006
 21
3.20000023235497
  0
LINE
  5
AE
100
AcDbEntity
  8
1
  6
CONTINUOUS
 62
             3
100
AcDbLine
 10
46.50000000000006
 20
3.20000023235497
 11
46.50000000000006
 21
1.95256250877344
  0
LINE
  5
AD
100
AcDbEntity
  8
1
  6
CONTINUOUS
 62
             3
100
AcDbLine
 10
46.50000000000006
 20
1.95256250877344
 11
45.50000000000006
 21
1.73226888746183
  0
LINE
  5
AC
100
AcDbEntity
  8
1
  6
CONTINUOUS
 62
             3
100
AcDbLine
 10
46.50000000000006
 20
1.95256250877344
 11
46.5
 21
1.73226888746183
  0
LINE
  5
AB
100
AcDbEntity
  8
1
  6
CONTINUOUS
 62
             1
100
AcDbLine
 10
50.19999999992797
 20
38.26804130320005
 11
50.19999999992797
 21
35.69119398286481
  0
LINE
  5
AA
100
AcDbEntity
  8
1
  6
CONTINUOUS
 62
             2
100
AcDbLine
 10
47.70000000000016
 20
37.29999976764503
 11
47.70000000000016
 21
36.79999976764503
  0
LINE
  5
A9
100
AcDbEntity
  8
1
  6
CONTINUOUS
 62
             2
100
AcDbLine
 10
51.69999999992797
 20
37.29999976764503
 11
51.69999999992797
 21
36.79999976764503
  0
LINE
  5
A8
100
AcDbEntity
  8
1
  6
CONTINUOUS
 62
             3
100
AcDbLine
 10
52.19999999992797
 20
37.29999976764503
 11
52.19999999992797
 21
36.79999976764503
  0
LINE
  5
A7
100
AcDbEntity
  8
1
  6
CONTINUOUS
 62
             3
100
AcDbLine
 10
52.19999999992797
 20
36.79999976764503
 11
47.19999999999999
 21
36.79999976764503
  0
LINE
  5
A6
100
AcDbEntity
  8
1
  6
CONTINUOUS
 62
             3
100
AcDbLine
 10
47.20000000000005
 20
37.29999976764503
 11
52.19999999992797
 21
37.29999976764503
  0
LINE
  5
A5
100
AcDbEntity
  8
1
  6
CONTINUOUS
 62
             3
100
AcDbLine
 10
45.5
 20
38.21804153555613
 11
46.5
 21
37.9832561011556
  0
LINE
  5
A4
100
AcDbEntity
  8
1
  6
CONTINUOUS
 62
             3
100
AcDbLine
 10
-24.5
 20
25.0
 11
-26.0
 21
25.0
  0
LINE
  5
A3
100
AcDbEntity
  8
1
  6
CONTINUOUS
 62
             3
100
AcDbLine
 10
-26.0
 20
25.0
 11
-26.0
 21
15.0
  0
LINE
  5
A2
100
AcDbEntity
  8
1
  6
CONTINUOUS
 62
             3
100
AcDbLine
 10
-26.0
 20
15.0
 11
-24.5
 21
15.0
  0
LINE
  5
A1
100
AcDbEntity
  8
1
  6
CONTINUOUS
 62
             3
100
AcDbLine
 10
-26.0
 20
22.50000000000039
 11
-26.09999999999976
 21
22.5000000000004
  0
POINT
  5
A0
100
AcDbEntity
  8
1
 62
             3
 60
             1
100
AcDbPoint
 10
-37.49999999999988
 20
23.10000000000042
  0
POINT
  5
9F
100
AcDbEntity
  8
1
 62
             3
 60
             1
100
AcDbPoint
 10
-30.49999999999988
 20
16.90000000000038
  0
POINT
  5
9E
100
AcDbEntity
  8
1
 62
             3
 60
             1
100
AcDbPoint
 10
-20.80437401536403
 20
-4.75
  0
POINT
  5
9D
100
AcDbEntity
  8
1
 62
             3
 60
             1
100
AcDbPoint
 10
-27.87413891872458
 20
-4.75
  0
POINT
  5
9C
100
AcDbEntity
  8
1
 62
             3
 60
             1
100
AcDbPoint
 10
-140.0
 20
20.0
  0
POINT
  5
9B
100
AcDbEntity
  8
1
 62
             3
 60
             1
100
AcDbPoint
 10
47.19999999999999
 20
3.20000023235497
  0
POINT
  5
9A
100
AcDbEntity
  8
1
 62
             3
 60
             1
100
AcDbPoint
 10
46.50000000000006
 20
3.20000023235497
  0
POINT
  5
99
100
AcDbEntity
  8
1
 62
             3
 60
             1
100
AcDbPoint
 10
46.50000000000006
 20
1.95256250877344
  0
POINT
  5
98
100
AcDbEntity
  8
1
 62
             3
 60
             1
100
AcDbPoint
 10
45.50000000000006
 20
1.73226888746183
  0
POINT
  5
97
100
AcDbEntity
  8
1
 62
             3
 60
             1
100
AcDbPoint
 10
55.78800145276795
 20
20.0
  0
POINT
  5
96
100
AcDbEntity
  8
1
 62
             3
 60
             1
100
AcDbPoint
 10
47.19999999999999
 20
36.79999976764503
  0
POINT
  5
95
100
AcDbEntity
  8
1
 62
             3
 60
             1
100
AcDbPoint
 10
45.5
 20
38.21804153555613
  0
INSERT
  5
29
100
AcDbEntity
  8
1
100
AcDbBlockReference
  2
_____V______
 10
30.59049773165971
 20
-84.75000000000003
 41
2.0
 42
2.0
 43
2.0
  0
SOLID
  5
1FB
100
AcDbEntity
  8
1
 62
             2
100
AcDbTrace
 10
132.9762281261722
 20
-0.56039064750144
 11
132.07765326968905
 21
-0.76496301422095
 12
131.7500000000008
 22
2.75000000000051
 13
131.7500000000008
 23
2.75000000000051
  0
SOLID
  5
1FD
100
AcDbEntity
  8
1
 62
             2
100
AcDbTrace
 10
127.02377187382938
 20
40.56039064750308
 11
127.92234673031254
 21
40.7649630142226
 12
128.2500000000008
 22
37.25000000000114
 13
128.2500000000008
 23
37.25000000000114
  0
SOLID
  5
1FF
100
AcDbEntity
  8
1
 62
             2
100
AcDbTrace
 10
-4.46415362072955
 20
41.34905042583868
 11
-3.8125070041002
 21
42.00069704246803
 12
-1.66345657826196
 22
39.20000000000044
 13
-1.66345657826196
 23
39.20000000000044
  0
INSERT
  5
29C
100
AcDbEntity
  8
0
100
AcDbBlockReference
  2
*D20
 10
0.0
 20
0.0
  0
ENDSEC
  0
SECTION
  2
OBJECTS
  0
DICTIONARY
  5
19
100
AcDbDictionary
  3
ACAD_GROUP
350
1A
  3
ACAD_MLINESTYLE
350
1B
  0
DICTIONARY
  5
1A
102
{ACAD_REACTORS
330
19
102
}
100
AcDbDictionary
  0
DICTIONARY
  5
1B
102
{ACAD_REACTORS
330
19
102
}
100
AcDbDictionary
  3
STANDARD
350
1C
  0
MLINESTYLE
  5
1C
102
{ACAD_REACTORS
330
1B
102
}
100
AcDbMlineStyle
  2
STANDARD
 70
             0
  3

 62
             0
 51
90.0
 52
90.0
 71
             2
 49
0.5
 62
           256
  6
BYLAYER
 49
-0.5
 62
           256
  6
BYLAYER
  0
ENDSEC
  0
EOF
