  0
SECTION
  2
HEADER
  9
$ACADVER
  1
AC1009
  9
$INSBASE
 10
0
 20
0
  9
$EXTMIN
 10
-231.846104602172
 20
-34.4999999999997
  9
$EXTMAX
 10
6.757072877860281
 20
145.2000000000001
  9
$LIMMIN
 10
-231.846104602172
 20
-34.4999999999997
  9
$LIMMAX
 10
6.757072877860281
 20
145.2000000000001
  9
$VIEWCTR
 10
10
 20
10
  9
$VIEWSIZE
 40
10
  9
$SNAPMODE
 70
0
  9
$SNAPUNIT
 10
1
 20
1
  9
$SNAPBASE
 10
0
 20
0
  9
$SNAPANG
 50
0
  9
$SNAPSTYLE
 70
0
  9
$SNAPISOPAIR
 70
0
  9
$GRIDMODE
 70
0
  9
$GRIDUNIT
 10
0
 20
0
  9
$ORTHOMODE
 70
0
  9
$REGENMODE
 70
1
  9
$FILLMODE
 70
1
  9
$QTEXTMODE
 70
0
  9
$DRAGMODE
 70
2
  9
$LTSCALE
 40
1
  9
$OSMODE
 70
0
  9
$ATTMODE
 70
1
  9
$TEXTSIZE
 40
3.5
  9
$TRACEWID
 40
0.5
  9
$TEXTSTYLE
  7
STANDARD
  9
$CLAYER
  8
0
  9
$CELTYPE
  6
BYLAYER
  9
$CECOLOR
 62
256
  9
$DIMSCALE
 40
1
  9
$DIMASZ
 40
0.18
  9
$DIMEXO
 40
0.0625
  9
$DIMDLI
 40
0.38
  9
$DIMRND
 40
0
  9
$DIMDLE
 40
0
  9
$DIMEXE
 40
0.18
  9
$DIMTP
 40
0
  9
$DIMTM
 40
0
  9
$DIMTXT
 40
0.18
  9
$DIMCEN
 40
0.09
  9
$DIMTSZ
 40
0
  9
$DIMTOL
 70
0
  9
$DIMLIM
 70
0
  9
$DIMTIH
 70
1
  9
$DIMTOH
 70
1
  9
$DIMSE1
 70
0
  9
$DIMSE2
 70
0
  9
$DIMTAD
 70
0
  9
$DIMZIN
 70
0
  9
$DIMBLK
  1

  9
$DIMASO
 70
1
  9
$DIMSHO
 70
1
  9
$DIMPOST
  1

  9
$DIMAPOST
  1

  9
$DIMALT
 70
0
  9
$DIMALTD
 70
2
  9
$DIMALTF
 40
25.4
  9
$DIMLFAC
 40
1
  9
$DIMTOFL
 70
0
  9
$DIMTVP
 40
0
  9
$DIMTIX
 70
0
  9
$DIMSOXD
 70
0
  9
$DIMSAH
 70
0
  9
$DIMBLK1
  1

  9
$DIMBLK2
  1

  9
$DIMSTYLE
  2
*UNNAMED
  9
$DIMCLRD
 70
0
  9
$DIMCLRE
 70
0
  9
$DIMCLRT
 70
0
  9
$DIMTFAC
 40
1
  9
$DIMGAP
 40
0.09
  9
$LUNITS
 70
2
  9
$LUPREC
 70
4
  9
$AXISMODE
 70
0
  9
$AXISUNIT
 10
0
 20
0
  9
$SKETCHINC
 40
0.1
  9
$FILLETRAD
 40
2
  9
$AUNITS
 70
0
  9
$AUPREC
 70
0
  9
$MENU
  1
ACAD
  9
$ELEVATION
 40
0
  9
$THICKNESS
 40
0
  9
$VIEWDIR
 10
0
 20
0
 30
1
  9
$LIMCHECK
 70
0
  9
$BLIPMODE
 70
1
  9
$CHAMFERA
 40
0
  9
$CHAMFERB
 40
0
  9
$FASTZOOM
 70
1
  9
$SKPOLY
 70
0
  9
$ANGBASE
 50
0
  9
$ANGDIR
 70
0
  9
$PDMODE
 70
0
  9
$PDSIZE
 40
0
  9
$PLINEWID
 40
0
  9
$COORDS
 70
2
  0
ENDSEC
  0
SECTION
  2
TABLES
  0
TABLE
  2
DIMSTYLE
 70
8
  0
DIMSTYLE
  2
DMST_1
 70
0
  3
)
  4

  5

  6

  7

 40
1
 41
3.2
 42
1
 43
7
 44
1
 45
0
 46
0
 47
0
 48
0
140
3.2
141
0
142
0
143
25.4
144
1
145
0
146
1
147
0.09
 71
0
 72
0
 73
0
 74
0
 75
0
 76
0
 77
1
 78
9
170
0
171
2
172
0
173
0
174
0
175
0
176
2
177
2
178
2
  0
DIMSTYLE
  2
DMST_2
 70
0
  3

  4

  5

  6

  7

 40
1
 41
3.2
 42
1
 43
7
 44
1
 45
0
 46
0
 47
0
 48
0.02
140
3.2
141
0
142
0
143
25.4
144
1
145
0
146
0.6
147
0.09
 71
1
 72
0
 73
0
 74
0
 75
0
 76
0
 77
1
 78
9
170
0
171
2
172
0
173
0
174
0
175
0
176
2
177
2
178
2
  0
DIMSTYLE
  2
DMST_3
 70
0
  3

  4

  5

  6

  7

 40
1
 41
3.2
 42
1
 43
7
 44
1
 45
0
 46
0
 47
0.3
 48
0.3
140
3.2
141
0
142
0
143
25.4
144
1
145
0
146
0.6
147
0.09
 71
1
 72
0
 73
0
 74
0
 75
0
 76
0
 77
1
 78
9
170
0
171
2
172
0
173
0
174
0
175
0
176
2
177
2
178
2
  0
DIMSTYLE
  2
DMST_4
 70
0
  3

  4

  5

  6

  7

 40
1
 41
3.2
 42
1
 43
7
 44
1
 45
0
 46
0
 47
0
 48
0
140
3.2
141
0
142
0
143
25.4
144
1
145
0
146
1
147
0.09
 71
0
 72
0
 73
0
 74
0
 75
0
 76
0
 77
1
 78
9
170
0
171
2
172
0
173
0
174
0
175
0
176
2
177
2
178
2
  0
DIMSTYLE
  2
DMST_5
 70
0
  3
)
  4

  5

  6

  7

 40
1
 41
3.2
 42
1
 43
7
 44
1
 45
0
 46
0
 47
0
 48
0
140
3.2
141
0
142
0
143
25.4
144
1
145
0
146
1
147
0.09
 71
0
 72
0
 73
1
 74
1
 75
0
 76
0
 77
0
 78
9
170
0
171
2
172
0
173
0
174
0
175
0
176
2
177
2
178
2
  0
DIMSTYLE
  2
DMST_6
 70
0
  3

  4

  5

  6

  7

 40
1
 41
3.2
 42
1
 43
7
 44
1
 45
0
 46
0
 47
0.5
 48
0.5
140
3.2
141
0
142
0
143
25.4
144
1
145
0
146
0.6
147
0.09
 71
1
 72
0
 73
0
 74
0
 75
0
 76
0
 77
1
 78
9
170
0
171
2
172
0
173
0
174
0
175
0
176
2
177
2
178
2
  0
DIMSTYLE
  2
DMST_7
 70
0
  3
HOLE
  4

  5

  6

  7

 40
1
 41
3.2
 42
1
 43
7
 44
1
 45
0
 46
0
 47
0.1
 48
0
140
3.2
141
0
142
0
143
25.4
144
1
145
0
146
0.6
147
0.09
 71
1
 72
0
 73
1
 74
1
 75
0
 76
0
 77
1
 78
9
170
0
171
2
172
0
173
0
174
0
175
0
176
2
177
2
178
2
  0
DIMSTYLE
  2
DMST_8
 70
0
  3

  4

  5

  6

  7

 40
1
 41
3.2
 42
1
 43
7
 44
1
 45
0
 46
0
 47
0
 48
0
140
3.2
141
0
142
0
143
25.4
144
1
145
0
146
1
147
0.09
 71
0
 72
0
 73
1
 74
1
 75
0
 76
0
 77
1
 78
9
170
0
171
2
172
1
173
0
174
0
175
0
176
2
177
2
178
2
  0
ENDTAB
  0
TABLE
  2
LTYPE
 70
9
  0
LTYPE
  2
CONTINUOUS
 70
64
  3
Solid line
 72
65
 73
0
 40
0
  0
LTYPE
  2
BORDER
 70
64
  3
__ __ . __ __ .
 72
65
 73
6
 40
10.98830422605412
 49
3.139515493158319
 49
-1.56975774657916
 49
3.139515493158319
 49
-1.56975774657916
 49
0
 49
-1.56975774657916
  0
LTYPE
  2
CENTER
 70
64
  3
____ _ ____ _
 72
65
 73
4
 40
12.55806197263328
 49
7.848788732895798
 49
-1.56975774657916
 49
1.56975774657916
 49
-1.56975774657916
  0
LTYPE
  2
DASHDOT
 70
64
  3
__ . __ . __ .
 72
65
 73
4
 40
6.279030986316639
 49
3.139515493158319
 49
-1.56975774657916
 49
0
 49
-1.56975774657916
  0
LTYPE
  2
DASHED
 70
64
  3
__ __ __ __ __
 72
65
 73
2
 40
4.709273239737479
 49
3.139515493158319
 49
-1.56975774657916
  0
LTYPE
  2
DIVIDE
 70
64
  3
__ . . __ . . 
 72
65
 73
6
 40
7.848788732895798
 49
3.139515493158319
 49
-1.56975774657916
 49
0
 49
-1.56975774657916
 49
0
 49
-1.56975774657916
  0
LTYPE
  2
DOT
 70
64
  3
..............
 72
65
 73
4
 40
3.139515493158319
 49
0
 49
-1.56975774657916
 49
0
 49
-1.56975774657916
  0
LTYPE
  2
HIDDEN
 70
64
  3
_ _ _ _ _ _ _
 72
65
 73
2
 40
2.35463661986874
 49
1.56975774657916
 49
-0.7848788732895798
  0
LTYPE
  2
PHANTOM
 70
64
  3
_____ _ _ _____ _ _ 
 72
65
 73
6
 40
15.6975774657916
 49
7.848788732895798
 49
-1.56975774657916
 49
1.56975774657916
 49
-1.56975774657916
 49
1.56975774657916
 49
-1.56975774657916
  0
ENDTAB
  0
TABLE
  2
LAYER
 70
3
  0
LAYER
  2
1
 70
0
 62
7
  6
CONTINUOUS
  0
LAYER
  2
0
 70
0
 62
7
  6
CONTINUOUS
  0
ENDTAB
  0
TABLE
  2
STYLE
 70
4
  0
STYLE
  2
STANDARD
 70
0
 40
0
 41
1
 50
0
 71
0
 42
3.5
  3
txt
  4

  0
STYLE
  2
SIMPLEX
 70
0
 40
0
 41
1
 50
0
 71
0
 42
3.5
  3
simplex
  4

  0
STYLE
  2
COMPLEX
 70
0
 40
0
 41
1
 50
0
 71
0
 42
3.5
  3
complex
  4

  0
STYLE
  2
ITALIC
 70
0
 40
0
 41
1
 50
0
 71
0
 42
3.5
  3
italic
  4

  0
ENDTAB
  0
TABLE
  2
VIEW
 70
0
  0
ENDTAB
  0
ENDSEC
  0
SECTION
  2
BLOCKS
  0
BLOCK
  8
1
  2
*D0
 70
1
 10
0
 20
0
 30
0
  0
LINE
  8
1
 62
2
 10
-63.59999999999999
 20
1.000000000000008
 30
0
 11
-70
 21
1.000000000000008
 31
0
  0
LINE
  8
1
 62
2
 10
-74
 20
1.000000000000008
 30
0
 11
-70
 21
1.000000000000008
 31
0
  0
LINE
  8
1
 62
2
 10
-74
 20
1.000000000000008
 30
0
 11
-84.09294073596908
 21
1.000000000000008
 31
0
  0
LINE
  8
1
 62
2
 10
-74
 20
21.50000000000001
 30
0
 11
-74
 21
7.993605777301127e-015
 31
0
  0
LINE
  8
1
 62
2
 10
-70
 20
18.17420072082096
 30
0
 11
-70
 21
7.993605777301127e-015
 31
0
  0
SOLID
  8
1
 62
2
 10
-74
 20
1.000000000000008
 30
0
 11
-77.2
 21
0.5840000000000086
 31
0
 12
-77.2
 22
1.416000000000008
 32
0
 13
-77.2
 23
1.416000000000008
 33
0
  0
SOLID
  8
1
 62
2
 10
-70
 20
1.000000000000008
 30
0
 11
-66.8
 21
1.416000000000008
 31
0
 12
-66.8
 22
0.5840000000000079
 32
0
 13
-66.8
 23
0.5840000000000079
 33
0
  0
TEXT
  8
1
 62
2
 10
-82.01294073596908
 20
2.000000000000009
 30
0
 40
3.2
  1
4
 41
0.9
  0
TEXT
  8
1
 62
2
 10
-84.09294073596909
 20
2.000000000000009
 30
0
 40
3.2
  1
(
 41
0.9
  0
TEXT
  8
1
 62
2
 10
-78.49294073596909
 20
2.000000000000009
 30
0
 40
3.2
  1
)
 41
0.9
  0
ENDBLK
  8
0
  0
BLOCK
  8
1
  2
*D1
 70
1
 10
0
 20
0
 30
0
  0
LINE
  8
1
 62
2
 10
-66
 20
11
 30
0
 11
-44
 21
11
 31
0
  0
LINE
  8
1
 62
2
 10
-66
 20
20
 30
0
 11
-66
 21
9.999999999999998
 31
0
  0
LINE
  8
1
 62
2
 10
-44
 20
20
 30
0
 11
-44
 21
9.999999999999998
 31
0
  0
SOLID
  8
1
 62
2
 10
-66
 20
11
 30
0
 11
-62.8
 21
11.416
 31
0
 12
-62.8
 22
10.584
 32
0
 13
-62.8
 23
10.584
 33
0
  0
SOLID
  8
1
 62
2
 10
-44
 20
11
 30
0
 11
-47.2
 21
10.584
 31
0
 12
-47.2
 22
11.416
 32
0
 13
-47.2
 23
11.416
 33
0
  0
TEXT
  8
1
 62
2
 10
-57.4
 20
12
 30
0
 40
3.2
  1
22
 41
0.9
  0
TEXT
  8
1
 62
2
 10
-59.48
 20
12
 30
0
 40
3.2
  1
(
 41
0.9
  0
TEXT
  8
1
 62
2
 10
-51
 20
12
 30
0
 40
3.2
  1
)
 41
0.9
  0
ENDBLK
  8
0
  0
BLOCK
  8
1
  2
*D2
 70
1
 10
0
 20
0
 30
0
  0
LINE
  8
1
 62
2
 10
-25.99999999999997
 20
29
 30
0
 11
-25.99999999999997
 21
43
 31
0
  0
LINE
  8
1
 62
2
 10
-34.99999999999997
 20
29
 30
0
 11
-24.99999999999997
 21
29
 31
0
  0
LINE
  8
1
 62
2
 10
-34.99999999999997
 20
42.99999999999999
 30
0
 11
-24.99999999999997
 21
43
 31
0
  0
SOLID
  8
1
 62
2
 10
-25.99999999999997
 20
43
 30
0
 11
-25.58399999999997
 21
39.8
 31
0
 12
-26.41599999999997
 22
39.8
 32
0
 13
-26.41599999999997
 23
39.8
 33
0
  0
SOLID
  8
1
 62
2
 10
-25.99999999999997
 20
29
 30
0
 11
-26.41599999999997
 21
32.2
 31
0
 12
-25.58399999999997
 22
32.2
 32
0
 13
-25.58399999999997
 23
32.2
 33
0
  0
TEXT
  8
1
 62
2
 10
-26.99999999999999
 20
34.08
 30
0
 40
3.2
  1
14
 50
90
 41
0.9
  0
TEXT
  8
1
 62
2
 10
-26.99999999999999
 20
32
 30
0
 40
3.2
  1
(
 50
90
 41
0.9
  0
TEXT
  8
1
 62
2
 10
-26.99999999999999
 20
39.52
 30
0
 40
3.2
  1
)
 50
90
 41
0.9
  0
ENDBLK
  8
0
  0
BLOCK
  8
1
  2
*D3
 70
1
 10
0
 20
0
 30
0
  0
LINE
  8
1
 62
2
 10
-5.999999999999965
 20
21
 30
0
 11
-5.999999999999965
 21
50.99999999999999
 31
0
  0
LINE
  8
1
 62
2
 10
-36.50000000000001
 20
21
 30
0
 11
-4.999999999999965
 21
21
 31
0
  0
LINE
  8
1
 62
2
 10
-34.99999999999997
 20
50.99999999999999
 30
0
 11
-4.999999999999965
 21
50.99999999999999
 31
0
  0
SOLID
  8
1
 62
2
 10
-5.999999999999965
 20
50.99999999999999
 30
0
 11
-5.583999999999965
 21
47.79999999999998
 31
0
 12
-6.415999999999965
 22
47.79999999999998
 32
0
 13
-6.415999999999965
 23
47.79999999999998
 33
0
  0
SOLID
  8
1
 62
2
 10
-5.999999999999965
 20
21
 30
0
 11
-6.415999999999966
 21
24.2
 31
0
 12
-5.583999999999966
 22
24.2
 32
0
 13
-5.583999999999966
 23
24.2
 33
0
  0
TEXT
  8
1
 62
2
 10
-6.999999999999988
 20
33.6
 30
0
 40
3.2
  1
30
 50
90
 41
0.9
  0
TEXT
  8
1
 62
2
 10
-6.999999999999988
 20
31.52
 30
0
 40
3.2
  1
(
 50
90
 41
0.9
  0
TEXT
  8
1
 62
2
 10
-6.999999999999988
 20
40
 30
0
 40
3.2
  1
)
 50
90
 41
0.9
  0
ENDBLK
  8
0
  0
BLOCK
  8
1
  2
*D4
 70
1
 10
0
 20
0
 30
0
  0
LINE
  8
1
 62
2
 10
-172.746104602172
 20
47.40000000000002
 30
0
 11
-172.746104602172
 21
41.00000000000002
 31
0
  0
LINE
  8
1
 62
2
 10
-172.746104602172
 20
33.00000000000002
 30
0
 11
-172.746104602172
 21
41.00000000000002
 31
0
  0
LINE
  8
1
 62
2
 10
-172.746104602172
 20
33.00000000000002
 30
0
 11
-172.746104602172
 21
14.236175867642
 31
0
  0
LINE
  8
1
 62
2
 10
-181.746104602172
 20
33.00000000000002
 30
0
 11
-171.746104602172
 21
33.00000000000002
 31
0
  0
LINE
  8
1
 62
2
 10
-181.746104602172
 20
41.00000000000002
 30
0
 11
-171.746104602172
 21
41.00000000000002
 31
0
  0
SOLID
  8
1
 62
2
 10
-172.746104602172
 20
41.00000000000002
 30
0
 11
-173.162104602172
 21
44.20000000000002
 31
0
 12
-172.330104602172
 22
44.20000000000002
 32
0
 13
-172.330104602172
 23
44.20000000000002
 33
0
  0
SOLID
  8
1
 62
2
 10
-172.746104602172
 20
33.00000000000002
 30
0
 11
-172.330104602172
 21
29.80000000000002
 31
0
 12
-173.162104602172
 22
29.80000000000002
 32
0
 13
-173.162104602172
 23
29.80000000000002
 33
0
  0
TEXT
  8
1
 62
2
 10
-174.546104602172
 20
18.076175867642
 30
0
 40
3.2
  1
8
 50
90
 41
0.9
  0
TEXT
  8
1
 62
2
 10
-176.626104602172
 20
21.596175867642
 30
0
 40
1.92
  1
 0
 50
90
 41
0.9
  0
TEXT
  8
1
 62
2
 10
-173.746104602172
 20
21.596175867642
 30
0
 40
1.92
  1
-0.02
 50
90
 41
0.9
  0
TEXT
  8
1
 62
2
 10
-174.546104602172
 20
14.236175867642
 30
0
 40
3.2
  1
%%c
 50
90
 41
0.9
  0
ENDBLK
  8
0
  0
BLOCK
  8
1
  2
*D5
 70
1
 10
0
 20
0
 30
0
  0
LINE
  8
1
 62
2
 10
-15.99999999999997
 20
31.4
 30
0
 11
-15.99999999999997
 21
25
 31
0
  0
LINE
  8
1
 62
2
 10
-15.99999999999997
 20
21
 30
0
 11
-15.99999999999997
 21
25
 31
0
  0
LINE
  8
1
 62
2
 10
-15.99999999999997
 20
21
 30
0
 11
-15.99999999999997
 21
9.895131497968491
 31
0
  0
LINE
  8
1
 62
2
 10
-36.50000000000002
 20
21
 30
0
 11
-14.99999999999997
 21
21
 31
0
  0
LINE
  8
1
 62
2
 10
-31.99999999999997
 20
25
 30
0
 11
-14.99999999999997
 21
25
 31
0
  0
SOLID
  8
1
 62
2
 10
-15.99999999999997
 20
21
 30
0
 11
-15.58399999999997
 21
17.8
 31
0
 12
-16.41599999999997
 22
17.8
 32
0
 13
-16.41599999999997
 23
17.8
 33
0
  0
SOLID
  8
1
 62
2
 10
-15.99999999999997
 20
25
 30
0
 11
-16.41599999999997
 21
28.2
 31
0
 12
-15.58399999999997
 22
28.2
 32
0
 13
-15.58399999999997
 23
28.2
 33
0
  0
TEXT
  8
1
 62
2
 10
-16.99999999999999
 20
11.97513149796849
 30
0
 40
3.2
  1
4
 50
90
 41
0.9
  0
TEXT
  8
1
 62
2
 10
-16.99999999999999
 20
9.895131497968489
 30
0
 40
3.2
  1
(
 50
90
 41
0.9
  0
TEXT
  8
1
 62
2
 10
-16.99999999999999
 20
15.49513149796849
 30
0
 40
3.2
  1
)
 50
90
 41
0.9
  0
ENDBLK
  8
0
  0
BLOCK
  8
1
  2
*D6
 70
1
 10
0
 20
0
 30
0
  0
LINE
  8
1
 62
2
 10
-15.99999999999997
 20
25
 30
0
 11
-15.99999999999997
 21
46.99999999999999
 31
0
  0
LINE
  8
1
 62
2
 10
-31.99999999999997
 20
25
 30
0
 11
-14.99999999999997
 21
25
 31
0
  0
LINE
  8
1
 62
2
 10
-32.08675958747207
 20
46.99999999999999
 30
0
 11
-14.99999999999997
 21
46.99999999999999
 31
0
  0
SOLID
  8
1
 62
2
 10
-15.99999999999997
 20
25
 30
0
 11
-16.41599999999997
 21
28.2
 31
0
 12
-15.58399999999997
 22
28.2
 32
0
 13
-15.58399999999997
 23
28.2
 33
0
  0
SOLID
  8
1
 62
2
 10
-15.99999999999997
 20
46.99999999999999
 30
0
 11
-15.58399999999997
 21
43.79999999999999
 31
0
 12
-16.41599999999997
 22
43.79999999999999
 32
0
 13
-16.41599999999997
 23
43.79999999999999
 33
0
  0
TEXT
  8
1
 62
2
 10
-16.99999999999999
 20
30.37599999999999
 30
0
 40
3.2
  1
22
 50
90
 41
0.9
  0
TEXT
  8
1
 62
2
 10
-17.63999999999999
 20
36.776
 30
0
 40
1.92
  1
%%p0.3
 50
90
 41
0.9
  0
ENDBLK
  8
0
  0
BLOCK
  8
1
  2
*D7
 70
1
 10
0
 20
0
 30
0
  0
LINE
  8
1
 62
2
 10
-94
 20
21
 30
0
 11
-94
 21
37
 31
0
  0
LINE
  8
1
 62
2
 10
-68.0927579480101
 20
37
 30
0
 11
-95
 21
37
 31
0
  0
LINE
  8
1
 62
2
 10
-73.5
 20
21
 30
0
 11
-95
 21
21
 31
0
  0
SOLID
  8
1
 62
2
 10
-94
 20
21
 30
0
 11
-94.416
 21
24.2
 31
0
 12
-93.584
 22
24.2
 32
0
 13
-93.584
 23
24.2
 33
0
  0
SOLID
  8
1
 62
2
 10
-94
 20
37
 30
0
 11
-93.584
 21
33.8
 31
0
 12
-94.416
 22
33.8
 32
0
 13
-94.416
 23
33.8
 33
0
  0
TEXT
  8
1
 62
2
 10
-95
 20
27.08
 30
0
 40
3.2
  1
16
 50
90
 41
0.9
  0
TEXT
  8
1
 62
2
 10
-95
 20
25
 30
0
 40
3.2
  1
(
 50
90
 41
0.9
  0
TEXT
  8
1
 62
2
 10
-95
 20
32.52
 30
0
 40
3.2
  1
)
 50
90
 41
0.9
  0
ENDBLK
  8
0
  0
BLOCK
  8
1
  2
*D8
 70
1
 10
0
 20
0
 30
0
  0
LINE
  8
1
 62
2
 10
-84
 20
25
 30
0
 11
-84
 21
37
 31
0
  0
LINE
  8
1
 62
2
 10
-68.0927579480101
 20
37
 30
0
 11
-85
 21
37
 31
0
  0
LINE
  8
1
 62
2
 10
-78
 20
25
 30
0
 11
-85
 21
25
 31
0
  0
SOLID
  8
1
 62
2
 10
-84
 20
25
 30
0
 11
-84.416
 21
28.2
 31
0
 12
-83.584
 22
28.2
 32
0
 13
-83.584
 23
28.2
 33
0
  0
SOLID
  8
1
 62
2
 10
-84
 20
37
 30
0
 11
-83.584
 21
33.8
 31
0
 12
-84.416
 22
33.8
 32
0
 13
-84.416
 23
33.8
 33
0
  0
TEXT
  8
1
 62
2
 10
-85
 20
29.08
 30
0
 40
3.2
  1
12
 50
90
 41
0.9
  0
ENDBLK
  8
0
  0
BLOCK
  8
1
  2
*D9
 70
1
 10
0
 20
0
 30
0
  0
LINE
  8
1
 62
2
 10
-74.00000000000003
 20
-8.999999999999993
 30
0
 11
-36
 21
-8.999999999999993
 31
0
  0
LINE
  8
1
 62
2
 10
-74.00000000000003
 20
21.50000000000001
 30
0
 11
-74.00000000000003
 21
-9.999999999999993
 31
0
  0
LINE
  8
1
 62
2
 10
-36
 20
21.50000000000001
 30
0
 11
-36
 21
-9.999999999999993
 31
0
  0
SOLID
  8
1
 62
2
 10
-74.00000000000003
 20
-8.999999999999993
 30
0
 11
-70.80000000000003
 21
-8.583999999999993
 31
0
 12
-70.80000000000003
 22
-9.415999999999993
 32
0
 13
-70.80000000000003
 23
-9.415999999999993
 33
0
  0
SOLID
  8
1
 62
2
 10
-36
 20
-8.999999999999993
 30
0
 11
-39.2
 21
-9.415999999999992
 31
0
 12
-39.2
 22
-8.583999999999993
 32
0
 13
-39.2
 23
-8.583999999999993
 33
0
  0
TEXT
  8
1
 62
2
 10
-57.4
 20
-7.999999999999993
 30
0
 40
3.2
  1
38
 41
0.9
  0
ENDBLK
  8
0
  0
BLOCK
  8
1
  2
*D10
 70
1
 10
0
 20
0
 30
0
  0
LINE
  8
1
 62
2
 10
-70
 20
1.000000000000008
 30
0
 11
-40
 21
1.000000000000008
 31
0
  0
LINE
  8
1
 62
2
 10
-70
 20
18.17420072082096
 30
0
 11
-70
 21
7.993605777301127e-015
 31
0
  0
LINE
  8
1
 62
2
 10
-40
 20
17.35333243536081
 30
0
 11
-40
 21
7.993605777301127e-015
 31
0
  0
SOLID
  8
1
 62
2
 10
-70
 20
1.000000000000008
 30
0
 11
-66.8
 21
1.416000000000008
 31
0
 12
-66.8
 22
0.5840000000000079
 32
0
 13
-66.8
 23
0.5840000000000079
 33
0
  0
SOLID
  8
1
 62
2
 10
-40
 20
1.000000000000008
 30
0
 11
-43.2
 21
0.5840000000000086
 31
0
 12
-43.2
 22
1.416000000000008
 32
0
 13
-43.2
 23
1.416000000000008
 33
0
  0
TEXT
  8
1
 62
2
 10
-60.624
 20
2.000000000000009
 30
0
 40
3.2
  1
30
 41
0.9
  0
TEXT
  8
1
 62
2
 10
-54.224
 20
2.640000000000009
 30
0
 40
1.92
  1
%%p0.3
 41
0.9
  0
ENDBLK
  8
0
  0
BLOCK
  8
1
  2
*D11
 70
1
 10
0
 20
0
 30
0
  0
LINE
  8
1
 62
2
 10
-198.9461046021719
 20
-8.999999999999957
 30
0
 11
-182.746104602172
 21
-8.999999999999957
 31
0
  0
LINE
  8
1
 62
2
 10
-198.9461046021719
 20
20.00000000000004
 30
0
 11
-198.9461046021719
 21
-9.999999999999957
 31
0
  0
LINE
  8
1
 62
2
 10
-182.746104602172
 20
32.00000000000002
 30
0
 11
-182.746104602172
 21
-9.999999999999957
 31
0
  0
SOLID
  8
1
 62
2
 10
-198.9461046021719
 20
-8.999999999999957
 30
0
 11
-195.746104602172
 21
-8.583999999999957
 31
0
 12
-195.746104602172
 22
-9.415999999999958
 32
0
 13
-195.746104602172
 23
-9.415999999999958
 33
0
  0
SOLID
  8
1
 62
2
 10
-182.746104602172
 20
-8.999999999999957
 30
0
 11
-185.946104602172
 21
-9.415999999999956
 31
0
 12
-185.946104602172
 22
-8.583999999999957
 32
0
 13
-185.946104602172
 23
-8.583999999999957
 33
0
  0
TEXT
  8
1
 62
2
 10
-194.726104602172
 20
-7.999999999999956
 30
0
 40
3.2
  1
16.2
 41
0.9
  0
ENDBLK
  8
0
  0
BLOCK
  8
1
  2
*D12
 70
1
 10
0
 20
0
 30
0
  0
LINE
  8
1
 62
2
 10
-188.746104602172
 20
11.00000000000004
 30
0
 11
-182.746104602172
 21
11.00000000000004
 31
0
  0
LINE
  8
1
 62
2
 10
-188.746104602172
 20
11.00000000000004
 30
0
 11
-195.146104602172
 21
11.00000000000004
 31
0
  0
LINE
  8
1
 62
2
 10
-182.746104602172
 20
11.00000000000004
 30
0
 11
-176.346104602172
 21
11.00000000000004
 31
0
  0
LINE
  8
1
 62
2
 10
-188.746104602172
 20
30.45000000000002
 30
0
 11
-188.746104602172
 21
10.00000000000004
 31
0
  0
LINE
  8
1
 62
2
 10
-182.746104602172
 20
32.00000000000002
 30
0
 11
-182.746104602172
 21
10.00000000000004
 31
0
  0
SOLID
  8
1
 62
2
 10
-188.746104602172
 20
11.00000000000004
 30
0
 11
-191.946104602172
 21
10.58400000000004
 31
0
 12
-191.946104602172
 22
11.41600000000004
 32
0
 13
-191.946104602172
 23
11.41600000000004
 33
0
  0
SOLID
  8
1
 62
2
 10
-182.746104602172
 20
11.00000000000004
 30
0
 11
-179.546104602172
 21
11.41600000000004
 31
0
 12
-179.546104602172
 22
10.58400000000004
 32
0
 13
-179.546104602172
 23
10.58400000000004
 33
0
  0
TEXT
  8
1
 62
2
 10
-186.706104602172
 20
12.00000000000004
 30
0
 40
3.2
  1
6
 41
0.9
  0
ENDBLK
  8
0
  0
BLOCK
  8
1
  2
*D13
 70
1
 10
0
 20
0
 30
0
  0
LINE
  8
1
 62
2
 10
-217.6461046021719
 20
-8.999999999999957
 30
0
 11
-198.9461046021719
 21
-8.999999999999957
 31
0
  0
LINE
  8
1
 62
2
 10
-217.6461046021719
 20
21.50000000000004
 30
0
 11
-217.6461046021719
 21
-9.999999999999957
 31
0
  0
LINE
  8
1
 62
2
 10
-198.9461046021719
 20
20.00000000000004
 30
0
 11
-198.9461046021719
 21
-9.999999999999957
 31
0
  0
SOLID
  8
1
 62
2
 10
-217.6461046021719
 20
-8.999999999999957
 30
0
 11
-214.4461046021719
 21
-8.583999999999957
 31
0
 12
-214.4461046021719
 22
-9.415999999999958
 32
0
 13
-214.4461046021719
 23
-9.415999999999958
 33
0
  0
SOLID
  8
1
 62
2
 10
-198.9461046021719
 20
-8.999999999999957
 30
0
 11
-202.1461046021719
 21
-9.415999999999956
 31
0
 12
-202.1461046021719
 22
-8.583999999999957
 32
0
 13
-202.1461046021719
 23
-8.583999999999957
 33
0
  0
TEXT
  8
1
 62
2
 10
-212.1761046021719
 20
-7.999999999999956
 30
0
 40
3.2
  1
18.7
 41
0.9
  0
ENDBLK
  8
0
  0
BLOCK
  8
1
  2
*D14
 70
1
 10
0
 20
0
 30
0
  0
LINE
  8
1
 62
2
 10
-192.5461046021719
 20
1.000000000000043
 30
0
 11
-198.9461046021719
 21
1.000000000000043
 31
0
  0
LINE
  8
1
 62
2
 10
-204.446104602172
 20
1.000000000000043
 30
0
 11
-198.9461046021719
 21
1.000000000000043
 31
0
  0
LINE
  8
1
 62
2
 10
-204.446104602172
 20
1.000000000000043
 30
0
 11
-214.8191723266442
 21
1.000000000000043
 31
0
  0
LINE
  8
1
 62
2
 10
-204.446104602172
 20
28.00021766561514
 30
0
 11
-204.446104602172
 21
4.307665335545607e-014
 31
0
  0
LINE
  8
1
 62
2
 10
-198.9461046021719
 20
20.00000000000004
 30
0
 11
-198.9461046021719
 21
4.307665335545607e-014
 31
0
  0
SOLID
  8
1
 62
2
 10
-204.446104602172
 20
1.000000000000043
 30
0
 11
-207.646104602172
 21
0.5840000000000437
 31
0
 12
-207.646104602172
 22
1.416000000000043
 32
0
 13
-207.646104602172
 23
1.416000000000043
 33
0
  0
SOLID
  8
1
 62
2
 10
-198.9461046021719
 20
1.000000000000043
 30
0
 11
-195.7461046021719
 21
1.416000000000043
 31
0
 12
-195.7461046021719
 22
0.5840000000000429
 32
0
 13
-195.7461046021719
 23
0.5840000000000429
 33
0
  0
TEXT
  8
1
 62
2
 10
-214.8191723266442
 20
2.000000000000044
 30
0
 40
3.2
  1
5.5
 41
0.9
  0
ENDBLK
  8
0
  0
BLOCK
  8
1
  2
*D15
 70
1
 10
0
 20
0
 30
0
  0
LINE
  8
1
 62
2
 10
-227.646104602172
 20
21.00000000000004
 30
0
 11
-227.646104602172
 21
121
 31
0
  0
LINE
  8
1
 62
2
 10
-217.146104602172
 20
121
 30
0
 11
-228.646104602172
 21
121
 31
0
  0
LINE
  8
1
 62
2
 10
-217.146104602172
 20
21.00000000000004
 30
0
 11
-228.646104602172
 21
21.00000000000004
 31
0
  0
SOLID
  8
1
 62
2
 10
-227.646104602172
 20
121
 30
0
 11
-227.230104602172
 21
117.8
 31
0
 12
-228.062104602172
 22
117.8
 32
0
 13
-228.062104602172
 23
117.8
 33
0
  0
SOLID
  8
1
 62
2
 10
-227.646104602172
 20
21.00000000000004
 30
0
 11
-228.062104602172
 21
24.20000000000004
 31
0
 12
-227.230104602172
 22
24.20000000000004
 32
0
 13
-227.230104602172
 23
24.20000000000004
 33
0
  0
TEXT
  8
1
 62
2
 10
-228.646104602172
 20
67.64000000000004
 30
0
 40
3.2
  1
100
 50
90
 41
0.9
  0
ENDBLK
  8
0
  0
BLOCK
  8
1
  2
*D16
 70
1
 10
0
 20
0
 30
0
  0
LINE
  8
1
 62
2
 10
-93.79821538388201
 20
37.00000000000001
 30
0
 11
-93.79821538388201
 21
103.5
 31
0
  0
LINE
  8
1
 62
2
 10
-68.0927579480101
 20
37.00000000000001
 30
0
 11
-94.79821538388201
 21
37.00000000000001
 31
0
  0
LINE
  8
1
 62
2
 10
-74.06999999999994
 20
103.5
 30
0
 11
-94.79821538388201
 21
103.5
 31
0
  0
SOLID
  8
1
 62
2
 10
-93.79821538388201
 20
37.00000000000001
 30
0
 11
-94.21421538388201
 21
40.20000000000001
 31
0
 12
-93.38221538388201
 22
40.20000000000001
 32
0
 13
-93.38221538388201
 23
40.20000000000001
 33
0
  0
SOLID
  8
1
 62
2
 10
-93.79821538388201
 20
103.5
 30
0
 11
-93.38221538388201
 21
100.3
 31
0
 12
-94.21421538388201
 22
100.3
 32
0
 13
-94.21421538388201
 23
100.3
 33
0
  0
TEXT
  8
1
 62
2
 10
-94.79821538388201
 20
65.89000000000002
 30
0
 40
3.2
  1
66.5
 50
90
 41
0.9
  0
ENDBLK
  8
0
  0
BLOCK
  8
1
  2
*D17
 70
1
 10
0
 20
0
 30
0
  0
LINE
  8
1
 62
2
 10
-217.646104602172
 20
141.0000000000001
 30
0
 11
-160.8461046021721
 21
141.0000000000001
 31
0
  0
LINE
  8
1
 62
2
 10
-217.646104602172
 20
120.5000000000001
 30
0
 11
-217.646104602172
 21
142.0000000000001
 31
0
  0
LINE
  8
1
 62
2
 10
-160.8461046021721
 20
109.5000000000001
 30
0
 11
-160.8461046021721
 21
142.0000000000001
 31
0
  0
SOLID
  8
1
 62
2
 10
-160.8461046021721
 20
141.0000000000001
 30
0
 11
-164.0461046021721
 21
140.5840000000001
 31
0
 12
-164.0461046021721
 22
141.4160000000001
 32
0
 13
-164.0461046021721
 23
141.4160000000001
 33
0
  0
SOLID
  8
1
 62
2
 10
-217.646104602172
 20
141.0000000000001
 30
0
 11
-214.446104602172
 21
141.4160000000001
 31
0
 12
-214.446104602172
 22
140.5840000000001
 32
0
 13
-214.446104602172
 23
140.5840000000001
 33
0
  0
TEXT
  8
1
 62
2
 10
-193.606104602172
 20
142.0000000000001
 30
0
 40
3.2
  1
56.8
 41
0.9
  0
ENDBLK
  8
0
  0
BLOCK
  8
1
  2
*D18
 70
1
 10
0
 20
0
 30
0
  0
LINE
  8
1
 62
2
 10
-134.446104602172
 20
98.5
 30
0
 11
-134.446104602172
 21
108.5
 31
0
  0
LINE
  8
1
 62
2
 10
-159.846104602172
 20
98.5
 30
0
 11
-133.446104602172
 21
98.5
 31
0
  0
LINE
  8
1
 62
2
 10
-159.846104602172
 20
108.5
 30
0
 11
-133.446104602172
 21
108.5
 31
0
  0
SOLID
  8
1
 62
2
 10
-134.446104602172
 20
108.5
 30
0
 11
-134.030104602172
 21
105.3
 31
0
 12
-134.862104602172
 22
105.3
 32
0
 13
-134.862104602172
 23
105.3
 33
0
  0
SOLID
  8
1
 62
2
 10
-134.446104602172
 20
98.5
 30
0
 11
-134.862104602172
 21
101.7
 31
0
 12
-134.030104602172
 22
101.7
 32
0
 13
-134.030104602172
 23
101.7
 33
0
  0
TEXT
  8
1
 62
2
 10
-135.446104602172
 20
103.5
 30
0
 40
3.2
  1
10
 50
90
 41
0.9
  0
TEXT
  8
1
 62
2
 10
-135.446104602172
 20
99.66
 30
0
 40
3.2
  1
%%c
 50
90
 41
0.9
  0
ENDBLK
  8
0
  0
BLOCK
  8
1
  2
*D19
 70
1
 10
0
 20
0
 30
0
  0
LINE
  8
1
 62
2
 10
-124.446104602172
 20
89
 30
0
 11
-124.446104602172
 21
118
 31
0
  0
LINE
  8
1
 62
2
 10
-174.846104602172
 20
89
 30
0
 11
-123.446104602172
 21
89
 31
0
  0
LINE
  8
1
 62
2
 10
-174.846104602172
 20
118
 30
0
 11
-123.446104602172
 21
118
 31
0
  0
SOLID
  8
1
 62
2
 10
-124.446104602172
 20
118
 30
0
 11
-124.030104602172
 21
114.8
 31
0
 12
-124.862104602172
 22
114.8
 32
0
 13
-124.862104602172
 23
114.8
 33
0
  0
SOLID
  8
1
 62
2
 10
-124.446104602172
 20
89
 30
0
 11
-124.862104602172
 21
92.2
 31
0
 12
-124.030104602172
 22
92.2
 32
0
 13
-124.030104602172
 23
92.2
 33
0
  0
TEXT
  8
1
 62
2
 10
-125.446104602172
 20
103.02
 30
0
 40
3.2
  1
29
 50
90
 41
0.9
  0
TEXT
  8
1
 62
2
 10
-125.446104602172
 20
99.18000000000001
 30
0
 40
3.2
  1
%%c
 50
90
 41
0.9
  0
ENDBLK
  8
0
  0
BLOCK
  8
1
  2
*D20
 70
1
 10
0
 20
0
 30
0
  0
LINE
  8
1
 62
2
 10
-154.446104602172
 20
131.0000000000001
 30
0
 11
-160.846104602172
 21
131.0000000000001
 31
0
  0
LINE
  8
1
 62
2
 10
-164.046104602172
 20
131.0000000000001
 30
0
 11
-160.846104602172
 21
131.0000000000001
 31
0
  0
LINE
  8
1
 62
2
 10
-164.046104602172
 20
131.0000000000001
 30
0
 11
-175.376723104088
 21
131.0000000000001
 31
0
  0
LINE
  8
1
 62
2
 10
-164.046104602172
 20
118.4000000000001
 30
0
 11
-164.046104602172
 21
132.0000000000001
 31
0
  0
LINE
  8
1
 62
2
 10
-160.846104602172
 20
109.5000000000001
 30
0
 11
-160.846104602172
 21
132.0000000000001
 31
0
  0
SOLID
  8
1
 62
2
 10
-160.846104602172
 20
131.0000000000001
 30
0
 11
-157.646104602172
 21
131.4160000000001
 31
0
 12
-157.646104602172
 22
130.5840000000001
 32
0
 13
-157.646104602172
 23
130.5840000000001
 33
0
  0
SOLID
  8
1
 62
2
 10
-164.046104602172
 20
131.0000000000001
 30
0
 11
-167.246104602172
 21
130.5840000000001
 31
0
 12
-167.246104602172
 22
131.4160000000001
 32
0
 13
-167.246104602172
 23
131.4160000000001
 33
0
  0
TEXT
  8
1
 62
2
 10
-175.376723104088
 20
132.0000000000001
 30
0
 40
3.2
  1
3.2
 41
0.9
  0
ENDBLK
  8
0
  0
BLOCK
  8
1
  2
*D21
 70
1
 10
0
 20
0
 30
0
  0
LINE
  8
1
 62
2
 10
-164.046104602172
 20
79.00000000000001
 30
0
 11
-157.046104602172
 21
79.00000000000001
 31
0
  0
LINE
  8
1
 62
2
 10
-164.046104602172
 20
79.00000000000001
 30
0
 11
-170.446104602172
 21
79.00000000000001
 31
0
  0
LINE
  8
1
 62
2
 10
-157.046104602172
 20
79.00000000000001
 30
0
 11
-150.646104602172
 21
79.00000000000001
 31
0
  0
LINE
  8
1
 62
2
 10
-164.046104602172
 20
88.60000000000004
 30
0
 11
-164.046104602172
 21
78.00000000000001
 31
0
  0
LINE
  8
1
 62
2
 10
-157.046104602172
 20
101.6000000000002
 30
0
 11
-157.046104602172
 21
78.00000000000001
 31
0
  0
SOLID
  8
1
 62
2
 10
-157.046104602172
 20
79.00000000000001
 30
0
 11
-153.846104602172
 21
79.41600000000001
 31
0
 12
-153.846104602172
 22
78.58400000000002
 32
0
 13
-153.846104602172
 23
78.58400000000002
 33
0
  0
SOLID
  8
1
 62
2
 10
-164.046104602172
 20
79.00000000000001
 30
0
 11
-167.246104602172
 21
78.58400000000002
 31
0
 12
-167.246104602172
 22
79.41600000000001
 32
0
 13
-167.246104602172
 23
79.41600000000001
 33
0
  0
TEXT
  8
1
 62
2
 10
-161.506104602172
 20
80.00000000000001
 30
0
 40
3.2
  1
7
 41
0.9
  0
ENDBLK
  8
0
  0
BLOCK
  8
1
  2
*D22
 70
1
 10
0
 20
0
 30
0
  0
LINE
  8
1
 62
2
 10
-67.29980776764612
 20
131.0000000000001
 30
0
 11
-42.70019223235394
 21
131.0000000000001
 31
0
  0
LINE
  8
1
 62
2
 10
-67.29980776764612
 20
107.1999999999999
 30
0
 11
-67.29980776764612
 21
132.0000000000001
 31
0
  0
LINE
  8
1
 62
2
 10
-42.70019223235394
 20
107.1999999999999
 30
0
 11
-42.70019223235394
 21
132.0000000000001
 31
0
  0
SOLID
  8
1
 62
2
 10
-67.29980776764612
 20
131.0000000000001
 30
0
 11
-64.09980776764611
 21
131.4160000000001
 31
0
 12
-64.09980776764611
 22
130.5840000000001
 32
0
 13
-64.09980776764611
 23
130.5840000000001
 33
0
  0
SOLID
  8
1
 62
2
 10
-42.70019223235394
 20
131.0000000000001
 30
0
 11
-45.90019223235395
 21
130.5840000000001
 31
0
 12
-45.90019223235395
 22
131.4160000000001
 32
0
 13
-45.90019223235395
 23
131.4160000000001
 33
0
  0
TEXT
  8
1
 62
2
 10
-59.36000000000003
 20
132.0000000000001
 30
0
 40
3.2
  1
24.6
 41
0.9
  0
TEXT
  8
1
 62
2
 10
-61.44000000000003
 20
132.0000000000001
 30
0
 40
3.2
  1
(
 41
0.9
  0
TEXT
  8
1
 62
2
 10
-49.04000000000003
 20
132.0000000000001
 30
0
 40
3.2
  1
)
 41
0.9
  0
ENDBLK
  8
0
  0
BLOCK
  8
1
  2
*D23
 70
1
 10
0
 20
0
 30
0
  0
LINE
  8
1
 62
2
 10
-144.446104602172
 20
95.70000000000016
 30
0
 11
-144.446104602172
 21
102.1000000000002
 31
0
  0
LINE
  8
1
 62
2
 10
-144.446104602172
 20
102.1000000000002
 30
0
 11
-144.446104602172
 21
104.9000000000001
 31
0
  0
LINE
  8
1
 62
2
 10
-144.446104602172
 20
104.9000000000001
 30
0
 11
-144.446104602172
 21
137.231479410157
 31
0
  0
LINE
  8
1
 62
2
 10
-156.546104602172
 20
102.1000000000002
 30
0
 11
-143.446104602172
 21
102.1000000000002
 31
0
  0
LINE
  8
1
 62
2
 10
-156.546104602172
 20
104.9000000000001
 30
0
 11
-143.446104602172
 21
104.9000000000001
 31
0
  0
SOLID
  8
1
 62
2
 10
-144.446104602172
 20
104.9000000000001
 30
0
 11
-144.862104602172
 21
108.1000000000001
 31
0
 12
-144.030104602172
 22
108.1000000000001
 32
0
 13
-144.030104602172
 23
108.1000000000001
 33
0
  0
SOLID
  8
1
 62
2
 10
-144.446104602172
 20
102.1000000000002
 30
0
 11
-144.030104602172
 21
98.90000000000015
 31
0
 12
-144.862104602172
 22
98.90000000000015
 32
0
 13
-144.862104602172
 23
98.90000000000015
 33
0
  0
TEXT
  8
1
 62
2
 10
-145.446104602172
 20
119.503479410157
 30
0
 40
3.2
  1
2-2.8
 50
90
 41
0.9
  0
TEXT
  8
1
 62
2
 10
-146.086104602172
 20
132.383479410157
 30
0
 40
1.92
  1
%%p0.5
 50
90
 41
0.9
  0
ENDBLK
  8
0
  0
BLOCK
  8
1
  2
*D24
 70
1
 10
0
 20
0
 30
0
  0
LINE
  8
1
 62
2
 10
-187.8922533461075
 20
38.2332631643397
 30
0
 11
-179.0531875261129
 21
51.00000000000002
 31
0
  0
LINE
  8
1
 62
2
 10
-179.0531875261129
 20
51.00000000000002
 30
0
 11
-148.9091875261129
 21
51.00000000000002
 31
0
  0
SOLID
  8
1
 62
2
 10
-187.8922533461075
 20
38.2332631643397
 30
0
 11
-186.4127289840802
 21
41.1010259966129
 31
0
 12
-185.7286790155931
 22
40.62742316658247
 32
0
 13
-185.7286790155931
 23
40.62742316658247
 33
0
  0
TEXT
  8
1
 62
2
 10
-170.0131875261129
 20
52.80000000000002
 30
0
 40
3.2
  1
3
 41
0.9
  0
TEXT
  8
1
 62
2
 10
-166.4931875261129
 20
54.88000000000002
 30
0
 40
1.92
  1
+0.1
 41
0.9
  0
TEXT
  8
1
 62
2
 10
-166.4931875261129
 20
52.00000000000002
 30
0
 40
1.92
  1
 0
 41
0.9
  0
TEXT
  8
1
 62
2
 10
-173.8531875261129
 20
52.80000000000002
 30
0
 40
3.2
  1
%%c
 41
0.9
  0
TEXT
  8
1
 62
2
 10
-160.4291875261129
 20
52.80000000000002
 30
0
 40
3.2
  1
HOLE
 41
0.9
  0
ENDBLK
  8
0
  0
BLOCK
  8
1
  2
*D25
 70
1
 10
0
 20
0
 30
0
  0
LINE
  8
1
 62
2
 10
-70.99659929365913
 20
23.26599023997035
 30
0
 11
-80.92
 21
6.00000000000003
 31
0
  0
LINE
  8
1
 62
2
 10
-80.92
 20
6.00000000000003
 30
0
 11
-131.88
 21
6.00000000000003
 31
0
  0
SOLID
  8
1
 62
2
 10
-70.99659929365913
 20
23.26599023997035
 30
0
 11
-72.2304841334276
 21
20.2842819708418
 31
0
 12
-72.95183219359993
 22
20.69886727700401
 32
0
 13
-72.95183219359993
 23
20.69886727700401
 33
0
  0
TEXT
  8
1
 62
2
 10
-120.04
 20
7.00000000000003
 30
0
 40
3.2
  1
4
 41
0.9
  0
TEXT
  8
1
 62
2
 10
-131.88
 20
7.00000000000003
 30
0
 40
3.2
  1
 4-M
 41
0.9
  0
TEXT
  8
1
 62
2
 10
-116.52
 20
7.00000000000003
 30
0
 40
3.2
  1
DEPTH 6MAX
 41
0.9
  0
ENDBLK
  8
0
  0
BLOCK
  8
1
  2
*D26
 70
1
 10
0
 20
0
 30
0
  0
LINE
  8
1
 62
2
 10
-162.134819920311
 20
107.5349872819322
 30
0
 11
-136.847901905204
 21
79.1035338104073
 31
0
  0
LINE
  8
1
 62
2
 10
-136.847901905204
 20
79.1035338104073
 30
0
 11
-122.927901905204
 21
79.1035338104073
 31
0
  0
SOLID
  8
1
 62
2
 10
-158.1473584557121
 20
103.0516680797853
 30
0
 11
-155.7098688765772
 21
100.9370285001859
 31
0
 12
-156.3315558059416
 22
100.3841005104281
 32
0
 13
-156.3315558059416
 23
100.3841005104281
 33
0
  0
SOLID
  8
1
 62
2
 10
-158.9448507486319
 20
103.9483319202147
 30
0
 11
-161.3823403277668
 21
106.0629714998142
 31
0
 12
-160.7606533984024
 22
106.6158994895719
 32
0
 13
-160.7606533984024
 23
106.6158994895719
 33
0
  0
TEXT
  8
1
 62
2
 10
-127.807901905204
 20
80.1035338104073
 30
0
 40
3.2
  1
1.2
 41
0.9
  0
TEXT
  8
1
 62
2
 10
-131.647901905204
 20
80.1035338104073
 30
0
 40
3.2
  1
%%c
 41
0.9
  0
ENDBLK
  8
0
  0
ENDSEC
  0
SECTION
  2
ENTITIES
  0
LINE
  8
1
 62
1
 10
-55
 20
123.595378211891
 30
0
 11
-55
 21
18.3178129645788
 31
0
  0
LINE
  8
1
 62
1
 10
-55
 20
45.19000000000001
 30
0
 11
-55
 21
28.80999999999999
 31
0
  0
LINE
  8
1
 62
1
 10
-46.80999999999999
 20
37
 30
0
 11
-63.19000000000001
 21
37
 31
0
  0
LINE
  8
1
 62
1
 10
-55
 20
57.73178233438488
 30
0
 11
-55
 21
49.93178233438488
 31
0
  0
LINE
  8
1
 62
1
 10
-51.1
 20
53.83178233438488
 30
0
 11
-58.9
 21
53.83178233438488
 31
0
  0
LINE
  8
1
 62
1
 10
-55
 20
72.38178233438488
 30
0
 11
-55
 21
65.88178233438488
 31
0
  0
LINE
  8
1
 62
1
 10
-51.75
 20
69.13178233438488
 30
0
 11
-58.25
 21
69.13178233438488
 31
0
  0
LINE
  8
1
 62
1
 10
-55
 20
85.55000000000001
 30
0
 11
-55
 21
79.05000000000001
 31
0
  0
LINE
  8
1
 62
1
 10
-51.75
 20
82.30000000000001
 30
0
 11
-58.25
 21
82.30000000000001
 31
0
  0
LINE
  8
1
 62
3
 10
-201.8829406995305
 20
34.68860583839263
 30
0
 11
-202.7373890278972
 21
34.74307023288778
 31
0
  0
LINE
  8
1
 62
3
 10
-201.8829406995305
 20
29.31139416160752
 30
0
 11
-202.7373890278972
 21
29.25692976711236
 31
0
  0
LINE
  8
1
 62
3
 10
-201.8829406995305
 20
66.68860583839255
 30
0
 11
-202.7373890278972
 21
66.7430702328877
 31
0
  0
LINE
  8
1
 62
3
 10
-201.8829406995305
 20
61.31139416160745
 30
0
 11
-202.7373890278972
 21
61.25692976711228
 31
0
  0
LINE
  8
1
 62
1
 10
-68.25
 20
31.99999999999985
 30
0
 11
-68.2000000000001
 21
31.99999999999999
 31
0
  0
LINE
  8
1
 62
4
 10
-68.2000000000001
 20
31.99999999999999
 30
0
 11
-67.22119912452308
 21
32.00000000000001
 31
0
  0
LINE
  8
1
 62
1
 10
-199.5622048102413
 20
64
 30
0
 11
-205.657608182995
 21
64
 31
0
  0
LINE
  8
1
 62
3
 10
-204.4461046021719
 20
51.00021766561513
 30
0
 11
-204.4461046021719
 21
121.0000000000001
 31
0
  0
LINE
  8
1
 62
3
 10
-204.4461046021719
 20
51.00021766561513
 30
0
 11
-198.9461046021719
 21
51.00021766561513
 31
0
  0
LINE
  8
1
 62
3
 10
-198.9461046021719
 20
43.00021766561513
 30
0
 11
-198.9461046021719
 21
51.00021766561513
 31
0
  0
LINE
  8
1
 62
1
 10
-205.9655554342931
 20
32.00000000000001
 30
0
 11
-199.7158003406713
 21
32.00000000000001
 31
0
  0
LINE
  8
1
 62
1
 10
-211.3313569681025
 20
25.00000000000004
 30
0
 11
-194.9406629617934
 21
25.00000000000004
 31
0
  0
LINE
  8
1
 62
3
 10
-202.846104602172
 20
29.00021766561513
 30
0
 11
-202.846104602172
 21
43.00021766561513
 31
0
  0
LINE
  8
1
 62
3
 10
-182.746104602172
 20
41.00000000000002
 30
0
 11
-199.4461046021719
 21
41.00000000000002
 31
0
  0
LINE
  8
1
 62
3
 10
-198.9461046021719
 20
43.00021766561513
 30
0
 11
-204.4461046021719
 21
43.00021766561513
 31
0
  0
LINE
  8
1
 62
1
 10
-211.2151109113202
 20
47.00021766561513
 30
0
 11
-195.4056471889227
 21
47.00021766561513
 31
0
  0
LINE
  8
1
 62
3
 10
-199.4461046021719
 20
31.20000000000002
 30
0
 11
-199.4461046021719
 21
43.00021766561513
 31
0
  0
LINE
  8
1
 62
3
 10
-216.1461046021719
 20
21.00000000000004
 30
0
 11
-198.9461046021719
 21
21.00000000000004
 31
0
  0
LINE
  8
1
 62
3
 10
-204.446104602172
 20
29.00021766561513
 30
0
 11
-204.4461046021719
 21
43.00021766561513
 31
0
  0
LINE
  8
1
 62
3
 10
-182.746104602172
 20
33.00000000000002
 30
0
 11
-182.746104602172
 21
41.00000000000002
 31
0
  0
LINE
  8
1
 62
3
 10
-199.4461046021719
 20
33.00000000000002
 30
0
 11
-182.746104602172
 21
33.00000000000002
 31
0
  0
LINE
  8
1
 62
1
 10
-188.746104602172
 20
42.68200000000003
 30
0
 11
-188.746104602172
 21
31.45000000000002
 31
0
  0
LINE
  8
1
 62
3
 10
-198.9461046021719
 20
29.00021766561513
 30
0
 11
-204.446104602172
 21
29.00021766561513
 31
0
  0
LINE
  8
1
 62
3
 10
-198.9461046021719
 20
29.00021766561513
 30
0
 11
-198.9461046021719
 21
21.00000000000004
 31
0
  0
LINE
  8
1
 62
3
 10
-217.6461046021719
 20
22.50000000000004
 30
0
 11
-217.6461046021719
 21
119.5
 31
0
  0
LINE
  8
1
 62
3
 10
-216.1461046021719
 20
121.0000000000001
 30
0
 11
-202.846104602172
 21
121.0000000000001
 31
0
  0
LINE
  8
1
 62
1
 10
-179.2375094135574
 20
37.00000000000002
 30
0
 11
-220.7960257378186
 21
37.00000000000002
 31
0
  0
LINE
  8
1
 62
1
 10
-67.0927579480101
 20
37
 30
0
 11
-42.74124355091109
 21
37
 31
0
  0
LINE
  8
1
 62
4
 10
-73.50030463452109
 20
63.99999999999999
 30
0
 11
-66
 21
63.99999999999999
 31
0
  0
LINE
  8
1
 62
3
 10
-40
 20
42.99999999999999
 30
0
 11
-35.99999999999997
 21
42.99999999999999
 31
0
  0
LINE
  8
1
 62
3
 10
-40
 20
50.99999999999999
 30
0
 11
-35.99999999999997
 21
50.99999999999999
 31
0
  0
LINE
  8
1
 62
1
 10
-70
 20
30.20170024182339
 30
0
 11
-70
 21
19.17420072082096
 31
0
  0
LINE
  8
1
 62
1
 10
-77
 20
25
 30
0
 11
-63.93772598268311
 21
25
 31
0
  0
LINE
  8
1
 62
1
 10
-47
 20
25
 30
0
 11
-32.99999999999997
 21
25
 31
0
  0
LINE
  8
1
 62
1
 10
-40
 20
30.73476240771809
 30
0
 11
-40
 21
18.35333243536081
 31
0
  0
LINE
  8
1
 62
3
 10
-40
 20
29
 30
0
 11
-35.99999999999997
 21
29
 31
0
  0
LINE
  8
1
 62
3
 10
-44
 20
21
 30
0
 11
-44
 21
25
 31
0
  0
LINE
  8
1
 62
3
 10
-66
 20
25
 30
0
 11
-66
 21
21
 31
0
  0
LINE
  8
1
 62
3
 10
-74
 20
29
 30
0
 11
-70
 21
29
 31
0
  0
LINE
  8
1
 62
3
 10
-72.5
 20
21
 30
0
 11
-37.5
 21
21
 31
0
  0
LINE
  8
1
 62
4
 10
-39
 20
35.52316073956899
 30
0
 11
-39
 21
28.2721575513376
 31
0
  0
LINE
  8
1
 62
4
 10
-43.0055847034491
 20
32.00000000000001
 30
0
 11
-35.00211892021306
 21
32.00000000000001
 31
0
  0
LINE
  8
1
 62
4
 10
-71
 20
35.3863493586589
 30
0
 11
-71
 21
28.2721575513376
 31
0
  0
LINE
  8
1
 62
4
 10
-75.0194478363951
 20
32.00000000000001
 30
0
 11
-68.25
 21
31.99999999999985
 31
0
  0
LINE
  8
1
 62
1
 10
-40
 20
53.92429147196739
 30
0
 11
-40
 21
42.99999999999999
 31
0
  0
LINE
  8
1
 62
3
 10
-70
 20
50.99999999999999
 30
0
 11
-74
 21
50.99999999999999
 31
0
  0
LINE
  8
1
 62
1
 10
-77.07161855004509
 20
46.99999999999999
 30
0
 11
-63.18526338767811
 21
46.99999999999999
 31
0
  0
LINE
  8
1
 62
1
 10
-59.4874958555221
 20
53.7
 30
0
 11
-50.11264150192008
 21
53.7
 31
0
  0
LINE
  8
1
 62
4
 10
-44
 20
63.99999999999999
 30
0
 11
-34.87850317731707
 21
63.99999999999999
 31
0
  0
LINE
  8
1
 62
4
 10
-40
 20
69
 30
0
 11
-40
 21
59.77036748069499
 31
0
  0
LINE
  8
1
 62
4
 10
-70
 20
69
 30
0
 11
-70
 21
59.65318180127489
 31
0
  0
LINE
  8
1
 62
3
 10
-35.99999999999997
 20
119.5
 30
0
 11
-35.99999999999997
 21
22.5
 31
0
  0
LINE
  8
1
 62
1
 10
-59.37031017610198
 20
82.3
 30
0
 11
-50.6985698990201
 21
82.30000000000001
 31
0
  0
LINE
  8
1
 62
3
 10
-72.5
 20
121
 30
0
 11
-37.5
 21
121
 31
0
  0
LINE
  8
1
 62
3
 10
-74
 20
42.99999999999999
 30
0
 11
-70
 21
42.99999999999999
 31
0
  0
LINE
  8
1
 62
3
 10
-74
 20
119.5
 30
0
 11
-74
 21
22.5
 31
0
  0
LINE
  8
1
 62
1
 10
-70
 20
41.13178233438489
 30
0
 11
-70
 21
53.37704594832729
 31
0
  0
LINE
  8
1
 62
1
 10
-40
 20
42.99999999999999
 30
0
 11
-40
 21
41.13178233438489
 31
0
  0
LINE
  8
1
 62
1
 10
-46.28905784528999
 20
46.99999999999999
 30
0
 11
-33.08675958747207
 21
46.99999999999999
 31
0
  0
LINE
  8
1
 62
1
 10
-219.6190590280158
 20
103.5
 30
0
 11
-165.890381125573
 21
103.5
 31
0
  0
LINE
  8
1
 62
3
 10
-202.846104602172
 20
121.0000000000001
 30
0
 11
-202.846104602172
 21
51.00021766561513
 31
0
  0
LINE
  8
1
 62
3
 10
-201.0273845447956
 20
30.70000000000002
 30
0
 11
-199.9461046021719
 21
30.70000000000002
 31
0
  0
LINE
  8
1
 62
3
 10
-68.9941176470588
 20
64.29999999999998
 30
0
 11
-68.59999999999999
 21
64.29999999999998
 31
0
  0
LINE
  8
1
 62
3
 10
-68.9941176470588
 20
63.69999999999999
 30
0
 11
-68.59999999999999
 21
63.69999999999999
 31
0
  0
LINE
  8
1
 62
3
 10
-69.69999999999999
 20
62.99999999999999
 30
0
 11
-69.69999999999999
 21
62.59999999999999
 31
0
  0
LINE
  8
1
 62
3
 10
-70.19999999999999
 20
65.49999999999999
 30
0
 11
-69.79999999999998
 21
65.49999999999999
 31
0
  0
LINE
  8
1
 62
3
 10
-70.19999999999999
 20
62.49999999999999
 30
0
 11
-69.79999999999998
 21
62.49999999999999
 31
0
  0
LINE
  8
1
 62
3
 10
-68.5
 20
64.19999999999999
 30
0
 11
-68.5
 21
63.79999999999999
 31
0
  0
LINE
  8
1
 62
3
 10
-71.5
 20
64.19999999999999
 30
0
 11
-71.5
 21
63.79999999999999
 31
0
  0
LINE
  8
1
 62
3
 10
-71.40000000000001
 20
64.29999999999998
 30
0
 11
-71
 21
64.29999999999998
 31
0
  0
LINE
  8
1
 62
3
 10
-71.40000000000001
 20
63.69999999999999
 30
0
 11
-71
 21
63.69999999999999
 31
0
  0
LINE
  8
1
 62
3
 10
-70.29999999999998
 20
62.59999999999999
 30
0
 11
-70.29999999999998
 21
62.99999999999999
 31
0
  0
LINE
  8
1
 62
3
 10
-70.29999999999998
 20
65.39999999999999
 30
0
 11
-70.29999999999998
 21
64.99999999999999
 31
0
  0
LINE
  8
1
 62
3
 10
-69.69999999999999
 20
65.39999999999999
 30
0
 11
-69.69999999999999
 21
64.99999999999999
 31
0
  0
LINE
  8
1
 62
3
 10
-38.9941176470588
 20
64.29999999999998
 30
0
 11
-38.59999999999999
 21
64.29999999999998
 31
0
  0
LINE
  8
1
 62
3
 10
-38.9941176470588
 20
63.69999999999999
 30
0
 11
-38.59999999999999
 21
63.69999999999999
 31
0
  0
LINE
  8
1
 62
3
 10
-39.69999999999999
 20
62.99999999999999
 30
0
 11
-39.69999999999999
 21
62.59999999999999
 31
0
  0
LINE
  8
1
 62
3
 10
-40.19999999999999
 20
65.49999999999999
 30
0
 11
-39.79999999999998
 21
65.49999999999999
 31
0
  0
LINE
  8
1
 62
3
 10
-40.19999999999999
 20
62.49999999999999
 30
0
 11
-39.79999999999998
 21
62.49999999999999
 31
0
  0
LINE
  8
1
 62
3
 10
-38.5
 20
64.19999999999999
 30
0
 11
-38.5
 21
63.79999999999999
 31
0
  0
LINE
  8
1
 62
3
 10
-41.5
 20
64.19999999999999
 30
0
 11
-41.5
 21
63.79999999999999
 31
0
  0
LINE
  8
1
 62
3
 10
-41.40000000000001
 20
64.29999999999998
 30
0
 11
-41
 21
64.29999999999998
 31
0
  0
LINE
  8
1
 62
3
 10
-41.40000000000001
 20
63.69999999999999
 30
0
 11
-41
 21
63.69999999999999
 31
0
  0
LINE
  8
1
 62
3
 10
-40.29999999999998
 20
62.59999999999999
 30
0
 11
-40.29999999999998
 21
62.99999999999999
 31
0
  0
LINE
  8
1
 62
3
 10
-40.29999999999998
 20
65.39999999999999
 30
0
 11
-40.29999999999998
 21
64.99999999999999
 31
0
  0
LINE
  8
1
 62
3
 10
-39.69999999999999
 20
65.39999999999999
 30
0
 11
-39.69999999999999
 21
64.99999999999999
 31
0
  0
LINE
  8
1
 62
3
 10
-69.9941176470588
 20
32.29999999999991
 30
0
 11
-69.59999999999999
 21
32.29999999999991
 31
0
  0
LINE
  8
1
 62
3
 10
-69.9941176470588
 20
31.69999999999991
 30
0
 11
-69.59999999999999
 21
31.69999999999991
 31
0
  0
LINE
  8
1
 62
3
 10
-70.69999999999999
 20
30.99999999999991
 30
0
 11
-70.69999999999999
 21
30.59999999999991
 31
0
  0
LINE
  8
1
 62
3
 10
-71.19999999999999
 20
33.49999999999992
 30
0
 11
-70.79999999999998
 21
33.49999999999992
 31
0
  0
LINE
  8
1
 62
3
 10
-71.19999999999999
 20
30.49999999999991
 30
0
 11
-70.79999999999998
 21
30.49999999999991
 31
0
  0
LINE
  8
1
 62
3
 10
-69.5
 20
32.19999999999991
 30
0
 11
-69.5
 21
31.79999999999991
 31
0
  0
LINE
  8
1
 62
3
 10
-72.5
 20
32.19999999999991
 30
0
 11
-72.5
 21
31.79999999999991
 31
0
  0
LINE
  8
1
 62
3
 10
-72.40000000000001
 20
32.29999999999991
 30
0
 11
-72
 21
32.29999999999991
 31
0
  0
LINE
  8
1
 62
3
 10
-72.40000000000001
 20
31.69999999999991
 30
0
 11
-72
 21
31.69999999999991
 31
0
  0
LINE
  8
1
 62
3
 10
-71.29999999999998
 20
30.59999999999991
 30
0
 11
-71.29999999999998
 21
30.99999999999991
 31
0
  0
LINE
  8
1
 62
3
 10
-71.29999999999998
 20
33.39999999999991
 30
0
 11
-71.29999999999998
 21
32.99999999999992
 31
0
  0
LINE
  8
1
 62
3
 10
-70.69999999999999
 20
33.39999999999991
 30
0
 11
-70.69999999999999
 21
32.99999999999992
 31
0
  0
LINE
  8
1
 62
3
 10
-37.9941176470588
 20
32.3
 30
0
 11
-37.59999999999999
 21
32.3
 31
0
  0
LINE
  8
1
 62
3
 10
-37.9941176470588
 20
31.7
 30
0
 11
-37.59999999999999
 21
31.7
 31
0
  0
LINE
  8
1
 62
3
 10
-38.69999999999999
 20
31
 30
0
 11
-38.69999999999999
 21
30.60000000000001
 31
0
  0
LINE
  8
1
 62
3
 10
-39.19999999999999
 20
33.5
 30
0
 11
-38.79999999999998
 21
33.5
 31
0
  0
LINE
  8
1
 62
3
 10
-39.19999999999999
 20
30.5
 30
0
 11
-38.79999999999998
 21
30.5
 31
0
  0
LINE
  8
1
 62
3
 10
-37.5
 20
32.2
 30
0
 11
-37.5
 21
31.80000000000001
 31
0
  0
LINE
  8
1
 62
3
 10
-40.5
 20
32.2
 30
0
 11
-40.5
 21
31.80000000000001
 31
0
  0
LINE
  8
1
 62
3
 10
-40.40000000000001
 20
32.3
 30
0
 11
-40
 21
32.3
 31
0
  0
LINE
  8
1
 62
3
 10
-40.40000000000001
 20
31.7
 30
0
 11
-40
 21
31.7
 31
0
  0
LINE
  8
1
 62
3
 10
-39.29999999999998
 20
30.60000000000001
 30
0
 11
-39.29999999999998
 21
31
 31
0
  0
LINE
  8
1
 62
3
 10
-39.29999999999998
 20
33.40000000000001
 30
0
 11
-39.29999999999998
 21
33
 31
0
  0
LINE
  8
1
 62
3
 10
-38.69999999999999
 20
33.40000000000001
 30
0
 11
-38.69999999999999
 21
33
 31
0
  0
LINE
  8
1
 62
3
 10
-196.1942738468684
 20
116.3027400964545
 30
0
 11
-196.1942738468684
 21
110.4332192787133
 31
0
  0
LINE
  8
1
 62
3
 10
-196.1942738468684
 20
90.6972599035456
 30
0
 11
-196.1942738468684
 21
116.3027400964545
 31
0
  0
LINE
  8
1
 62
3
 10
-179.1942738468684
 20
90.6972599035456
 30
0
 11
-196.1942738468684
 21
90.6972599035456
 31
0
  0
LINE
  8
1
 62
3
 10
-179.1942738468684
 20
116.3027400964545
 30
0
 11
-179.1942738468684
 21
90.6972599035456
 31
0
  0
LINE
  8
1
 62
3
 10
-196.1942738468684
 20
116.3027400964545
 30
0
 11
-179.1942738468684
 21
116.3027400964545
 31
0
  0
LINE
  8
1
 62
3
 10
-179.1942738468684
 20
110.4332192787133
 30
0
 11
-179.1942738468684
 21
116.3027400964545
 31
0
  0
LINE
  8
1
 62
3
 10
-199.846104602172
 20
118
 30
0
 11
-199.846104602172
 21
89.00000000000001
 31
0
  0
LINE
  8
1
 62
3
 10
-175.846104602172
 20
118
 30
0
 11
-199.846104602172
 21
118
 31
0
  0
LINE
  8
1
 62
3
 10
-175.846104602172
 20
89.00000000000001
 30
0
 11
-175.846104602172
 21
118
 31
0
  0
LINE
  8
1
 62
3
 10
-199.846104602172
 20
89.00000000000001
 30
0
 11
-175.846104602172
 21
89.00000000000001
 31
0
  0
LINE
  8
1
 62
3
 10
-159.326104602172
 20
103.5
 30
0
 11
-157.766104602172
 21
103.5
 31
0
  0
LINE
  8
1
 62
3
 10
-158.546104602172
 20
104.28
 30
0
 11
-158.546104602172
 21
102.7200000000002
 31
0
  0
LINE
  8
0
 62
3
 10
-157.046104602172
 20
104.4000000000001
 30
0
 11
-157.046104602172
 21
102.6000000000002
 31
0
  0
LINE
  8
0
 62
3
 10
-157.546104602172
 20
104.9000000000001
 30
0
 11
-157.046104602172
 21
104.4000000000001
 31
0
  0
LINE
  8
0
 62
3
 10
-157.546104602172
 20
102.1000000000002
 30
0
 11
-163.246104602172
 21
102.1000000000002
 31
0
  0
LINE
  8
0
 62
3
 10
-157.546104602172
 20
102.1000000000002
 30
0
 11
-157.046104602172
 21
102.6000000000002
 31
0
  0
LINE
  8
0
 62
3
 10
-163.246104602172
 20
104.9000000000001
 30
0
 11
-157.546104602172
 21
104.9000000000001
 31
0
  0
LINE
  8
1
 62
1
 10
-155.046104602172
 20
103.5
 30
0
 11
-221.246104602172
 21
103.5
 31
0
  0
LINE
  8
0
 62
3
 10
-175.846104602172
 20
89.60000000000004
 30
0
 11
-164.046104602172
 21
89.60000000000004
 31
0
  0
LINE
  8
0
 62
3
 10
-175.846104602172
 20
117.4000000000001
 30
0
 11
-164.046104602172
 21
117.4000000000001
 31
0
  0
LINE
  8
0
 62
3
 10
-164.846104602172
 20
99.75000000000001
 30
0
 11
-175.5461046021721
 21
99.75000000000024
 31
0
  0
LINE
  8
0
 62
3
 10
-164.046104602172
 20
98.95000000000003
 30
0
 11
-164.046104602172
 21
99.00000000000001
 31
0
  0
LINE
  8
1
 62
3
 10
-164.846104602172
 20
99.75000000000001
 30
0
 11
-164.046104602172
 21
98.95000000000003
 31
0
  0
LINE
  8
0
 62
3
 10
-164.046104602172
 20
108.05
 30
0
 11
-164.046104602172
 21
117.4000000000001
 31
0
  0
LINE
  8
0
 62
3
 10
-164.846104602172
 20
107.25
 30
0
 11
-175.5461046021719
 21
107.2500000000002
 31
0
  0
LINE
  8
1
 62
3
 10
-164.846104602172
 20
107.25
 30
0
 11
-164.046104602172
 21
108.05
 31
0
  0
LINE
  8
0
 62
3
 10
-164.046104602172
 20
108
 30
0
 11
-164.046104602172
 21
107.25
 31
0
  0
LINE
  8
0
 62
3
 10
-164.046104602172
 20
99.75000000000001
 30
0
 11
-164.846104602172
 21
99.75000000000001
 31
0
  0
LINE
  8
0
 62
3
 10
-164.046104602172
 20
99.75000000000001
 30
0
 11
-164.046104602172
 21
99.00000000000001
 31
0
  0
LINE
  8
0
 62
3
 10
-164.046104602172
 20
89.60000000000004
 30
0
 11
-164.046104602172
 21
98.95000000000003
 31
0
  0
LINE
  8
0
 62
3
 10
-164.046104602172
 20
108
 30
0
 11
-164.046104602172
 21
108.05
 31
0
  0
LINE
  8
0
 62
3
 10
-164.346104602172
 20
107.25
 30
0
 11
-164.846104602172
 21
107.25
 31
0
  0
LINE
  8
0
 62
3
 10
-164.046104602172
 20
107.25
 30
0
 11
-164.346104602172
 21
107.25
 31
0
  0
LINE
  8
0
 62
3
 10
-201.846104602172
 20
117.4000000000001
 30
0
 11
-199.846104602172
 21
117.4000000000001
 31
0
  0
LINE
  8
0
 62
3
 10
-202.846104602172
 20
90.60000000000004
 30
0
 11
-202.846104602172
 21
116.4000000000001
 31
0
  0
LINE
  8
0
 62
3
 10
-201.846104602172
 20
89.60000000000004
 30
0
 11
-199.846104602172
 21
89.60000000000004
 31
0
  0
LINE
  8
0
 62
3
 10
-164.046104602172
 20
108
 30
0
 11
-164.046104602172
 21
107.25
 31
0
  0
LINE
  8
0
 62
3
 10
-164.046104602172
 20
99.75000000000001
 30
0
 11
-164.046104602172
 21
99.00000000000001
 31
0
  0
LINE
  8
0
 62
3
 10
-165.546104602172
 20
100.5500616806636
 30
0
 11
-165.546104602172
 21
100.75
 31
0
  0
LINE
  8
0
 62
3
 10
-164.746104602172
 20
99.75000000000001
 30
0
 11
-164.746104602172
 21
100.125
 31
0
  0
LINE
  8
0
 62
3
 10
-164.746104602172
 20
100.125
 30
0
 11
-164.746104602172
 21
100.75
 31
0
  0
LINE
  8
0
 62
3
 10
-164.746104602172
 20
100.75
 30
0
 11
-165.546104602172
 21
100.75
 31
0
  0
LINE
  8
0
 62
3
 10
-160.846104602172
 20
105.1
 30
0
 11
-160.846104602172
 21
108.5
 31
0
  0
LINE
  8
0
 62
3
 10
-160.846104602172
 20
108.5
 30
0
 11
-164.046104602172
 21
108.5
 31
0
  0
LINE
  8
0
 62
3
 10
-164.746104602172
 20
106.25
 30
0
 11
-164.746104602172
 21
106.875
 31
0
  0
LINE
  8
0
 62
3
 10
-164.746104602172
 20
106.875
 30
0
 11
-164.746104602172
 21
107.25
 31
0
  0
LINE
  8
0
 62
3
 10
-165.546104602172
 20
106.25
 30
0
 11
-165.546104602172
 21
106.4499383193367
 31
0
  0
LINE
  8
0
 62
3
 10
-164.746104602172
 20
106.25
 30
0
 11
-165.546104602172
 21
106.25
 31
0
  0
LINE
  8
0
 62
3
 10
-160.846104602172
 20
98.50000000000001
 30
0
 11
-164.046104602172
 21
98.50000000000001
 31
0
  0
LINE
  8
0
 62
3
 10
-160.846104602172
 20
98.50000000000001
 30
0
 11
-160.846104602172
 21
101.9000000000001
 31
0
  0
LINE
  8
0
 62
3
 10
-165.546104602172
 20
103
 30
0
 11
-165.546104602172
 21
104
 31
0
  0
LINE
  8
0
 62
3
 10
-157.046104602172
 20
104.4000000000001
 30
0
 11
-157.046104602172
 21
102.6000000000002
 31
0
  0
LINE
  8
0
 62
3
 10
-157.546104602172
 20
104.9000000000001
 30
0
 11
-157.046104602172
 21
104.4000000000001
 31
0
  0
LINE
  8
0
 62
3
 10
-157.546104602172
 20
102.1000000000002
 30
0
 11
-163.246104602172
 21
102.1000000000002
 31
0
  0
LINE
  8
0
 62
3
 10
-157.546104602172
 20
102.1000000000002
 30
0
 11
-157.046104602172
 21
102.6000000000002
 31
0
  0
LINE
  8
0
 62
3
 10
-163.246104602172
 20
104.9000000000001
 30
0
 11
-157.546104602172
 21
104.9000000000001
 31
0
  0
LINE
  8
0
 62
3
 10
-165.546104602172
 20
99.75000000000001
 30
0
 11
-175.5461046021721
 21
99.75000000000024
 31
0
  0
LINE
  8
0
 62
3
 10
-163.246104602172
 20
99.75000000000001
 30
0
 11
-164.046104602172
 21
99.75000000000001
 31
0
  0
LINE
  8
0
 62
3
 10
-163.246104602172
 20
103
 30
0
 11
-165.546104602172
 21
103
 31
0
  0
LINE
  8
0
 62
3
 10
-163.246104602172
 20
99.75000000000001
 30
0
 11
-163.246104602172
 21
102.075
 31
0
  0
LINE
  8
0
 62
3
 10
-163.246104602172
 20
102.075
 30
0
 11
-163.246104602172
 21
103
 31
0
  0
LINE
  8
0
 62
3
 10
-175.546104602172
 20
101.0999999999998
 30
0
 11
-175.546104602172
 21
101.4454491852984
 31
0
  0
LINE
  8
0
 62
3
 10
-175.5461046021721
 20
99.75000000000024
 30
0
 11
-175.546104602172
 21
101.0999999999998
 31
0
  0
LINE
  8
0
 62
3
 10
-175.546104602172
 20
101.4750000000002
 30
0
 11
-175.546104602172
 21
102.1000000000002
 31
0
  0
LINE
  8
0
 62
3
 10
-175.546104602172
 20
101.4454491852984
 30
0
 11
-175.546104602172
 21
101.4750000000002
 31
0
  0
LINE
  8
0
 62
3
 10
-175.546104602172
 20
104.9000000000001
 30
0
 11
-175.546104602172
 21
105.5250000000001
 31
0
  0
LINE
  8
0
 62
3
 10
-175.546104602172
 20
105.9000000000005
 30
0
 11
-175.5461046021719
 21
107.2500000000002
 31
0
  0
LINE
  8
0
 62
3
 10
-175.546104602172
 20
105.5545508147016
 30
0
 11
-175.546104602172
 21
105.9000000000005
 31
0
  0
LINE
  8
0
 62
3
 10
-175.546104602172
 20
105.5250000000001
 30
0
 11
-175.546104602172
 21
105.5545508147016
 31
0
  0
LINE
  8
0
 62
3
 10
-175.546104602172
 20
102.1000000000002
 30
0
 11
-175.546104602172
 21
104.9000000000001
 31
0
  0
LINE
  8
0
 62
3
 10
-163.246104602172
 20
104
 30
0
 11
-165.546104602172
 21
104
 31
0
  0
LINE
  8
0
 62
3
 10
-163.246104602172
 20
104
 30
0
 11
-163.246104602172
 21
104.9000000000001
 31
0
  0
LINE
  8
0
 62
3
 10
-163.246104602172
 20
104.9000000000001
 30
0
 11
-163.246104602172
 21
104.925
 31
0
  0
LINE
  8
0
 62
3
 10
-165.546104602172
 20
99.75000000000001
 30
0
 11
-165.546104602172
 21
100.75
 31
0
  0
LINE
  8
0
 62
3
 10
-164.746104602172
 20
99.75000000000001
 30
0
 11
-164.746104602172
 21
100.125
 31
0
  0
LINE
  8
0
 62
3
 10
-164.746104602172
 20
100.125
 30
0
 11
-164.746104602172
 21
100.75
 31
0
  0
LINE
  8
0
 62
3
 10
-164.746104602172
 20
100.75
 30
0
 11
-165.546104602172
 21
100.75
 31
0
  0
LINE
  8
0
 62
3
 10
-164.046104602172
 20
99.75000000000001
 30
0
 11
-164.746104602172
 21
99.75000000000001
 31
0
  0
LINE
  8
0
 62
3
 10
-165.846104602172
 20
107.2500000000001
 30
0
 11
-172.4482213490551
 21
107.2500000000001
 31
0
  0
LINE
  8
0
 62
3
 10
-165.546104602172
 20
107.25
 30
0
 11
-165.846104602172
 21
107.2500000000001
 31
0
  0
LINE
  8
0
 62
3
 10
-164.746104602172
 20
106.25
 30
0
 11
-164.746104602172
 21
106.875
 31
0
  0
LINE
  8
0
 62
3
 10
-164.746104602172
 20
106.875
 30
0
 11
-164.746104602172
 21
107.25
 31
0
  0
LINE
  8
0
 62
3
 10
-164.346104602172
 20
107.25
 30
0
 11
-164.746104602172
 21
107.25
 31
0
  0
LINE
  8
0
 62
3
 10
-164.046104602172
 20
107.25
 30
0
 11
-164.346104602172
 21
107.25
 31
0
  0
LINE
  8
0
 62
3
 10
-165.546104602172
 20
106.25
 30
0
 11
-165.546104602172
 21
107.25
 31
0
  0
LINE
  8
0
 62
3
 10
-164.746104602172
 20
106.25
 30
0
 11
-165.546104602172
 21
106.25
 31
0
  0
LINE
  8
0
 62
3
 10
-174.046104602172
 20
107.2500000000001
 30
0
 11
-175.5461046021719
 21
107.2500000000002
 31
0
  0
LINE
  8
0
 62
3
 10
-172.496104602172
 20
107.2500000000001
 30
0
 11
-173.546104602172
 21
107.2500000000001
 31
0
  0
LINE
  8
0
 62
3
 10
-173.546104602172
 20
107.2500000000001
 30
0
 11
-174.046104602172
 21
107.2500000000001
 31
0
  0
LINE
  8
0
 62
3
 10
-172.4482213490551
 20
107.2500000000001
 30
0
 11
-172.496104602172
 21
107.2500000000001
 31
0
  0
LINE
  8
0
 62
3
 10
-163.246104602172
 20
107.25
 30
0
 11
-164.046104602172
 21
107.25
 31
0
  0
LINE
  8
0
 62
3
 10
-163.246104602172
 20
104.925
 30
0
 11
-163.246104602172
 21
107.25
 31
0
  0
LINE
  8
0
 62
3
 10
-165.546104602172
 20
103
 30
0
 11
-165.546104602172
 21
104
 31
0
  0
LINE
  8
1
 62
1
 10
-55
 20
85.43000000000015
 30
0
 11
-55
 21
121.5699999999999
 31
0
  0
LINE
  8
1
 62
1
 10
-73.06999999999994
 20
103.5
 30
0
 11
-36.93000000000012
 21
103.5
 31
0
  0
LINE
  8
1
 62
1
 10
-42.70019223235394
 20
100.8000000000002
 30
0
 11
-42.70019223235394
 21
106.1999999999998
 31
0
  0
LINE
  8
1
 62
1
 10
-67.29980776764612
 20
100.8000000000002
 30
0
 11
-67.29980776764612
 21
106.1999999999998
 31
0
  0
LINE
  8
1
 62
3
 10
-40.58954813132115
 20
105.1089987384987
 30
0
 11
-41.17681664311871
 21
104.9593155525927
 31
0
  0
LINE
  8
1
 62
3
 10
-41.57748418584902
 20
108.9850769565128
 30
0
 11
-42.16475269764666
 21
108.8353937706065
 31
0
  0
LINE
  8
1
 62
3
 10
-68.38459935896472
 20
107.25
 30
0
 11
-61.99999999999989
 21
107.25
 31
0
  0
LINE
  8
1
 62
3
 10
-68.38459935896472
 20
99.75
 30
0
 11
-61.99999999999989
 21
99.75
 31
0
  0
LINE
  8
1
 62
3
 10
-68.89100428334834
 20
103.0000000000023
 30
0
 11
-67.54980776764612
 21
103
 31
0
  0
LINE
  8
1
 62
3
 10
-68.89100428334834
 20
103.9999999999977
 30
0
 11
-67.54980776764612
 21
104
 31
0
  0
LINE
  8
1
 62
3
 10
-42.45019223235394
 20
103
 30
0
 11
-42.45019223235394
 21
104
 31
0
  0
LINE
  8
1
 62
3
 10
-42.45019223235394
 20
103
 30
0
 11
-41.10899571665183
 21
103
 31
0
  0
LINE
  8
1
 62
3
 10
-42.95019223235394
 20
103
 30
0
 11
-42.95019223235394
 21
104
 31
0
  0
LINE
  8
1
 62
3
 10
-48.00000000000014
 20
103
 30
0
 11
-48.00000000000014
 21
104
 31
0
  0
LINE
  8
1
 62
3
 10
-48.00000000000014
 20
103
 30
0
 11
-42.95019223235394
 21
103
 31
0
  0
LINE
  8
1
 62
3
 10
-42.45019223235394
 20
104
 30
0
 11
-42.45019223235394
 21
104.4000000000001
 31
0
  0
LINE
  8
1
 62
3
 10
-42.45019223235394
 20
104
 30
0
 11
-41.10000000000005
 21
104
 31
0
  0
LINE
  8
1
 62
3
 10
-42.95019223235394
 20
104
 30
0
 11
-42.95019223235394
 21
104.4000000000001
 31
0
  0
LINE
  8
1
 62
3
 10
-48.00000000000014
 20
104
 30
0
 11
-48.00000000000014
 21
107.25
 31
0
  0
LINE
  8
1
 62
3
 10
-48.00000000000014
 20
104
 30
0
 11
-42.95019223235394
 21
104
 31
0
  0
LINE
  8
1
 62
3
 10
-67.04980776764612
 20
103
 30
0
 11
-67.04980776764612
 21
104
 31
0
  0
LINE
  8
1
 62
3
 10
-61.99999999999989
 20
103
 30
0
 11
-61.99999999999989
 21
104
 31
0
  0
LINE
  8
1
 62
3
 10
-67.04980776764612
 20
103
 30
0
 11
-61.99999999999989
 21
103
 31
0
  0
LINE
  8
1
 62
3
 10
-67.54980776764612
 20
103
 30
0
 11
-67.54980776764612
 21
104
 31
0
  0
LINE
  8
1
 62
3
 10
-67.04980776764612
 20
104
 30
0
 11
-67.04980776764612
 21
104.4000000000001
 31
0
  0
LINE
  8
1
 62
3
 10
-61.99999999999989
 20
104
 30
0
 11
-61.99999999999989
 21
107.25
 31
0
  0
LINE
  8
1
 62
3
 10
-67.04980776764612
 20
104
 30
0
 11
-61.99999999999989
 21
104
 31
0
  0
LINE
  8
1
 62
3
 10
-67.54980776764612
 20
104
 30
0
 11
-67.54980776764612
 21
104.4000000000001
 31
0
  0
LINE
  8
1
 62
3
 10
-67.54980776764612
 20
102.0999999999999
 30
0
 11
-67.54980776764612
 21
102.5999999999999
 31
0
  0
LINE
  8
1
 62
3
 10
-67.04980776764612
 20
102.0999999999999
 30
0
 11
-67.04980776764612
 21
102.5999999999999
 31
0
  0
LINE
  8
1
 62
3
 10
-42.95019223235394
 20
102.0999999999999
 30
0
 11
-42.95019223235394
 21
102.5999999999999
 31
0
  0
LINE
  8
1
 62
3
 10
-42.45019223235394
 20
102.0999999999999
 30
0
 11
-42.45019223235394
 21
102.5999999999999
 31
0
  0
LINE
  8
1
 62
3
 10
-67.54980776764612
 20
104.4000000000001
 30
0
 11
-67.04980776764612
 21
104.4000000000001
 31
0
  0
LINE
  8
1
 62
3
 10
-67.54980776764612
 20
104.4000000000001
 30
0
 11
-67.54980776764612
 21
104.9000000000001
 31
0
  0
LINE
  8
1
 62
3
 10
-67.04980776764612
 20
104.4000000000001
 30
0
 11
-67.04980776764612
 21
104.9000000000001
 31
0
  0
LINE
  8
1
 62
3
 10
-67.54980776764612
 20
102.5999999999999
 30
0
 11
-67.04980776764612
 21
102.5999999999999
 31
0
  0
LINE
  8
1
 62
3
 10
-67.54980776764612
 20
102.5999999999999
 30
0
 11
-67.54980776764612
 21
103
 31
0
  0
LINE
  8
1
 62
3
 10
-67.04980776764612
 20
102.5999999999999
 30
0
 11
-67.04980776764612
 21
103
 31
0
  0
LINE
  8
1
 62
3
 10
-67.54980776764612
 20
102.0999999999999
 30
0
 11
-67.04980776764612
 21
102.0999999999999
 31
0
  0
LINE
  8
1
 62
3
 10
-67.54980776764612
 20
104.9000000000001
 30
0
 11
-67.04980776764612
 21
104.9000000000001
 31
0
  0
LINE
  8
1
 62
3
 10
-42.95019223235394
 20
102.5999999999999
 30
0
 11
-42.45019223235394
 21
102.5999999999999
 31
0
  0
LINE
  8
1
 62
3
 10
-42.95019223235394
 20
102.5999999999999
 30
0
 11
-42.95019223235394
 21
103
 31
0
  0
LINE
  8
1
 62
3
 10
-42.45019223235394
 20
102.5999999999999
 30
0
 11
-42.45019223235394
 21
103
 31
0
  0
LINE
  8
1
 62
3
 10
-42.95019223235394
 20
102.0999999999999
 30
0
 11
-42.45019223235394
 21
102.0999999999999
 31
0
  0
LINE
  8
1
 62
3
 10
-42.95019223235394
 20
104.9000000000001
 30
0
 11
-42.45019223235394
 21
104.9000000000001
 31
0
  0
LINE
  8
1
 62
3
 10
-42.95019223235394
 20
104.4000000000001
 30
0
 11
-42.45019223235394
 21
104.4000000000001
 31
0
  0
LINE
  8
1
 62
3
 10
-42.95019223235394
 20
104.4000000000001
 30
0
 11
-42.95019223235394
 21
104.9000000000001
 31
0
  0
LINE
  8
1
 62
3
 10
-42.45019223235394
 20
104.4000000000001
 30
0
 11
-42.45019223235394
 21
104.9000000000001
 31
0
  0
LINE
  8
1
 62
3
 10
-48.00000000000014
 20
99.75
 30
0
 11
-41.61540064103531
 21
99.75
 31
0
  0
LINE
  8
1
 62
3
 10
-48.00000000000014
 20
107.25
 30
0
 11
-41.61540064103531
 21
107.25
 31
0
  0
LINE
  8
1
 62
3
 10
-48.00000000000014
 20
99.75
 30
0
 11
-48.00000000000014
 21
103
 31
0
  0
LINE
  8
1
 62
3
 10
-61.99999999999989
 20
99.75
 30
0
 11
-61.99999999999989
 21
103
 31
0
  0
ARC
  8
1
 62
3
 10
-205.846104602172
 20
32.00000000000007
 30
0
 40
4.999999999999998
 50
330.8838341682059
 51
356.5601872324848
  0
ARC
  8
1
 62
3
 10
-199.252820267016
 20
32.00000000000009
 30
0
 40
1.630135299472533
 50
169.3951937212565
 51
190.6048062787447
  0
ARC
  8
1
 62
3
 10
-205.846104602172
 20
32.00000000000007
 30
0
 40
4.999999999999992
 50
3.439812767515333
 51
29.11616583179408
  0
ARC
  8
1
 62
3
 10
-205.846104602172
 20
63.99999999999999
 30
0
 40
4.999999999999988
 50
330.8838341682061
 51
356.5601872324849
  0
ARC
  8
1
 62
3
 10
-199.252820267016
 20
64
 30
0
 40
1.630135299472534
 50
169.3951937212562
 51
190.6048062787438
  0
ARC
  8
1
 62
3
 10
-205.846104602172
 20
63.99999999999999
 30
0
 40
4.999999999999992
 50
3.439812767515251
 51
29.11616583179408
  0
ARC
  8
1
 62
3
 10
-70
 20
46.99999999999999
 30
0
 40
3.999999999999955
 50
50.32977175789658
 51
69.52276900774623
  0
ARC
  8
1
 62
3
 10
-70
 20
46.99999999999999
 30
0
 40
4
 50
270
 51
358.6442175296212
  0
ARC
  8
1
 62
3
 10
-54.9999999999977
 20
53.83178233438612
 30
0
 40
13.00000000000263
 50
196.7790237295835
 51
212.1949655579349
  0
ARC
  8
1
 62
3
 10
-40
 20
46.99999999999999
 30
0
 40
3.999999999999998
 50
112.5559005732158
 51
129.6702282421043
  0
ARC
  8
1
 62
3
 10
-55
 20
53.83178233438488
 30
0
 40
12.99999999999989
 50
327.8050344420641
 51
343.2209762704186
  0
ARC
  8
1
 62
3
 10
-40
 20
46.99999999999999
 30
0
 40
4.000000000000122
 50
181.3557824703788
 51
270
  0
ARC
  8
1
 62
3
 10
-71.00294117647059
 20
65.00294117647059
 30
0
 40
0.7029473295325234
 50
270.2397298960806
 51
359.7602701039182
  0
ARC
  8
1
 62
3
 10
-68.99705882352939
 20
65.00294117647059
 30
0
 40
0.7029473295325235
 50
180.2397298960818
 51
270.2397298960806
  0
ARC
  8
1
 62
3
 10
-68.99705882352939
 20
62.9970588235294
 30
0
 40
0.7029473295325092
 50
89.76027010391938
 51
179.7602701039188
  0
ARC
  8
1
 62
3
 10
-71.00294117647059
 20
62.9970588235294
 30
0
 40
0.7029473295325234
 50
0.2397298960812085
 51
89.76027010391938
  0
ARC
  8
1
 62
3
 10
-41.00294117647059
 20
65.00294117647059
 30
0
 40
0.7029473295325234
 50
270.2397298960812
 51
359.7602701039182
  0
ARC
  8
1
 62
3
 10
-38.99705882352939
 20
65.00294117647059
 30
0
 40
0.7029473295325164
 50
180.2397298960818
 51
270.2397298960812
  0
ARC
  8
1
 62
3
 10
-38.99705882352939
 20
62.9970588235294
 30
0
 40
0.7029473295325092
 50
89.76027010391879
 51
179.7602701039188
  0
ARC
  8
1
 62
3
 10
-41.00294117647059
 20
62.9970588235294
 30
0
 40
0.7029473295325305
 50
0.2397298960812062
 51
89.76027010391879
  0
ARC
  8
1
 62
3
 10
-72.00294117647059
 20
33.0029411764705
 30
0
 40
0.7029473295325092
 50
270.2397298960806
 51
359.7602701039199
  0
ARC
  8
1
 62
3
 10
-69.99705882352939
 20
33.0029411764705
 30
0
 40
0.7029473295325234
 50
180.23972989608
 51
270.2397298960806
  0
ARC
  8
1
 62
3
 10
-69.99705882352939
 20
30.99705882352932
 30
0
 40
0.7029473295325127
 50
89.76027010391938
 51
179.7602701039188
  0
ARC
  8
1
 62
3
 10
-72.00294117647059
 20
30.99705882352932
 30
0
 40
0.7029473295325234
 50
0.2397298960812085
 51
89.76027010391938
  0
ARC
  8
1
 62
3
 10
-40.00294117647059
 20
33.00294117647059
 30
0
 40
0.7029473295325163
 50
270.2397298960812
 51
359.7602701039188
  0
ARC
  8
1
 62
3
 10
-37.99705882352939
 20
33.00294117647059
 30
0
 40
0.7029473295325163
 50
180.2397298960812
 51
270.2397298960812
  0
ARC
  8
1
 62
3
 10
-37.99705882352939
 20
30.99705882352942
 30
0
 40
0.7029473295324985
 50
89.76027010391879
 51
179.7602701039199
  0
ARC
  8
1
 62
3
 10
-40.00294117647059
 20
30.99705882352942
 30
0
 40
0.7029473295325305
 50
0.2397298960800479
 51
89.76027010391879
  0
ARC
  8
1
 62
3
 10
-201.846104602172
 20
116.4000000000001
 30
0
 40
1
 50
90
 51
180
  0
ARC
  8
1
 62
3
 10
-201.846104602172
 20
90.60000000000004
 30
0
 40
1
 50
180
 51
270
  0
ARC
  8
1
 62
3
 10
-55
 20
103.5
 30
0
 40
13.89999999999983
 50
22.57182423403349
 51
6.026402042642538
  0
ARC
  8
1
 62
3
 10
-55
 20
103.5
 30
0
 40
13.89999999999996
 50
6.026402042642538
 51
22.57182423403349
  0
ARC
  8
1
 62
3
 10
-55
 20
103.5
 30
0
 40
14.50000000000003
 50
22.22725490454004
 51
6.370971372135889
  0
ARC
  8
1
 62
3
 10
-55
 20
103.5
 30
0
 40
13.49999999999991
 50
16.12762021316087
 51
163.8723797868393
  0
ARC
  8
1
 62
3
 10
-55
 20
103.5
 30
0
 40
13.50000000000001
 50
196.1276202131607
 51
343.8723797868391
  0
CIRCLE
  8
1
 62
3
 10
-55
 20
37
 30
0
 40
6.300000000000011
  0
CIRCLE
  8
1
 62
3
 10
-55
 20
37
 30
0
 40
5.5
  0
CIRCLE
  8
1
 62
3
 10
-188.746104602172
 20
37.00000000000002
 30
0
 40
1.5
  0
CIRCLE
  8
1
 62
2
 10
-40
 20
25
 30
0
 40
2.000000000000028
  0
CIRCLE
  8
1
 62
3
 10
-40
 20
25
 30
0
 40
1.5
  0
CIRCLE
  8
1
 62
2
 10
-70
 20
25
 30
0
 40
2
  0
CIRCLE
  8
1
 62
3
 10
-70
 20
25
 30
0
 40
1.5
  0
CIRCLE
  8
1
 62
2
 10
-40
 20
46.99999999999999
 30
0
 40
2
  0
CIRCLE
  8
1
 62
3
 10
-40
 20
46.99999999999999
 30
0
 40
1.5
  0
CIRCLE
  8
1
 62
2
 10
-70
 20
46.99999999999999
 30
0
 40
2
  0
CIRCLE
  8
1
 62
3
 10
-70
 20
46.99999999999999
 30
0
 40
1.5
  0
CIRCLE
  8
1
 62
3
 10
-55
 20
53.83178233438488
 30
0
 40
3
  0
CIRCLE
  8
1
 62
3
 10
-55
 20
69.13178233438488
 30
0
 40
2.5
  0
CIRCLE
  8
1
 62
3
 10
-55
 20
82.30000000000001
 30
0
 40
2.5
  0
CIRCLE
  8
1
 62
3
 10
-55
 20
37
 30
0
 40
4
  0
CIRCLE
  8
1
 62
3
 10
-70
 20
63.99999999999999
 30
0
 40
2.75
  0
CIRCLE
  8
1
 62
3
 10
-40
 20
63.99999999999999
 30
0
 40
2.75
  0
CIRCLE
  8
1
 62
3
 10
-71
 20
31.99999999999991
 30
0
 40
2.75
  0
CIRCLE
  8
1
 62
3
 10
-39
 20
32.00000000000001
 30
0
 40
2.75
  0
CIRCLE
  8
0
 62
3
 10
-158.546104602172
 20
103.5
 30
0
 40
0.5999999999999943
  0
CIRCLE
  8
0
 62
3
 10
-158.546104602172
 20
103.5
 30
0
 40
0.5999999999999943
  0
CIRCLE
  8
1
 62
2
 10
-55
 20
103.5
 30
0
 40
0.8499999999998948
  0
CIRCLE
  8
1
 62
3
 10
-55
 20
103.5
 30
0
 40
1.25
  0
CIRCLE
  8
1
 62
3
 10
-55
 20
103.5
 30
0
 40
4.5
  0
CIRCLE
  8
1
 62
3
 10
-55
 20
103.5
 30
0
 40
6.549999999999997
  0
CIRCLE
  8
1
 62
3
 10
-55
 20
103.5
 30
0
 40
5
  0
ARC
  8
1
 62
3
 10
-201.9147472362996
 20
34.1896185196973
 30
0
 40
0.4999999999999698
 50
29.11616583179591
 51
86.35277671521727
  0
ARC
  8
1
 62
3
 10
-201.9147472362996
 20
29.81038148030285
 30
0
 40
0.4999999999999998
 50
273.6472232847828
 51
330.8838341682034
  0
ARC
  8
1
 62
3
 10
-202.746104602172
 20
34.6434507630786
 30
0
 40
0.100000000000014
 50
84.99999999997148
 51
180
  0
ARC
  8
1
 62
3
 10
-202.746104602172
 20
29.35654923692153
 30
0
 40
0.09999999999999432
 50
180
 51
275.0000000000292
  0
ARC
  8
1
 62
3
 10
-201.9147472362996
 20
66.18961851969722
 30
0
 40
0.4999999999999698
 50
29.11616583179591
 51
86.35277671521722
  0
ARC
  8
1
 62
3
 10
-201.9147472362996
 20
61.81038148030277
 30
0
 40
0.4999999999999892
 50
273.6472232847829
 51
330.8838341682055
  0
ARC
  8
1
 62
3
 10
-202.746104602172
 20
66.64345076307853
 30
0
 40
0.09999999999999981
 50
84.99999999997077
 51
180
  0
ARC
  8
1
 62
3
 10
-202.746104602172
 20
61.35654923692147
 30
0
 40
0.09999999999999432
 50
180
 51
275.0000000000285
  0
ARC
  8
1
 62
3
 10
-199.9456585625075
 20
31.20105258457141
 30
0
 40
0.5
 50
270
 51
0
  0
ARC
  8
1
 62
3
 10
-216.1461046021719
 20
119.5000000000001
 30
0
 40
1.5
 50
90
 51
180
  0
ARC
  8
1
 62
3
 10
-216.1461046021719
 20
22.50000000000004
 30
0
 40
1.5
 50
180
 51
270
  0
ARC
  8
1
 62
3
 10
-40
 20
25
 30
0
 40
4
 50
90
 51
180
  0
ARC
  8
1
 62
3
 10
-70
 20
25
 30
0
 40
4
 50
0
 51
90
  0
ARC
  8
1
 62
3
 10
-72.5
 20
22.5
 30
0
 40
1.5
 50
180
 51
270
  0
ARC
  8
1
 62
3
 10
-37.5
 20
22.5
 30
0
 40
1.5
 50
270
 51
0
  0
ARC
  8
1
 62
3
 10
-40
 20
46.99999999999999
 30
0
 40
4
 50
90
 51
112.5559005732158
  0
ARC
  8
1
 62
3
 10
-70
 20
46.99999999999999
 30
0
 40
4.000000000000009
 50
69.52276900774623
 51
90
  0
ARC
  8
1
 62
3
 10
-72.5
 20
119.5
 30
0
 40
1.5
 50
90
 51
180
  0
ARC
  8
1
 62
3
 10
-37.5
 20
119.5
 30
0
 40
1.500000000000028
 50
0
 51
90
  0
ARC
  8
1
 62
3
 10
-71.40000000000001
 20
64.19999999999999
 30
0
 40
0.09999999999999432
 50
90
 51
180
  0
ARC
  8
1
 62
3
 10
-71.40000000000001
 20
63.79999999999999
 30
0
 40
0.09999999999999432
 50
180
 51
270
  0
ARC
  8
1
 62
3
 10
-70.19999999999999
 20
62.59999999999999
 30
0
 40
0.09999999999999432
 50
180
 51
270
  0
ARC
  8
1
 62
3
 10
-69.79999999999998
 20
62.59999999999999
 30
0
 40
0.09999999999999432
 50
270
 51
0
  0
ARC
  8
1
 62
3
 10
-68.59999999999999
 20
63.79999999999999
 30
0
 40
0.1000000000000014
 50
270
 51
0
  0
ARC
  8
1
 62
3
 10
-68.59999999999999
 20
64.19999999999999
 30
0
 40
0.09999999999999432
 50
0
 51
90
  0
ARC
  8
1
 62
3
 10
-69.79999999999998
 20
65.39999999999999
 30
0
 40
0.09999999999999432
 50
0
 51
90
  0
ARC
  8
1
 62
3
 10
-70.19999999999999
 20
65.39999999999999
 30
0
 40
0.09999999999999432
 50
90
 51
180
  0
ARC
  8
1
 62
3
 10
-41.40000000000001
 20
64.19999999999999
 30
0
 40
0.09999999999999432
 50
90
 51
180
  0
ARC
  8
1
 62
3
 10
-41.40000000000001
 20
63.79999999999999
 30
0
 40
0.09999999999998721
 50
180
 51
270
  0
ARC
  8
1
 62
3
 10
-40.19999999999999
 20
62.59999999999999
 30
0
 40
0.09999999999999432
 50
180
 51
270
  0
ARC
  8
1
 62
3
 10
-39.79999999999998
 20
62.59999999999999
 30
0
 40
0.09999999999999432
 50
270
 51
0
  0
ARC
  8
1
 62
3
 10
-38.59999999999999
 20
63.79999999999999
 30
0
 40
0.1000000000000014
 50
270
 51
0
  0
ARC
  8
1
 62
3
 10
-38.59999999999999
 20
64.19999999999999
 30
0
 40
0.09999999999998721
 50
0
 51
90
  0
ARC
  8
1
 62
3
 10
-39.79999999999998
 20
65.39999999999999
 30
0
 40
0.09999999999999432
 50
0
 51
90
  0
ARC
  8
1
 62
3
 10
-40.19999999999999
 20
65.39999999999999
 30
0
 40
0.09999999999999432
 50
90
 51
180
  0
ARC
  8
1
 62
3
 10
-72.40000000000001
 20
32.19999999999991
 30
0
 40
0.1000000000000014
 50
90
 51
180
  0
ARC
  8
1
 62
3
 10
-72.40000000000001
 20
31.79999999999991
 30
0
 40
0.09999999999999432
 50
180
 51
270
  0
ARC
  8
1
 62
3
 10
-71.19999999999999
 20
30.59999999999991
 30
0
 40
0.09999999999999432
 50
180
 51
270
  0
ARC
  8
1
 62
3
 10
-70.79999999999998
 20
30.59999999999991
 30
0
 40
0.09999999999999787
 50
270
 51
0
  0
ARC
  8
1
 62
3
 10
-69.59999999999999
 20
31.79999999999991
 30
0
 40
0.09999999999999787
 50
270
 51
0
  0
ARC
  8
1
 62
3
 10
-69.59999999999999
 20
32.19999999999991
 30
0
 40
0.09999999999999432
 50
0
 51
90
  0
ARC
  8
1
 62
3
 10
-70.79999999999998
 20
33.39999999999991
 30
0
 40
0.09999999999999432
 50
0
 51
90
  0
ARC
  8
1
 62
3
 10
-71.19999999999999
 20
33.39999999999991
 30
0
 40
0.1000000000000085
 50
90
 51
180
  0
ARC
  8
1
 62
3
 10
-40.40000000000001
 20
32.2
 30
0
 40
0.09999999999999432
 50
90
 51
180
  0
ARC
  8
1
 62
3
 10
-40.40000000000001
 20
31.80000000000001
 30
0
 40
0.09999999999998721
 50
180
 51
270
  0
ARC
  8
1
 62
3
 10
-39.19999999999999
 20
30.60000000000001
 30
0
 40
0.09999999999999432
 50
180
 51
270
  0
ARC
  8
1
 62
3
 10
-38.79999999999998
 20
30.60000000000001
 30
0
 40
0.1000000000000085
 50
270
 51
0
  0
ARC
  8
1
 62
3
 10
-37.59999999999999
 20
31.80000000000001
 30
0
 40
0.1000000000000121
 50
270
 51
0
  0
ARC
  8
1
 62
3
 10
-37.59999999999999
 20
32.2
 30
0
 40
0.09999999999998721
 50
0
 51
90
  0
ARC
  8
1
 62
3
 10
-38.79999999999998
 20
33.40000000000001
 30
0
 40
0.09999999999999432
 50
0
 51
90
  0
ARC
  8
1
 62
3
 10
-39.19999999999999
 20
33.40000000000001
 30
0
 40
0.09999999999998721
 50
90
 51
180
  0
LINE
  8
1
 62
2
 10
-116.1690028330808
 20
117.4119299552206
 30
0
 11
-83.41192995522063
 21
117.4119299552206
 31
0
  0
LINE
  8
1
 62
2
 10
-83.41192995522063
 20
117.4119299552206
 30
0
 11
-69.5
 21
103.5
 31
0
  0
SOLID
  8
1
 62
2
 10
-72.30069704246759
 20
105.6490504258382
 30
0
 11
-71.64905042583824
 21
106.3006970424676
 31
0
 12
-69.5
 22
103.5
 32
0
 13
-69.5
 23
103.5
 33
0
  0
LINE
  8
1
 62
2
 10
6.757072877860281
 20
88.99999999999999
 30
0
 11
-25.99999999999999
 21
88.99999999999999
 31
0
  0
LINE
  8
1
 62
2
 10
-25.99999999999999
 20
88.99999999999999
 30
0
 11
-40.49999999999999
 21
103.5
 31
0
  0
SOLID
  8
1
 62
2
 10
-37.6993029575324
 20
101.3509495741618
 30
0
 11
-38.35094957416175
 21
100.6993029575324
 31
0
 12
-40.49999999999999
 22
103.5
 32
0
 13
-40.49999999999999
 23
103.5
 33
0
  0
TEXT
  8
1
 62
2
 10
-135.78488201101
 20
-34.4999999999997
 30
0
 40
4
  1
DMN29BL
 41
0.9
  0
TEXT
  8
1
 62
2
 10
-118.9162405034308
 20
119.1619299552206
 30
0
 40
3.5
  1
(ü{)TERMINAL
 41
0.9
  0
TEXT
  8
1
 62
2
 10
-118.9162405034308
 20
112.1619299552206
 30
0
 40
3.5
  1
    (RED)
 41
0.9
  0
TEXT
  8
1
 62
2
 10
-28.30439628054469
 20
90.74999999999999
 30
0
 40
3.5
  1
(ü|)TERMINAL
 41
0.9
  0
TEXT
  8
1
 62
2
 10
-28.30439628054469
 20
83.74999999999999
 30
0
 40
3.5
  1
   (BLACK)
 41
0.9
  0
DIMENSION
  8
1
  6
CONTINUOUS
 62
2
  2
*D0
  3
DMST_1
 10
-74
 20
1.000000000000008
 30
0
 11
-81.05294073596909
 21
3.600000000000009
 31
0
 12
0
 22
0
 32
0
 70
0
  1
(<>
 13
-70
 23
19.17420072082096
 33
0
 14
-74
 24
22.5
 34
0
 53
0
  0
DIMENSION
  8
1
  6
CONTINUOUS
 62
2
  2
*D1
  3
DMST_1
 10
-66
 20
11
 30
0
 11
-55
 21
13.6
 31
0
 12
0
 22
0
 32
0
 70
0
  1
(<>
 13
-44
 23
21
 33
0
 14
-66
 24
21
 34
0
 53
0
  0
DIMENSION
  8
1
  6
CONTINUOUS
 62
2
  2
*D2
  3
DMST_1
 10
-25.99999999999997
 20
29
 30
0
 11
-28.59999999999999
 21
36
 31
0
 12
0
 22
0
 32
0
 70
0
  1
(<>
 13
-35.99999999999997
 23
42.99999999999999
 33
0
 14
-35.99999999999997
 24
29
 34
0
 50
90
 53
0
  0
DIMENSION
  8
1
  6
CONTINUOUS
 62
2
  2
*D3
  3
DMST_1
 10
-5.999999999999965
 20
50.99999999999999
 30
0
 11
-8.599999999999987
 21
36
 31
0
 12
0
 22
0
 32
0
 70
0
  1
(<>
 13
-37.5
 23
21
 33
0
 14
-35.99999999999997
 24
50.99999999999999
 34
0
 50
90
 53
0
  0
DIMENSION
  8
1
  6
CONTINUOUS
 62
2
  2
*D4
  3
DMST_2
 10
-172.746104602172
 20
33.00000000000002
 30
0
 11
-176.146104602172
 21
21.300175867642
 31
0
 12
0
 22
0
 32
0
 70
0
  1
%%c<>
 13
-182.746104602172
 23
41.00000000000002
 33
0
 14
-182.746104602172
 24
33.00000000000002
 34
0
 50
90
 53
0
  0
DIMENSION
  8
1
  6
CONTINUOUS
 62
2
  2
*D5
  3
DMST_1
 10
-15.99999999999997
 20
21
 30
0
 11
-18.59999999999999
 21
12.93513149796849
 31
0
 12
0
 22
0
 32
0
 70
0
  1
(<>
 13
-32.99999999999997
 23
25
 33
0
 14
-37.5
 24
21
 34
0
 50
90
 53
0
  0
DIMENSION
  8
1
  6
CONTINUOUS
 62
2
  2
*D6
  3
DMST_3
 10
-15.99999999999997
 20
25
 30
0
 11
-18.59999999999999
 21
35.99999999999999
 31
0
 12
0
 22
0
 32
0
 70
0
 13
-33.08675958747207
 23
46.99999999999999
 33
0
 14
-32.99999999999997
 24
25
 34
0
 50
90
 53
0
  0
DIMENSION
  8
1
  6
CONTINUOUS
 62
2
  2
*D7
  3
DMST_1
 10
-94
 20
37
 30
0
 11
-96.59999999999999
 21
29
 31
0
 12
0
 22
0
 32
0
 70
0
  1
(<>
 13
-72.5
 23
21
 33
0
 14
-67.0927579480101
 24
37
 34
0
 50
90
 53
0
  0
DIMENSION
  8
1
  6
CONTINUOUS
 62
2
  2
*D8
  3
DMST_4
 10
-84
 20
37
 30
0
 11
-86.59999999999999
 21
31
 31
0
 12
0
 22
0
 32
0
 70
0
 13
-77
 23
25
 33
0
 14
-67.0927579480101
 24
37
 34
0
 50
90
 53
0
  0
DIMENSION
  8
1
  6
CONTINUOUS
 62
2
  2
*D9
  3
DMST_4
 10
-36
 20
-8.999999999999993
 30
0
 11
-55
 21
-6.399999999999992
 31
0
 12
0
 22
0
 32
0
 70
0
 13
-74
 23
22.5
 33
0
 14
-35.99999999999997
 24
22.5
 34
0
 53
0
  0
DIMENSION
  8
1
  6
CONTINUOUS
 62
2
  2
*D10
  3
DMST_3
 10
-70
 20
1.000000000000008
 30
0
 11
-55
 21
3.600000000000009
 31
0
 12
0
 22
0
 32
0
 70
0
 13
-40
 23
18.35333243536081
 33
0
 14
-70
 24
19.17420072082096
 34
0
 53
0
  0
DIMENSION
  8
1
  6
CONTINUOUS
 62
2
  2
*D11
  3
DMST_4
 10
-198.9461046021719
 20
-8.999999999999957
 30
0
 11
-190.846104602172
 21
-6.399999999999956
 31
0
 12
0
 22
0
 32
0
 70
0
 13
-182.746104602172
 23
33.00000000000002
 33
0
 14
-198.9461046021719
 24
21.00000000000004
 34
0
 53
0
  0
DIMENSION
  8
1
  6
CONTINUOUS
 62
2
  2
*D12
  3
DMST_4
 10
-188.746104602172
 20
11.00000000000004
 30
0
 11
-185.746104602172
 21
13.60000000000004
 31
0
 12
0
 22
0
 32
0
 70
0
 13
-182.746104602172
 23
33.00000000000002
 33
0
 14
-188.746104602172
 24
31.45000000000002
 34
0
 53
0
  0
DIMENSION
  8
1
  6
CONTINUOUS
 62
2
  2
*D13
  3
DMST_4
 10
-217.6461046021719
 20
-8.999999999999957
 30
0
 11
-208.2961046021719
 21
-6.399999999999956
 31
0
 12
0
 22
0
 32
0
 70
0
 13
-198.9461046021719
 23
21.00000000000004
 33
0
 14
-217.6461046021719
 24
22.50000000000004
 34
0
 53
0
  0
DIMENSION
  8
1
  6
CONTINUOUS
 62
2
  2
*D14
  3
DMST_4
 10
-204.446104602172
 20
1.000000000000043
 30
0
 11
-211.8991723266442
 21
3.600000000000044
 31
0
 12
0
 22
0
 32
0
 70
0
 13
-198.9461046021719
 23
21.00000000000004
 33
0
 14
-204.446104602172
 24
29.00021766561513
 34
0
 53
0
  0
DIMENSION
  8
1
  6
CONTINUOUS
 62
2
  2
*D15
  3
DMST_4
 10
-227.646104602172
 20
121
 30
0
 11
-230.246104602172
 21
71.00000000000004
 31
0
 12
0
 22
0
 32
0
 70
0
 13
-216.1461046021719
 23
21.00000000000004
 33
0
 14
-216.1461046021719
 24
121.0000000000001
 34
0
 50
90
 53
0
  0
DIMENSION
  8
1
  6
CONTINUOUS
 62
2
  2
*D16
  3
DMST_4
 10
-93.79821538388201
 20
37.00000000000001
 30
0
 11
-96.398215383882
 21
70.25000000000001
 31
0
 12
0
 22
0
 32
0
 70
0
 13
-73.06999999999994
 23
103.5
 33
0
 14
-67.0927579480101
 24
37
 34
0
 50
90
 53
0
  0
DIMENSION
  8
1
  6
CONTINUOUS
 62
2
  2
*D17
  3
DMST_4
 10
-160.8461046021721
 20
141.0000000000001
 30
0
 11
-189.246104602172
 21
143.6000000000001
 31
0
 12
0
 22
0
 32
0
 70
0
 13
-217.6461046021719
 23
119.5
 33
0
 14
-160.846104602172
 24
108.5
 34
0
 53
0
  0
DIMENSION
  8
1
  6
CONTINUOUS
 62
2
  2
*D18
  3
DMST_4
 10
-134.446104602172
 20
98.5
 30
0
 11
-137.046104602172
 21
103.5
 31
0
 12
0
 22
0
 32
0
 70
0
  1
%%c<>
 13
-160.846104602172
 23
108.5
 33
0
 14
-160.846104602172
 24
98.50000000000001
 34
0
 50
90
 53
0
  0
DIMENSION
  8
1
  6
CONTINUOUS
 62
2
  2
*D19
  3
DMST_4
 10
-124.446104602172
 20
89
 30
0
 11
-127.046104602172
 21
103.5
 31
0
 12
0
 22
0
 32
0
 70
0
  1
%%c<>
 13
-175.846104602172
 23
118
 33
0
 14
-175.846104602172
 24
89.00000000000001
 34
0
 50
90
 53
0
  0
DIMENSION
  8
1
  6
CONTINUOUS
 62
2
  2
*D20
  3
DMST_4
 10
-164.046104602172
 20
131.0000000000001
 30
0
 11
-172.456723104088
 21
133.6000000000001
 31
0
 12
0
 22
0
 32
0
 70
0
 13
-160.846104602172
 23
108.5
 33
0
 14
-164.046104602172
 24
117.4000000000001
 34
0
 53
0
  0
DIMENSION
  8
1
  6
CONTINUOUS
 62
2
  2
*D21
  3
DMST_4
 10
-164.046104602172
 20
79.00000000000001
 30
0
 11
-160.546104602172
 21
81.60000000000001
 31
0
 12
0
 22
0
 32
0
 70
0
 13
-157.046104602172
 23
102.6000000000002
 33
0
 14
-164.046104602172
 24
89.60000000000004
 34
0
 53
0
  0
DIMENSION
  8
1
  6
CONTINUOUS
 62
2
  2
*D22
  3
DMST_5
 10
-67.29980776764612
 20
131.0000000000001
 30
0
 11
-55.00000000000003
 21
133.6000000000001
 31
0
 12
0
 22
0
 32
0
 70
1
  1
(<>
 13
-42.70019223235394
 23
106.1999999999998
 33
0
 14
-67.29980776764612
 24
106.1999999999998
 34
0
 53
0
  0
DIMENSION
  8
1
  6
CONTINUOUS
 62
2
  2
*D23
  3
DMST_6
 10
-144.446104602172
 20
104.9000000000001
 30
0
 11
-147.046104602172
 21
128.367479410157
 31
0
 12
0
 22
0
 32
0
 70
0
  1
2-2.8
 13
-157.546104602172
 23
102.1000000000002
 33
0
 14
-157.546104602172
 24
104.9000000000001
 34
0
 50
90
 53
0
  0
DIMENSION
  8
1
  6
CONTINUOUS
 62
2
  2
*D24
  3
DMST_7
 10
-189.5999558582365
 20
35.76673683566035
 30
0
 11
-161.3811875261129
 21
54.40000000000002
 31
0
 12
0
 22
0
 32
0
 70
3
 15
-187.8922533461075
 25
38.2332631643397
 35
0
 40
0
 53
0
  0
DIMENSION
  8
1
  6
CONTINUOUS
 62
2
  2
*D26
  3
DMST_8
 10
-158.9448507486319
 20
103.9483319202147
 30
0
 11
-127.287901905204
 21
81.70353381040729
 31
0
 12
0
 22
0
 32
0
 70
3
 15
-158.1473584557121
 25
103.0516680797853
 35
0
 40
0
 53
0
  0
INSERT
  8
1
  2
*D25
 10
0
 20
0
 30
0
  0
ENDSEC
  0
EOF
