  0
SECTION
  2
HEADER
  9
$ACADVER
  1
AC1009
  9
$INSBASE
 10
0
 20
0
  9
$EXTMIN
 10
716.8665376982648
 20
-42.6602134277115
  9
$EXTMAX
 10
1050.795537508666
 20
94.26483331330471
  9
$LIMMIN
 10
716.8665376982648
 20
-42.6602134277115
  9
$LIMMAX
 10
1050.795537508666
 20
94.26483331330471
  9
$VIEWCTR
 10
10
 20
10
  9
$VIEWSIZE
 40
10
  9
$SNAPMODE
 70
0
  9
$SNAPUNIT
 10
1
 20
1
  9
$SNAPBASE
 10
0
 20
0
  9
$SNAPANG
 50
0
  9
$SNAPSTYLE
 70
0
  9
$SNAPISOPAIR
 70
0
  9
$GRIDMODE
 70
0
  9
$GRIDUNIT
 10
0
 20
0
  9
$ORTHOMODE
 70
0
  9
$REGENMODE
 70
1
  9
$FILLMODE
 70
1
  9
$QTEXTMODE
 70
0
  9
$DRAGMODE
 70
2
  9
$LTSCALE
 40
1
  9
$OSMODE
 70
0
  9
$ATTMODE
 70
1
  9
$TEXTSIZE
 40
3.5
  9
$TRACEWID
 40
0.5
  9
$TEXTSTYLE
  7
STANDARD
  9
$CLAYER
  8
0
  9
$CELTYPE
  6
BYLAYER
  9
$CECOLOR
 62
256
  9
$DIMSCALE
 40
1
  9
$DIMASZ
 40
0.18
  9
$DIMEXO
 40
0.0625
  9
$DIMDLI
 40
0.38
  9
$DIMRND
 40
0
  9
$DIMDLE
 40
0
  9
$DIMEXE
 40
0.18
  9
$DIMTP
 40
0
  9
$DIMTM
 40
0
  9
$DIMTXT
 40
0.18
  9
$DIMCEN
 40
0.09
  9
$DIMTSZ
 40
0
  9
$DIMTOL
 70
0
  9
$DIMLIM
 70
0
  9
$DIMTIH
 70
1
  9
$DIMTOH
 70
1
  9
$DIMSE1
 70
0
  9
$DIMSE2
 70
0
  9
$DIMTAD
 70
0
  9
$DIMZIN
 70
0
  9
$DIMBLK
  1

  9
$DIMASO
 70
1
  9
$DIMSHO
 70
1
  9
$DIMPOST
  1

  9
$DIMAPOST
  1

  9
$DIMALT
 70
0
  9
$DIMALTD
 70
2
  9
$DIMALTF
 40
25.4
  9
$DIMLFAC
 40
1
  9
$DIMTOFL
 70
0
  9
$DIMTVP
 40
0
  9
$DIMTIX
 70
0
  9
$DIMSOXD
 70
0
  9
$DIMSAH
 70
0
  9
$DIMBLK1
  1

  9
$DIMBLK2
  1

  9
$DIMSTYLE
  2
*UNNAMED
  9
$DIMCLRD
 70
0
  9
$DIMCLRE
 70
0
  9
$DIMCLRT
 70
0
  9
$DIMTFAC
 40
1
  9
$DIMGAP
 40
0.09
  9
$LUNITS
 70
2
  9
$LUPREC
 70
4
  9
$AXISMODE
 70
0
  9
$AXISUNIT
 10
0
 20
0
  9
$SKETCHINC
 40
0.1
  9
$FILLETRAD
 40
2
  9
$AUNITS
 70
0
  9
$AUPREC
 70
0
  9
$MENU
  1
ACAD
  9
$ELEVATION
 40
0
  9
$THICKNESS
 40
0
  9
$VIEWDIR
 10
0
 20
0
 30
1
  9
$LIMCHECK
 70
0
  9
$BLIPMODE
 70
1
  9
$CHAMFERA
 40
0
  9
$CHAMFERB
 40
0
  9
$FASTZOOM
 70
1
  9
$SKPOLY
 70
0
  9
$ANGBASE
 50
0
  9
$ANGDIR
 70
0
  9
$PDMODE
 70
0
  9
$PDSIZE
 40
0
  9
$PLINEWID
 40
0
  9
$COORDS
 70
2
  0
ENDSEC
  0
SECTION
  2
TABLES
  0
TABLE
  2
DIMSTYLE
 70
6
  0
DIMSTYLE
  2
DMST_1
 70
0
  3
)
  4

  5

  6

  7

 40
1
 41
3.2
 42
1
 43
7
 44
1
 45
0
 46
0
 47
0
 48
0
140
3.2
141
0
142
0
143
25.4
144
1
145
0
146
1
147
0.09
 71
0
 72
0
 73
0
 74
0
 75
0
 76
0
 77
1
 78
9
170
0
171
2
172
0
173
0
174
0
175
0
176
2
177
2
178
2
  0
DIMSTYLE
  2
DMST_2
 70
0
  3

  4

  5

  6

  7

 40
1
 41
3.2
 42
1
 43
7
 44
1
 45
0
 46
0
 47
0
 48
0
140
3.2
141
0
142
0
143
25.4
144
1
145
0
146
1
147
0.09
 71
0
 72
0
 73
0
 74
0
 75
0
 76
0
 77
1
 78
9
170
0
171
2
172
0
173
0
174
0
175
0
176
2
177
2
178
2
  0
DIMSTYLE
  2
DMST_3
 70
0
  3

  4

  5

  6

  7

 40
1
 41
3.2
 42
1
 43
7
 44
1
 45
0
 46
0
 47
0
 48
0.02
140
3.2
141
0
142
0
143
25.4
144
1
145
0
146
0.6
147
0.09
 71
1
 72
0
 73
0
 74
0
 75
0
 76
0
 77
1
 78
9
170
0
171
2
172
0
173
0
174
0
175
0
176
2
177
2
178
2
  0
DIMSTYLE
  2
DMST_4
 70
0
  3

  4

  5

  6

  7

 40
1
 41
3.2
 42
1
 43
7
 44
1
 45
0
 46
0
 47
0.3
 48
0.3
140
3.2
141
0
142
0
143
25.4
144
1
145
0
146
0.6
147
0.09
 71
1
 72
0
 73
0
 74
0
 75
0
 76
0
 77
1
 78
9
170
0
171
2
172
0
173
0
174
0
175
0
176
2
177
2
178
2
  0
DIMSTYLE
  2
DMST_5
 70
0
  3

  4

  5

  6

  7

 40
1
 41
3.2
 42
1
 43
7
 44
1
 45
0
 46
0
 47
0.5
 48
0.5
140
3.2
141
0
142
0
143
25.4
144
1
145
0
146
0.6
147
0.09
 71
1
 72
0
 73
0
 74
0
 75
0
 76
0
 77
1
 78
9
170
0
171
2
172
0
173
0
174
0
175
0
176
2
177
2
178
2
  0
DIMSTYLE
  2
DMST_6
 70
0
  3

  4

  5

  6

  7

 40
1
 41
3.5
 42
1
 43
7
 44
2
 45
0
 46
0
 47
0
 48
0
140
3.5
141
0
142
0
143
25.4
144
1
145
0
146
1
147
0.09
 71
0
 72
0
 73
0
 74
0
 75
0
 76
0
 77
1
 78
9
170
0
171
2
172
0
173
0
174
0
175
0
176
2
177
2
178
2
  0
ENDTAB
  0
TABLE
  2
LTYPE
 70
9
  0
LTYPE
  2
CONTINUOUS
 70
64
  3
Solid line
 72
65
 73
0
 40
0
  0
LTYPE
  2
BORDER
 70
64
  3
__ __ . __ __ .
 72
65
 73
6
 40
15.3783092017948
 49
4.393802629084227
 49
-2.196901314542114
 49
4.393802629084227
 49
-2.196901314542114
 49
0
 49
-2.196901314542114
  0
LTYPE
  2
CENTER
 70
64
  3
____ _ ____ _
 72
65
 73
4
 40
17.57521051633691
 49
10.98450657271057
 49
-2.196901314542114
 49
2.196901314542114
 49
-2.196901314542114
  0
LTYPE
  2
DASHDOT
 70
64
  3
__ . __ . __ .
 72
65
 73
4
 40
8.787605258168455
 49
4.393802629084227
 49
-2.196901314542114
 49
0
 49
-2.196901314542114
  0
LTYPE
  2
DASHED
 70
64
  3
__ __ __ __ __
 72
65
 73
2
 40
6.590703943626341
 49
4.393802629084227
 49
-2.196901314542114
  0
LTYPE
  2
DIVIDE
 70
64
  3
__ . . __ . . 
 72
65
 73
6
 40
10.98450657271057
 49
4.393802629084227
 49
-2.196901314542114
 49
0
 49
-2.196901314542114
 49
0
 49
-2.196901314542114
  0
LTYPE
  2
DOT
 70
64
  3
..............
 72
65
 73
4
 40
4.393802629084227
 49
0
 49
-2.196901314542114
 49
0
 49
-2.196901314542114
  0
LTYPE
  2
HIDDEN
 70
64
  3
_ _ _ _ _ _ _
 72
65
 73
2
 40
3.295351971813171
 49
2.196901314542114
 49
-1.098450657271057
  0
LTYPE
  2
PHANTOM
 70
64
  3
_____ _ _ _____ _ _ 
 72
65
 73
6
 40
21.96901314542114
 49
10.98450657271057
 49
-2.196901314542114
 49
2.196901314542114
 49
-2.196901314542114
 49
2.196901314542114
 49
-2.196901314542114
  0
ENDTAB
  0
TABLE
  2
LAYER
 70
3
  0
LAYER
  2
1
 70
0
 62
7
  6
CONTINUOUS
  0
LAYER
  2
0
 70
0
 62
7
  6
CONTINUOUS
  0
ENDTAB
  0
TABLE
  2
STYLE
 70
4
  0
STYLE
  2
STANDARD
 70
0
 40
0
 41
1
 50
0
 71
0
 42
3.5
  3
txt
  4

  0
STYLE
  2
SIMPLEX
 70
0
 40
0
 41
1
 50
0
 71
0
 42
3.5
  3
simplex
  4

  0
STYLE
  2
COMPLEX
 70
0
 40
0
 41
1
 50
0
 71
0
 42
3.5
  3
complex
  4

  0
STYLE
  2
ITALIC
 70
0
 40
0
 41
1
 50
0
 71
0
 42
3.5
  3
italic
  4

  0
ENDTAB
  0
TABLE
  2
VIEW
 70
0
  0
ENDTAB
  0
ENDSEC
  0
SECTION
  2
BLOCKS
  0
BLOCK
  8
1
  2
*D0
 70
1
 10
0
 20
0
 30
0
  0
LINE
  8
1
 62
2
 10
1037.800502320864
 20
17.26502554565861
 30
0
 11
1037.800502320864
 21
41.86464108095079
 31
0
  0
LINE
  8
1
 62
2
 10
1016.993661567924
 20
41.86464108095079
 30
0
 11
1038.800502320864
 21
41.86464108095079
 31
0
  0
LINE
  8
1
 62
2
 10
1016.993661567924
 20
17.26502554565861
 30
0
 11
1038.800502320864
 21
17.26502554565861
 31
0
  0
SOLID
  8
1
 62
2
 10
1037.800502320864
 20
41.86464108095079
 30
0
 11
1038.216502320864
 21
38.66464108095079
 31
0
 12
1037.384502320864
 22
38.66464108095079
 32
0
 13
1037.384502320864
 23
38.66464108095079
 33
0
  0
SOLID
  8
1
 62
2
 10
1037.800502320864
 20
17.26502554565861
 30
0
 11
1037.384502320864
 21
20.46502554565861
 31
0
 12
1038.216502320864
 22
20.46502554565861
 32
0
 13
1038.216502320864
 23
20.46502554565861
 33
0
  0
TEXT
  8
1
 62
2
 10
1036.800502320864
 20
25.2048333133047
 30
0
 40
3.2
  1
24.6
 50
90
 41
0.9
  0
TEXT
  8
1
 62
2
 10
1036.800502320864
 20
23.1248333133047
 30
0
 40
3.2
  1
(
 50
90
 41
0.9
  0
TEXT
  8
1
 62
2
 10
1036.800502320864
 20
35.5248333133047
 30
0
 40
3.2
  1
)
 50
90
 41
0.9
  0
ENDBLK
  8
0
  0
BLOCK
  8
1
  2
*D1
 70
1
 10
0
 20
0
 30
0
  0
LINE
  8
1
 62
2
 10
956.1236615679236
 20
24.56483331330469
 30
0
 11
956.1236615679236
 21
34.56483331330469
 31
0
  0
LINE
  8
1
 62
2
 10
943.3236615679235
 20
34.56483331330469
 30
0
 11
957.1236615679236
 21
34.56483331330469
 31
0
  0
LINE
  8
1
 62
2
 10
943.3236615679235
 20
24.56483331330469
 30
0
 11
957.1236615679236
 21
24.56483331330469
 31
0
  0
SOLID
  8
1
 62
2
 10
956.1236615679236
 20
34.56483331330469
 30
0
 11
956.5396615679236
 21
31.36483331330469
 31
0
 12
955.7076615679235
 22
31.36483331330469
 32
0
 13
955.7076615679235
 23
31.36483331330469
 33
0
  0
SOLID
  8
1
 62
2
 10
956.1236615679236
 20
24.56483331330469
 30
0
 11
955.7076615679235
 21
27.76483331330469
 31
0
 12
956.5396615679236
 22
27.76483331330469
 32
0
 13
956.5396615679236
 23
27.76483331330469
 33
0
  0
TEXT
  8
1
 62
2
 10
955.1236615679236
 20
29.56483331330469
 30
0
 40
3.2
  1
10
 50
90
 41
0.9
  0
TEXT
  8
1
 62
2
 10
955.1236615679236
 20
25.72483331330469
 30
0
 40
3.2
  1
%%c
 50
90
 41
0.9
  0
ENDBLK
  8
0
  0
BLOCK
  8
1
  2
*D2
 70
1
 10
0
 20
0
 30
0
  0
LINE
  8
1
 62
2
 10
932.7236615679236
 20
80.06483331330469
 30
0
 11
939.1236615679236
 21
80.06483331330469
 31
0
  0
LINE
  8
1
 62
2
 10
939.1236615679236
 20
80.06483331330469
 30
0
 11
942.3236615679236
 21
80.06483331330469
 31
0
  0
LINE
  8
1
 62
2
 10
942.3236615679236
 20
80.06483331330469
 30
0
 11
952.786860272141
 21
80.06483331330469
 31
0
  0
LINE
  8
1
 62
2
 10
939.1236615679236
 20
43.94943267226947
 30
0
 11
939.1236615679236
 21
81.06483331330469
 31
0
  0
LINE
  8
1
 62
2
 10
942.3236615679236
 20
35.5648333133047
 30
0
 11
942.3236615679236
 21
81.06483331330469
 31
0
  0
SOLID
  8
1
 62
2
 10
939.1236615679236
 20
80.06483331330469
 30
0
 11
935.9236615679236
 21
79.64883331330469
 31
0
 12
935.9236615679236
 22
80.48083331330469
 32
0
 13
935.9236615679236
 23
80.48083331330469
 33
0
  0
SOLID
  8
1
 62
2
 10
942.3236615679236
 20
80.06483331330469
 30
0
 11
945.5236615679237
 21
80.48083331330469
 31
0
 12
945.5236615679237
 22
79.64883331330469
 32
0
 13
945.5236615679237
 23
79.64883331330469
 33
0
  0
TEXT
  8
1
 62
2
 10
946.9468602721411
 20
81.06483331330469
 30
0
 40
3.2
  1
3.2
 41
0.9
  0
ENDBLK
  8
0
  0
BLOCK
  8
1
  2
*D3
 70
1
 10
0
 20
0
 30
0
  0
LINE
  8
1
 62
2
 10
815.3236615679235
 20
30.56501730399552
 30
0
 11
815.3236615679235
 21
48.56483331330472
 31
0
  0
LINE
  8
1
 62
2
 10
864.3236615679234
 20
48.56483331330472
 30
0
 11
814.3236615679235
 21
48.56483331330472
 31
0
  0
LINE
  8
1
 62
2
 10
864.3236615679235
 20
30.56501730399552
 30
0
 11
814.3236615679235
 21
30.56501730399552
 31
0
  0
SOLID
  8
1
 62
2
 10
815.3236615679235
 20
48.56483331330472
 30
0
 11
815.7396615679236
 21
45.36483331330472
 31
0
 12
814.9076615679235
 22
45.36483331330472
 32
0
 13
814.9076615679235
 23
45.36483331330472
 33
0
  0
SOLID
  8
1
 62
2
 10
815.3236615679235
 20
30.56501730399552
 30
0
 11
814.9076615679235
 21
33.76501730399552
 31
0
 12
815.7396615679236
 22
33.76501730399552
 32
0
 13
815.7396615679236
 23
33.76501730399552
 33
0
  0
TEXT
  8
1
 62
2
 10
814.3236615679235
 20
39.56492530865012
 30
0
 40
3.2
  1
18
 50
90
 41
0.9
  0
TEXT
  8
1
 62
2
 10
814.3236615679235
 20
35.72492530865011
 30
0
 40
3.2
  1
%%c
 50
90
 41
0.9
  0
ENDBLK
  8
0
  0
BLOCK
  8
1
  2
*D4
 70
1
 10
0
 20
0
 30
0
  0
LINE
  8
1
 62
2
 10
870.3236615679234
 20
80.06483331330472
 30
0
 11
876.7236615679235
 21
80.06483331330472
 31
0
  0
LINE
  8
1
 62
2
 10
865.3236615679234
 20
80.06483331330472
 30
0
 11
858.9236615679233
 21
80.06483331330472
 31
0
  0
LINE
  8
1
 62
2
 10
865.3236615679234
 20
80.06483331330472
 30
0
 11
870.3236615679234
 21
80.06483331330472
 31
0
  0
LINE
  8
1
 62
2
 10
870.3236615679234
 20
60.06483331330471
 30
0
 11
870.3236615679234
 21
81.06483331330472
 31
0
  0
LINE
  8
1
 62
2
 10
865.3236615679234
 20
49.56483331330473
 30
0
 11
865.3236615679234
 21
81.06483331330472
 31
0
  0
SOLID
  8
1
 62
2
 10
865.3236615679234
 20
80.06483331330472
 30
0
 11
862.1236615679234
 21
79.64883331330472
 31
0
 12
862.1236615679234
 22
80.48083331330471
 32
0
 13
862.1236615679234
 23
80.48083331330471
 33
0
  0
SOLID
  8
1
 62
2
 10
870.3236615679234
 20
80.06483331330472
 30
0
 11
873.5236615679235
 21
80.48083331330471
 31
0
 12
873.5236615679235
 22
79.64883331330472
 32
0
 13
873.5236615679235
 23
79.64883331330472
 33
0
  0
TEXT
  8
1
 62
2
 10
866.8636615679234
 20
81.06483331330472
 30
0
 40
3.2
  1
5
 41
0.9
  0
ENDBLK
  8
0
  0
BLOCK
  8
1
  2
*D5
 70
1
 10
0
 20
0
 30
0
  0
LINE
  8
1
 62
2
 10
845.3236615679235
 20
80.06483331330472
 30
0
 11
857.3236615679233
 21
80.06483331330472
 31
0
  0
LINE
  8
1
 62
2
 10
857.3236615679233
 20
43.06483331330473
 30
0
 11
857.3236615679233
 21
81.06483331330472
 31
0
  0
LINE
  8
1
 62
2
 10
845.3236615679235
 20
43.06483331330473
 30
0
 11
845.3236615679235
 21
81.06483331330472
 31
0
  0
SOLID
  8
1
 62
2
 10
845.3236615679235
 20
80.06483331330472
 30
0
 11
848.5236615679236
 21
80.48083331330471
 31
0
 12
848.5236615679236
 22
79.64883331330472
 32
0
 13
848.5236615679236
 23
79.64883331330472
 33
0
  0
SOLID
  8
1
 62
2
 10
857.3236615679233
 20
80.06483331330472
 30
0
 11
854.1236615679233
 21
79.64883331330472
 31
0
 12
854.1236615679233
 22
80.48083331330471
 32
0
 13
854.1236615679233
 23
80.48083331330471
 33
0
  0
TEXT
  8
1
 62
2
 10
849.4036615679235
 20
81.06483331330472
 30
0
 40
3.2
  1
12
 41
0.9
  0
ENDBLK
  8
0
  0
BLOCK
  8
1
  2
*D6
 70
1
 10
0
 20
0
 30
0
  0
LINE
  8
1
 62
2
 10
825.3236615679234
 20
42.5648333133049
 30
0
 11
825.3236615679234
 21
68.13180632038078
 31
0
  0
LINE
  8
1
 62
2
 10
825.3236615679234
 20
36.56483331330478
 30
0
 11
825.3236615679234
 21
42.5648333133049
 31
0
  0
LINE
  8
1
 62
2
 10
825.3236615679234
 20
30.16483331330478
 30
0
 11
825.3236615679234
 21
36.56483331330478
 31
0
  0
LINE
  8
1
 62
2
 10
860.1642344418584
 20
42.5648333133049
 30
0
 11
824.3236615679234
 21
42.5648333133049
 31
0
  0
LINE
  8
1
 62
2
 10
844.3236615679234
 20
36.56483331330478
 30
0
 11
824.3236615679234
 21
36.56483331330478
 31
0
  0
SOLID
  8
1
 62
2
 10
825.3236615679234
 20
42.5648333133049
 30
0
 11
824.9076615679234
 21
45.76483331330491
 31
0
 12
825.7396615679235
 22
45.76483331330491
 32
0
 13
825.7396615679235
 23
45.76483331330491
 33
0
  0
SOLID
  8
1
 62
2
 10
825.3236615679234
 20
36.56483331330478
 30
0
 11
825.7396615679235
 21
33.36483331330478
 31
0
 12
824.9076615679234
 22
33.36483331330478
 32
0
 13
824.9076615679234
 23
33.36483331330478
 33
0
  0
TEXT
  8
1
 62
2
 10
823.5236615679235
 20
57.84380632038078
 30
0
 40
3.2
  1
6
 50
90
 41
0.9
  0
TEXT
  8
1
 62
2
 10
821.4436615679234
 20
61.36380632038078
 30
0
 40
1.92
  1
 0
 50
90
 41
0.9
  0
TEXT
  8
1
 62
2
 10
824.3236615679234
 20
61.36380632038078
 30
0
 40
1.92
  1
-0.02
 50
90
 41
0.9
  0
TEXT
  8
1
 62
2
 10
823.5236615679235
 20
54.00380632038078
 30
0
 40
3.2
  1
%%c
 50
90
 41
0.9
  0
ENDBLK
  8
0
  0
BLOCK
  8
1
  2
*D7
 70
1
 10
0
 20
0
 30
0
  0
LINE
  8
1
 62
2
 10
845.3236615679234
 20
90.06483331330472
 30
0
 11
870.3236615679234
 21
90.06483331330472
 31
0
  0
LINE
  8
1
 62
2
 10
870.3236615679234
 20
60.06483331330471
 30
0
 11
870.3236615679234
 21
91.06483331330472
 31
0
  0
LINE
  8
1
 62
2
 10
845.3236615679234
 20
43.06483331330473
 30
0
 11
845.3236615679234
 21
91.06483331330472
 31
0
  0
SOLID
  8
1
 62
2
 10
870.3236615679234
 20
90.06483331330472
 30
0
 11
867.1236615679234
 21
89.64883331330472
 31
0
 12
867.1236615679234
 22
90.48083331330471
 32
0
 13
867.1236615679234
 23
90.48083331330471
 33
0
  0
SOLID
  8
1
 62
2
 10
845.3236615679234
 20
90.06483331330472
 30
0
 11
848.5236615679235
 21
90.48083331330471
 31
0
 12
848.5236615679235
 22
89.64883331330472
 32
0
 13
848.5236615679235
 23
89.64883331330472
 33
0
  0
TEXT
  8
1
 62
2
 10
855.4236615679234
 20
91.06483331330472
 30
0
 40
3.2
  1
25
 41
0.9
  0
ENDBLK
  8
0
  0
BLOCK
  8
1
  2
*D8
 70
1
 10
0
 20
0
 30
0
  0
LINE
  8
1
 62
2
 10
835.3236615679235
 20
42.06483331330468
 30
0
 11
835.3236615679235
 21
66.04706395832
 31
0
  0
LINE
  8
1
 62
2
 10
835.3236615679235
 20
36.56483331330479
 30
0
 11
835.3236615679235
 21
42.06483331330468
 31
0
  0
LINE
  8
1
 62
2
 10
835.3236615679235
 20
30.16483331330479
 30
0
 11
835.3236615679235
 21
36.56483331330479
 31
0
  0
LINE
  8
1
 62
2
 10
844.3236615679235
 20
42.06483331330468
 30
0
 11
834.3236615679235
 21
42.06483331330468
 31
0
  0
LINE
  8
1
 62
2
 10
844.3236615679235
 20
36.56483331330479
 30
0
 11
834.3236615679235
 21
36.56483331330479
 31
0
  0
SOLID
  8
1
 62
2
 10
835.3236615679235
 20
42.06483331330468
 30
0
 11
834.9076615679235
 21
45.26483331330468
 31
0
 12
835.7396615679236
 22
45.26483331330468
 32
0
 13
835.7396615679236
 23
45.26483331330468
 33
0
  0
SOLID
  8
1
 62
2
 10
835.3236615679235
 20
36.56483331330479
 30
0
 11
835.7396615679236
 21
33.36483331330479
 31
0
 12
834.9076615679235
 22
33.36483331330479
 32
0
 13
834.9076615679235
 23
33.36483331330479
 33
0
  0
TEXT
  8
1
 62
2
 10
834.3236615679235
 20
53.75906395831999
 30
0
 40
3.2
  1
5.5
 50
90
 41
0.9
  0
TEXT
  8
1
 62
2
 10
833.6836615679235
 20
61.19906395831999
 30
0
 40
1.92
  1
%%p0.3
 50
90
 41
0.9
  0
ENDBLK
  8
0
  0
BLOCK
  8
1
  2
*D9
 70
1
 10
0
 20
0
 30
0
  0
LINE
  8
1
 62
2
 10
722.2536312954708
 20
80.06483331330472
 30
0
 11
783.2536312954708
 21
80.06483331330472
 31
0
  0
LINE
  8
1
 62
2
 10
783.2536312954708
 20
55.31483331330471
 30
0
 11
783.2536312954708
 21
81.06483331330472
 31
0
  0
LINE
  8
1
 62
2
 10
722.2536312954708
 20
55.31483331330471
 30
0
 11
722.2536312954708
 21
81.06483331330472
 31
0
  0
SOLID
  8
1
 62
2
 10
722.2536312954708
 20
80.06483331330472
 30
0
 11
725.4536312954708
 21
80.48083331330471
 31
0
 12
725.4536312954708
 22
79.64883331330472
 32
0
 13
725.4536312954708
 23
79.64883331330472
 33
0
  0
SOLID
  8
1
 62
2
 10
783.2536312954708
 20
80.06483331330472
 30
0
 11
780.0536312954707
 21
79.64883331330472
 31
0
 12
780.0536312954707
 22
80.48083331330471
 32
0
 13
780.0536312954707
 23
80.48083331330471
 33
0
  0
TEXT
  8
1
 62
2
 10
754.6429328830399
 20
81.06483331330472
 30
0
 40
3.2
  1
61
 41
0.9
  0
ENDBLK
  8
0
  0
BLOCK
  8
1
  2
*D10
 70
1
 10
0
 20
0
 30
0
  0
LINE
  8
1
 62
2
 10
793.2536312954707
 20
29.56483331330471
 30
0
 11
793.2536312954707
 21
14.17598742387162
 31
0
  0
LINE
  8
1
 62
2
 10
793.2536312954707
 20
29.56483331330471
 30
0
 11
793.2536312954707
 21
39.56483331330471
 31
0
  0
LINE
  8
1
 62
2
 10
765.3082127929716
 20
39.56483331330471
 30
0
 11
794.2536312954707
 21
39.56483331330471
 31
0
  0
LINE
  8
1
 62
2
 10
788.3961231914617
 20
29.56483331330471
 30
0
 11
794.2536312954707
 21
29.56483331330471
 31
0
  0
SOLID
  8
1
 62
2
 10
793.2536312954707
 20
39.56483331330471
 30
0
 11
793.6696312954707
 21
36.36483331330471
 31
0
 12
792.8376312954706
 22
36.36483331330471
 32
0
 13
792.8376312954706
 23
36.36483331330471
 33
0
  0
SOLID
  8
1
 62
2
 10
793.2536312954707
 20
29.56483331330471
 30
0
 11
792.8376312954706
 21
32.76483331330471
 31
0
 12
793.6696312954707
 22
32.76483331330471
 32
0
 13
793.6696312954707
 23
32.76483331330471
 33
0
  0
TEXT
  8
1
 62
2
 10
792.2536312954707
 20
14.17598742387162
 30
0
 40
3.2
  1
10
 50
90
 41
0.9
  0
TEXT
  8
1
 62
2
 10
791.6136312954707
 20
19.61598742387162
 30
0
 40
1.92
  1
%%p0.5
 50
90
 41
0.9
  0
ENDBLK
  8
0
  0
BLOCK
  8
1
  2
*D11
 70
1
 10
0
 20
0
 30
0
  0
LINE
  8
1
 62
2
 10
803.2536312954707
 20
4.814833313304661
 30
0
 11
803.2536312954707
 21
54.31483331330472
 31
0
  0
LINE
  8
1
 62
2
 10
786.0979191715087
 20
54.31483331330472
 30
0
 11
804.2536312954707
 21
54.31483331330472
 31
0
  0
LINE
  8
1
 62
2
 10
786.8338379813687
 20
4.814833313304661
 30
0
 11
804.2536312954707
 21
4.814833313304661
 31
0
  0
SOLID
  8
1
 62
2
 10
803.2536312954707
 20
54.31483331330472
 30
0
 11
803.6696312954707
 21
51.11483331330472
 31
0
 12
802.8376312954706
 22
51.11483331330472
 32
0
 13
802.8376312954706
 23
51.11483331330472
 33
0
  0
SOLID
  8
1
 62
2
 10
803.2536312954707
 20
4.814833313304661
 30
0
 11
802.8376312954706
 21
8.014833313304662
 31
0
 12
803.6696312954707
 22
8.014833313304662
 32
0
 13
803.6696312954707
 23
8.014833313304662
 33
0
  0
TEXT
  8
1
 62
2
 10
802.2536312954707
 20
21.98083331330469
 30
0
 40
3.2
  1
49.5
 50
90
 41
0.9
  0
TEXT
  8
1
 62
2
 10
801.6136312954707
 20
32.30083331330469
 30
0
 40
1.92
  1
%%p0.3
 50
90
 41
0.9
  0
ENDBLK
  8
0
  0
BLOCK
  8
1
  2
*D12
 70
1
 10
0
 20
0
 30
0
  0
LINE
  8
1
 62
2
 10
728.0036312954708
 20
70.06483331330472
 30
0
 11
777.5036312954708
 21
70.06483331330472
 31
0
  0
LINE
  8
1
 62
2
 10
777.5036312954708
 20
63.34062924640502
 30
0
 11
777.5036312954708
 21
71.06483331330472
 31
0
  0
LINE
  8
1
 62
2
 10
728.0036312954708
 20
62.97266984147532
 30
0
 11
728.0036312954708
 21
71.06483331330472
 31
0
  0
SOLID
  8
1
 62
2
 10
728.0036312954708
 20
70.06483331330472
 30
0
 11
731.2036312954708
 21
70.48083331330471
 31
0
 12
731.2036312954708
 22
69.64883331330472
 32
0
 13
731.2036312954708
 23
69.64883331330472
 33
0
  0
SOLID
  8
1
 62
2
 10
777.5036312954708
 20
70.06483331330472
 30
0
 11
774.3036312954707
 21
69.64883331330472
 31
0
 12
774.3036312954707
 22
70.48083331330471
 32
0
 13
774.3036312954707
 23
70.48083331330471
 33
0
  0
TEXT
  8
1
 62
2
 10
745.1696312954708
 20
71.06483331330472
 30
0
 40
3.2
  1
49.5
 41
0.9
  0
TEXT
  8
1
 62
2
 10
755.4896312954708
 20
71.70483331330472
 30
0
 40
1.92
  1
%%p0.3
 41
0.9
  0
ENDBLK
  8
0
  0
BLOCK
  8
1
  2
*D13
 70
1
 10
0
 20
0
 30
0
  0
LINE
  8
1
 62
2
 10
870.3236615679234
 20
90.06483331330469
 30
0
 11
942.3236615679236
 21
90.06483331330469
 31
0
  0
LINE
  8
1
 62
2
 10
870.3236615679234
 20
60.0648333133047
 30
0
 11
870.3236615679234
 21
91.06483331330469
 31
0
  0
LINE
  8
1
 62
2
 10
942.3236615679236
 20
35.5648333133047
 30
0
 11
942.3236615679236
 21
91.06483331330469
 31
0
  0
SOLID
  8
1
 62
2
 10
942.3236615679236
 20
90.06483331330469
 30
0
 11
939.1236615679236
 21
89.64883331330469
 31
0
 12
939.1236615679236
 22
90.48083331330469
 32
0
 13
939.1236615679236
 23
90.48083331330469
 33
0
  0
SOLID
  8
1
 62
2
 10
870.3236615679234
 20
90.06483331330469
 30
0
 11
873.5236615679235
 21
90.48083331330469
 31
0
 12
873.5236615679235
 22
89.64883331330469
 32
0
 13
873.5236615679235
 23
89.64883331330469
 33
0
  0
TEXT
  8
1
 62
2
 10
903.9236615679236
 20
91.06483331330469
 30
0
 40
3.2
  1
72
 41
0.9
  0
ENDBLK
  8
0
  0
BLOCK
  8
1
  2
*D14
 70
1
 10
0
 20
0
 30
0
  0
LINE
  8
1
 62
2
 10
870.3236615679233
 20
80.06483331330469
 30
0
 11
899.3236615679235
 21
80.06483331330469
 31
0
  0
LINE
  8
1
 62
2
 10
899.3236615679235
 20
60.56483331330469
 30
0
 11
899.3236615679235
 21
82.06483331330469
 31
0
  0
LINE
  8
1
 62
2
 10
870.3236615679233
 20
60.06483331330469
 30
0
 11
870.3236615679233
 21
82.06483331330469
 31
0
  0
SOLID
  8
1
 62
2
 10
870.3236615679233
 20
80.06483331330469
 30
0
 11
873.8236615679233
 21
80.51983331330469
 31
0
 12
873.8236615679233
 22
79.60983331330469
 32
0
 13
873.8236615679233
 23
79.60983331330469
 33
0
  0
SOLID
  8
1
 62
2
 10
899.3236615679235
 20
80.06483331330469
 30
0
 11
895.8236615679235
 21
79.60983331330469
 31
0
 12
895.8236615679235
 22
80.51983331330469
 32
0
 13
895.8236615679235
 23
80.51983331330469
 33
0
  0
TEXT
  8
1
 62
2
 10
882.1986615679234
 20
82.06483331330469
 30
0
 40
3.5
  1
29
 41
0.9
  0
ENDBLK
  8
0
  0
ENDSEC
  0
SECTION
  2
ENTITIES
  0
LINE
  8
1
 62
3
 10
777.5036312954711
 20
58.3548333133048
 30
0
 11
774.004888664182
 21
56.334833313305
 31
0
  0
LINE
  8
1
 62
3
 10
781.0023739267601
 20
56.334833313305
 30
0
 11
777.5036312954711
 21
58.3548333133048
 31
0
  0
LINE
  8
1
 62
3
 10
781.0023739267605
 20
52.29483331330499
 30
0
 11
781.0023739267601
 21
56.334833313305
 31
0
  0
LINE
  8
1
 62
3
 10
777.5036312954711
 20
50.2748333133046
 30
0
 11
781.0023739267605
 21
52.29483331330499
 31
0
  0
LINE
  8
1
 62
3
 10
774.0048886641816
 20
52.29483331330499
 30
0
 11
777.5036312954711
 21
50.2748333133046
 31
0
  0
LINE
  8
1
 62
3
 10
774.004888664182
 20
56.334833313305
 30
0
 11
774.0048886641816
 21
52.29483331330499
 31
0
  0
LINE
  8
1
 62
3
 10
731.5023739267601
 20
56.334833313305
 30
0
 11
728.0036312954711
 21
58.3548333133048
 31
0
  0
LINE
  8
1
 62
3
 10
728.0036312954711
 20
58.3548333133048
 30
0
 11
724.5048886641819
 21
56.334833313305
 31
0
  0
LINE
  8
1
 62
3
 10
724.5048886641819
 20
56.334833313305
 30
0
 11
724.5048886641816
 21
52.29483331330499
 31
0
  0
LINE
  8
1
 62
3
 10
724.5048886641816
 20
52.29483331330499
 30
0
 11
728.0036312954711
 21
50.2748333133046
 31
0
  0
LINE
  8
1
 62
3
 10
728.0036312954711
 20
50.2748333133046
 30
0
 11
731.5023739267604
 21
52.29483331330499
 31
0
  0
LINE
  8
1
 62
3
 10
731.5023739267604
 20
52.29483331330499
 30
0
 11
731.5023739267601
 21
56.334833313305
 31
0
  0
LINE
  8
1
 62
3
 10
777.5036312954711
 20
8.854833313304798
 30
0
 11
774.004888664182
 21
6.834833313304991
 31
0
  0
LINE
  8
1
 62
3
 10
774.004888664182
 20
6.834833313304991
 30
0
 11
774.0048886641816
 21
2.794833313304988
 31
0
  0
LINE
  8
1
 62
3
 10
774.0048886641816
 20
2.794833313304988
 30
0
 11
777.5036312954711
 21
0.7748333133045904
 31
0
  0
LINE
  8
1
 62
3
 10
777.5036312954711
 20
0.7748333133045904
 30
0
 11
781.0023739267605
 21
2.794833313304988
 31
0
  0
LINE
  8
1
 62
3
 10
781.0023739267605
 20
2.794833313304988
 30
0
 11
781.0023739267601
 21
6.834833313304991
 31
0
  0
LINE
  8
1
 62
3
 10
781.0023739267601
 20
6.834833313304991
 30
0
 11
777.5036312954711
 21
8.854833313304798
 31
0
  0
LINE
  8
1
 62
3
 10
731.5023739267601
 20
6.834833313304991
 30
0
 11
728.0036312954711
 21
8.854833313304798
 31
0
  0
LINE
  8
1
 62
3
 10
728.0036312954711
 20
8.854833313304798
 30
0
 11
724.5048886641819
 21
6.834833313304991
 31
0
  0
LINE
  8
1
 62
3
 10
724.5048886641819
 20
6.834833313304991
 30
0
 11
724.5048886641816
 21
2.794833313304988
 31
0
  0
LINE
  8
1
 62
3
 10
724.5048886641816
 20
2.794833313304988
 30
0
 11
728.0036312954711
 21
0.7748333133045904
 31
0
  0
LINE
  8
1
 62
3
 10
728.0036312954711
 20
0.7748333133045904
 30
0
 11
731.5023739267604
 21
2.794833313304988
 31
0
  0
LINE
  8
1
 62
3
 10
731.5023739267604
 20
2.794833313304988
 30
0
 11
731.5023739267601
 21
6.834833313304991
 31
0
  0
LINE
  8
1
 62
3
 10
870.3236615679234
 20
4.689833313304689
 30
0
 11
869.3236615679234
 21
4.564833313304689
 31
0
  0
LINE
  8
1
 62
3
 10
870.3236615679234
 20
5.064833313304689
 30
0
 11
869.3236615679234
 21
4.939833313304689
 31
0
  0
LINE
  8
1
 62
3
 10
869.3236615679234
 20
1.014833313304681
 30
0
 11
870.3236615679234
 21
1.014833313304681
 31
0
  0
LINE
  8
1
 62
3
 10
870.3236615679234
 20
8.6148333133047
 30
0
 11
869.3236615679234
 21
8.6148333133047
 31
0
  0
LINE
  8
1
 62
3
 10
854.8236615679234
 20
2.814833313304689
 30
0
 11
854.3236615679234
 21
3.314833313304689
 31
0
  0
LINE
  8
1
 62
3
 10
854.3236615679234
 20
6.314833313304689
 30
0
 11
854.8236615679234
 21
6.814833313304689
 31
0
  0
LINE
  8
1
 62
3
 10
854.8236615679234
 20
2.814833313304689
 30
0
 11
866.1236615679235
 21
2.814833313304689
 31
0
  0
LINE
  8
1
 62
1
 10
854.3236615679234
 20
3.314833313304689
 30
0
 11
866.1236615679235
 21
3.314833313304689
 31
0
  0
LINE
  8
1
 62
1
 10
854.3236615679234
 20
6.314833313304689
 30
0
 11
866.1236615679235
 21
6.314833313304689
 31
0
  0
LINE
  8
1
 62
1
 10
854.8236615679234
 20
6.814833313304689
 30
0
 11
854.8236615679234
 21
2.814833313304689
 31
0
  0
LINE
  8
1
 62
3
 10
854.3236615679234
 20
6.314833313304689
 30
0
 11
854.3236615679234
 21
3.314833313304689
 31
0
  0
LINE
  8
1
 62
3
 10
854.8236615679234
 20
6.814833313304689
 30
0
 11
866.1236615679235
 21
6.814833313304689
 31
0
  0
LINE
  8
1
 62
3
 10
866.1236615679235
 20
7.844833313304719
 30
0
 11
866.1236615679235
 21
1.78483331330472
 31
0
  0
LINE
  8
1
 62
3
 10
869.3236615679234
 20
1.78483331330472
 30
0
 11
869.3236615679234
 21
7.844833313304719
 31
0
  0
LINE
  8
1
 62
3
 10
868.9645886407202
 20
6.834833313304671
 30
0
 11
866.4827344951266
 21
6.834833313304671
 31
0
  0
LINE
  8
1
 62
3
 10
868.9645886407202
 20
2.794833313304711
 30
0
 11
866.4827344951266
 21
2.794833313304711
 31
0
  0
LINE
  8
1
 62
3
 10
868.9645886407202
 20
0.7748333133047289
 30
0
 11
866.4827344951266
 21
0.7748333133047289
 31
0
  0
LINE
  8
1
 62
3
 10
868.9645886407202
 20
8.85483331330471
 30
0
 11
866.4827344951266
 21
8.85483331330471
 31
0
  0
LINE
  8
1
 62
3
 10
869.3236615679234
 20
8.6148333133047
 30
0
 11
869.3236615679234
 21
1.014833313304681
 31
0
  0
LINE
  8
1
 62
3
 10
870.3236615679234
 20
58.1148333133047
 30
0
 11
869.3236615679234
 21
58.1148333133047
 31
0
  0
LINE
  8
1
 62
3
 10
870.3236615679234
 20
54.18983331330469
 30
0
 11
869.3236615679234
 21
54.06483331330469
 31
0
  0
LINE
  8
1
 62
3
 10
870.3236615679234
 20
54.56483331330469
 30
0
 11
869.3236615679234
 21
54.43983331330469
 31
0
  0
LINE
  8
1
 62
3
 10
869.3236615679234
 20
50.51483331330468
 30
0
 11
870.3236615679234
 21
50.51483331330468
 31
0
  0
LINE
  8
1
 62
3
 10
868.9645886407202
 20
50.27483331330467
 30
0
 11
866.4827344951266
 21
50.27483331330467
 31
0
  0
LINE
  8
1
 62
3
 10
854.8236615679234
 20
52.31483331330469
 30
0
 11
854.3236615679234
 21
52.81483331330469
 31
0
  0
LINE
  8
1
 62
3
 10
854.3236615679234
 20
55.81483331330469
 30
0
 11
854.8236615679234
 21
56.31483331330469
 31
0
  0
LINE
  8
1
 62
3
 10
854.8236615679234
 20
52.31483331330469
 30
0
 11
866.1236615679235
 21
52.31483331330469
 31
0
  0
LINE
  8
1
 62
1
 10
854.3236615679234
 20
52.81483331330469
 30
0
 11
866.1236615679235
 21
52.81483331330469
 31
0
  0
LINE
  8
1
 62
1
 10
854.3236615679234
 20
55.81483331330469
 30
0
 11
866.1236615679235
 21
55.81483331330469
 31
0
  0
LINE
  8
1
 62
1
 10
854.8236615679234
 20
56.31483331330469
 30
0
 11
854.8236615679234
 21
52.31483331330469
 31
0
  0
LINE
  8
1
 62
3
 10
854.3236615679234
 20
55.81483331330469
 30
0
 11
854.3236615679234
 21
52.81483331330469
 31
0
  0
LINE
  8
1
 62
3
 10
854.8236615679234
 20
56.31483331330469
 30
0
 11
866.1236615679235
 21
56.31483331330469
 31
0
  0
LINE
  8
1
 62
3
 10
866.1236615679235
 20
57.34483331330466
 30
0
 11
866.1236615679235
 21
51.28483331330466
 31
0
  0
LINE
  8
1
 62
3
 10
869.3236615679234
 20
51.28483331330466
 30
0
 11
869.3236615679234
 21
57.34483331330466
 31
0
  0
LINE
  8
1
 62
3
 10
868.9645886407202
 20
56.33483331330467
 30
0
 11
866.4827344951266
 21
56.33483331330467
 31
0
  0
LINE
  8
1
 62
3
 10
868.9645886407202
 20
52.29483331330471
 30
0
 11
866.4827344951266
 21
52.29483331330471
 31
0
  0
LINE
  8
1
 62
3
 10
868.9645886407202
 20
58.35483331330465
 30
0
 11
866.4827344951266
 21
58.35483331330465
 31
0
  0
LINE
  8
1
 62
3
 10
869.3236615679234
 20
58.1148333133047
 30
0
 11
869.3236615679234
 21
50.51483331330468
 31
0
  0
LINE
  8
1
 62
1
 10
995.2236615679236
 20
29.5648333133047
 30
0
 11
1031.363661567923
 21
29.5648333133047
 31
0
  0
LINE
  8
1
 62
1
 10
1013.293661567923
 20
47.63483331330458
 30
0
 11
1013.293661567923
 21
11.49483331330482
 31
0
  0
LINE
  8
1
 62
1
 10
1010.593661567924
 20
17.26502554565861
 30
0
 11
1015.993661567923
 21
17.26502554565861
 31
0
  0
LINE
  8
1
 62
1
 10
1010.593661567924
 20
41.86464108095079
 30
0
 11
1015.993661567923
 21
41.86464108095079
 31
0
  0
LINE
  8
1
 62
3
 10
1014.902660306422
 20
15.15438144462582
 30
0
 11
1014.752977120516
 21
15.74164995642338
 31
0
  0
LINE
  8
1
 62
3
 10
1018.778738524436
 20
16.14231749915372
 30
0
 11
1018.62905533853
 21
16.72958601095133
 31
0
  0
LINE
  8
1
 62
3
 10
1017.043661567923
 20
42.9494326722694
 30
0
 11
1017.043661567923
 21
36.56483331330459
 31
0
  0
LINE
  8
1
 62
3
 10
1009.543661567923
 20
42.9494326722694
 30
0
 11
1009.543661567923
 21
36.56483331330459
 31
0
  0
LINE
  8
1
 62
3
 10
1012.793661567926
 20
43.45583759665301
 30
0
 11
1012.793661567923
 21
42.11464108095079
 31
0
  0
LINE
  8
1
 62
3
 10
1013.793661567921
 20
43.45583759665301
 30
0
 11
1013.793661567923
 21
42.11464108095079
 31
0
  0
LINE
  8
1
 62
3
 10
1012.793661567923
 20
17.01502554565861
 30
0
 11
1013.793661567923
 21
17.01502554565861
 31
0
  0
LINE
  8
1
 62
3
 10
1012.793661567923
 20
17.01502554565861
 30
0
 11
1012.793661567923
 21
15.6738290299565
 31
0
  0
LINE
  8
1
 62
3
 10
1012.793661567923
 20
17.51502554565861
 30
0
 11
1013.793661567923
 21
17.51502554565861
 31
0
  0
LINE
  8
1
 62
3
 10
1012.793661567923
 20
22.56483331330481
 30
0
 11
1013.793661567923
 21
22.56483331330481
 31
0
  0
LINE
  8
1
 62
3
 10
1012.793661567923
 20
22.56483331330481
 30
0
 11
1012.793661567923
 21
17.51502554565861
 31
0
  0
LINE
  8
1
 62
3
 10
1013.793661567923
 20
17.01502554565861
 30
0
 11
1014.193661567923
 21
17.01502554565861
 31
0
  0
LINE
  8
1
 62
3
 10
1013.793661567923
 20
17.01502554565861
 30
0
 11
1013.793661567923
 21
15.66483331330472
 31
0
  0
LINE
  8
1
 62
3
 10
1013.793661567923
 20
17.51502554565861
 30
0
 11
1014.193661567923
 21
17.51502554565861
 31
0
  0
LINE
  8
1
 62
3
 10
1013.793661567923
 20
22.56483331330481
 30
0
 11
1017.043661567923
 21
22.56483331330481
 31
0
  0
LINE
  8
1
 62
3
 10
1013.793661567923
 20
22.56483331330481
 30
0
 11
1013.793661567923
 21
17.51502554565861
 31
0
  0
LINE
  8
1
 62
3
 10
1012.793661567923
 20
41.61464108095079
 30
0
 11
1013.793661567923
 21
41.61464108095079
 31
0
  0
LINE
  8
1
 62
3
 10
1012.793661567923
 20
36.56483331330459
 30
0
 11
1013.793661567923
 21
36.56483331330459
 31
0
  0
LINE
  8
1
 62
3
 10
1012.793661567923
 20
41.61464108095079
 30
0
 11
1012.793661567923
 21
36.56483331330459
 31
0
  0
LINE
  8
1
 62
3
 10
1012.793661567923
 20
42.11464108095079
 30
0
 11
1013.793661567923
 21
42.11464108095079
 31
0
  0
LINE
  8
1
 62
3
 10
1013.793661567923
 20
41.61464108095079
 30
0
 11
1014.193661567923
 21
41.61464108095079
 31
0
  0
LINE
  8
1
 62
3
 10
1013.793661567923
 20
36.56483331330459
 30
0
 11
1017.043661567923
 21
36.56483331330459
 31
0
  0
LINE
  8
1
 62
3
 10
1013.793661567923
 20
41.61464108095079
 30
0
 11
1013.793661567923
 21
36.56483331330459
 31
0
  0
LINE
  8
1
 62
3
 10
1013.793661567923
 20
42.11464108095079
 30
0
 11
1014.193661567923
 21
42.11464108095079
 31
0
  0
LINE
  8
1
 62
3
 10
1011.893661567924
 20
42.11464108095079
 30
0
 11
1012.393661567924
 21
42.11464108095079
 31
0
  0
LINE
  8
1
 62
3
 10
1011.893661567924
 20
41.61464108095079
 30
0
 11
1012.393661567924
 21
41.61464108095079
 31
0
  0
LINE
  8
1
 62
3
 10
1011.893661567924
 20
17.51502554565861
 30
0
 11
1012.393661567924
 21
17.51502554565861
 31
0
  0
LINE
  8
1
 62
3
 10
1011.893661567924
 20
17.01502554565861
 30
0
 11
1012.393661567924
 21
17.01502554565861
 31
0
  0
LINE
  8
1
 62
3
 10
1014.193661567923
 20
42.11464108095079
 30
0
 11
1014.193661567923
 21
41.61464108095079
 31
0
  0
LINE
  8
1
 62
3
 10
1014.193661567923
 20
42.11464108095079
 30
0
 11
1014.693661567923
 21
42.11464108095079
 31
0
  0
LINE
  8
1
 62
3
 10
1014.193661567923
 20
41.61464108095079
 30
0
 11
1014.693661567923
 21
41.61464108095079
 31
0
  0
LINE
  8
1
 62
3
 10
1012.393661567924
 20
42.11464108095079
 30
0
 11
1012.393661567924
 21
41.61464108095079
 31
0
  0
LINE
  8
1
 62
3
 10
1012.393661567924
 20
42.11464108095079
 30
0
 11
1012.793661567923
 21
42.11464108095079
 31
0
  0
LINE
  8
1
 62
3
 10
1012.393661567924
 20
41.61464108095079
 30
0
 11
1012.793661567923
 21
41.61464108095079
 31
0
  0
LINE
  8
1
 62
3
 10
1011.893661567924
 20
42.11464108095079
 30
0
 11
1011.893661567924
 21
41.61464108095079
 31
0
  0
LINE
  8
1
 62
3
 10
1014.693661567923
 20
42.11464108095079
 30
0
 11
1014.693661567923
 21
41.61464108095079
 31
0
  0
LINE
  8
1
 62
3
 10
1012.393661567924
 20
17.51502554565861
 30
0
 11
1012.393661567924
 21
17.01502554565861
 31
0
  0
LINE
  8
1
 62
3
 10
1012.393661567924
 20
17.51502554565861
 30
0
 11
1012.793661567923
 21
17.51502554565861
 31
0
  0
LINE
  8
1
 62
3
 10
1012.393661567924
 20
17.01502554565861
 30
0
 11
1012.793661567923
 21
17.01502554565861
 31
0
  0
LINE
  8
1
 62
3
 10
1011.893661567924
 20
17.51502554565861
 30
0
 11
1011.893661567924
 21
17.01502554565861
 31
0
  0
LINE
  8
1
 62
3
 10
1014.693661567923
 20
17.51502554565861
 30
0
 11
1014.693661567923
 21
17.01502554565861
 31
0
  0
LINE
  8
1
 62
3
 10
1014.193661567923
 20
17.51502554565861
 30
0
 11
1014.193661567923
 21
17.01502554565861
 31
0
  0
LINE
  8
1
 62
3
 10
1014.193661567923
 20
17.51502554565861
 30
0
 11
1014.693661567923
 21
17.51502554565861
 31
0
  0
LINE
  8
1
 62
3
 10
1014.193661567923
 20
17.01502554565861
 30
0
 11
1014.693661567923
 21
17.01502554565861
 31
0
  0
LINE
  8
1
 62
3
 10
1009.543661567923
 20
22.56483331330481
 30
0
 11
1009.543661567923
 21
16.18023395434001
 31
0
  0
LINE
  8
1
 62
3
 10
1017.043661567923
 20
22.56483331330481
 30
0
 11
1017.043661567923
 21
16.18023395434001
 31
0
  0
LINE
  8
1
 62
3
 10
1009.543661567923
 20
22.56483331330481
 30
0
 11
1012.793661567923
 21
22.56483331330481
 31
0
  0
LINE
  8
1
 62
3
 10
1009.543661567923
 20
36.56483331330459
 30
0
 11
1012.793661567923
 21
36.56483331330459
 31
0
  0
LINE
  8
1
 62
1
 10
944.2236615679236
 20
29.5648333133047
 30
0
 11
881.9236615679236
 21
29.5648333133047
 31
0
  0
LINE
  8
0
 62
4
 10
942.2236615679236
 20
29.5648333133047
 30
0
 11
942.2236615679236
 21
30.41483331330468
 31
0
  0
LINE
  8
0
 62
4
 10
942.2236615679236
 20
28.71483331330469
 30
0
 11
942.2236615679236
 21
29.5648333133047
 31
0
  0
LINE
  8
0
 62
3
 10
939.1236615679236
 20
28.3148333133047
 30
0
 11
939.1236615679236
 21
25.06483331330469
 31
0
  0
LINE
  8
0
 62
3
 10
939.1236615679236
 20
30.8148333133047
 30
0
 11
939.1236615679236
 21
28.3148333133047
 31
0
  0
LINE
  8
0
 62
3
 10
939.1236615679236
 20
34.06483331330469
 30
0
 11
939.1236615679236
 21
30.8148333133047
 31
0
  0
LINE
  8
0
 62
3
 10
942.3236615679236
 20
24.56483331330469
 30
0
 11
942.3236615679236
 21
34.56483331330469
 31
0
  0
LINE
  8
0
 62
3
 10
942.3236615679236
 20
34.56483331330469
 30
0
 11
939.1236615679236
 21
34.56483331330469
 31
0
  0
LINE
  8
0
 62
3
 10
942.3236615679236
 20
24.56483331330469
 30
0
 11
939.1236615679236
 21
24.56483331330469
 31
0
  0
LINE
  8
0
 62
3
 10
945.6236615679236
 20
17.51502554565861
 30
0
 11
939.9236615679236
 21
17.51502554565861
 31
0
  0
LINE
  8
0
 62
3
 10
945.6236615679236
 20
17.51502554565861
 30
0
 11
945.6236615679236
 21
17.01502554565861
 31
0
  0
LINE
  8
0
 62
3
 10
945.6236615679236
 20
17.01502554565861
 30
0
 11
939.9236615679236
 21
17.01502554565861
 31
0
  0
LINE
  8
0
 62
3
 10
946.1236615679236
 20
17.01502554565861
 30
0
 11
945.6236615679236
 21
17.01502554565861
 31
0
  0
LINE
  8
0
 62
3
 10
946.1236615679236
 20
17.51502554565861
 30
0
 11
945.6236615679236
 21
17.51502554565861
 31
0
  0
LINE
  8
0
 62
3
 10
946.1236615679236
 20
17.01502554565861
 30
0
 11
946.1236615679236
 21
17.51502554565861
 31
0
  0
LINE
  8
0
 62
3
 10
939.9236615679236
 20
41.6146410809508
 30
0
 11
945.6236615679236
 21
41.6146410809508
 31
0
  0
LINE
  8
0
 62
3
 10
945.6236615679236
 20
42.1146410809508
 30
0
 11
945.6236615679236
 21
41.6146410809508
 31
0
  0
LINE
  8
0
 62
3
 10
939.9236615679236
 20
42.1146410809508
 30
0
 11
945.6236615679236
 21
42.1146410809508
 31
0
  0
LINE
  8
0
 62
3
 10
945.6236615679236
 20
42.1146410809508
 30
0
 11
946.1236615679236
 21
42.1146410809508
 31
0
  0
LINE
  8
0
 62
3
 10
945.6236615679236
 20
41.6146410809508
 30
0
 11
946.1236615679236
 21
41.6146410809508
 31
0
  0
LINE
  8
0
 62
3
 10
946.1236615679236
 20
41.6146410809508
 30
0
 11
946.1236615679236
 21
42.1146410809508
 31
0
  0
LINE
  8
0
 62
3
 10
937.6236615679236
 20
15.6648333133047
 30
0
 11
937.6236615679236
 21
15.67382902995643
 31
0
  0
LINE
  8
0
 62
3
 10
927.6236615679236
 20
15.6648333133047
 30
0
 11
927.6236615679236
 21
15.98146613457798
 31
0
  0
LINE
  8
0
 62
3
 10
927.6236615679236
 20
15.98146613457798
 30
0
 11
937.6236615679236
 21
15.98146613457798
 31
0
  0
LINE
  8
0
 62
3
 10
927.6236615679236
 20
15.6648333133047
 30
0
 11
937.6236615679236
 21
15.6648333133047
 31
0
  0
LINE
  8
0
 62
3
 10
937.6236615679236
 20
15.93958102206254
 30
0
 11
937.6236615679236
 21
15.98146613457798
 31
0
  0
LINE
  8
0
 62
3
 10
939.9236615679236
 20
17.51502554565861
 30
0
 11
939.9236615679236
 21
22.56483331330476
 31
0
  0
LINE
  8
0
 62
3
 10
939.1236615679236
 20
22.56483331330476
 30
0
 11
939.9236615679236
 21
22.56483331330476
 31
0
  0
LINE
  8
0
 62
3
 10
939.1236615679236
 20
16.18023395433993
 30
0
 11
939.9236615679236
 21
16.18023395433993
 31
0
  0
LINE
  8
0
 62
3
 10
938.4236615679236
 20
16.18023395433993
 30
0
 11
939.1236615679236
 21
16.18023395433993
 31
0
  0
LINE
  8
0
 62
3
 10
939.9236615679236
 20
16.18023395433993
 30
0
 11
939.9236615679236
 21
17.51502554565861
 31
0
  0
LINE
  8
0
 62
3
 10
939.9236615679236
 20
16.18023395433993
 30
0
 11
939.9236615679236
 21
15.67382902995643
 31
0
  0
LINE
  8
0
 62
3
 10
937.6236615679236
 20
15.93958102206254
 30
0
 11
938.4236615679236
 21
15.93958102206254
 31
0
  0
LINE
  8
0
 62
3
 10
938.4236615679236
 20
15.93958102206254
 30
0
 11
938.4236615679236
 21
16.18023395433993
 31
0
  0
LINE
  8
0
 62
3
 10
937.6236615679236
 20
15.67382902995643
 30
0
 11
939.9236615679236
 21
15.67382902995643
 31
0
  0
LINE
  8
0
 62
3
 10
937.6236615679236
 20
43.45583759665297
 30
0
 11
937.6236615679236
 21
43.4648333133047
 31
0
  0
LINE
  8
0
 62
3
 10
927.6236615679236
 20
43.14820049203141
 30
0
 11
927.6236615679236
 21
43.4648333133047
 31
0
  0
LINE
  8
0
 62
3
 10
937.6236615679236
 20
43.14820049203141
 30
0
 11
927.6236615679236
 21
43.14820049203141
 31
0
  0
LINE
  8
0
 62
3
 10
937.6236615679236
 20
43.4648333133047
 30
0
 11
927.6236615679236
 21
43.4648333133047
 31
0
  0
LINE
  8
0
 62
3
 10
937.6236615679236
 20
43.14820049203141
 30
0
 11
937.6236615679236
 21
43.19008560454686
 31
0
  0
LINE
  8
0
 62
3
 10
939.9236615679236
 20
36.56483331330464
 30
0
 11
939.9236615679236
 21
41.6146410809508
 31
0
  0
LINE
  8
0
 62
3
 10
939.9236615679236
 20
36.56483331330464
 30
0
 11
939.1236615679236
 21
36.56483331330464
 31
0
  0
LINE
  8
0
 62
3
 10
939.9236615679236
 20
42.94943267226947
 30
0
 11
939.1236615679236
 21
42.94943267226947
 31
0
  0
LINE
  8
0
 62
3
 10
939.1236615679236
 20
42.94943267226947
 30
0
 11
938.4236615679236
 21
42.94943267226947
 31
0
  0
LINE
  8
0
 62
3
 10
939.9236615679236
 20
41.6146410809508
 30
0
 11
939.9236615679236
 21
42.94943267226947
 31
0
  0
LINE
  8
0
 62
3
 10
939.9236615679236
 20
43.45583759665297
 30
0
 11
939.9236615679236
 21
42.94943267226947
 31
0
  0
LINE
  8
0
 62
3
 10
938.4236615679236
 20
43.19008560454686
 30
0
 11
937.6236615679236
 21
43.19008560454686
 31
0
  0
LINE
  8
0
 62
3
 10
938.4236615679236
 20
42.94943267226947
 30
0
 11
938.4236615679236
 21
43.19008560454686
 31
0
  0
LINE
  8
0
 62
3
 10
939.9236615679236
 20
43.45583759665297
 30
0
 11
937.6236615679236
 21
43.45583759665297
 31
0
  0
LINE
  8
0
 62
3
 10
927.3236615679236
 20
15.66483331330469
 30
0
 11
927.6236615679236
 21
15.6648333133047
 31
0
  0
LINE
  8
1
 62
3
 10
901.3236615679236
 20
43.4648333133047
 30
0
 11
903.3236615679236
 21
43.4648333133047
 31
0
  0
LINE
  8
0
 62
3
 10
927.3236615679236
 20
43.4648333133047
 30
0
 11
927.6236615679236
 21
43.4648333133047
 31
0
  0
LINE
  8
1
 62
3
 10
903.3236615679236
 20
43.4648333133047
 30
0
 11
903.3236615679236
 21
44.0648333133047
 31
0
  0
LINE
  8
1
 62
3
 10
903.3236615679236
 20
15.06483331330468
 30
0
 11
903.3236615679236
 21
43.4648333133047
 31
0
  0
LINE
  8
1
 62
3
 10
927.3236615679236
 20
15.06483331330468
 30
0
 11
903.3236615679236
 21
15.06483331330468
 31
0
  0
LINE
  8
1
 62
3
 10
927.3236615679236
 20
44.0648333133047
 30
0
 11
927.3236615679236
 21
15.06483331330468
 31
0
  0
LINE
  8
1
 62
3
 10
903.3236615679236
 20
44.0648333133047
 30
0
 11
906.9754923232272
 21
44.06483331330469
 31
0
  0
LINE
  8
1
 62
3
 10
903.3236615679236
 20
28.26483331330471
 30
0
 11
903.3236615679236
 21
30.86483331330473
 31
0
  0
LINE
  8
1
 62
3
 10
905.8236615679236
 20
28.26483331330471
 30
0
 11
903.3236615679236
 21
28.26483331330471
 31
0
  0
LINE
  8
1
 62
3
 10
905.8236615679236
 20
30.86483331330473
 30
0
 11
905.8236615679236
 21
28.26483331330471
 31
0
  0
LINE
  8
1
 62
3
 10
903.3236615679236
 20
30.86483331330473
 30
0
 11
905.8236615679236
 21
30.86483331330473
 31
0
  0
LINE
  8
0
 62
3
 10
927.6236615679236
 20
43.14820049203141
 30
0
 11
927.6236615679236
 21
43.4648333133047
 31
0
  0
LINE
  8
0
 62
3
 10
900.3236615679236
 20
16.66483331330469
 30
0
 11
900.3236615679236
 21
34.5648333133047
 31
0
  0
LINE
  8
0
 62
3
 10
927.6236615679236
 20
15.6648333133047
 30
0
 11
927.6236615679236
 21
15.81751281257406
 31
0
  0
LINE
  8
0
 62
3
 10
927.6236615679236
 20
15.81751281257406
 30
0
 11
927.6236615679236
 21
15.98146613457798
 31
0
  0
LINE
  8
0
 62
3
 10
937.6236615679236
 20
43.14820049203141
 30
0
 11
927.6236615679236
 21
43.14820049203141
 31
0
  0
LINE
  8
0
 62
3
 10
937.6236615679236
 20
43.14820049203141
 30
0
 11
937.6236615679236
 21
43.19008560454686
 31
0
  0
LINE
  8
0
 62
3
 10
900.3236615679236
 20
34.5648333133047
 30
0
 11
900.3236615679236
 21
42.4648333133047
 31
0
  0
LINE
  8
0
 62
3
 10
938.4236615679236
 20
15.93958102206254
 30
0
 11
937.6236615679236
 21
15.93958102206254
 31
0
  0
LINE
  8
0
 62
3
 10
938.4236615679236
 20
15.93958102206254
 30
0
 11
938.4236615679236
 21
16.18023395433993
 31
0
  0
LINE
  8
0
 62
3
 10
937.6236615679236
 20
15.93958102206254
 30
0
 11
937.6236615679236
 21
15.98146613457798
 31
0
  0
LINE
  8
0
 62
3
 10
939.1236615679236
 20
16.18023395433993
 30
0
 11
938.4236615679236
 21
16.18023395433993
 31
0
  0
LINE
  8
0
 62
3
 10
939.1236615679236
 20
16.18023395433993
 30
0
 11
939.1236615679236
 21
22.56483331330476
 31
0
  0
LINE
  8
0
 62
3
 10
939.1236615679236
 20
28.3148333133047
 30
0
 11
939.1236615679236
 21
25.06483331330469
 31
0
  0
LINE
  8
0
 62
3
 10
939.1236615679236
 20
30.8148333133047
 30
0
 11
939.1236615679236
 21
28.3148333133047
 31
0
  0
LINE
  8
0
 62
3
 10
939.1236615679236
 20
22.56483331330476
 30
0
 11
939.1236615679236
 21
25.06483331330469
 31
0
  0
LINE
  8
0
 62
3
 10
937.6236615679236
 20
15.98146613457798
 30
0
 11
927.6236615679236
 21
15.98146613457798
 31
0
  0
LINE
  8
0
 62
3
 10
939.1236615679236
 20
34.06483331330469
 30
0
 11
939.1236615679236
 21
34.56483331330469
 31
0
  0
LINE
  8
0
 62
3
 10
939.1236615679236
 20
34.06483331330469
 30
0
 11
939.1236615679236
 21
30.8148333133047
 31
0
  0
LINE
  8
0
 62
3
 10
939.1236615679236
 20
34.56483331330469
 30
0
 11
939.1236615679236
 21
36.56483331330464
 31
0
  0
LINE
  8
0
 62
3
 10
939.1236615679236
 20
42.94943267226947
 30
0
 11
938.4236615679236
 21
42.94943267226947
 31
0
  0
LINE
  8
0
 62
3
 10
939.1236615679236
 20
36.56483331330464
 30
0
 11
939.1236615679236
 21
42.94943267226947
 31
0
  0
LINE
  8
0
 62
3
 10
938.4236615679236
 20
43.19008560454686
 30
0
 11
937.6236615679236
 21
43.19008560454686
 31
0
  0
LINE
  8
0
 62
3
 10
938.4236615679236
 20
42.94943267226947
 30
0
 11
938.4236615679236
 21
43.19008560454686
 31
0
  0
LINE
  8
0
 62
3
 10
901.3236615679236
 20
15.66483331330469
 30
0
 11
903.3236615679236
 21
15.66483331330469
 31
0
  0
LINE
  8
1
 62
3
 10
906.9754923232272
 20
44.06483331330469
 30
0
 11
923.9754923232272
 21
44.06483331330469
 31
0
  0
LINE
  8
1
 62
3
 10
923.9754923232272
 20
44.06483331330469
 30
0
 11
923.9754923232272
 21
37.57107125772262
 31
0
  0
LINE
  8
1
 62
3
 10
923.9754923232272
 20
37.57107125772262
 30
0
 11
906.9754923232272
 21
37.57107125772262
 31
0
  0
LINE
  8
1
 62
3
 10
906.9754923232272
 20
37.57107125772262
 30
0
 11
906.9754923232272
 21
44.06483331330469
 31
0
  0
LINE
  8
1
 62
3
 10
906.9754923232272
 20
44.06483331330469
 30
0
 11
923.9754923232272
 21
44.06483331330469
 31
0
  0
LINE
  8
1
 62
3
 10
923.9754923232272
 20
44.06483331330469
 30
0
 11
927.3236615679236
 21
44.0648333133047
 31
0
  0
LINE
  8
1
 62
3
 10
865.3236615679234
 20
48.56483331330469
 30
0
 11
865.3236615679234
 21
30.56501730399549
 31
0
  0
LINE
  8
1
 62
3
 10
899.3236615679236
 20
59.56483331330469
 30
0
 11
899.3236615679236
 21
-0.435166686695311
 31
0
  0
LINE
  8
1
 62
3
 10
861.1642344418584
 20
42.56483331330492
 30
0
 11
865.3236615679232
 21
42.56483331330509
 31
0
  0
LINE
  8
1
 62
3
 10
897.3236615679236
 20
-0.435166686695311
 30
0
 11
899.3236615679236
 21
-0.435166686695311
 31
0
  0
LINE
  8
1
 62
3
 10
897.3236615679236
 20
59.56483331330469
 30
0
 11
899.3236615679236
 21
59.56483331330469
 31
0
  0
LINE
  8
1
 62
3
 10
900.6572700488604
 20
50.86079979229692
 30
0
 11
899.4323771421983
 21
50.81521384349549
 31
0
  0
LINE
  8
1
 62
3
 10
900.6572700488604
 20
57.76886683431246
 30
0
 11
899.4323771421983
 21
57.81445278311384
 31
0
  0
LINE
  8
1
 62
3
 10
900.6572700488604
 20
1.360799792296859
 30
0
 11
899.4323771421983
 21
1.315213843495428
 31
0
  0
LINE
  8
1
 62
3
 10
900.6572700488604
 20
8.268866834312405
 30
0
 11
899.4323771421983
 21
8.314452783113779
 31
0
  0
LINE
  8
1
 62
1
 10
868.5170597501888
 20
29.56483331330469
 30
0
 11
938.4233531586867
 21
29.56483331330469
 31
0
  0
LINE
  8
0
 62
1
 10
851.9079448701909
 20
54.31483331330458
 30
0
 11
904.3236615679238
 21
54.31483331330468
 31
0
  0
LINE
  8
0
 62
1
 10
904.3236615679236
 20
4.814833313304632
 30
0
 11
852.5567483277039
 21
4.814833313304632
 31
0
  0
LINE
  8
1
 62
3
 10
897.3236615679236
 20
-0.935166686695311
 30
0
 11
871.3236615679234
 21
-0.935166686695311
 31
0
  0
LINE
  8
1
 62
3
 10
897.3236615679236
 20
60.06483331330469
 30
0
 11
871.3236615679234
 21
60.06483331330469
 31
0
  0
LINE
  8
1
 62
3
 10
870.3236615679234
 20
0.064833313304689
 30
0
 11
870.3236615679234
 21
9.564833313304575
 31
0
  0
LINE
  8
1
 62
1
 10
874.4064910691598
 20
39.56483331330469
 30
0
 11
841.9963804343645
 21
39.56483331330469
 31
0
  0
LINE
  8
1
 62
3
 10
871.3236615679234
 20
48.5648333133048
 30
0
 11
871.3236615679234
 21
49.56483331330469
 31
0
  0
LINE
  8
1
 62
3
 10
871.3236615679234
 20
49.56483331330469
 30
0
 11
871.3236615679234
 21
9.564833313304689
 31
0
  0
LINE
  8
1
 62
3
 10
870.3236615679234
 20
49.56483331330469
 30
0
 11
870.3236615679234
 21
59.06483331330469
 31
0
  0
LINE
  8
1
 62
3
 10
845.3236615679234
 20
42.06483331330469
 30
0
 11
845.3236615679234
 21
36.5648333133048
 31
0
  0
LINE
  8
1
 62
3
 10
845.3236615679234
 20
36.5648333133048
 30
0
 11
865.3236615679234
 21
36.56483331330469
 31
0
  0
LINE
  8
1
 62
3
 10
857.3236615679232
 20
42.06483331330469
 30
0
 11
845.3236615679234
 21
42.06483331330469
 31
0
  0
LINE
  8
1
 62
3
 10
871.3236615679234
 20
48.5648333133048
 30
0
 11
865.3236615679234
 21
48.56483331330469
 31
0
  0
LINE
  8
1
 62
3
 10
865.3236615679234
 20
30.56501730399549
 30
0
 11
871.3236615679234
 21
30.5650173039956
 31
0
  0
LINE
  8
1
 62
3
 10
897.3236615679236
 20
60.06483331330469
 30
0
 11
897.3236615679236
 21
-0.935166686695311
 31
0
  0
LINE
  8
1
 62
3
 10
878.0922568859287
 20
60.92777264577279
 30
0
 11
891.2216681572436
 21
60.92777264577279
 31
0
  0
LINE
  8
1
 62
3
 10
900.3236615679236
 20
46.06483331330469
 30
0
 11
900.3236615679236
 21
13.06483331330469
 31
0
  0
LINE
  8
1
 62
3
 10
753.053631295471
 20
7.464833313304666
 30
0
 11
753.053631295471
 21
7.064833313304632
 31
0
  0
LINE
  8
1
 62
3
 10
752.4536312954707
 20
7.464833313304666
 30
0
 11
752.4536312954707
 21
7.064833313304632
 31
0
  0
LINE
  8
1
 62
3
 10
752.4536312954707
 20
4.664833313304655
 30
0
 11
752.4536312954707
 21
5.064833313304632
 31
0
  0
LINE
  8
1
 62
3
 10
751.3536312954708
 20
5.764833313304621
 30
0
 11
751.7536312954708
 21
5.764833313304621
 31
0
  0
LINE
  8
1
 62
3
 10
751.3536312954708
 20
6.364833313304644
 30
0
 11
751.7536312954708
 21
6.364833313304644
 31
0
  0
LINE
  8
1
 62
3
 10
751.2536312954708
 20
6.264833313304621
 30
0
 11
751.2536312954708
 21
5.864833313304644
 31
0
  0
LINE
  8
1
 62
3
 10
754.2536312954708
 20
6.264833313304621
 30
0
 11
754.2536312954708
 21
5.864833313304644
 31
0
  0
LINE
  8
1
 62
3
 10
752.553631295471
 20
4.564833313304632
 30
0
 11
752.9536312954707
 21
4.564833313304632
 31
0
  0
LINE
  8
1
 62
3
 10
752.553631295471
 20
7.564833313304632
 30
0
 11
752.9536312954707
 21
7.564833313304632
 31
0
  0
LINE
  8
1
 62
3
 10
753.053631295471
 20
5.064833313304632
 30
0
 11
753.053631295471
 21
4.664833313304655
 31
0
  0
LINE
  8
1
 62
3
 10
753.7595136484119
 20
5.764833313304621
 30
0
 11
754.1536312954709
 21
5.764833313304621
 31
0
  0
LINE
  8
1
 62
3
 10
753.7595136484119
 20
6.364833313304644
 30
0
 11
754.1536312954709
 21
6.364833313304644
 31
0
  0
LINE
  8
1
 62
3
 10
773.553631295471
 20
43.46483331330467
 30
0
 11
773.553631295471
 21
43.06483331330469
 31
0
  0
LINE
  8
1
 62
3
 10
772.9536312954707
 20
43.46483331330467
 30
0
 11
772.9536312954707
 21
43.06483331330469
 31
0
  0
LINE
  8
1
 62
3
 10
772.9536312954707
 20
40.66483331330466
 30
0
 11
772.9536312954707
 21
41.06483331330469
 31
0
  0
LINE
  8
1
 62
3
 10
771.8536312954708
 20
41.76483331330462
 30
0
 11
772.2536312954708
 21
41.76483331330462
 31
0
  0
LINE
  8
1
 62
3
 10
771.8536312954708
 20
42.36483331330464
 30
0
 11
772.2536312954708
 21
42.36483331330464
 31
0
  0
LINE
  8
1
 62
3
 10
771.7536312954708
 20
42.26483331330462
 30
0
 11
771.7536312954708
 21
41.86483331330464
 31
0
  0
LINE
  8
1
 62
3
 10
774.7536312954708
 20
42.26483331330462
 30
0
 11
774.7536312954708
 21
41.86483331330464
 31
0
  0
LINE
  8
1
 62
3
 10
773.053631295471
 20
40.56483331330469
 30
0
 11
773.4536312954707
 21
40.56483331330469
 31
0
  0
LINE
  8
1
 62
3
 10
773.053631295471
 20
43.56483331330469
 30
0
 11
773.4536312954707
 21
43.56483331330469
 31
0
  0
LINE
  8
1
 62
3
 10
773.553631295471
 20
41.06483331330469
 30
0
 11
773.553631295471
 21
40.66483331330466
 31
0
  0
LINE
  8
1
 62
3
 10
774.2595136484119
 20
41.76483331330462
 30
0
 11
774.6536312954709
 21
41.76483331330462
 31
0
  0
LINE
  8
1
 62
3
 10
774.2595136484119
 20
42.36483331330464
 30
0
 11
774.6536312954709
 21
42.36483331330464
 31
0
  0
LINE
  8
1
 62
3
 10
732.553631295471
 20
43.46483331330467
 30
0
 11
732.553631295471
 21
43.06483331330469
 31
0
  0
LINE
  8
1
 62
3
 10
731.9536312954707
 20
43.46483331330467
 30
0
 11
731.9536312954707
 21
43.06483331330469
 31
0
  0
LINE
  8
1
 62
3
 10
731.9536312954707
 20
40.66483331330466
 30
0
 11
731.9536312954707
 21
41.06483331330469
 31
0
  0
LINE
  8
1
 62
3
 10
730.8536312954708
 20
41.76483331330462
 30
0
 11
731.2536312954708
 21
41.76483331330462
 31
0
  0
LINE
  8
1
 62
3
 10
730.8536312954708
 20
42.36483331330464
 30
0
 11
731.2536312954708
 21
42.36483331330464
 31
0
  0
LINE
  8
1
 62
3
 10
730.7536312954708
 20
42.26483331330462
 30
0
 11
730.7536312954708
 21
41.86483331330464
 31
0
  0
LINE
  8
1
 62
3
 10
733.7536312954708
 20
42.26483331330462
 30
0
 11
733.7536312954708
 21
41.86483331330464
 31
0
  0
LINE
  8
1
 62
3
 10
732.053631295471
 20
40.56483331330469
 30
0
 11
732.4536312954707
 21
40.56483331330469
 31
0
  0
LINE
  8
1
 62
3
 10
732.053631295471
 20
43.56483331330469
 30
0
 11
732.4536312954707
 21
43.56483331330469
 31
0
  0
LINE
  8
1
 62
3
 10
732.553631295471
 20
41.06483331330469
 30
0
 11
732.553631295471
 21
40.66483331330466
 31
0
  0
LINE
  8
1
 62
3
 10
733.2595136484119
 20
41.76483331330462
 30
0
 11
733.6536312954709
 21
41.76483331330462
 31
0
  0
LINE
  8
1
 62
3
 10
733.2595136484119
 20
42.36483331330464
 30
0
 11
733.6536312954709
 21
42.36483331330464
 31
0
  0
LINE
  8
1
 62
1
 10
779.5036312954708
 20
54.31483331330469
 30
0
 11
785.0979191715088
 21
54.31483331330469
 31
0
  0
LINE
  8
1
 62
1
 10
729.6286312954708
 20
54.31483331330469
 30
0
 11
719.7851247964588
 21
54.31483331330469
 31
0
  0
LINE
  8
1
 62
1
 10
730.0036312954708
 20
4.814833313304632
 30
0
 11
735.2394198035129
 21
4.814833313304632
 31
0
  0
LINE
  8
1
 62
1
 10
729.6286312954708
 20
4.814833313304632
 30
0
 11
730.0036312954708
 21
4.814833313304632
 31
0
  0
LINE
  8
1
 62
1
 10
779.1286312954708
 20
4.814833313304632
 30
0
 11
779.5036312954708
 21
4.814833313304632
 31
0
  0
LINE
  8
1
 62
1
 10
779.5036312954708
 20
4.814833313304632
 30
0
 11
785.8338379813687
 21
4.814833313304632
 31
0
  0
LINE
  8
1
 62
3
 10
728.0036312954708
 20
60.06483331330469
 30
0
 11
777.5036312954708
 21
60.06483331330469
 31
0
  0
LINE
  8
1
 62
3
 10
777.5036312954708
 20
-0.935166686695311
 30
0
 11
728.0036312954708
 21
-0.935166686695311
 31
0
  0
LINE
  8
1
 62
1
 10
777.5036312954708
 20
-3.156144831110055
 30
0
 11
777.5036312954708
 21
12.11417047347902
 31
0
  0
LINE
  8
1
 62
1
 10
728.0036312954708
 20
-3.156144831110055
 30
0
 11
728.0036312954708
 21
11.56223136608446
 31
0
  0
LINE
  8
1
 62
1
 10
748.7955655169399
 20
6.064833313304632
 30
0
 11
756.5890278733489
 21
6.064833313304632
 31
0
  0
LINE
  8
1
 62
1
 10
752.7536312954708
 20
65.17732310310726
 30
0
 11
752.7536312954708
 21
-6.912737200136803
 31
0
  0
LINE
  8
1
 62
1
 10
769.1131291967579
 20
42.06483331330469
 30
0
 11
777.0303479795017
 21
42.06483331330469
 31
0
  0
LINE
  8
1
 62
1
 10
773.2536312954708
 20
45.94385979148234
 30
0
 11
773.2536312954708
 21
38.39640122661444
 31
0
  0
LINE
  8
1
 62
1
 10
728.5797306963358
 20
42.06483331330469
 30
0
 11
735.8464087749028
 21
42.06483331330469
 31
0
  0
LINE
  8
1
 62
1
 10
732.2536312954708
 20
45.66110197781291
 30
0
 11
732.2536312954708
 21
38.62511209221646
 31
0
  0
LINE
  8
1
 62
3
 10
751.0953189002927
 20
42.06483331330469
 30
0
 11
754.4119436906487
 21
42.06483331330469
 31
0
  0
LINE
  8
1
 62
1
 10
770.1955632718498
 20
54.31483331330469
 30
0
 11
779.1286312954708
 21
54.31483331330469
 31
0
  0
LINE
  8
1
 62
1
 10
770.1955632718498
 20
4.814833313304632
 30
0
 11
779.1286312954708
 21
4.814833313304632
 31
0
  0
LINE
  8
1
 62
1
 10
719.6011450939938
 20
4.814833313304632
 30
0
 11
729.6286312954708
 21
4.814833313304632
 31
0
  0
LINE
  8
1
 62
1
 10
777.5036312954708
 20
62.340629246405
 30
0
 11
777.5036312954708
 21
47.62225304921066
 31
0
  0
LINE
  8
1
 62
1
 10
740.9427905799247
 20
39.56483331330469
 30
0
 11
764.3082127929717
 21
39.56483331330469
 31
0
  0
LINE
  8
1
 62
1
 10
735.0554401010478
 20
54.31483331330469
 30
0
 11
730.0036312954708
 21
54.31483331330469
 31
0
  0
LINE
  8
1
 62
1
 10
728.0036312954708
 20
61.9726698414753
 30
0
 11
728.0036312954708
 21
47.25429364428078
 31
0
  0
LINE
  8
1
 62
1
 10
716.8665376982648
 20
29.56483331330469
 30
0
 11
787.3961231914618
 21
29.56483331330469
 31
0
  0
LINE
  8
1
 62
3
 10
783.2536312954708
 20
54.31483331330469
 30
0
 11
783.2536312954708
 21
4.814833313304632
 31
0
  0
LINE
  8
1
 62
3
 10
722.2536312954707
 20
54.31483331330469
 30
0
 11
722.2536312954707
 21
4.814833313304632
 31
0
  0
CIRCLE
  8
1
 62
1
 10
777.5036312954708
 20
54.31483331330469
 30
0
 40
1.750000000000014
  0
CIRCLE
  8
1
 62
3
 10
777.5036312954708
 20
54.31483331330469
 30
0
 40
3.498742631289098
  0
CIRCLE
  8
1
 62
1
 10
728.0036312954708
 20
54.31483331330469
 30
0
 40
1.750000000000014
  0
CIRCLE
  8
1
 62
3
 10
728.0036312954708
 20
54.31483331330469
 30
0
 40
3.498742631289098
  0
CIRCLE
  8
1
 62
1
 10
777.5036312954708
 20
4.814833313304632
 30
0
 40
1.750000000000178
  0
CIRCLE
  8
1
 62
3
 10
777.5036312954708
 20
4.814833313304632
 30
0
 40
3.498742631289169
  0
CIRCLE
  8
1
 62
1
 10
728.0036312954708
 20
4.814833313304632
 30
0
 40
1.750000000000178
  0
CIRCLE
  8
1
 62
3
 10
728.0036312954708
 20
4.814833313304632
 30
0
 40
3.498742631289169
  0
ARC
  8
1
 62
3
 10
871.9850521771186
 20
4.814833313304689
 30
0
 40
5.861390609195257
 50
159.840903784802
 51
200.159096215198
  0
ARC
  8
1
 62
3
 10
867.7236615679234
 20
7.844833313304719
 30
0
 40
1.600000000000011
 50
140.8575944035884
 51
219.1424055964131
  0
ARC
  8
1
 62
3
 10
867.7236615679234
 20
1.78483331330472
 30
0
 40
1.600000000000011
 50
140.8575944035884
 51
219.1424055964116
  0
ARC
  8
1
 62
3
 10
863.4622709587283
 20
4.814833313304689
 30
0
 40
5.861390609195148
 50
339.8409037848016
 51
20.1590962151984
  0
ARC
  8
1
 62
3
 10
867.7236615679234
 20
7.844833313304719
 30
0
 40
1.600000000000047
 50
320.8575944035869
 51
39.14240559641158
  0
ARC
  8
1
 62
3
 10
867.7236615679234
 20
1.78483331330472
 30
0
 40
1.600000000000011
 50
320.8575944035885
 51
39.14240559641158
  0
ARC
  8
1
 62
3
 10
867.7236615679234
 20
51.28483331330466
 30
0
 40
1.600000000000047
 50
140.8575944035868
 51
219.1424055964116
  0
ARC
  8
1
 62
3
 10
867.7236615679234
 20
51.28483331330466
 30
0
 40
1.600000000000011
 50
320.8575944035885
 51
39.14240559641316
  0
ARC
  8
1
 62
3
 10
871.9850521771186
 20
54.31483331330469
 30
0
 40
5.861390609195257
 50
159.840903784802
 51
200.159096215198
  0
ARC
  8
1
 62
3
 10
867.7236615679234
 20
57.34483331330466
 30
0
 40
1.600000000000011
 50
140.8575944035884
 51
219.1424055964116
  0
ARC
  8
1
 62
3
 10
863.4622709587283
 20
54.31483331330469
 30
0
 40
5.861390609195149
 50
339.8409037848016
 51
20.1590962151984
  0
ARC
  8
1
 62
3
 10
867.7236615679234
 20
57.34483331330466
 30
0
 40
1.600000000000011
 50
320.8575944035885
 51
39.14240559641158
  0
ARC
  8
1
 62
3
 10
1013.293661567923
 20
29.5648333133047
 30
0
 40
13.90000000000004
 50
292.5718242340353
 51
276.0264020426438
  0
ARC
  8
1
 62
3
 10
1013.293661567923
 20
29.5648333133047
 30
0
 40
13.90000000000002
 50
276.0264020426438
 51
292.5718242340353
  0
ARC
  8
1
 62
3
 10
1013.293661567923
 20
29.5648333133047
 30
0
 40
14.50000000000011
 50
292.2272549045408
 51
276.3709713721373
  0
ARC
  8
1
 62
3
 10
1013.293661567923
 20
29.5648333133047
 30
0
 40
13.49999999999994
 50
286.1276202131608
 51
73.87237978683925
  0
ARC
  8
1
 62
3
 10
1013.293661567923
 20
29.5648333133047
 30
0
 40
13.5
 50
106.1276202131608
 51
253.8723797868392
  0
ARC
  8
0
 62
4
 10
941.8236615679236
 20
28.71483331330469
 30
0
 40
0.3999999999999604
 50
318.5903778907257
 51
0
  0
ARC
  8
0
 62
4
 10
941.8236615679236
 20
30.41483331330468
 30
0
 40
0.3999999999999773
 50
0
 51
41.40962210927734
  0
ARC
  8
1
 62
3
 10
901.3236615679236
 20
16.66483331330469
 30
0
 40
1
 50
180
 51
270
  0
ARC
  8
1
 62
3
 10
901.3236615679236
 20
42.4648333133047
 30
0
 40
1
 50
90
 51
180
  0
ARC
  8
1
 62
3
 10
899.8236615679236
 20
12.06483331330469
 30
0
 40
0.5
 50
90
 51
180
  0
ARC
  8
1
 62
3
 10
899.8236615679236
 20
47.06483331330469
 30
0
 40
0.5
 50
180
 51
270
  0
ARC
  8
1
 62
3
 10
857.3236615679232
 20
57.06483331330469
 30
0
 40
15
 50
270
 51
284.8351115819794
  0
ARC
  8
1
 62
3
 10
902.7986615679236
 20
54.31483331330469
 30
0
 40
0.9250000000000037
 50
161.0753555839481
 51
198.9246444160519
  0
ARC
  8
1
 62
3
 10
893.9287319904588
 20
54.29961577656161
 30
0
 40
7.999999999999692
 50
338.4952052003291
 51
357.9599648354464
  0
ARC
  8
1
 62
3
 10
893.9287319904588
 20
54.33005085004771
 30
0
 40
7.999999999999958
 50
2.040035164553978
 51
21.5047947996717
  0
ARC
  8
1
 62
3
 10
902.7986615679236
 20
4.814833313304632
 30
0
 40
0.9250000000000039
 50
161.075355583948
 51
198.9246444160519
  0
ARC
  8
1
 62
3
 10
893.9287319904588
 20
4.799615776561552
 30
0
 40
7.999999999999915
 50
338.4952052003295
 51
357.9599648354464
  0
ARC
  8
1
 62
3
 10
893.9287319904588
 20
4.830050850047655
 30
0
 40
7.999999999999958
 50
2.040035164553985
 51
21.50479479967094
  0
ARC
  8
1
 62
3
 10
751.750690119
 20
5.061892136834047
 30
0
 40
0.7029473295326655
 50
0.239729896080581
 51
89.76027010390082
  0
ARC
  8
1
 62
3
 10
753.7565724719417
 20
5.061892136834047
 30
0
 40
0.7029473295324935
 50
89.76027010394716
 51
179.7602701039194
  0
ARC
  8
1
 62
3
 10
753.7565724719417
 20
7.067774489775275
 30
0
 40
0.7029473295326658
 50
180.2397298960852
 51
270.2397298960528
  0
ARC
  8
1
 62
3
 10
751.750690119
 20
7.067774489775275
 30
0
 40
0.7029473295325518
 50
270.2397298960992
 51
359.7602701039148
  0
ARC
  8
1
 62
3
 10
772.250690119
 20
41.06189213683405
 30
0
 40
0.7029473295326658
 50
0.2397298960852141
 51
89.76027010390082
  0
ARC
  8
1
 62
3
 10
774.2565724719417
 20
41.06189213683405
 30
0
 40
0.7029473295324935
 50
89.76027010394716
 51
179.7602701039148
  0
ARC
  8
1
 62
3
 10
774.2565724719417
 20
43.06777448977528
 30
0
 40
0.7029473295326655
 50
180.2397298960811
 51
270.2397298960528
  0
ARC
  8
1
 62
3
 10
772.250690119
 20
43.06777448977528
 30
0
 40
0.7029473295325598
 50
270.2397298960992
 51
359.7602701039189
  0
ARC
  8
1
 62
3
 10
731.2506901190009
 20
41.06189213683405
 30
0
 40
0.7029473295317563
 50
0.2397298960855243
 51
89.76027010397496
  0
ARC
  8
1
 62
3
 10
733.2565724719417
 20
41.06189213683405
 30
0
 40
0.7029473295324935
 50
89.76027010394716
 51
179.7602701039148
  0
ARC
  8
1
 62
3
 10
733.2565724719417
 20
43.06777448977528
 30
0
 40
0.7029473295326655
 50
180.2397298960811
 51
270.2397298960528
  0
ARC
  8
1
 62
3
 10
731.2506901190009
 20
43.06777448977528
 30
0
 40
0.7029473295325561
 50
270.239729896025
 51
359.7602701039185
  0
CIRCLE
  8
1
 62
3
 10
777.5036312954708
 20
54.31483331330469
 30
0
 40
2
  0
CIRCLE
  8
1
 62
3
 10
728.0036312954708
 20
54.31483331330469
 30
0
 40
2
  0
CIRCLE
  8
1
 62
3
 10
777.5036312954708
 20
4.814833313304632
 30
0
 40
2
  0
CIRCLE
  8
1
 62
3
 10
728.0036312954708
 20
4.814833313304632
 30
0
 40
2
  0
CIRCLE
  8
1
 62
2
 10
1013.293661567923
 20
29.5648333133047
 30
0
 40
0.8500000000010459
  0
CIRCLE
  8
1
 62
3
 10
1013.293661567923
 20
29.5648333133047
 30
0
 40
1.25
  0
CIRCLE
  8
1
 62
3
 10
1013.293661567923
 20
29.5648333133047
 30
0
 40
4.5
  0
CIRCLE
  8
1
 62
3
 10
1013.293661567923
 20
29.5648333133047
 30
0
 40
6.550000000000978
  0
CIRCLE
  8
1
 62
3
 10
1013.293661567923
 20
29.5648333133047
 30
0
 40
5
  0
CIRCLE
  8
1
 62
3
 10
773.2536312954708
 20
42.06483331330469
 30
0
 40
3.000000000000265
  0
CIRCLE
  8
1
 62
3
 10
732.2536312954708
 20
42.06483331330469
 30
0
 40
2.999999999999622
  0
CIRCLE
  8
1
 62
3
 10
728.0036312954708
 20
54.31483331330469
 30
0
 40
5.75
  0
CIRCLE
  8
1
 62
3
 10
777.5036312954708
 20
54.31483331330469
 30
0
 40
5.75
  0
CIRCLE
  8
1
 62
3
 10
777.5036312954708
 20
4.814833313304632
 30
0
 40
5.749999999999943
  0
CIRCLE
  8
1
 62
3
 10
728.0036312954708
 20
4.814833313304632
 30
0
 40
5.749999999999943
  0
CIRCLE
  8
1
 62
3
 10
752.7536312954708
 20
39.56483331330469
 30
0
 40
5.25
  0
CIRCLE
  8
1
 62
3
 10
752.7536312954708
 20
39.56483331330469
 30
0
 40
9
  0
CIRCLE
  8
1
 62
3
 10
752.7536312954708
 20
39.56483331330469
 30
0
 40
3
  0
CIRCLE
  8
1
 62
3
 10
752.7536312954708
 20
6.064833313304632
 30
0
 40
3
  0
ARC
  8
1
 62
3
 10
899.8236615679236
 20
13.06483331330469
 30
0
 40
0.5
 50
270
 51
0
  0
ARC
  8
1
 62
3
 10
899.8236615679236
 20
46.06483331330469
 30
0
 40
0.5
 50
0
 51
90
  0
ARC
  8
1
 62
3
 10
899.4236615679236
 20
57.71483331330467
 30
0
 40
0.09999999999999733
 50
84.99999999998701
 51
180
  0
ARC
  8
1
 62
3
 10
899.4236615679236
 20
50.91483331330466
 30
0
 40
0.09999999999990905
 50
180
 51
275.000000000013
  0
ARC
  8
1
 62
3
 10
900.6275176276465
 20
51.66024634675301
 30
0
 40
0.7999999999998751
 50
272.1313517246148
 51
338.4952052003326
  0
ARC
  8
1
 62
3
 10
900.6275176276465
 20
56.96942027985642
 30
0
 40
0.7999999999998989
 50
21.50479479966705
 51
87.86864827538504
  0
ARC
  8
1
 62
3
 10
899.4236615679236
 20
8.214833313304609
 30
0
 40
0.09999999999999733
 50
84.99999999998701
 51
180
  0
ARC
  8
1
 62
3
 10
899.4236615679236
 20
1.414833313304655
 30
0
 40
0.09999999999990905
 50
180
 51
275.0000000000102
  0
ARC
  8
1
 62
3
 10
900.6275176276465
 20
2.16024634675307
 30
0
 40
0.7999999999999965
 50
272.1313517246145
 51
338.4952052003292
  0
ARC
  8
1
 62
3
 10
900.6275176276465
 20
7.469420279856195
 30
0
 40
0.7999999999999197
 50
21.50479479967083
 51
87.8686482753855
  0
ARC
  8
1
 62
3
 10
871.3236615679234
 20
0.064833313304689
 30
0
 40
1
 50
180
 51
270
  0
ARC
  8
1
 62
3
 10
871.3236615679234
 20
9.564833313304689
 30
0
 40
0.9999999999998916
 50
90
 51
180.0000000000065
  0
ARC
  8
1
 62
3
 10
871.3236615679234
 20
49.56483331330469
 30
0
 40
1
 50
180
 51
270
  0
ARC
  8
1
 62
3
 10
871.3236615679234
 20
59.06483331330469
 30
0
 40
1
 50
90
 51
180
  0
ARC
  8
1
 62
3
 10
752.553631295471
 20
7.464833313304666
 30
0
 40
0.09999999999996589
 50
90
 51
180
  0
ARC
  8
1
 62
3
 10
752.9536312954707
 20
7.464833313304666
 30
0
 40
0.1000000000002501
 50
0
 51
90
  0
ARC
  8
1
 62
3
 10
754.1536312954709
 20
6.264833313304621
 30
0
 40
0.09999999999990905
 50
0
 51
90
  0
ARC
  8
1
 62
3
 10
754.1536312954709
 20
5.864833313304644
 30
0
 40
0.1000000000000236
 50
270
 51
0
  0
ARC
  8
1
 62
3
 10
752.9536312954707
 20
4.664833313304655
 30
0
 40
0.1000000000000227
 50
270
 51
0
  0
ARC
  8
1
 62
3
 10
752.553631295471
 20
4.664833313304655
 30
0
 40
0.1000000000002501
 50
180
 51
270
  0
ARC
  8
1
 62
3
 10
751.3536312954708
 20
5.864833313304644
 30
0
 40
0.1000000000000227
 50
180
 51
270
  0
ARC
  8
1
 62
3
 10
751.3536312954708
 20
6.264833313304621
 30
0
 40
0.1000000000000236
 50
90
 51
180
  0
ARC
  8
1
 62
3
 10
773.053631295471
 20
43.46483331330467
 30
0
 40
0.1000000000000156
 50
90
 51
180
  0
ARC
  8
1
 62
3
 10
773.4536312954707
 20
43.46483331330467
 30
0
 40
0.1000000000002501
 50
0
 51
90
  0
ARC
  8
1
 62
3
 10
774.6536312954709
 20
42.26483331330462
 30
0
 40
0.09999999999990905
 50
0
 51
90
  0
ARC
  8
1
 62
3
 10
774.6536312954709
 20
41.86483331330464
 30
0
 40
0.1000000000000227
 50
270
 51
0
  0
ARC
  8
1
 62
3
 10
773.4536312954707
 20
40.66483331330466
 30
0
 40
0.099999999999973
 50
270
 51
0
  0
ARC
  8
1
 62
3
 10
773.053631295471
 20
40.66483331330466
 30
0
 40
0.1000000000002501
 50
180
 51
270
  0
ARC
  8
1
 62
3
 10
771.8536312954708
 20
41.86483331330464
 30
0
 40
0.1000000000000227
 50
180
 51
270
  0
ARC
  8
1
 62
3
 10
771.8536312954708
 20
42.26483331330462
 30
0
 40
0.1000000000000227
 50
90
 51
180
  0
ARC
  8
1
 62
3
 10
732.053631295471
 20
43.46483331330467
 30
0
 40
0.1000000000000156
 50
90
 51
180
  0
ARC
  8
1
 62
3
 10
732.4536312954707
 20
43.46483331330467
 30
0
 40
0.1000000000002501
 50
0
 51
90
  0
ARC
  8
1
 62
3
 10
733.6536312954709
 20
42.26483331330462
 30
0
 40
0.09999999999990905
 50
0
 51
90
  0
ARC
  8
1
 62
3
 10
733.6536312954709
 20
41.86483331330464
 30
0
 40
0.1000000000000227
 50
270
 51
0
  0
ARC
  8
1
 62
3
 10
732.4536312954707
 20
40.66483331330466
 30
0
 40
0.099999999999973
 50
270
 51
0
  0
ARC
  8
1
 62
3
 10
732.053631295471
 20
40.66483331330466
 30
0
 40
0.1000000000002501
 50
180
 51
270
  0
ARC
  8
1
 62
3
 10
730.8536312954708
 20
41.86483331330464
 30
0
 40
0.1000000000000227
 50
180
 51
270
  0
ARC
  8
1
 62
3
 10
730.8536312954708
 20
42.26483331330462
 30
0
 40
0.1000000000000227
 50
90
 51
180
  0
LINE
  8
1
 62
2
 10
825.2816014633966
 20
-11.42427093341453
 30
0
 11
848.1267495467316
 21
-11.42427093341453
 31
0
  0
LINE
  8
1
 62
2
 10
848.1267495467316
 20
-11.42427093341453
 30
0
 11
856.5696155290742
 21
2.814833313305009
 31
0
  0
SOLID
  8
1
 62
2
 10
855.1808926553445
 20
-0.4307437442398943
 30
0
 11
854.3881950849398
 21
0.03927454030188482
 31
0
 12
856.5696155290742
 22
2.814833313305009
 32
0
 13
856.5696155290742
 23
2.814833313305009
 33
0
  0
LINE
  8
1
 62
2
 10
778.4380231881876
 20
-21.01110211861151
 30
0
 11
717.9553303745224
 21
-21.01110211861151
 31
0
  0
LINE
  8
1
 62
2
 10
717.9553303745224
 20
-21.01110211861151
 30
0
 11
726.2542599798263
 21
1.784833313304748
 31
0
  0
SOLID
  8
1
 62
2
 10
725.5554463387022
 20
-1.366220965411803
 30
0
 11
724.7637049766178
 21
-1.077985115245882
 31
0
 12
726.2542599798263
 22
1.784833313304748
 32
0
 13
726.2542599798263
 23
1.784833313304748
 33
0
  0
LINE
  8
1
 62
2
 10
975.6875967205805
 20
57.0648333133047
 30
0
 11
1008.444669598441
 21
57.0648333133047
 31
0
  0
LINE
  8
1
 62
2
 10
1008.444669598441
 20
57.0648333133047
 30
0
 11
1010.775762991753
 21
43.84454573198168
 31
0
  0
SOLID
  8
1
 62
2
 10
1009.714210968773
 20
47.2113586105047
 30
0
 11
1010.621777771065
 21
47.37138712454414
 31
0
 12
1010.775762991753
 22
43.84454573198168
 32
0
 13
1010.775762991753
 23
43.84454573198168
 33
0
  0
LINE
  8
1
 62
2
 10
1050.795537508666
 20
2.655717965112114
 30
0
 11
1018.038464630806
 21
2.655717965112114
 31
0
  0
LINE
  8
1
 62
2
 10
1018.038464630806
 20
2.655717965112114
 30
0
 11
1015.707371237494
 21
15.87600554643502
 31
0
  0
SOLID
  8
1
 62
2
 10
1016.768923260474
 20
12.50919266791199
 30
0
 11
1015.861356458182
 21
12.34916415387256
 31
0
 12
1015.707371237494
 22
15.87600554643502
 32
0
 13
1015.707371237494
 23
15.87600554643502
 33
0
  0
LINE
  8
1
 62
2
 10
897.5481295476156
 20
70.06483331330469
 30
0
 11
872.9941130223876
 21
70.06483331330469
 31
0
  0
LINE
  8
1
 62
2
 10
872.9941130223876
 20
70.06483331330469
 30
0
 11
884.1311736899195
 21
60.92777264577279
 31
0
  0
SOLID
  8
1
 62
2
 10
881.1330300504283
 20
62.7914937551291
 30
0
 11
881.7175558354716
 21
63.50396567215349
 31
0
 12
884.1311736899195
 22
60.92777264577279
 32
0
 13
884.1311736899195
 23
60.92777264577279
 33
0
  0
LINE
  8
1
 62
2
 10
933.3406071105395
 20
54.06483331330469
 30
0
 11
908.0437209990907
 21
54.06483331330469
 31
0
  0
LINE
  8
1
 62
2
 10
908.0437209990907
 20
54.06483331330469
 30
0
 11
916.0104509361975
 21
41.29810337619796
 31
0
  0
SOLID
  8
1
 62
2
 10
913.7666263212689
 20
44.02346073880619
 30
0
 11
914.5484571811282
 21
44.51134098282165
 31
0
 12
916.0104509361975
 22
41.29810337619796
 32
0
 13
916.0104509361975
 23
41.29810337619796
 33
0
  0
TEXT
  8
1
 62
2
 10
823.8974283858375
 20
-10.20626485820054
 30
0
 40
3.5
  1
4-M4ü~45
 41
0.9
 72
1
 73
2
 11
836.4974283858376
 21
-8.456264858200537
 31
0
  0
TEXT
  8
1
 62
2
 10
720.8503978438084
 20
-20.04117237567413
 30
0
 40
3.5
  1
âéü[â^üEéfégêÛæ╠î^üiÄ%%cÆìÉÂÄYòiüj
 41
0.9
  0
TEXT
  8
1
 62
2
 10
725.0257197092718
 20
-25.87825294089913
 30
0
 40
3.5
  1
4-M4 DEPTH 6MAX.
 41
0.9
  0
TEXT
  8
1
 62
2
 10
972.9403590502304
 20
58.8148333133047
 30
0
 40
3.5
  1
(ü{)TERMINAL
 41
0.9
  0
TEXT
  8
1
 62
2
 10
972.9403590502304
 20
51.8148333133047
 30
0
 40
3.5
  1
    (RED)
 41
0.9
  0
TEXT
  8
1
 62
2
 10
1015.734068350261
 20
4.405717965112114
 30
0
 40
3.5
  1
(ü|)TERMINAL
 41
0.9
  0
TEXT
  8
1
 62
2
 10
1015.734068350261
 20
-2.594282034887886
 30
0
 40
3.5
  1
   (BLACK)
 41
0.9
  0
TEXT
  8
1
 62
2
 10
873.9643330997718
 20
70.45624389395255
 30
0
 40
3.5
  1
NAME PLATE
 41
0.6300000000000001
 72
1
 73
2
 11
884.9893330997718
 21
72.20624389395255
 31
0
  0
TEXT
  8
1
 62
2
 10
909.643527640741
 20
55.46132974396858
 30
0
 40
3.5
  1
NAME PLATE
 41
0.6300000000000001
 72
1
 73
2
 11
920.668527640741
 21
57.21132974396858
 31
0
  0
TEXT
  8
1
 62
2
 10
749.7556434501169
 20
81.99420876410083
 30
0
 40
1.8
  1
s
 41
0.9
 72
1
 73
2
 11
750.5656434501168
 21
82.89420876410082
 31
0
  0
TEXT
  8
1
 62
2
 10
854.0619183726352
 20
-42.6602134277115
 30
0
 40
4.5
  1
DMN29B6H
 41
0.9
  0
DIMENSION
  8
1
  6
CONTINUOUS
 62
2
  2
*D0
  3
DMST_1
 10
1037.800502320864
 20
41.86464108095079
 30
0
 11
1035.200502320864
 21
29.5648333133047
 31
0
 12
0
 22
0
 32
0
 70
0
  1
(<>
 13
1015.993661567923
 23
17.26502554565861
 33
0
 14
1015.993661567923
 24
41.86464108095079
 34
0
 50
90
 53
0
  0
DIMENSION
  8
1
  6
CONTINUOUS
 62
2
  2
*D1
  3
DMST_2
 10
956.1236615679236
 20
34.56483331330469
 30
0
 11
953.5236615679236
 21
29.56483331330469
 31
0
 12
0
 22
0
 32
0
 70
0
  1
%%c<>
 13
942.3236615679236
 23
24.56483331330469
 33
0
 14
942.3236615679236
 24
34.56483331330469
 34
0
 50
90
 53
0
  0
DIMENSION
  8
1
  6
CONTINUOUS
 62
2
  2
*D2
  3
DMST_2
 10
942.3236615679236
 20
80.06483331330469
 30
0
 11
949.866860272141
 21
82.66483331330468
 31
0
 12
0
 22
0
 32
0
 70
0
 13
939.1236615679236
 23
42.94943267226947
 33
0
 14
942.3236615679236
 24
34.56483331330469
 34
0
 53
0
  0
DIMENSION
  8
1
  6
CONTINUOUS
 62
2
  2
*D3
  3
DMST_2
 10
815.3236615679235
 20
48.56483331330472
 30
0
 11
812.7236615679235
 21
39.56492530865012
 31
0
 12
0
 22
0
 32
0
 70
0
  1
%%c<>
 13
865.3236615679234
 23
30.56501730399549
 33
0
 14
865.3236615679234
 24
48.56483331330469
 34
0
 50
90
 53
0
  0
DIMENSION
  8
1
  6
CONTINUOUS
 62
2
  2
*D4
  3
DMST_2
 10
870.3236615679234
 20
80.06483331330472
 30
0
 11
867.8236615679234
 21
82.66483331330471
 31
0
 12
0
 22
0
 32
0
 70
0
 13
865.3236615679234
 23
48.56483331330469
 33
0
 14
870.3236615679234
 24
59.06483331330469
 34
0
 53
0
  0
DIMENSION
  8
1
  6
CONTINUOUS
 62
2
  2
*D5
  3
DMST_2
 10
857.3236615679233
 20
80.06483331330472
 30
0
 11
851.3236615679234
 21
82.66483331330471
 31
0
 12
0
 22
0
 32
0
 70
0
 13
845.3236615679234
 23
42.06483331330469
 33
0
 14
857.3236615679232
 24
42.06483331330469
 34
0
 53
0
  0
DIMENSION
  8
1
  6
CONTINUOUS
 62
2
  2
*D6
  3
DMST_3
 10
825.3236615679234
 20
42.5648333133049
 30
0
 11
821.9236615679234
 21
61.06780632038078
 31
0
 12
0
 22
0
 32
0
 70
0
  1
%%c<>
 13
845.3236615679234
 23
36.5648333133048
 33
0
 14
861.1642344418584
 24
42.56483331330492
 34
0
 50
90
 53
0
  0
DIMENSION
  8
1
  6
CONTINUOUS
 62
2
  2
*D7
  3
DMST_2
 10
870.3236615679234
 20
90.06483331330472
 30
0
 11
857.8236615679234
 21
92.66483331330471
 31
0
 12
0
 22
0
 32
0
 70
0
 13
845.3236615679234
 23
42.06483331330469
 33
0
 14
870.3236615679234
 24
59.06483331330469
 34
0
 53
0
  0
DIMENSION
  8
1
  6
CONTINUOUS
 62
2
  2
*D8
  3
DMST_4
 10
835.3236615679235
 20
42.06483331330468
 30
0
 11
832.7236615679235
 21
59.90306395831999
 31
0
 12
0
 22
0
 32
0
 70
0
 13
845.3236615679234
 23
36.5648333133048
 33
0
 14
845.3236615679234
 24
42.06483331330469
 34
0
 50
90
 53
0
  0
DIMENSION
  8
1
  6
CONTINUOUS
 62
2
  2
*D9
  3
DMST_2
 10
783.2536312954708
 20
80.06483331330472
 30
0
 11
756.5629328830398
 21
82.66483331330471
 31
0
 12
0
 22
0
 32
0
 70
0
 13
722.2536312954707
 23
54.31483331330469
 33
0
 14
783.2536312954708
 24
54.31483331330469
 34
0
 53
0
  0
DIMENSION
  8
1
  6
CONTINUOUS
 62
2
  2
*D10
  3
DMST_5
 10
793.2536312954707
 20
29.56483331330471
 30
0
 11
790.6536312954706
 21
19.31998742387162
 31
0
 12
0
 22
0
 32
0
 70
0
 13
764.3082127929717
 23
39.56483331330469
 33
0
 14
787.3961231914618
 24
29.56483331330469
 34
0
 50
90
 53
0
  0
DIMENSION
  8
1
  6
CONTINUOUS
 62
2
  2
*D11
  3
DMST_4
 10
803.2536312954707
 20
54.31483331330472
 30
0
 11
800.6536312954706
 21
29.56483331330469
 31
0
 12
0
 22
0
 32
0
 70
0
 13
785.8338379813687
 23
4.814833313304632
 33
0
 14
785.0979191715088
 24
54.31483331330469
 34
0
 50
90
 53
0
  0
DIMENSION
  8
1
  6
CONTINUOUS
 62
2
  2
*D12
  3
DMST_4
 10
777.5036312954708
 20
70.06483331330472
 30
0
 11
752.7536312954708
 21
72.66483331330471
 31
0
 12
0
 22
0
 32
0
 70
0
 13
728.0036312954708
 23
61.9726698414753
 33
0
 14
777.5036312954708
 24
62.340629246405
 34
0
 53
0
  0
DIMENSION
  8
1
  6
CONTINUOUS
 62
2
  2
*D13
  3
DMST_2
 10
870.3236615679234
 20
90.06483331330469
 30
0
 11
906.3236615679235
 21
92.66483331330468
 31
0
 12
0
 22
0
 32
0
 70
0
 13
942.3236615679236
 23
34.56483331330469
 33
0
 14
870.3236615679234
 24
59.06483331330469
 34
0
 53
0
  0
DIMENSION
  8
1
  6
CONTINUOUS
 62
2
  2
*D14
  3
DMST_6
 10
899.3236615679235
 20
80.06483331330469
 30
0
 11
884.8236615679234
 21
83.81483331330469
 31
0
 12
0
 22
0
 32
0
 70
0
 13
870.3236615679234
 23
59.06483331330469
 33
0
 14
899.3236615679236
 24
59.56483331330469
 34
0
 53
0
  0
ENDSEC
  0
EOF
