  0
SECTION
  2
HEADER
  9
$ACADVER
  1
AC1009
  9
$INSBASE
 10
0
 20
0
  9
$EXTMIN
 10
-161.880568759311
 20
-68.39999990326609
  9
$EXTMAX
 10
168.4718759407428
 20
129.7469552266197
  9
$LIMMIN
 10
-161.880568759311
 20
-68.39999990326609
  9
$LIMMAX
 10
168.4718759407428
 20
129.7469552266197
  9
$VIEWCTR
 10
10
 20
10
  9
$VIEWSIZE
 40
10
  9
$SNAPMODE
 70
0
  9
$SNAPUNIT
 10
1
 20
1
  9
$SNAPBASE
 10
0
 20
0
  9
$SNAPANG
 50
0
  9
$SNAPSTYLE
 70
0
  9
$SNAPISOPAIR
 70
0
  9
$GRIDMODE
 70
0
  9
$GRIDUNIT
 10
0
 20
0
  9
$ORTHOMODE
 70
0
  9
$REGENMODE
 70
1
  9
$FILLMODE
 70
1
  9
$QTEXTMODE
 70
0
  9
$DRAGMODE
 70
2
  9
$LTSCALE
 40
1
  9
$OSMODE
 70
0
  9
$ATTMODE
 70
1
  9
$TEXTSIZE
 40
3.5
  9
$TRACEWID
 40
0.5
  9
$TEXTSTYLE
  7
STANDARD
  9
$CLAYER
  8
0
  9
$CELTYPE
  6
BYLAYER
  9
$CECOLOR
 62
256
  9
$DIMSCALE
 40
1
  9
$DIMASZ
 40
0.18
  9
$DIMEXO
 40
0.0625
  9
$DIMDLI
 40
0.38
  9
$DIMRND
 40
0
  9
$DIMDLE
 40
0
  9
$DIMEXE
 40
0.18
  9
$DIMTP
 40
0
  9
$DIMTM
 40
0
  9
$DIMTXT
 40
0.18
  9
$DIMCEN
 40
0.09
  9
$DIMTSZ
 40
0
  9
$DIMTOL
 70
0
  9
$DIMLIM
 70
0
  9
$DIMTIH
 70
1
  9
$DIMTOH
 70
1
  9
$DIMSE1
 70
0
  9
$DIMSE2
 70
0
  9
$DIMTAD
 70
0
  9
$DIMZIN
 70
0
  9
$DIMBLK
  1

  9
$DIMASO
 70
1
  9
$DIMSHO
 70
1
  9
$DIMPOST
  1

  9
$DIMAPOST
  1

  9
$DIMALT
 70
0
  9
$DIMALTD
 70
2
  9
$DIMALTF
 40
25.4
  9
$DIMLFAC
 40
1
  9
$DIMTOFL
 70
0
  9
$DIMTVP
 40
0
  9
$DIMTIX
 70
0
  9
$DIMSOXD
 70
0
  9
$DIMSAH
 70
0
  9
$DIMBLK1
  1

  9
$DIMBLK2
  1

  9
$DIMSTYLE
  2
*UNNAMED
  9
$DIMCLRD
 70
0
  9
$DIMCLRE
 70
0
  9
$DIMCLRT
 70
0
  9
$DIMTFAC
 40
1
  9
$DIMGAP
 40
0.09
  9
$LUNITS
 70
2
  9
$LUPREC
 70
4
  9
$AXISMODE
 70
0
  9
$AXISUNIT
 10
0
 20
0
  9
$SKETCHINC
 40
0.1
  9
$FILLETRAD
 40
2
  9
$AUNITS
 70
0
  9
$AUPREC
 70
0
  9
$MENU
  1
ACAD
  9
$ELEVATION
 40
0
  9
$THICKNESS
 40
0
  9
$VIEWDIR
 10
0
 20
0
 30
1
  9
$LIMCHECK
 70
0
  9
$BLIPMODE
 70
1
  9
$CHAMFERA
 40
0
  9
$CHAMFERB
 40
0
  9
$FASTZOOM
 70
1
  9
$SKPOLY
 70
0
  9
$ANGBASE
 50
0
  9
$ANGDIR
 70
0
  9
$PDMODE
 70
0
  9
$PDSIZE
 40
0
  9
$PLINEWID
 40
0
  9
$COORDS
 70
2
  0
ENDSEC
  0
SECTION
  2
TABLES
  0
TABLE
  2
DIMSTYLE
 70
11
  0
DIMSTYLE
  2
DMST_1
 70
0
  3

  4

  5

  6

  7

 40
1
 41
3.2
 42
1
 43
7
 44
1.5
 45
0
 46
0
 47
0
 48
0
140
3.2
141
0
142
0
143
25.4
144
1
145
0
146
1
147
0.09
 71
0
 72
0
 73
0
 74
0
 75
0
 76
0
 77
1
 78
9
170
0
171
2
172
0
173
0
174
0
175
0
176
2
177
2
178
2
  0
DIMSTYLE
  2
DMST_2
 70
0
  3
)
  4

  5

  6

  7

 40
1
 41
3.2
 42
1
 43
7
 44
1
 45
0
 46
0
 47
0
 48
0
140
3.2
141
0
142
0
143
25.4
144
1
145
0
146
1
147
0.09
 71
0
 72
0
 73
0
 74
0
 75
0
 76
0
 77
1
 78
1
170
0
171
2
172
0
173
0
174
0
175
0
176
2
177
2
178
2
  0
DIMSTYLE
  2
DMST_3
 70
0
  3

  4

  5

  6

  7

 40
1
 41
3.2
 42
1
 43
7
 44
1
 45
0
 46
0
 47
0
 48
0
140
3.2
141
0
142
0
143
25.4
144
1
145
0
146
1
147
0.09
 71
0
 72
0
 73
0
 74
0
 75
0
 76
0
 77
1
 78
1
170
0
171
2
172
0
173
0
174
0
175
0
176
2
177
2
178
2
  0
DIMSTYLE
  2
DMST_4
 70
0
  3

  4

  5

  6

  7

 40
1
 41
3.2
 42
1
 43
7
 44
1
 45
0
 46
0
 47
0.15
 48
0.15
140
3.2
141
0
142
0
143
25.4
144
1
145
0
146
0.6
147
0.09
 71
1
 72
0
 73
0
 74
0
 75
0
 76
0
 77
1
 78
1
170
0
171
2
172
0
173
0
174
0
175
0
176
2
177
2
178
2
  0
DIMSTYLE
  2
DMST_5
 70
0
  3

  4

  5

  6

  7

 40
1
 41
3.2
 42
1
 43
7
 44
1
 45
0
 46
0
 47
0
 48
0.02
140
3.2
141
0
142
0
143
25.4
144
1
145
0
146
0.6
147
0.09
 71
1
 72
0
 73
0
 74
0
 75
0
 76
0
 77
1
 78
1
170
0
171
2
172
0
173
0
174
0
175
0
176
2
177
2
178
2
  0
DIMSTYLE
  2
DMST_6
 70
0
  3

  4

  5

  6

  7

 40
1
 41
3.2
 42
1
 43
7
 44
1
 45
0
 46
0
 47
0.1
 48
0.1
140
3.2
141
0
142
0
143
25.4
144
1
145
0
146
0.6
147
0.09
 71
1
 72
0
 73
0
 74
0
 75
0
 76
0
 77
1
 78
1
170
0
171
2
172
0
173
0
174
0
175
0
176
2
177
2
178
2
  0
DIMSTYLE
  2
DMST_7
 70
0
  3

  4

  5

  6

  7

 40
1
 41
3.2
 42
1
 43
7
 44
1
 45
0
 46
0
 47
0.5
 48
0.5
140
3.2
141
0
142
0
143
25.4
144
1
145
0
146
0.6
147
0.09
 71
1
 72
0
 73
0
 74
0
 75
0
 76
0
 77
1
 78
1
170
0
171
2
172
0
173
0
174
0
175
0
176
2
177
2
178
2
  0
DIMSTYLE
  2
DMST_8
 70
0
  3

  4

  5

  6

  7

 40
1
 41
3.2
 42
1
 43
7
 44
1
 45
0
 46
0
 47
0.2
 48
0.2
140
3.2
141
0
142
0
143
25.4
144
1
145
0
146
0.6
147
0.09
 71
1
 72
0
 73
0
 74
0
 75
0
 76
0
 77
1
 78
1
170
0
171
2
172
0
173
0
174
0
175
0
176
2
177
2
178
2
  0
DIMSTYLE
  2
DMST_9
 70
0
  3
ü~0.5
  4

  5

  6

  7

 40
1
 41
3.2
 42
1
 43
7
 44
1
 45
0
 46
0
 47
0
 48
0
140
3.2
141
0
142
0
143
25.4
144
1
145
0
146
1
147
0.09
 71
0
 72
0
 73
0
 74
0
 75
0
 76
0
 77
1
 78
1
170
0
171
2
172
0
173
0
174
0
175
0
176
2
177
2
178
2
  0
DIMSTYLE
  2
DMST_10
 70
0
  3

  4

  5

  6

  7

 40
1
 41
3.2
 42
1
 43
7
 44
1.5
 45
0
 46
0
 47
0.5
 48
0.5
140
3.2
141
0
142
0
143
25.4
144
1
145
0
146
0.6
147
0.09
 71
1
 72
0
 73
0
 74
0
 75
0
 76
0
 77
1
 78
1
170
0
171
2
172
0
173
0
174
0
175
0
176
2
177
2
178
2
  0
DIMSTYLE
  2
DMST_11
 70
0
  3

  4

  5

  6

  7

 40
1
 41
3.2
 42
1
 43
7
 44
1
 45
0
 46
0
 47
0
 48
0
140
3.2
141
0
142
0
143
25.4
144
1
145
0
146
1
147
0.09
 71
0
 72
0
 73
1
 74
1
 75
0
 76
0
 77
1
 78
1
170
0
171
2
172
0
173
0
174
0
175
0
176
2
177
2
178
2
  0
ENDTAB
  0
TABLE
  2
LTYPE
 70
9
  0
LTYPE
  2
CONTINUOUS
 70
64
  3
Solid line
 72
65
 73
0
 40
0
  0
LTYPE
  2
BORDER
 70
64
  3
__ __ . __ __ .
 72
65
 73
6
 40
15.21359942697616
 49
4.34674269342176
 49
-2.17337134671088
 49
4.34674269342176
 49
-2.17337134671088
 49
0
 49
-2.17337134671088
  0
LTYPE
  2
CENTER
 70
64
  3
____ _ ____ _
 72
65
 73
4
 40
17.38697077368704
 49
10.8668567335544
 49
-2.17337134671088
 49
2.17337134671088
 49
-2.17337134671088
  0
LTYPE
  2
DASHDOT
 70
64
  3
__ . __ . __ .
 72
65
 73
4
 40
8.69348538684352
 49
4.34674269342176
 49
-2.17337134671088
 49
0
 49
-2.17337134671088
  0
LTYPE
  2
DASHED
 70
64
  3
__ __ __ __ __
 72
65
 73
2
 40
6.52011404013264
 49
4.34674269342176
 49
-2.17337134671088
  0
LTYPE
  2
DIVIDE
 70
64
  3
__ . . __ . . 
 72
65
 73
6
 40
10.8668567335544
 49
4.34674269342176
 49
-2.17337134671088
 49
0
 49
-2.17337134671088
 49
0
 49
-2.17337134671088
  0
LTYPE
  2
DOT
 70
64
  3
..............
 72
65
 73
4
 40
4.34674269342176
 49
0
 49
-2.17337134671088
 49
0
 49
-2.17337134671088
  0
LTYPE
  2
HIDDEN
 70
64
  3
_ _ _ _ _ _ _
 72
65
 73
2
 40
3.26005702006632
 49
2.17337134671088
 49
-1.08668567335544
  0
LTYPE
  2
PHANTOM
 70
64
  3
_____ _ _ _____ _ _ 
 72
65
 73
6
 40
21.7337134671088
 49
10.8668567335544
 49
-2.17337134671088
 49
2.17337134671088
 49
-2.17337134671088
 49
2.17337134671088
 49
-2.17337134671088
  0
ENDTAB
  0
TABLE
  2
LAYER
 70
3
  0
LAYER
  2
0
 70
0
 62
7
  6
CONTINUOUS
  0
LAYER
  2
1
 70
0
 62
7
  6
CONTINUOUS
  0
ENDTAB
  0
TABLE
  2
STYLE
 70
4
  0
STYLE
  2
STANDARD
 70
0
 40
0
 41
1
 50
0
 71
0
 42
3.5
  3
txt
  4

  0
STYLE
  2
SIMPLEX
 70
0
 40
0
 41
1
 50
0
 71
0
 42
3.5
  3
simplex
  4

  0
STYLE
  2
COMPLEX
 70
0
 40
0
 41
1
 50
0
 71
0
 42
3.5
  3
complex
  4

  0
STYLE
  2
ITALIC
 70
0
 40
0
 41
1
 50
0
 71
0
 42
3.5
  3
italic
  4

  0
ENDTAB
  0
TABLE
  2
VIEW
 70
0
  0
ENDTAB
  0
ENDSEC
  0
SECTION
  2
BLOCKS
  0
BLOCK
  8
1
  2
*X0
 70
1
 10
0
 20
0
 30
0
  0
LINE
  8
1
 62
2
 10
-106.1137362055408
 20
-19.84911398307547
 30
0
 11
-106.1137362055407
 21
-19.71109233771336
 31
0
  0
LINE
  8
1
 62
2
 10
-106.0137362055408
 20
-20.13480567978634
 30
0
 11
-106.0137362055407
 21
-19.85876238905932
 31
0
  0
LINE
  8
1
 62
2
 10
-105.9137362055408
 20
-20.42049737649721
 30
0
 11
-105.9137362055407
 21
-20.00643244040527
 31
0
  0
LINE
  8
1
 62
2
 10
-105.8137362055408
 20
-20.70618907320809
 30
0
 11
-105.8137362055407
 21
-20.15410249175122
 31
0
  0
LINE
  8
1
 62
2
 10
-105.7137362055408
 20
-20.99188076991896
 30
0
 11
-105.7137362055407
 21
-20.30177254309717
 31
0
  0
LINE
  8
1
 62
2
 10
-105.6137362055408
 20
-21.27757246662983
 30
0
 11
-105.6137362055407
 21
-20.44944259444312
 31
0
  0
LINE
  8
1
 62
2
 10
-105.5137362055408
 20
-21.56326416334071
 30
0
 11
-105.5137362055407
 21
-20.59711264578907
 31
0
  0
LINE
  8
1
 62
2
 10
-105.4137362055408
 20
-21.84895586005158
 30
0
 11
-105.4137362055407
 21
-20.74478269713502
 31
0
  0
LINE
  8
1
 62
2
 10
-105.3137362055408
 20
-22.13464755676246
 30
0
 11
-105.3137362055407
 21
-20.89245274848097
 31
0
  0
LINE
  8
1
 62
2
 10
-105.2137362055408
 20
-22.42033925347333
 30
0
 11
-105.2137362055407
 21
-21.04012279982693
 31
0
  0
LINE
  8
1
 62
2
 10
-105.1137362055408
 20
-22.59210485497268
 30
0
 11
-105.1137362055408
 21
-21.18779285117288
 31
0
  0
LINE
  8
1
 62
2
 10
-105.0137362055408
 20
-22.54181365717438
 30
0
 11
-105.0137362055408
 21
-21.33546290251883
 31
0
  0
LINE
  8
1
 62
2
 10
-104.9137362055408
 20
-22.49152245937607
 30
0
 11
-104.9137362055408
 21
-21.48313295386478
 31
0
  0
LINE
  8
1
 62
2
 10
-104.8137362055408
 20
-22.44123126157777
 30
0
 11
-104.8137362055408
 21
-21.63080300521073
 31
0
  0
LINE
  8
1
 62
2
 10
-104.7137362055408
 20
-22.39094006377946
 30
0
 11
-104.7137362055408
 21
-21.77847305655668
 31
0
  0
LINE
  8
1
 62
2
 10
-104.6137362055408
 20
-22.34064886598116
 30
0
 11
-104.6137362055408
 21
-21.92614310790263
 31
0
  0
LINE
  8
1
 62
2
 10
-104.5137362055408
 20
-22.29035766818285
 30
0
 11
-104.5137362055408
 21
-22.07381315924858
 31
0
  0
LINE
  8
1
 62
2
 10
-104.4137362055408
 20
-22.24006647038454
 30
0
 11
-104.4137362055408
 21
-22.22148321059454
 31
0
  0
ENDBLK
  8
0
  0
BLOCK
  8
0
  2
_D22
 70
0
 10
0
 20
0
 30
0
  0
INSERT
  8
1
  2
*X0
 10
0
 20
0
 30
0
  0
LINE
  8
1
 62
2
 10
-100.241023690913
 20
-31.4396805106823
 30
0
 11
-63.601023690913
 21
-31.4396805106823
 31
0
  0
LINE
  8
1
 62
2
 10
-106.2137362055388
 20
-19.56342228637033
 30
0
 11
-100.241023690913
 21
-31.4396805106823
 31
0
  0
TEXT
  8
1
 62
2
 10
-78.321023690913
 20
-30.4396805106823
 30
0
 40
3.2
  1
HOLES
 41
0.8910000000000004
  0
TEXT
  8
1
 62
2
 10
-95.04102369091299
 20
-30.4396805106823
 30
0
 40
3.2
  1
4-%%c
 41
0.8910000000000004
  0
TEXT
  8
1
 62
2
 10
-85.76102369091299
 20
-30.4396805106823
 30
0
 40
3.2
  1
3.5
 41
0.8910000000000004
  0
ENDBLK
  8
0
  0
BLOCK
  8
1
  2
*X1
 70
1
 10
0
 20
0
 30
0
  0
LINE
  8
1
 62
2
 10
86.71964094611143
 20
-11.42307692306149
 30
0
 11
86.71964094611145
 21
-11.3
 31
0
  0
LINE
  8
1
 62
2
 10
86.81964094611142
 20
-12.19230769229226
 30
0
 11
86.81964094611145
 21
-11.3
 31
0
  0
LINE
  8
1
 62
2
 10
86.91964094611141
 20
-12.96153846152304
 30
0
 11
86.91964094611144
 21
-11.3
 31
0
  0
LINE
  8
1
 62
2
 10
87.01964094611141
 20
-13.73076923075381
 30
0
 11
87.01964094611144
 21
-11.3
 31
0
  0
LINE
  8
1
 62
2
 10
87.1196409461114
 20
-14.49999999998459
 30
0
 11
87.11964094611143
 21
-11.3
 31
0
  0
LINE
  8
1
 62
2
 10
87.21964094611143
 20
-13.73076923078459
 30
0
 11
87.21964094611143
 21
-11.3
 31
0
  0
LINE
  8
1
 62
2
 10
87.31964094611142
 20
-12.96153846155382
 30
0
 11
87.31964094611142
 21
-11.3
 31
0
  0
LINE
  8
1
 62
2
 10
87.41964094611141
 20
-12.19230769232304
 30
0
 11
87.41964094611141
 21
-11.3
 31
0
  0
LINE
  8
1
 62
2
 10
87.51964094611141
 20
-11.42307692309227
 30
0
 11
87.51964094611141
 21
-11.3
 31
0
  0
ENDBLK
  8
0
  0
BLOCK
  8
1
  2
*X2
 70
1
 10
0
 20
0
 30
0
  0
LINE
  8
1
 62
2
 10
86.71964094611145
 20
11.3
 30
0
 11
86.71964094611143
 21
11.42307692306149
 31
0
  0
LINE
  8
1
 62
2
 10
86.81964094611145
 20
11.3
 30
0
 11
86.81964094611142
 21
12.19230769229226
 31
0
  0
LINE
  8
1
 62
2
 10
86.91964094611144
 20
11.3
 30
0
 11
86.91964094611141
 21
12.96153846152304
 31
0
  0
LINE
  8
1
 62
2
 10
87.01964094611144
 20
11.3
 30
0
 11
87.01964094611141
 21
13.73076923075381
 31
0
  0
LINE
  8
1
 62
2
 10
87.11964094611143
 20
11.3
 30
0
 11
87.1196409461114
 21
14.49999999998459
 31
0
  0
LINE
  8
1
 62
2
 10
87.21964094611143
 20
11.3
 30
0
 11
87.21964094611143
 21
13.7307692307846
 31
0
  0
LINE
  8
1
 62
2
 10
87.31964094611142
 20
11.3
 30
0
 11
87.31964094611142
 21
12.96153846155382
 31
0
  0
LINE
  8
1
 62
2
 10
87.41964094611141
 20
11.3
 30
0
 11
87.41964094611141
 21
12.19230769232305
 31
0
  0
LINE
  8
1
 62
2
 10
87.51964094611141
 20
11.3
 30
0
 11
87.51964094611141
 21
11.42307692309227
 31
0
  0
ENDBLK
  8
0
  0
BLOCK
  8
0
  2
_D18
 70
0
 10
2.5
 20
0
 30
0
  0
INSERT
  8
1
  2
*X1
 10
0
 20
0
 30
0
  0
INSERT
  8
1
  2
*X2
 10
0
 20
0
 30
0
  0
LINE
  8
1
 62
2
 10
48.49999999999999
 20
-14.5
 30
0
 11
88.11964094611341
 21
-14.5
 31
0
  0
LINE
  8
1
 62
2
 10
48.49999999999999
 20
14.5
 30
0
 11
88.11964094611341
 21
14.5
 31
0
  0
LINE
  8
1
 62
2
 10
87.11964094611341
 20
-14.5
 30
0
 11
87.11964094611341
 21
14.5
 31
0
  0
TEXT
  8
1
 62
2
 10
85.26630761278007
 20
-4.423529411764706
 30
0
 40
3.2
  1
âË
 50
90
 41
0.8910000000000004
  0
TEXT
  8
1
 62
2
 10
85.26630761278007
 20
-0.3764705882352946
 30
0
 40
3.2
  1
29
 50
90
 41
0.8910000000000004
  0
ENDBLK
  8
0
  0
BLOCK
  8
1
  2
*X3
 70
1
 10
0
 20
0
 30
0
  0
LINE
  8
1
 62
2
 10
133.4452616925488
 20
-15.09860087019893
 30
0
 11
133.4452616925489
 21
-13.88404584302291
 31
0
  0
LINE
  8
1
 62
2
 10
133.5452616925489
 20
-17.21433492803064
 30
0
 11
133.5452616925489
 21
-14.20120532325926
 31
0
  0
LINE
  8
1
 62
2
 10
133.6452616925488
 20
-17.1967022299598
 30
0
 11
133.6452616925488
 21
-14.51836480349561
 31
0
  0
LINE
  8
1
 62
2
 10
133.7452616925488
 20
-17.17906953188895
 30
0
 11
133.7452616925488
 21
-14.83552428373196
 31
0
  0
LINE
  8
1
 62
2
 10
133.8452616925488
 20
-17.16143683381811
 30
0
 11
133.8452616925488
 21
-15.15268376396831
 31
0
  0
LINE
  8
1
 62
2
 10
133.9452616925488
 20
-17.14380413574726
 30
0
 11
133.9452616925488
 21
-15.46984324420465
 31
0
  0
LINE
  8
1
 62
2
 10
134.0452616925488
 20
-17.12617143767642
 30
0
 11
134.0452616925488
 21
-15.787002724441
 31
0
  0
LINE
  8
1
 62
2
 10
134.1452616925488
 20
-17.10853873960557
 30
0
 11
134.1452616925488
 21
-16.10416220467735
 31
0
  0
LINE
  8
1
 62
2
 10
134.2452616925488
 20
-17.09090604153473
 30
0
 11
134.2452616925488
 21
-16.4213216849137
 31
0
  0
LINE
  8
1
 62
2
 10
134.3452616925488
 20
-17.07327334346389
 30
0
 11
134.3452616925488
 21
-16.73848116515005
 31
0
  0
ENDBLK
  8
0
  0
BLOCK
  8
1
  2
*X4
 70
1
 10
0
 20
0
 30
0
  0
LINE
  8
1
 62
2
 10
127.490549400849
 20
17.32936581696364
 30
0
 11
127.490549400849
 21
17.66415799527085
 31
0
  0
LINE
  8
1
 62
2
 10
127.5905494008489
 20
17.01220633672731
 30
0
 11
127.5905494008489
 21
17.68179069334169
 31
0
  0
LINE
  8
1
 62
2
 10
127.6905494008489
 20
16.69504685649097
 30
0
 11
127.6905494008489
 21
17.69942339141254
 31
0
  0
LINE
  8
1
 62
2
 10
127.7905494008489
 20
16.37788737625463
 30
0
 11
127.7905494008489
 21
17.71705608948338
 31
0
  0
LINE
  8
1
 62
2
 10
127.8905494008489
 20
16.06072789601829
 30
0
 11
127.8905494008489
 21
17.73468878755423
 31
0
  0
LINE
  8
1
 62
2
 10
127.9905494008489
 20
15.74356841578195
 30
0
 11
127.9905494008489
 21
17.75232148562507
 31
0
  0
LINE
  8
1
 62
2
 10
128.0905494008489
 20
15.42640893554561
 30
0
 11
128.0905494008489
 21
17.76995418369592
 31
0
  0
LINE
  8
1
 62
2
 10
128.1905494008489
 20
15.10924945530927
 30
0
 11
128.1905494008489
 21
17.78758688176676
 31
0
  0
LINE
  8
1
 62
2
 10
128.2905494008489
 20
14.79208997507293
 30
0
 11
128.2905494008489
 21
17.80521957983761
 31
0
  0
LINE
  8
1
 62
2
 10
128.3905494008489
 20
14.47493049483659
 30
0
 11
128.3905494008489
 21
15.68948552205219
 31
0
  0
ENDBLK
  8
0
  0
BLOCK
  8
1
  2
*X5
 70
1
 10
0
 20
0
 30
0
  0
LINE
  8
1
 62
2
 10
33.48348439672064
 20
16.5683558383815
 30
0
 11
33.48348439672068
 21
16.7451508871517
 31
0
  0
LINE
  8
1
 62
2
 10
33.58348439672064
 20
16.49186097296756
 30
0
 11
33.58348439672068
 21
16.84545107050797
 31
0
  0
LINE
  8
1
 62
2
 10
33.68348439672064
 20
16.41536610755362
 30
0
 11
33.68348439672068
 21
16.94575125386425
 31
0
  0
LINE
  8
1
 62
2
 10
33.78348439672065
 20
16.33887124213969
 30
0
 11
33.78348439672068
 21
17.04605143722052
 31
0
  0
LINE
  8
1
 62
2
 10
33.88348439672065
 20
16.26237637672575
 30
0
 11
33.88348439672068
 21
17.1463516205768
 31
0
  0
LINE
  8
1
 62
2
 10
33.98348439672065
 20
16.18588151131181
 30
0
 11
33.98348439672068
 21
17.24665180393307
 31
0
  0
LINE
  8
1
 62
2
 10
34.08348439672065
 20
16.10938664589787
 30
0
 11
34.08348439672065
 21
17.23338325329819
 31
0
  0
LINE
  8
1
 62
2
 10
34.18348439672065
 20
16.03289178048393
 30
0
 11
34.18348439672065
 21
17.10346432758901
 31
0
  0
LINE
  8
1
 62
2
 10
34.28348439672065
 20
15.95639691507
 30
0
 11
34.28348439672065
 21
16.97354540187983
 31
0
  0
LINE
  8
1
 62
2
 10
34.38348439672065
 20
15.87990204965606
 30
0
 11
34.38348439672065
 21
16.84362647617065
 31
0
  0
LINE
  8
1
 62
2
 10
34.48348439672066
 20
15.80340718424212
 30
0
 11
34.48348439672066
 21
16.71370755046146
 31
0
  0
LINE
  8
1
 62
2
 10
34.58348439672066
 20
15.72691231882819
 30
0
 11
34.58348439672066
 21
16.58378862475228
 31
0
  0
LINE
  8
1
 62
2
 10
34.68348439672066
 20
15.65041745341425
 30
0
 11
34.68348439672066
 21
16.4538696990431
 31
0
  0
LINE
  8
1
 62
2
 10
34.78348439672066
 20
15.57392258800032
 30
0
 11
34.78348439672066
 21
16.32395077333392
 31
0
  0
LINE
  8
1
 62
2
 10
34.88348439672066
 20
15.49742772258638
 30
0
 11
34.88348439672066
 21
16.19403184762474
 31
0
  0
LINE
  8
1
 62
2
 10
34.98348439672066
 20
15.42093285717244
 30
0
 11
34.98348439672066
 21
16.06411292191556
 31
0
  0
LINE
  8
1
 62
2
 10
35.08348439672066
 20
15.34443799175851
 30
0
 11
35.08348439672066
 21
15.93419399620638
 31
0
  0
LINE
  8
1
 62
2
 10
35.18348439672067
 20
15.26794312634457
 30
0
 11
35.18348439672067
 21
15.8042750704972
 31
0
  0
LINE
  8
1
 62
2
 10
35.28348439672067
 20
15.19144826093063
 30
0
 11
35.28348439672067
 21
15.67435614478802
 31
0
  0
LINE
  8
1
 62
2
 10
35.38348439672067
 20
15.1149533955167
 30
0
 11
35.38348439672067
 21
15.54443721907884
 31
0
  0
LINE
  8
1
 62
2
 10
35.48348439672067
 20
15.03845853010276
 30
0
 11
35.48348439672067
 21
15.41451829336966
 31
0
  0
LINE
  8
1
 62
2
 10
35.58348439672067
 20
14.96196366468882
 30
0
 11
35.58348439672067
 21
15.28459936766048
 31
0
  0
LINE
  8
1
 62
2
 10
35.68348439672067
 20
14.88546879927489
 30
0
 11
35.68348439672067
 21
15.1546804419513
 31
0
  0
LINE
  8
1
 62
2
 10
35.78348439672067
 20
14.80897393386095
 30
0
 11
35.78348439672067
 21
15.02476151624212
 31
0
  0
LINE
  8
1
 62
2
 10
35.88348439672068
 20
14.73247906844702
 30
0
 11
35.88348439672068
 21
14.89484259053294
 31
0
  0
LINE
  8
1
 62
2
 10
35.98348439672068
 20
14.65598420303308
 30
0
 11
35.98348439672068
 21
14.76492366482376
 31
0
  0
LINE
  8
1
 62
2
 10
36.08348439672068
 20
14.57948933761914
 30
0
 11
36.08348439672068
 21
14.63500473911458
 31
0
  0
LINE
  8
1
 62
2
 10
36.18348439672068
 20
14.50299447220521
 30
0
 11
36.18348439672068
 21
14.5050858134054
 31
0
  0
ENDBLK
  8
0
  0
BLOCK
  8
1
  2
*D0
 70
1
 10
0
 20
0
 30
0
  0
LINE
  8
1
 62
2
 10
-2.799999999999951
 20
52.1865654874798
 30
0
 11
62.5
 21
52.1865654874798
 31
0
  0
LINE
  8
1
 62
2
 10
62.5
 20
6
 30
0
 11
62.5
 21
53.6865654874798
 31
0
  0
LINE
  8
1
 62
2
 10
-2.799999999999951
 20
22.5
 30
0
 11
-2.799999999999951
 21
53.6865654874798
 31
0
  0
SOLID
  8
1
 62
2
 10
-2.799999999999951
 20
52.1865654874798
 30
0
 11
0.4000000000000497
 21
52.60256548747979
 31
0
 12
0.4000000000000497
 22
51.7705654874798
 32
0
 13
0.4000000000000497
 23
51.7705654874798
 33
0
  0
SOLID
  8
1
 62
2
 10
62.5
 20
52.1865654874798
 30
0
 11
59.3
 21
51.7705654874798
 31
0
 12
59.3
 22
52.60256548747979
 32
0
 13
59.3
 23
52.60256548747979
 33
0
  0
TEXT
  8
1
 62
2
 10
22.58676509352667
 20
54.1865654874798
 30
0
 40
3.2
  1
65.3
 41
0.9
  0
ENDBLK
  8
0
  0
BLOCK
  8
1
  2
*D1
 70
1
 10
0
 20
0
 30
0
  0
LINE
  8
1
 62
2
 10
-2.799999999999947
 20
42.4053818898157
 30
0
 11
20.5
 21
42.4053818898157
 31
0
  0
LINE
  8
1
 62
2
 10
20.5
 20
13.90000000000002
 30
0
 11
20.5
 21
43.9053818898157
 31
0
  0
LINE
  8
1
 62
2
 10
-2.799999999999947
 20
22.5
 30
0
 11
-2.799999999999947
 21
43.9053818898157
 31
0
  0
SOLID
  8
1
 62
2
 10
20.5
 20
42.4053818898157
 30
0
 11
17.3
 21
41.9893818898157
 31
0
 12
17.3
 22
42.8213818898157
 32
0
 13
17.3
 23
42.8213818898157
 33
0
  0
SOLID
  8
1
 62
2
 10
-2.799999999999947
 20
42.4053818898157
 30
0
 11
0.4000000000000532
 21
42.8213818898157
 31
0
 12
0.4000000000000532
 22
41.9893818898157
 32
0
 13
0.4000000000000532
 23
41.9893818898157
 33
0
  0
TEXT
  8
1
 62
2
 10
2.787334024277942
 20
44.4053818898157
 30
0
 40
3.2
  1
23.3
 41
0.9
  0
ENDBLK
  8
0
  0
BLOCK
  8
1
  2
*D2
 70
1
 10
0
 20
0
 30
0
  0
LINE
  8
1
 62
2
 10
155.4768407529398
 20
-12.29980776764609
 30
0
 11
155.4768407529398
 21
12.29980776764609
 31
0
  0
LINE
  8
1
 62
2
 10
134.6699999999998
 20
12.29980776764609
 30
0
 11
156.4768407529398
 21
12.29980776764609
 31
0
  0
LINE
  8
1
 62
2
 10
134.6699999999998
 20
-12.29980776764609
 30
0
 11
156.4768407529398
 21
-12.29980776764609
 31
0
  0
SOLID
  8
1
 62
2
 10
155.4768407529398
 20
-12.29980776764609
 30
0
 11
155.0608407529398
 21
-9.099807767646089
 31
0
 12
155.8928407529398
 22
-9.099807767646089
 32
0
 13
155.8928407529398
 23
-9.099807767646089
 33
0
  0
SOLID
  8
1
 62
2
 10
155.4768407529398
 20
12.29980776764609
 30
0
 11
155.8928407529398
 21
9.099807767646089
 31
0
 12
155.0608407529398
 22
9.099807767646089
 32
0
 13
155.0608407529398
 23
9.099807767646089
 33
0
  0
TEXT
  8
1
 62
2
 10
154.4768407529398
 20
-4.36
 30
0
 40
3.2
  1
24.6
 50
90
 41
0.8910000000000001
  0
TEXT
  8
1
 62
2
 10
154.4768407529398
 20
-6.44
 30
0
 40
3.2
  1
(
 50
90
 41
0.8910000000000001
  0
TEXT
  8
1
 62
2
 10
157.6448407529398
 20
5.96
 30
0
 40
3.2
  1
)
 50
90
 41
0.8910000000000001
  0
ENDBLK
  8
0
  0
BLOCK
  8
1
  2
*D3
 70
1
 10
0
 20
0
 30
0
  0
LINE
  8
1
 62
2
 10
-10
 20
42.4335350972577
 30
0
 11
-20.27312915307478
 21
42.4335350972577
 31
0
  0
LINE
  8
1
 62
2
 10
-10
 20
42.4335350972577
 30
0
 11
-2.799999999999951
 21
42.4335350972577
 31
0
  0
LINE
  8
1
 62
2
 10
3.600000000000048
 20
42.4335350972577
 30
0
 11
-2.799999999999951
 21
42.4335350972577
 31
0
  0
LINE
  8
1
 62
2
 10
-2.799999999999951
 20
22.5
 30
0
 11
-2.799999999999951
 21
43.4335350972577
 31
0
  0
LINE
  8
1
 62
2
 10
-10
 20
14
 30
0
 11
-10
 21
43.4335350972577
 31
0
  0
SOLID
  8
1
 62
2
 10
-2.799999999999951
 20
42.4335350972577
 30
0
 11
0.4000000000000497
 21
42.8495350972577
 31
0
 12
0.4000000000000497
 22
42.01753509725771
 32
0
 13
0.4000000000000497
 23
42.01753509725771
 33
0
  0
SOLID
  8
1
 62
2
 10
-10
 20
42.4335350972577
 30
0
 11
-13.2
 21
42.01753509725771
 31
0
 12
-13.2
 22
42.8495350972577
 32
0
 13
-13.2
 23
42.8495350972577
 33
0
  0
TEXT
  8
1
 62
2
 10
-20.27312915307478
 20
42.5235350972577
 30
0
 40
3.2
  1
7.2
 41
0.8910000000000001
  0
ENDBLK
  8
0
  0
BLOCK
  8
1
  2
*D4
 70
1
 10
0
 20
0
 30
0
  0
LINE
  8
1
 62
2
 10
-24.99999999999997
 20
52.4540739398335
 30
0
 11
-2.799999999999949
 21
52.4540739398335
 31
0
  0
LINE
  8
1
 62
2
 10
-2.799999999999949
 20
22.5
 30
0
 11
-2.799999999999949
 21
53.4540739398335
 31
0
  0
LINE
  8
1
 62
2
 10
-24.99999999999997
 20
10.5
 30
0
 11
-24.99999999999997
 21
53.4540739398335
 31
0
  0
SOLID
  8
1
 62
2
 10
-2.799999999999949
 20
52.4540739398335
 30
0
 11
-5.99999999999995
 21
52.0380739398335
 31
0
 12
-5.99999999999995
 22
52.8700739398335
 32
0
 13
-5.99999999999995
 23
52.8700739398335
 33
0
  0
SOLID
  8
1
 62
2
 10
-24.99999999999997
 20
52.4540739398335
 30
0
 11
-21.79999999999997
 21
52.8700739398335
 31
0
 12
-21.79999999999997
 22
52.0380739398335
 32
0
 13
-21.79999999999997
 23
52.0380739398335
 33
0
  0
TEXT
  8
1
 62
2
 10
-18.29559999999996
 20
52.5440739398335
 30
0
 40
3.2
  1
22.2
 41
0.8910000000000001
  0
ENDBLK
  8
0
  0
BLOCK
  8
1
  2
*D5
 70
1
 10
0
 20
0
 30
0
  0
LINE
  8
1
 62
2
 10
9.207349186685601
 20
-18.5
 30
0
 11
9.207349186685601
 21
-32.6893645888603
 31
0
  0
LINE
  8
1
 62
2
 10
9.207349186685601
 20
-18.5
 30
0
 11
9.207349186685601
 21
18.5
 31
0
  0
LINE
  8
1
 62
2
 10
16.70000000000005
 20
18.5
 30
0
 11
8.207349186685601
 21
18.5
 31
0
  0
LINE
  8
1
 62
2
 10
16.70000000000005
 20
-18.5
 30
0
 11
8.207349186685601
 21
-18.5
 31
0
  0
SOLID
  8
1
 62
2
 10
9.207349186685601
 20
-18.5
 30
0
 11
8.791349186685601
 21
-15.3
 31
0
 12
9.6233491866856
 22
-15.3
 32
0
 13
9.6233491866856
 23
-15.3
 33
0
  0
SOLID
  8
1
 62
2
 10
9.207349186685601
 20
18.5
 30
0
 11
9.6233491866856
 21
15.3
 31
0
 12
8.791349186685601
 22
15.3
 32
0
 13
8.791349186685601
 23
15.3
 33
0
  0
TEXT
  8
1
 62
2
 10
9.117349186685601
 20
-28.8717645888603
 30
0
 40
3.2
  1
37
 50
90
 41
0.8910000000000001
  0
TEXT
  8
1
 62
2
 10
9.117349186685601
 20
-32.6893645888603
 30
0
 40
3.2
  1
%%c
 50
90
 41
0.8910000000000001
  0
ENDBLK
  8
0
  0
BLOCK
  8
1
  2
*D6
 70
1
 10
0
 20
0
 30
0
  0
LINE
  8
1
 62
2
 10
-24.99999999999997
 20
32.40999999999998
 30
0
 11
-12.99999999999997
 21
32.40999999999998
 31
0
  0
LINE
  8
1
 62
2
 10
-12.99999999999997
 20
11
 30
0
 11
-12.99999999999997
 21
33.40999999999998
 31
0
  0
LINE
  8
1
 62
2
 10
-24.99999999999997
 20
10.5
 30
0
 11
-24.99999999999997
 21
33.40999999999998
 31
0
  0
SOLID
  8
1
 62
2
 10
-12.99999999999997
 20
32.40999999999998
 30
0
 11
-16.19999999999997
 21
31.99399999999998
 31
0
 12
-16.19999999999997
 22
32.82599999999997
 32
0
 13
-16.19999999999997
 23
32.82599999999997
 33
0
  0
SOLID
  8
1
 62
2
 10
-24.99999999999997
 20
32.40999999999998
 30
0
 11
-21.79999999999997
 21
32.82599999999997
 31
0
 12
-21.79999999999997
 22
31.99399999999998
 32
0
 13
-21.79999999999997
 23
31.99399999999998
 33
0
  0
TEXT
  8
1
 62
2
 10
-20.90079999999997
 20
32.49999999999997
 30
0
 40
3.2
  1
12
 41
0.8910000000000001
  0
ENDBLK
  8
0
  0
BLOCK
  8
1
  2
*D7
 70
1
 10
0
 20
0
 30
0
  0
LINE
  8
1
 62
2
 10
-35.81102694212871
 20
9.499999999999998
 30
0
 11
-35.81102694212871
 21
29.8159872610852
 31
0
  0
LINE
  8
1
 62
2
 10
-35.81102694212871
 20
4
 30
0
 11
-35.81102694212871
 21
9.499999999999998
 31
0
  0
LINE
  8
1
 62
2
 10
-35.81102694212871
 20
-2.400000000000002
 30
0
 11
-35.81102694212871
 21
4
 31
0
  0
LINE
  8
1
 62
2
 10
-25.99999999999997
 20
9.499999999999998
 30
0
 11
-36.81102694212871
 21
9.499999999999998
 31
0
  0
LINE
  8
1
 62
2
 10
-25.99999999999997
 20
4
 30
0
 11
-36.81102694212871
 21
4
 31
0
  0
SOLID
  8
1
 62
2
 10
-35.81102694212871
 20
9.499999999999998
 30
0
 11
-36.22702694212871
 21
12.7
 31
0
 12
-35.39502694212871
 22
12.7
 32
0
 13
-35.39502694212871
 23
12.7
 33
0
  0
SOLID
  8
1
 62
2
 10
-35.81102694212871
 20
4
 30
0
 11
-35.39502694212871
 21
0.7999999999999994
 31
0
 12
-36.2270269421287
 22
0.7999999999999994
 32
0
 13
-36.2270269421287
 23
0.7999999999999994
 33
0
  0
TEXT
  8
1
 62
2
 10
-35.9010269421287
 20
17.3814272610852
 30
0
 40
3.2
  1
5.5
 50
90
 41
0.8910000000000001
  0
TEXT
  8
1
 62
2
 10
-36.5410269421287
 20
24.9214272610852
 30
0
 40
1.92
  1
%%p0.15
 50
90
 41
0.8910000000000001
  0
ENDBLK
  8
0
  0
BLOCK
  8
1
  2
*D8
 70
1
 10
0
 20
0
 30
0
  0
LINE
  8
1
 62
2
 10
-45.87139664129504
 20
9.999999999999998
 30
0
 11
-45.87139664129504
 21
30.6555872610852
 31
0
  0
LINE
  8
1
 62
2
 10
-45.87139664129504
 20
4
 30
0
 11
-45.87139664129504
 21
9.999999999999998
 31
0
  0
LINE
  8
1
 62
2
 10
-45.87139664129504
 20
-2.400000000000002
 30
0
 11
-45.87139664129504
 21
4
 31
0
  0
LINE
  8
1
 62
2
 10
-13.99999999999996
 20
9.999999999999998
 30
0
 11
-46.87139664129504
 21
9.999999999999998
 31
0
  0
LINE
  8
1
 62
2
 10
-25.99999999999997
 20
4
 30
0
 11
-46.87139664129504
 21
4
 31
0
  0
SOLID
  8
1
 62
2
 10
-45.87139664129504
 20
9.999999999999998
 30
0
 11
-46.28739664129504
 21
13.2
 31
0
 12
-45.45539664129504
 22
13.2
 32
0
 13
-45.45539664129504
 23
13.2
 33
0
  0
SOLID
  8
1
 62
2
 10
-45.87139664129504
 20
4
 30
0
 11
-45.45539664129504
 21
0.7999999999999994
 31
0
 12
-46.28739664129503
 22
0.7999999999999994
 32
0
 13
-46.28739664129503
 23
0.7999999999999994
 33
0
  0
TEXT
  8
1
 62
2
 10
-46.76139664129504
 20
20.3594272610852
 30
0
 40
3.2
  1
6
 50
90
 41
0.8910000000000001
  0
TEXT
  8
1
 62
2
 10
-48.84139664129503
 20
23.8602272610852
 30
0
 40
1.92
  1
 0
 50
90
 41
0.8910000000000001
  0
TEXT
  8
1
 62
2
 10
-45.96139664129504
 20
23.8602272610852
 30
0
 40
1.92
  1
-0.02
 50
90
 41
0.8910000000000001
  0
TEXT
  8
1
 62
2
 10
-46.76139664129504
 20
16.5418272610852
 30
0
 40
3.2
  1
%%c
 50
90
 41
0.8910000000000001
  0
ENDBLK
  8
0
  0
BLOCK
  8
1
  2
*D9
 70
1
 10
0
 20
0
 30
0
  0
LINE
  8
1
 62
2
 10
-55.45733357496663
 20
13
 30
0
 11
-55.45733357496663
 21
29.4600073746529
 31
0
  0
LINE
  8
1
 62
2
 10
-55.45733357496663
 20
1
 30
0
 11
-55.45733357496663
 21
13
 31
0
  0
LINE
  8
1
 62
2
 10
-11
 20
13
 30
0
 11
-56.45733357496663
 21
13
 31
0
  0
LINE
  8
1
 62
2
 10
-11
 20
1
 30
0
 11
-56.45733357496663
 21
1
 31
0
  0
SOLID
  8
1
 62
2
 10
-55.45733357496663
 20
13
 30
0
 11
-55.04133357496664
 21
9.800000000000001
 31
0
 12
-55.87333357496664
 22
9.800000000000001
 32
0
 13
-55.87333357496664
 23
9.800000000000001
 33
0
  0
SOLID
  8
1
 62
2
 10
-55.45733357496663
 20
1
 30
0
 11
-55.87333357496664
 21
4.200000000000001
 31
0
 12
-55.04133357496664
 22
4.200000000000001
 32
0
 13
-55.04133357496664
 23
4.200000000000001
 33
0
  0
TEXT
  8
1
 62
2
 10
-55.54733357496663
 20
20.8745673746529
 30
0
 40
3.2
  1
12
 50
90
 41
0.8910000000000001
  0
TEXT
  8
1
 62
2
 10
-56.18733357496663
 20
26.2761673746529
 30
0
 40
1.92
  1
%%p0.1
 50
90
 41
0.8910000000000001
  0
TEXT
  8
1
 62
2
 10
-55.54733357496663
 20
17.0569673746529
 30
0
 40
3.2
  1
%%c
 50
90
 41
0.8910000000000001
  0
ENDBLK
  8
0
  0
BLOCK
  8
1
  2
*D10
 70
1
 10
0
 20
0
 30
0
  0
LINE
  8
1
 62
2
 10
-1.800000000000069
 20
32.403849235648
 30
0
 11
4.624640215859301
 21
32.403849235648
 31
0
  0
LINE
  8
1
 62
2
 10
-2.799999999999948
 20
32.403849235648
 30
0
 11
-1.800000000000069
 21
32.403849235648
 31
0
  0
LINE
  8
1
 62
2
 10
-9.19999999999995
 20
32.403849235648
 30
0
 11
-2.799999999999948
 21
32.403849235648
 31
0
  0
LINE
  8
1
 62
2
 10
-1.800000000000069
 20
22.5
 30
0
 11
-1.800000000000069
 21
33.403849235648
 31
0
  0
LINE
  8
1
 62
2
 10
-2.799999999999948
 20
22.5
 30
0
 11
-2.799999999999948
 21
33.403849235648
 31
0
  0
SOLID
  8
1
 62
2
 10
-2.799999999999948
 20
32.403849235648
 30
0
 11
-5.999999999999949
 21
31.987849235648
 31
0
 12
-5.999999999999949
 22
32.819849235648
 32
0
 13
-5.999999999999949
 23
32.819849235648
 33
0
  0
SOLID
  8
1
 62
2
 10
-1.800000000000069
 20
32.403849235648
 30
0
 11
1.399999999999932
 21
32.819849235648
 31
0
 12
1.399999999999932
 22
31.987849235648
 32
0
 13
1.399999999999932
 23
31.987849235648
 33
0
  0
TEXT
  8
1
 62
2
 10
3.674240215859301
 20
32.493849235648
 30
0
 40
3.2
  1
1
 41
0.8910000000000001
  0
ENDBLK
  8
0
  0
BLOCK
  8
1
  2
*D11
 70
1
 10
0
 20
0
 30
0
  0
LINE
  8
1
 62
2
 10
-146.4999999999999
 20
41.4889815150419
 30
0
 11
-103.5
 21
41.4889815150419
 31
0
  0
LINE
  8
1
 62
2
 10
-146.4999999999999
 20
41.4889815150419
 30
0
 11
-103.5
 21
41.4889815150419
 31
0
  0
LINE
  8
1
 62
2
 10
-146.4999999999999
 20
19
 30
0
 11
-146.4999999999999
 21
42.4889815150419
 31
0
  0
LINE
  8
1
 62
2
 10
-103.5
 20
19
 30
0
 11
-103.5
 21
42.4889815150419
 31
0
  0
SOLID
  8
1
 62
2
 10
-103.5
 20
41.4889815150419
 30
0
 11
-106.7
 21
41.0729815150419
 31
0
 12
-106.7
 22
41.9049815150419
 32
0
 13
-106.7
 23
41.9049815150419
 33
0
  0
SOLID
  8
1
 62
2
 10
-146.4999999999999
 20
41.4889815150419
 30
0
 11
-143.2999999999999
 21
41.9049815150419
 31
0
 12
-143.2999999999999
 22
41.0729815150419
 32
0
 13
-143.2999999999999
 23
41.0729815150419
 33
0
  0
TEXT
  8
1
 62
2
 10
-128.5534117647058
 20
42.4889815150419
 30
0
 40
3.2
  1
43
 41
0.8910000000000001
  0
TEXT
  8
1
 62
2
 10
-122.1534117647058
 20
43.1289815150419
 30
0
 40
1.92
  1
%%p0.5
 41
0.8910000000000001
  0
TEXT
  8
1
 62
2
 10
-132.694588235294
 20
42.4889815150419
 30
0
 40
3.2
  1
üá
 41
0.8910000000000001
  0
ENDBLK
  8
0
  0
BLOCK
  8
1
  2
*D12
 70
1
 10
0
 20
0
 30
0
  0
LINE
  8
1
 62
2
 10
-143
 20
31.49999999999997
 30
0
 11
-107
 21
31.49999999999997
 31
0
  0
LINE
  8
1
 62
2
 10
-143
 20
31.49999999999997
 30
0
 11
-107
 21
31.49999999999997
 31
0
  0
LINE
  8
1
 62
2
 10
-143
 20
16.49999999999997
 30
0
 11
-143
 21
32.49999999999997
 31
0
  0
LINE
  8
1
 62
2
 10
-107
 20
16.49999999999997
 30
0
 11
-107
 21
32.49999999999997
 31
0
  0
SOLID
  8
1
 62
2
 10
-107
 20
31.49999999999997
 30
0
 11
-110.2
 21
31.08399999999997
 31
0
 12
-110.2
 22
31.91599999999997
 32
0
 13
-110.2
 23
31.91599999999997
 33
0
  0
SOLID
  8
1
 62
2
 10
-143
 20
31.49999999999997
 30
0
 11
-139.8
 21
31.91599999999997
 31
0
 12
-139.8
 22
31.08399999999997
 32
0
 13
-139.8
 23
31.08399999999997
 33
0
  0
TEXT
  8
1
 62
2
 10
-130.624
 20
32.49999999999997
 30
0
 40
3.2
  1
36
 41
0.8910000000000001
  0
TEXT
  8
1
 62
2
 10
-124.224
 20
33.13999999999997
 30
0
 40
1.92
  1
%%p0.2
 41
0.8910000000000001
  0
ENDBLK
  8
0
  0
BLOCK
  8
1
  2
*D13
 70
1
 10
0
 20
0
 30
0
  0
LINE
  8
1
 62
2
 10
75.38999999999999
 20
-5
 30
0
 11
75.38999999999999
 21
5
 31
0
  0
LINE
  8
1
 62
2
 10
63.5
 20
5
 30
0
 11
76.38999999999999
 21
5
 31
0
  0
LINE
  8
1
 62
2
 10
63.5
 20
-5
 30
0
 11
76.38999999999999
 21
-5
 31
0
  0
SOLID
  8
1
 62
2
 10
75.38999999999999
 20
-5
 30
0
 11
74.97399999999999
 21
-1.799999999999999
 31
0
 12
75.80599999999998
 22
-1.799999999999999
 32
0
 13
75.80599999999998
 23
-1.799999999999999
 33
0
  0
SOLID
  8
1
 62
2
 10
75.38999999999999
 20
5
 30
0
 11
75.80599999999998
 21
1.799999999999999
 31
0
 12
74.97399999999999
 22
1.799999999999999
 32
0
 13
74.97399999999999
 23
1.799999999999999
 33
0
  0
TEXT
  8
1
 62
2
 10
75.29999999999998
 20
0.008000000000000007
 30
0
 40
3.2
  1
10
 50
90
 41
0.8910000000000001
  0
TEXT
  8
1
 62
2
 10
75.29999999999998
 20
-3.809600000000001
 30
0
 40
3.2
  1
%%c
 50
90
 41
0.8910000000000001
  0
ENDBLK
  8
0
  0
BLOCK
  8
1
  2
*D14
 70
1
 10
0
 20
0
 30
0
  0
LINE
  8
1
 62
2
 10
62.5
 20
43.0909758054583
 30
0
 11
74.1830684739855
 21
43.0909758054583
 31
0
  0
LINE
  8
1
 62
2
 10
59.30000000000001
 20
43.0909758054583
 30
0
 11
62.5
 21
43.0909758054583
 31
0
  0
LINE
  8
1
 62
2
 10
52.90000000000001
 20
43.0909758054583
 30
0
 11
59.30000000000001
 21
43.0909758054583
 31
0
  0
LINE
  8
1
 62
2
 10
62.5
 20
6
 30
0
 11
62.5
 21
44.0909758054583
 31
0
  0
LINE
  8
1
 62
2
 10
59.30000000000001
 20
14.38459935896481
 30
0
 11
59.30000000000001
 21
44.0909758054583
 31
0
  0
SOLID
  8
1
 62
2
 10
59.30000000000001
 20
43.0909758054583
 30
0
 11
56.10000000000001
 21
42.6749758054583
 31
0
 12
56.10000000000001
 22
43.5069758054583
 32
0
 13
56.10000000000001
 23
43.5069758054583
 33
0
  0
SOLID
  8
1
 62
2
 10
62.5
 20
43.0909758054583
 30
0
 11
65.7
 21
43.5069758054583
 31
0
 12
65.7
 22
42.6749758054583
 32
0
 13
65.7
 23
42.6749758054583
 33
0
  0
TEXT
  8
1
 62
2
 10
68.2430684739855
 20
43.1809758054583
 30
0
 40
3.2
  1
3.2
 41
0.8910000000000001
  0
ENDBLK
  8
0
  0
BLOCK
  8
1
  2
*D15
 70
1
 10
0
 20
0
 30
0
  0
LINE
  8
1
 62
2
 10
71.50440636242246
 20
92.69241090727358
 30
0
 11
71.50440636242246
 21
123.1201316972079
 31
0
  0
LINE
  8
1
 62
2
 10
71.50440636242246
 20
89.8924109072736
 30
0
 11
71.50440636242246
 21
92.69241090727358
 31
0
  0
LINE
  8
1
 62
2
 10
71.50440636242246
 20
83.49241090727359
 30
0
 11
71.50440636242246
 21
89.8924109072736
 31
0
  0
LINE
  8
1
 62
2
 10
59.30000000000001
 20
89.8924109072736
 30
0
 11
72.50440636242246
 21
89.8924109072736
 31
0
  0
LINE
  8
1
 62
2
 10
59.30000000000001
 20
92.69241090727358
 30
0
 11
72.50440636242246
 21
92.69241090727358
 31
0
  0
SOLID
  8
1
 62
2
 10
71.50440636242246
 20
89.8924109072736
 30
0
 11
71.08840636242246
 21
93.0924109072736
 31
0
 12
71.92040636242246
 22
93.0924109072736
 32
0
 13
71.92040636242246
 23
93.0924109072736
 33
0
  0
SOLID
  8
1
 62
2
 10
71.50440636242246
 20
92.69241090727358
 30
0
 11
71.92040636242246
 21
89.49241090727358
 31
0
 12
71.08840636242246
 22
89.49241090727358
 32
0
 13
71.08840636242246
 23
89.49241090727358
 33
0
  0
TEXT
  8
1
 62
2
 10
70.50440636242243
 20
106.075425814855
 30
0
 40
3.2
  1
2.8
 50
90
 41
0.8910000000000001
  0
TEXT
  8
1
 62
2
 10
70.50440636242243
 20
98.35777875603145
 30
0
 40
3.2
  1
éQü|
 50
90
 41
0.8910000000000001
  0
TEXT
  8
1
 62
2
 10
73.67240636242244
 20
113.515425814855
 30
0
 40
3.2
  1
ü~0.5
 50
90
 41
0.8910000000000001
  0
ENDBLK
  8
0
  0
BLOCK
  8
1
  2
*D16
 70
1
 10
0
 20
0
 30
0
  0
LINE
  8
1
 62
2
 10
51.80000000000001
 20
110.1924109072735
 30
0
 11
58.80000000000001
 21
110.1924109072735
 31
0
  0
LINE
  8
1
 62
2
 10
58.80000000000001
 20
110.1924109072735
 30
0
 11
65.20000000000002
 21
110.1924109072735
 31
0
  0
LINE
  8
1
 62
2
 10
51.80000000000001
 20
110.1924109072735
 30
0
 11
45.40000000000001
 21
110.1924109072735
 31
0
  0
LINE
  8
1
 62
2
 10
58.80000000000001
 20
110.1924109072735
 30
0
 11
65.20000000000002
 21
110.1924109072735
 31
0
  0
LINE
  8
1
 62
2
 10
51.80000000000001
 20
106.1924109072735
 30
0
 11
51.80000000000001
 21
111.1924109072735
 31
0
  0
LINE
  8
1
 62
2
 10
58.80000000000001
 20
93.19241090727361
 30
0
 11
58.80000000000001
 21
111.1924109072735
 31
0
  0
SOLID
  8
1
 62
2
 10
58.80000000000001
 20
110.1924109072735
 30
0
 11
62.00000000000001
 21
110.6084109072735
 31
0
 12
62.00000000000001
 22
109.7764109072735
 32
0
 13
62.00000000000001
 23
109.7764109072735
 33
0
  0
SOLID
  8
1
 62
2
 10
51.80000000000001
 20
110.1924109072735
 30
0
 11
48.60000000000001
 21
109.7764109072735
 31
0
 12
48.60000000000001
 22
110.6084109072735
 32
0
 13
48.60000000000001
 23
110.6084109072735
 33
0
  0
TEXT
  8
1
 62
2
 10
54.34000000000001
 20
111.1924109072735
 30
0
 40
3.2
  1
7
 41
0.8910000000000001
  0
ENDBLK
  8
0
  0
BLOCK
  8
1
  2
*D17
 70
1
 10
0
 20
0
 30
0
  0
LINE
  8
1
 62
2
 10
-90.2466329348599
 20
-6.4
 30
0
 11
-90.2466329348599
 21
0
 31
0
  0
LINE
  8
1
 62
2
 10
-90.2466329348599
 20
0
 30
0
 11
-90.2466329348599
 21
7
 31
0
  0
LINE
  8
1
 62
2
 10
-90.2466329348599
 20
7
 30
0
 11
-90.2466329348599
 21
19.7534818244081
 31
0
  0
LINE
  8
1
 62
2
 10
-99.5
 20
0
 30
0
 11
-88.7466329348599
 21
0
 31
0
  0
LINE
  8
1
 62
2
 10
-115.8492007090347
 20
7
 30
0
 11
-88.7466329348599
 21
7
 31
0
  0
SOLID
  8
1
 62
2
 10
-90.2466329348599
 20
0
 30
0
 11
-90.6626329348599
 21
3.200000000000001
 31
0
 12
-89.83063293485991
 22
3.200000000000001
 32
0
 13
-89.83063293485991
 23
3.200000000000001
 33
0
  0
SOLID
  8
1
 62
2
 10
-90.2466329348599
 20
7
 30
0
 11
-89.83063293485991
 21
3.799999999999999
 31
0
 12
-90.6626329348599
 22
3.799999999999999
 32
0
 13
-90.6626329348599
 23
3.799999999999999
 33
0
  0
TEXT
  8
1
 62
2
 10
-92.2466329348599
 20
11.2894818244081
 30
0
 40
3.2
  1
7
 50
90
 41
0.8910000000000001
  0
TEXT
  8
1
 62
2
 10
-92.8866329348599
 20
14.8094818244081
 30
0
 40
1.92
  1
%%p0.5
 50
90
 41
0.8910000000000001
  0
ENDBLK
  8
0
  0
BLOCK
  8
1
  2
*D18
 70
1
 10
0
 20
0
 30
0
  0
LINE
  8
1
 62
2
 10
-156.680568759311
 20
-18
 30
0
 11
-156.680568759311
 21
18
 31
0
  0
LINE
  8
1
 62
2
 10
-146.5
 20
-18
 30
0
 11
-158.180568759311
 21
-18
 31
0
  0
LINE
  8
1
 62
2
 10
-146.5
 20
18
 30
0
 11
-158.180568759311
 21
18
 31
0
  0
SOLID
  8
1
 62
2
 10
-156.680568759311
 20
-18
 30
0
 11
-157.096568759311
 21
-14.8
 31
0
 12
-156.264568759311
 22
-14.8
 32
0
 13
-156.264568759311
 23
-14.8
 33
0
  0
SOLID
  8
1
 62
2
 10
-156.680568759311
 20
18
 30
0
 11
-156.264568759311
 21
14.8
 31
0
 12
-157.096568759311
 22
14.8
 32
0
 13
-157.096568759311
 23
14.8
 33
0
  0
TEXT
  8
1
 62
2
 10
-158.680568759311
 20
-5.392207009804213
 30
0
 40
3.2
  1
36
 50
90
 41
0.8910000000000001
  0
TEXT
  8
1
 62
2
 10
-159.320568759311
 20
1.007792990195787
 30
0
 40
1.92
  1
%%p0.5
 50
90
 41
0.8910000000000001
  0
ENDBLK
  8
0
  0
BLOCK
  8
1
  2
*D19
 70
1
 10
0
 20
0
 30
0
  0
LINE
  8
1
 62
2
 10
-151.3869128056078
 20
-31.47380333315338
 30
0
 11
-131.0669128056078
 21
-31.47380333315338
 31
0
  0
LINE
  8
1
 62
2
 10
-144.84956737048
 20
-20.97138024191709
 30
0
 11
-151.3869128056078
 21
-31.47380333315338
 31
0
  0
SOLID
  8
1
 62
2
 10
-144.84956737048
 20
-20.97138024191706
 30
0
 11
-143.5117041119376
 21
-18.03485544184434
 31
0
 12
-142.8053645801447
 22
-18.47452402819845
 32
0
 13
-142.8053645801447
 23
-18.47452402819845
 33
0
  0
TEXT
  8
1
 62
2
 10
-136.9069128056078
 20
-30.47380333315338
 30
0
 40
3.2
  1
3.5
 41
0.8910000000000001
  0
TEXT
  8
1
 62
2
 10
-146.1869128056078
 20
-30.47380333315338
 30
0
 40
3.2
  1
4-R
 41
0.8910000000000001
  0
ENDBLK
  8
0
  0
BLOCK
  8
1
  2
*D20
 70
1
 10
0
 20
0
 30
0
  0
LINE
  8
1
 62
2
 10
67.85361718422433
 20
78.45810265636695
 30
0
 11
81.77361718422441
 21
78.45810265636695
 31
0
  0
LINE
  8
1
 62
2
 10
57.68108400234502
 20
90.82897268792097
 30
0
 11
67.85361718422433
 21
78.45810265636695
 31
0
  0
SOLID
  8
1
 62
2
 10
57.68108400234506
 20
90.82897268792091
 30
0
 11
60.03484918026977
 21
88.62152042633312
 31
0
 12
59.39221484943421
 22
88.09308394308131
 32
0
 13
59.39221484943421
 23
88.09308394308131
 33
0
  0
TEXT
  8
1
 62
2
 10
76.8936171842244
 20
79.45810265636695
 30
0
 40
3.2
  1
1.2
 41
0.8910000000000001
  0
TEXT
  8
1
 62
2
 10
73.05361718422439
 20
79.45810265636695
 30
0
 40
3.2
  1
%%c
 41
0.8910000000000001
  0
ENDBLK
  8
0
  0
ENDSEC
  0
SECTION
  2
ENTITIES
  0
INSERT
  8
1
  2
*X3
 10
0
 20
0
 30
0
  0
INSERT
  8
1
  2
*X4
 10
0
 20
0
 30
0
  0
INSERT
  8
1
  2
*X5
 10
0
 20
0
 30
0
  0
POLYLINE
  8
1
 62
3
 66
1
  0
VERTEX
  8
1
 10
50.0801708036024
 20
77.39241090727353
 30
0
 42
0.04298638278608734
  0
VERTEX
  8
1
 10
48.95804365747184
 20
80.12683848176616
 30
0
 42
0.06410344027329359
  0
VERTEX
  8
1
 10
47.27828174342396
 20
82.56765454225017
 30
0
 42
0.07416187627763349
  0
VERTEX
  8
1
 10
45.34270686215236
 20
84.19967900015136
 30
0
 42
-0.03147100946699095
  0
VERTEX
  8
1
 10
43.68374140412901
 20
85.40699219604645
 30
0
 42
-0.1213881381458488
  0
VERTEX
  8
1
 10
42.53189289667743
 20
87.01807315014113
 30
0
 42
-0.09041020664262538
  0
VERTEX
  8
1
 10
42.16316368628118
 20
89.13475885215253
 30
0
 42
-0.06568364225453797
  0
VERTEX
  8
1
 10
42.47432060434487
 20
91.39164718165118
 30
0
 42
-0.05705749892646779
  0
VERTEX
  8
1
 10
43.41287038239389
 20
93.64837717538386
 30
0
 42
0.03292771833988398
  0
VERTEX
  8
1
 10
44.55763601131081
 20
95.90142188737542
 30
0
 42
0.05013265371428986
  0
VERTEX
  8
1
 10
45.03545292626936
 20
97.78427767774099
 30
0
 42
0.01157185282299044
  0
VERTEX
  8
1
 10
45.28631127695942
 20
99.76858873150394
 30
0
 42
-0.02491961949459597
  0
VERTEX
  8
1
 10
45.58796791337237
 20
101.7405707920739
 30
0
 42
-0.06423884780069583
  0
VERTEX
  8
1
 10
46.21817968549964
 20
103.5864396028605
 30
0
 42
-0.09199770479408004
  0
VERTEX
  8
1
 10
47.4547034433326
 20
105.1924109072735
 30
0
  0
SEQEND
  8
1
  0
LINE
  8
1
 62
2
 10
135.7148030628825
 20
-26.90911534819259
 30
0
 11
133.3837096695704
 21
-13.68882776686968
 31
0
  0
LINE
  8
1
 62
2
 10
168.4718759407428
 20
-26.90911534819259
 30
0
 11
135.7148030628825
 21
-26.90911534819259
 31
0
  0
LINE
  8
1
 62
2
 10
126.1210080305172
 20
27.5
 30
0
 11
128.4521014238293
 21
14.27971241867698
 31
0
  0
LINE
  8
1
 62
2
 10
93.36393515265689
 20
27.5
 30
0
 11
126.1210080305172
 21
27.5
 31
0
  0
LINE
  8
1
 62
2
 10
21.8230130506733
 20
28.8213955058476
 30
0
 11
36.1873990022161
 21
14.5
 31
0
  0
LINE
  8
1
 62
2
 10
56.9218317311455
 20
28.8213955058476
 30
0
 11
21.8230130506733
 21
28.8213955058476
 31
0
  0
LINE
  8
1
 62
1
 10
112.9
 20
0
 30
0
 11
149.0399999999999
 21
0
 31
0
  0
LINE
  8
1
 62
1
 10
130.97
 20
18.06999999999988
 30
0
 11
130.97
 21
-18.06999999999988
 31
0
  0
LINE
  8
1
 62
1
 10
128.2699999999999
 20
-12.29980776764609
 30
0
 11
133.6699999999998
 21
-12.29980776764609
 31
0
  0
LINE
  8
1
 62
1
 10
128.2699999999999
 20
12.29980776764609
 30
0
 11
133.6699999999998
 21
12.29980776764609
 31
0
  0
LINE
  8
1
 62
3
 10
132.5789987384987
 20
-14.41045186867888
 30
0
 11
132.4293155525924
 21
-13.82318335688132
 31
0
  0
LINE
  8
1
 62
3
 10
136.4550769565128
 20
-13.42251581415098
 30
0
 11
136.3053937706065
 21
-12.83524730235337
 31
0
  0
LINE
  8
1
 62
3
 10
134.72
 20
13.38459935896469
 30
0
 11
134.72
 21
6.999999999999886
 31
0
  0
LINE
  8
1
 62
3
 10
127.22
 20
13.38459935896469
 30
0
 11
127.22
 21
6.999999999999886
 31
0
  0
LINE
  8
1
 62
3
 10
130.4700000000022
 20
13.89100428334831
 30
0
 11
130.47
 21
12.54980776764609
 31
0
  0
LINE
  8
1
 62
3
 10
131.4699999999975
 20
13.89100428334831
 30
0
 11
131.47
 21
12.54980776764609
 31
0
  0
LINE
  8
1
 62
3
 10
130.47
 20
-12.54980776764609
 30
0
 11
131.47
 21
-12.54980776764609
 31
0
  0
LINE
  8
1
 62
3
 10
130.47
 20
-12.54980776764609
 30
0
 11
130.47
 21
-13.8910042833482
 31
0
  0
LINE
  8
1
 62
3
 10
130.47
 20
-12.04980776764609
 30
0
 11
131.47
 21
-12.04980776764609
 31
0
  0
LINE
  8
1
 62
3
 10
130.47
 20
-6.999999999999886
 30
0
 11
131.47
 21
-6.999999999999886
 31
0
  0
LINE
  8
1
 62
3
 10
130.47
 20
-6.999999999999886
 30
0
 11
130.47
 21
-12.04980776764609
 31
0
  0
LINE
  8
1
 62
3
 10
131.47
 20
-12.54980776764609
 30
0
 11
131.8699999999998
 21
-12.54980776764609
 31
0
  0
LINE
  8
1
 62
3
 10
131.47
 20
-12.54980776764609
 30
0
 11
131.47
 21
-13.89999999999998
 31
0
  0
LINE
  8
1
 62
3
 10
131.47
 20
-12.04980776764609
 30
0
 11
131.8699999999998
 21
-12.04980776764609
 31
0
  0
LINE
  8
1
 62
3
 10
131.47
 20
-6.999999999999886
 30
0
 11
134.72
 21
-6.999999999999886
 31
0
  0
LINE
  8
1
 62
3
 10
131.47
 20
-6.999999999999886
 30
0
 11
131.47
 21
-12.04980776764609
 31
0
  0
LINE
  8
1
 62
3
 10
130.47
 20
12.04980776764609
 30
0
 11
131.47
 21
12.04980776764609
 31
0
  0
LINE
  8
1
 62
3
 10
130.47
 20
6.999999999999886
 30
0
 11
131.47
 21
6.999999999999886
 31
0
  0
LINE
  8
1
 62
3
 10
130.47
 20
12.04980776764609
 30
0
 11
130.47
 21
6.999999999999886
 31
0
  0
LINE
  8
1
 62
3
 10
130.47
 20
12.54980776764609
 30
0
 11
131.47
 21
12.54980776764609
 31
0
  0
LINE
  8
1
 62
3
 10
131.47
 20
12.04980776764609
 30
0
 11
131.8699999999998
 21
12.04980776764609
 31
0
  0
LINE
  8
1
 62
3
 10
131.47
 20
6.999999999999886
 30
0
 11
134.72
 21
6.999999999999886
 31
0
  0
LINE
  8
1
 62
3
 10
131.47
 20
12.04980776764609
 30
0
 11
131.47
 21
6.999999999999886
 31
0
  0
LINE
  8
1
 62
3
 10
131.47
 20
12.54980776764609
 30
0
 11
131.8699999999998
 21
12.54980776764609
 31
0
  0
LINE
  8
1
 62
3
 10
129.5699999999999
 20
12.54980776764609
 30
0
 11
130.0699999999999
 21
12.54980776764609
 31
0
  0
LINE
  8
1
 62
3
 10
129.5699999999999
 20
12.04980776764609
 30
0
 11
130.0699999999999
 21
12.04980776764609
 31
0
  0
LINE
  8
1
 62
3
 10
129.5699999999999
 20
-12.04980776764609
 30
0
 11
130.0699999999999
 21
-12.04980776764609
 31
0
  0
LINE
  8
1
 62
3
 10
129.5699999999999
 20
-12.54980776764609
 30
0
 11
130.0699999999999
 21
-12.54980776764609
 31
0
  0
LINE
  8
1
 62
3
 10
131.8699999999998
 20
12.54980776764609
 30
0
 11
131.8699999999998
 21
12.04980776764609
 31
0
  0
LINE
  8
1
 62
3
 10
131.8699999999998
 20
12.54980776764609
 30
0
 11
132.3699999999998
 21
12.54980776764609
 31
0
  0
LINE
  8
1
 62
3
 10
131.8699999999998
 20
12.04980776764609
 30
0
 11
132.3699999999998
 21
12.04980776764609
 31
0
  0
LINE
  8
1
 62
3
 10
130.0699999999999
 20
12.54980776764609
 30
0
 11
130.0699999999999
 21
12.04980776764609
 31
0
  0
LINE
  8
1
 62
3
 10
130.0699999999999
 20
12.54980776764609
 30
0
 11
130.47
 21
12.54980776764609
 31
0
  0
LINE
  8
1
 62
3
 10
130.0699999999999
 20
12.04980776764609
 30
0
 11
130.47
 21
12.04980776764609
 31
0
  0
LINE
  8
1
 62
3
 10
129.5699999999999
 20
12.54980776764609
 30
0
 11
129.5699999999999
 21
12.04980776764609
 31
0
  0
LINE
  8
1
 62
3
 10
132.3699999999998
 20
12.54980776764609
 30
0
 11
132.3699999999998
 21
12.04980776764609
 31
0
  0
LINE
  8
1
 62
3
 10
130.0699999999999
 20
-12.04980776764609
 30
0
 11
130.0699999999999
 21
-12.54980776764609
 31
0
  0
LINE
  8
1
 62
3
 10
130.0699999999999
 20
-12.04980776764609
 30
0
 11
130.47
 21
-12.04980776764609
 31
0
  0
LINE
  8
1
 62
3
 10
130.0699999999999
 20
-12.54980776764609
 30
0
 11
130.47
 21
-12.54980776764609
 31
0
  0
LINE
  8
1
 62
3
 10
129.5699999999999
 20
-12.04980776764609
 30
0
 11
129.5699999999999
 21
-12.54980776764609
 31
0
  0
LINE
  8
1
 62
3
 10
132.3699999999998
 20
-12.04980776764609
 30
0
 11
132.3699999999998
 21
-12.54980776764609
 31
0
  0
LINE
  8
1
 62
3
 10
131.8699999999998
 20
-12.04980776764609
 30
0
 11
131.8699999999998
 21
-12.54980776764609
 31
0
  0
LINE
  8
1
 62
3
 10
131.8699999999998
 20
-12.04980776764609
 30
0
 11
132.3699999999998
 21
-12.04980776764609
 31
0
  0
LINE
  8
1
 62
3
 10
131.8699999999998
 20
-12.54980776764609
 30
0
 11
132.3699999999998
 21
-12.54980776764609
 31
0
  0
LINE
  8
1
 62
3
 10
127.22
 20
-6.999999999999886
 30
0
 11
127.22
 21
-13.38459935896469
 31
0
  0
LINE
  8
1
 62
3
 10
134.72
 20
-6.999999999999886
 30
0
 11
134.72
 21
-13.38459935896469
 31
0
  0
LINE
  8
1
 62
3
 10
127.22
 20
-6.999999999999886
 30
0
 11
130.47
 21
-6.999999999999886
 31
0
  0
LINE
  8
1
 62
3
 10
127.22
 20
6.999999999999886
 30
0
 11
130.47
 21
6.999999999999886
 31
0
  0
LINE
  8
1
 62
3
 10
20.5
 20
12.19999999999999
 30
0
 11
20.5
 21
-15.20000000000002
 31
0
  0
LINE
  8
1
 62
3
 10
-2.799999999999949
 20
21.5
 30
0
 11
-1.80000000000007
 21
21.5
 31
0
  0
LINE
  8
1
 62
3
 10
-24.99999999999997
 20
4
 30
0
 11
-9.99999999999997
 21
4
 31
0
  0
LINE
  8
1
 62
3
 10
-24.99999999999997
 20
9.5
 30
0
 11
-24.99999999999997
 21
4
 31
0
  0
LINE
  8
1
 62
3
 10
-9.99999999999997
 20
10
 30
0
 11
-12.99999999999997
 21
10
 31
0
  0
LINE
  8
1
 62
3
 10
-12.99999999999997
 20
9.5
 30
0
 11
-24.99999999999997
 21
9.5
 31
0
  0
LINE
  8
1
 62
3
 10
-12.99999999999997
 20
10
 30
0
 11
-12.99999999999997
 21
9.5
 31
0
  0
LINE
  8
1
 62
3
 10
-10
 20
1
 30
0
 11
-2.79999999999993
 21
1
 31
0
  0
LINE
  8
1
 62
3
 10
-10
 20
13
 30
0
 11
-10
 21
1
 31
0
  0
LINE
  8
1
 62
3
 10
-2.799999999999949
 20
13
 30
0
 11
-10
 21
13
 31
0
  0
LINE
  8
1
 62
3
 10
-1.80000000000007
 20
18.5
 30
0
 11
17.70000000000005
 21
18.5
 31
0
  0
LINE
  8
1
 62
3
 10
-1.80000000000004
 20
-18.5
 30
0
 11
17.70000000000005
 21
-18.5
 31
0
  0
LINE
  8
1
 62
1
 10
-28
 20
7
 30
0
 11
1.199999999999928
 21
7
 31
0
  0
LINE
  8
1
 62
3
 10
18.70000000000005
 20
-17.5
 30
0
 11
18.70000000000005
 21
17.5
 31
0
  0
LINE
  8
1
 62
3
 10
-1.80000000000007
 20
21.5
 30
0
 11
-1.80000000000007
 21
-21.5
 31
0
  0
LINE
  8
1
 62
3
 10
-2.799999999999949
 20
21.5
 30
0
 11
-2.799999999999949
 21
-21.5
 31
0
  0
LINE
  8
1
 62
3
 10
-2.799999999999949
 20
-21.5
 30
0
 11
-1.80000000000007
 21
-21.5
 31
0
  0
LINE
  8
1
 62
1
 10
-5.799999999999949
 20
0
 30
0
 11
57.99999999999997
 21
0
 31
0
  0
LINE
  8
1
 62
1
 10
-113.3086570489102
 20
6.75
 30
0
 11
-109.8445554337724
 21
8.75
 31
0
  0
LINE
  8
1
 62
3
 10
-112.3444265643686
 20
7.479903810567521
 30
0
 11
-112.0846189432333
 21
7.629903810567384
 31
0
  0
LINE
  8
1
 62
3
 10
-111.9565100519087
 20
8.108012701892108
 30
0
 11
-112.1065100519088
 21
8.367820323027502
 31
0
  0
LINE
  8
1
 62
3
 10
-112.0882087817195
 20
8.436121593216626
 30
0
 11
-111.9150037009628
 21
8.536121593216592
 31
0
  0
LINE
  8
1
 62
3
 10
-111.8467024307735
 20
8.517820323027536
 30
0
 11
-111.6967024307734
 21
8.258012701892085
 31
0
  0
LINE
  8
1
 62
3
 10
-111.2185935394488
 20
8.129903810567498
 30
0
 11
-110.9587859183135
 21
8.279903810567362
 31
0
  0
LINE
  8
1
 62
3
 10
-110.8904846481244
 20
8.261602540378306
 30
0
 11
-110.7904846481243
 21
8.08839745962149
 31
0
  0
LINE
  8
1
 62
3
 10
-110.8087859183137
 20
8.020096189432195
 30
0
 11
-111.0685935394489
 21
7.870096189432161
 31
0
  0
LINE
  8
1
 62
3
 10
-111.1967024307734
 20
7.391987298107608
 30
0
 11
-111.0467024307733
 21
7.132179676972328
 31
0
  0
LINE
  8
1
 62
3
 10
-111.0650037009626
 20
7.06387840678309
 30
0
 11
-111.2382087817194
 21
6.963878406783124
 31
0
  0
LINE
  8
1
 62
3
 10
-111.3065100519087
 20
6.982179676972294
 30
0
 11
-111.4565100519087
 21
7.241987298107688
 31
0
  0
LINE
  8
1
 62
3
 10
-111.9346189432333
 20
7.370096189432275
 30
0
 11
-112.1944265643687
 21
7.22009618943207
 31
0
  0
LINE
  8
1
 62
3
 10
-112.2627278345579
 20
7.23839745962141
 30
0
 11
-112.3627278345579
 21
7.411602540378226
 31
0
  0
LINE
  8
1
 62
3
 10
-124.8500000000003
 20
-14.70000000000005
 30
0
 11
-124.8500000000004
 21
-15
 31
0
  0
LINE
  8
1
 62
3
 10
-124.5000000000002
 20
-15.35000000000014
 30
0
 11
-124.2000000000002
 21
-15.34999999999997
 31
0
  0
LINE
  8
1
 62
3
 10
-124.1500000000003
 20
-15.40000000000009
 30
0
 11
-124.1500000000002
 21
-15.59999999999991
 31
0
  0
LINE
  8
1
 62
3
 10
-124.2000000000002
 20
-15.65000000000003
 30
0
 11
-124.5000000000002
 21
-15.65000000000003
 31
0
  0
LINE
  8
1
 62
3
 10
-124.8500000000004
 20
-16
 30
0
 11
-124.8500000000004
 21
-16.30000000000001
 31
0
  0
LINE
  8
1
 62
3
 10
-124.9000000000002
 20
-16.34999999999997
 30
0
 11
-125.1000000000001
 21
-16.34999999999997
 31
0
  0
LINE
  8
1
 62
3
 10
-125.1500000000002
 20
-16.30000000000001
 30
0
 11
-125.1500000000001
 21
-16
 31
0
  0
LINE
  8
1
 62
3
 10
-125.5000000000002
 20
-15.65000000000003
 30
0
 11
-125.8000000000002
 21
-15.65000000000009
 31
0
  0
LINE
  8
1
 62
3
 10
-125.8500000000003
 20
-15.59999999999997
 30
0
 11
-125.8500000000003
 21
-15.40000000000009
 31
0
  0
LINE
  8
1
 62
3
 10
-125.8000000000002
 20
-15.35000000000014
 30
0
 11
-125.5000000000002
 21
-15.35000000000014
 31
0
  0
LINE
  8
1
 62
3
 10
-125.1500000000001
 20
-15
 30
0
 11
-125.1500000000003
 21
-14.70000000000005
 31
0
  0
LINE
  8
1
 62
3
 10
-125.1000000000003
 20
-14.65000000000003
 30
0
 11
-124.9000000000003
 21
-14.65000000000003
 31
0
  0
LINE
  8
1
 62
1
 10
-136.69134295109
 20
6.75
 30
0
 11
-140.1554445662277
 21
8.75
 31
0
  0
LINE
  8
1
 62
3
 10
-137.8055734356311
 20
7.220096189432525
 30
0
 11
-138.0653810567665
 21
7.370096189432616
 31
0
  0
LINE
  8
1
 62
3
 10
-138.5434899480912
 20
7.241987298107972
 30
0
 11
-138.6934899480912
 21
6.982179676972578
 31
0
  0
LINE
  8
1
 62
3
 10
-138.7617912182803
 20
6.963878406783465
 30
0
 11
-138.9349962990372
 21
7.063878406783374
 31
0
  0
LINE
  8
1
 62
3
 10
-138.9532975692265
 20
7.132179676972555
 30
0
 11
-138.8032975692264
 21
7.391987298108006
 31
0
  0
LINE
  8
1
 62
3
 10
-138.9314064605509
 20
7.870096189432616
 30
0
 11
-139.1912140816862
 21
8.020096189432593
 31
0
  0
LINE
  8
1
 62
3
 10
-139.2095153518756
 20
8.088397459621774
 30
0
 11
-139.1095153518755
 21
8.26160254037859
 31
0
  0
LINE
  8
1
 62
3
 10
-139.0412140816862
 20
8.279903810567816
 30
0
 11
-138.7814064605509
 21
8.129903810567782
 31
0
  0
LINE
  8
1
 62
3
 10
-138.3032975692264
 20
8.258012701892426
 30
0
 11
-138.1532975692264
 21
8.517820323027763
 31
0
  0
LINE
  8
1
 62
3
 10
-138.0849962990371
 20
8.53612159321699
 30
0
 11
-137.9117912182803
 21
8.436121593216967
 31
0
  0
LINE
  8
1
 62
3
 10
-137.8934899480911
 20
8.367820323027786
 30
0
 11
-138.0434899480912
 21
8.108012701892392
 31
0
  0
LINE
  8
1
 62
3
 10
-137.9153810567665
 20
7.629903810567782
 30
0
 11
-137.6555734356311
 21
7.479903810567862
 31
0
  0
LINE
  8
1
 62
3
 10
-137.6372721654419
 20
7.411602540378567
 30
0
 11
-137.7372721654419
 21
7.238397459621808
 31
0
  0
LINE
  8
1
 62
1
 10
-109.5
 20
-18
 30
0
 11
-104.5
 21
-18
 31
0
  0
LINE
  8
1
 62
1
 10
-125
 20
-24.5
 30
0
 11
-125
 21
24.5
 31
0
  0
LINE
  8
1
 62
1
 10
-149.5
 20
0
 30
0
 11
-100.5
 21
0
 31
0
  0
LINE
  8
1
 62
3
 10
-146.4999999999999
 20
18
 30
0
 11
-146.4999999999999
 21
-18
 31
0
  0
LINE
  8
1
 62
3
 10
-107
 20
21.5
 30
0
 11
-143
 21
21.5
 31
0
  0
LINE
  8
1
 62
3
 10
-103.5
 20
-18
 30
0
 11
-103.5
 21
18
 31
0
  0
LINE
  8
1
 62
3
 10
-143
 20
-21.5
 30
0
 11
-107
 21
-21.5
 31
0
  0
LINE
  8
1
 62
3
 10
-126.5139022425509
 20
9.590000000000032
 30
0
 11
-123.4860977574492
 21
9.590000000000032
 31
0
  0
LINE
  8
1
 62
1
 10
-133.2867258072389
 20
7
 30
0
 11
-116.8492007090347
 21
7
 31
0
  0
LINE
  8
1
 62
1
 10
-143
 20
20.5
 30
0
 11
-143
 21
15.5
 31
0
  0
LINE
  8
1
 62
1
 10
-145.5
 20
18
 30
0
 11
-140.5
 21
18
 31
0
  0
LINE
  8
1
 62
1
 10
-109.5
 20
18
 30
0
 11
-104.5
 21
18
 31
0
  0
LINE
  8
1
 62
1
 10
-107
 20
20.5
 30
0
 11
-107
 21
15.5
 31
0
  0
LINE
  8
1
 62
1
 10
-143
 20
-15.5
 30
0
 11
-143
 21
-20.5
 31
0
  0
LINE
  8
1
 62
1
 10
-145.5
 20
-18
 30
0
 11
-140.5
 21
-18
 31
0
  0
LINE
  8
1
 62
1
 10
-107
 20
-15.5
 30
0
 11
-107
 21
-20.5
 31
0
  0
LINE
  8
1
 62
1
 10
64.40000000000003
 20
0
 30
0
 11
-0.3999999999999808
 21
0
 31
0
  0
LINE
  8
0
 62
4
 10
62.40000000000003
 20
0
 30
0
 11
62.40000000000003
 21
0.8499999999999659
 31
0
  0
LINE
  8
0
 62
4
 10
62.40000000000003
 20
-0.8500000000000227
 30
0
 11
62.40000000000003
 21
0
 31
0
  0
LINE
  8
0
 62
3
 10
59.30000000000001
 20
-1.25
 30
0
 11
59.30000000000001
 21
-4.5
 31
0
  0
LINE
  8
0
 62
3
 10
59.30000000000001
 20
1.25
 30
0
 11
59.30000000000001
 21
-1.25
 31
0
  0
LINE
  8
0
 62
3
 10
59.30000000000001
 20
4.5
 30
0
 11
59.30000000000001
 21
1.25
 31
0
  0
LINE
  8
0
 62
3
 10
62.5
 20
-5
 30
0
 11
62.5
 21
5
 31
0
  0
LINE
  8
0
 62
3
 10
62.5
 20
5
 30
0
 11
59.30000000000001
 21
5
 31
0
  0
LINE
  8
0
 62
3
 10
62.5
 20
-5
 30
0
 11
59.30000000000001
 21
-5
 31
0
  0
LINE
  8
0
 62
3
 10
65.80000000000001
 20
-12.04980776764609
 30
0
 11
60.10000000000002
 21
-12.04980776764609
 31
0
  0
LINE
  8
0
 62
3
 10
65.80000000000001
 20
-12.04980776764609
 30
0
 11
65.80000000000001
 21
-12.54980776764609
 31
0
  0
LINE
  8
0
 62
3
 10
65.80000000000001
 20
-12.54980776764609
 30
0
 11
60.10000000000002
 21
-12.54980776764609
 31
0
  0
LINE
  8
0
 62
3
 10
66.30000000000001
 20
-12.54980776764609
 30
0
 11
65.80000000000001
 21
-12.54980776764609
 31
0
  0
LINE
  8
0
 62
3
 10
66.30000000000001
 20
-12.04980776764609
 30
0
 11
65.80000000000001
 21
-12.04980776764609
 31
0
  0
LINE
  8
0
 62
3
 10
66.30000000000001
 20
-12.54980776764609
 30
0
 11
66.30000000000001
 21
-12.04980776764609
 31
0
  0
LINE
  8
0
 62
3
 10
60.10000000000002
 20
12.04980776764614
 30
0
 11
65.80000000000001
 21
12.04980776764614
 31
0
  0
LINE
  8
0
 62
3
 10
65.80000000000001
 20
12.54980776764614
 30
0
 11
65.80000000000001
 21
12.04980776764614
 31
0
  0
LINE
  8
0
 62
3
 10
60.10000000000002
 20
12.54980776764614
 30
0
 11
65.80000000000001
 21
12.54980776764614
 31
0
  0
LINE
  8
0
 62
3
 10
65.80000000000001
 20
12.54980776764614
 30
0
 11
66.30000000000001
 21
12.54980776764614
 31
0
  0
LINE
  8
0
 62
3
 10
65.80000000000001
 20
12.04980776764614
 30
0
 11
66.30000000000001
 21
12.04980776764614
 31
0
  0
LINE
  8
0
 62
3
 10
66.30000000000001
 20
12.04980776764614
 30
0
 11
66.30000000000001
 21
12.54980776764614
 31
0
  0
LINE
  8
0
 62
3
 10
57.80000000000001
 20
-13.89999999999998
 30
0
 11
57.80000000000001
 21
-13.89100428334825
 31
0
  0
LINE
  8
0
 62
3
 10
47.80000000000001
 20
-13.89999999999998
 30
0
 11
47.80000000000001
 21
-13.58336717872669
 31
0
  0
LINE
  8
0
 62
3
 10
47.80000000000001
 20
-13.58336717872669
 30
0
 11
57.80000000000001
 21
-13.58336717872669
 31
0
  0
LINE
  8
0
 62
3
 10
47.80000000000001
 20
-13.89999999999998
 30
0
 11
57.80000000000001
 21
-13.89999999999998
 31
0
  0
LINE
  8
0
 62
3
 10
57.80000000000001
 20
-13.62525229124213
 30
0
 11
57.80000000000001
 21
-13.58336717872669
 31
0
  0
LINE
  8
0
 62
3
 10
60.10000000000002
 20
-12.04980776764609
 30
0
 11
60.10000000000002
 21
-6.999999999999943
 31
0
  0
LINE
  8
0
 62
3
 10
59.30000000000001
 20
-6.999999999999943
 30
0
 11
60.10000000000002
 21
-6.999999999999943
 31
0
  0
LINE
  8
0
 62
3
 10
59.30000000000001
 20
-13.38459935896475
 30
0
 11
60.10000000000002
 21
-13.38459935896475
 31
0
  0
LINE
  8
0
 62
3
 10
58.60000000000002
 20
-13.38459935896475
 30
0
 11
59.30000000000001
 21
-13.38459935896475
 31
0
  0
LINE
  8
0
 62
3
 10
60.10000000000002
 20
-13.38459935896475
 30
0
 11
60.10000000000002
 21
-12.04980776764609
 31
0
  0
LINE
  8
0
 62
3
 10
60.10000000000002
 20
-13.38459935896475
 30
0
 11
60.10000000000002
 21
-13.89100428334825
 31
0
  0
LINE
  8
0
 62
3
 10
57.80000000000001
 20
-13.62525229124213
 30
0
 11
58.60000000000002
 21
-13.62525229124213
 31
0
  0
LINE
  8
0
 62
3
 10
58.60000000000002
 20
-13.62525229124213
 30
0
 11
58.60000000000002
 21
-13.38459935896475
 31
0
  0
LINE
  8
0
 62
3
 10
57.80000000000001
 20
-13.89100428334825
 30
0
 11
60.10000000000002
 21
-13.89100428334825
 31
0
  0
LINE
  8
0
 62
3
 10
57.80000000000001
 20
13.89100428334825
 30
0
 11
57.80000000000001
 21
13.90000000000003
 31
0
  0
LINE
  8
0
 62
3
 10
47.80000000000001
 20
13.58336717872675
 30
0
 11
47.80000000000001
 21
13.90000000000003
 31
0
  0
LINE
  8
0
 62
3
 10
57.80000000000001
 20
13.58336717872675
 30
0
 11
47.80000000000001
 21
13.58336717872675
 31
0
  0
LINE
  8
0
 62
3
 10
57.80000000000001
 20
13.90000000000003
 30
0
 11
47.80000000000001
 21
13.90000000000003
 31
0
  0
LINE
  8
0
 62
3
 10
57.80000000000001
 20
13.58336717872675
 30
0
 11
57.80000000000001
 21
13.62525229124219
 31
0
  0
LINE
  8
0
 62
3
 10
60.10000000000002
 20
6.999999999999943
 30
0
 11
60.10000000000002
 21
12.04980776764614
 31
0
  0
LINE
  8
0
 62
3
 10
60.10000000000002
 20
6.999999999999943
 30
0
 11
59.30000000000001
 21
6.999999999999943
 31
0
  0
LINE
  8
0
 62
3
 10
60.10000000000002
 20
13.38459935896481
 30
0
 11
59.30000000000001
 21
13.38459935896481
 31
0
  0
LINE
  8
0
 62
3
 10
59.30000000000001
 20
13.38459935896481
 30
0
 11
58.60000000000002
 21
13.38459935896481
 31
0
  0
LINE
  8
0
 62
3
 10
60.10000000000002
 20
12.04980776764614
 30
0
 11
60.10000000000002
 21
13.38459935896481
 31
0
  0
LINE
  8
0
 62
3
 10
60.10000000000002
 20
13.89100428334825
 30
0
 11
60.10000000000002
 21
13.38459935896481
 31
0
  0
LINE
  8
0
 62
3
 10
58.60000000000002
 20
13.62525229124219
 30
0
 11
57.80000000000001
 21
13.62525229124219
 31
0
  0
LINE
  8
0
 62
3
 10
58.60000000000002
 20
13.38459935896481
 30
0
 11
58.60000000000002
 21
13.62525229124219
 31
0
  0
LINE
  8
0
 62
3
 10
60.10000000000002
 20
13.89100428334825
 30
0
 11
57.80000000000001
 21
13.89100428334825
 31
0
  0
LINE
  8
0
 62
3
 10
47.5
 20
-13.89999999999998
 30
0
 11
47.80000000000001
 21
-13.89999999999998
 31
0
  0
LINE
  8
1
 62
3
 10
21.5
 20
13.90000000000003
 30
0
 11
23.5
 21
13.90000000000003
 31
0
  0
LINE
  8
0
 62
3
 10
47.5
 20
13.90000000000003
 30
0
 11
47.80000000000001
 21
13.90000000000003
 31
0
  0
LINE
  8
1
 62
3
 10
23.5
 20
13.90000000000003
 30
0
 11
23.5
 21
14.5
 31
0
  0
LINE
  8
1
 62
3
 10
23.5
 20
-14.5
 30
0
 11
23.5
 21
13.90000000000003
 31
0
  0
LINE
  8
1
 62
3
 10
47.5
 20
-14.5
 30
0
 11
23.5
 21
-14.5
 31
0
  0
LINE
  8
1
 62
3
 10
47.5
 20
14.5
 30
0
 11
47.5
 21
-14.5
 31
0
  0
LINE
  8
1
 62
3
 10
23.5
 20
14.5
 30
0
 11
27.15183075530359
 21
14.5
 31
0
  0
LINE
  8
1
 62
3
 10
23.5
 20
-1.299999999999955
 30
0
 11
23.5
 21
1.300000000000068
 31
0
  0
LINE
  8
1
 62
3
 10
26
 20
-1.299999999999955
 30
0
 11
23.5
 21
-1.299999999999955
 31
0
  0
LINE
  8
1
 62
3
 10
26
 20
1.300000000000068
 30
0
 11
26
 21
-1.299999999999955
 31
0
  0
LINE
  8
1
 62
3
 10
23.5
 20
1.300000000000068
 30
0
 11
26
 21
1.300000000000068
 31
0
  0
LINE
  8
0
 62
3
 10
47.80000000000001
 20
13.58336717872675
 30
0
 11
47.80000000000001
 21
13.90000000000003
 31
0
  0
LINE
  8
0
 62
3
 10
20.5
 20
-12.89999999999998
 30
0
 11
20.5
 21
5
 31
0
  0
LINE
  8
0
 62
3
 10
47.80000000000001
 20
-13.89999999999998
 30
0
 11
47.80000000000001
 21
-13.74732050073061
 31
0
  0
LINE
  8
0
 62
3
 10
47.80000000000001
 20
-13.74732050073061
 30
0
 11
47.80000000000001
 21
-13.58336717872669
 31
0
  0
LINE
  8
0
 62
3
 10
57.80000000000001
 20
13.58336717872675
 30
0
 11
47.80000000000001
 21
13.58336717872675
 31
0
  0
LINE
  8
0
 62
3
 10
57.80000000000001
 20
13.58336717872675
 30
0
 11
57.80000000000001
 21
13.62525229124219
 31
0
  0
LINE
  8
0
 62
3
 10
20.5
 20
5
 30
0
 11
20.5
 21
12.90000000000003
 31
0
  0
LINE
  8
0
 62
3
 10
58.60000000000002
 20
-13.62525229124213
 30
0
 11
57.80000000000001
 21
-13.62525229124213
 31
0
  0
LINE
  8
0
 62
3
 10
58.60000000000002
 20
-13.62525229124213
 30
0
 11
58.60000000000002
 21
-13.38459935896475
 31
0
  0
LINE
  8
0
 62
3
 10
57.80000000000001
 20
-13.62525229124213
 30
0
 11
57.80000000000001
 21
-13.58336717872669
 31
0
  0
LINE
  8
0
 62
3
 10
59.30000000000001
 20
-13.38459935896475
 30
0
 11
58.60000000000002
 21
-13.38459935896475
 31
0
  0
LINE
  8
0
 62
3
 10
59.30000000000001
 20
-13.38459935896475
 30
0
 11
59.30000000000001
 21
-6.999999999999943
 31
0
  0
LINE
  8
0
 62
3
 10
59.30000000000001
 20
-1.25
 30
0
 11
59.30000000000001
 21
-4.5
 31
0
  0
LINE
  8
0
 62
3
 10
59.30000000000001
 20
1.25
 30
0
 11
59.30000000000001
 21
-1.25
 31
0
  0
LINE
  8
0
 62
3
 10
59.30000000000001
 20
-6.999999999999943
 30
0
 11
59.30000000000001
 21
-4.5
 31
0
  0
LINE
  8
0
 62
3
 10
57.80000000000001
 20
-13.58336717872669
 30
0
 11
47.80000000000001
 21
-13.58336717872669
 31
0
  0
LINE
  8
0
 62
3
 10
59.30000000000001
 20
4.5
 30
0
 11
59.30000000000001
 21
5
 31
0
  0
LINE
  8
0
 62
3
 10
59.30000000000001
 20
4.5
 30
0
 11
59.30000000000001
 21
1.25
 31
0
  0
LINE
  8
0
 62
3
 10
59.30000000000001
 20
5
 30
0
 11
59.30000000000001
 21
6.999999999999943
 31
0
  0
LINE
  8
0
 62
3
 10
59.30000000000001
 20
13.38459935896481
 30
0
 11
58.60000000000002
 21
13.38459935896481
 31
0
  0
LINE
  8
0
 62
3
 10
59.30000000000001
 20
6.999999999999943
 30
0
 11
59.30000000000001
 21
13.38459935896481
 31
0
  0
LINE
  8
0
 62
3
 10
58.60000000000002
 20
13.62525229124219
 30
0
 11
57.80000000000001
 21
13.62525229124219
 31
0
  0
LINE
  8
0
 62
3
 10
58.60000000000002
 20
13.38459935896481
 30
0
 11
58.60000000000002
 21
13.62525229124219
 31
0
  0
LINE
  8
0
 62
3
 10
21.5
 20
-13.89999999999998
 30
0
 11
23.5
 21
-13.89999999999998
 31
0
  0
LINE
  8
1
 62
3
 10
56.52000000000004
 20
91.29241090727351
 30
0
 11
58.07999999999998
 21
91.29241090727351
 31
0
  0
LINE
  8
1
 62
3
 10
57.30000000000001
 20
92.07241090727348
 30
0
 11
57.30000000000001
 21
90.51241090727365
 31
0
  0
LINE
  8
0
 62
3
 10
58.80000000000001
 20
92.1924109072736
 30
0
 11
58.80000000000001
 21
90.39241090727364
 31
0
  0
LINE
  8
0
 62
3
 10
58.30000000000001
 20
92.6924109072736
 30
0
 11
58.80000000000001
 21
92.1924109072736
 31
0
  0
LINE
  8
0
 62
3
 10
58.30000000000001
 20
89.89241090727364
 30
0
 11
52.60000000000002
 21
89.89241090727364
 31
0
  0
LINE
  8
0
 62
3
 10
58.30000000000001
 20
89.89241090727364
 30
0
 11
58.80000000000001
 21
90.39241090727364
 31
0
  0
LINE
  8
0
 62
3
 10
52.60000000000002
 20
92.6924109072736
 30
0
 11
58.30000000000001
 21
92.6924109072736
 31
0
  0
LINE
  8
1
 62
1
 10
60.80000000000001
 20
91.29241090727351
 30
0
 11
38.4013677182645
 21
91.29241090727351
 31
0
  0
LINE
  8
0
 62
3
 10
51
 20
87.54241090727351
 30
0
 11
42.36018625339425
 21
87.54241090727369
 31
0
  0
LINE
  8
0
 62
3
 10
51.80000000000001
 20
86.7424109072735
 30
0
 11
51.80000000000001
 21
86.79241090727351
 31
0
  0
LINE
  8
1
 62
3
 10
51
 20
87.54241090727351
 30
0
 11
51.80000000000001
 21
86.7424109072735
 31
0
  0
LINE
  8
0
 62
3
 10
51.80000000000001
 20
95.84241090727352
 30
0
 11
51.80000000000001
 21
105.1924109072735
 31
0
  0
LINE
  8
0
 62
3
 10
51
 20
95.04241090727351
 30
0
 11
44.17097783758328
 21
95.04241090727365
 31
0
  0
LINE
  8
1
 62
3
 10
51
 20
95.04241090727351
 30
0
 11
51.80000000000001
 21
95.84241090727352
 31
0
  0
LINE
  8
0
 62
3
 10
51.80000000000001
 20
95.79241090727351
 30
0
 11
51.80000000000001
 21
95.04241090727351
 31
0
  0
LINE
  8
0
 62
3
 10
51.80000000000001
 20
87.54241090727351
 30
0
 11
51
 21
87.54241090727351
 31
0
  0
LINE
  8
0
 62
3
 10
51.80000000000001
 20
87.54241090727351
 30
0
 11
51.80000000000001
 21
86.79241090727351
 31
0
  0
LINE
  8
0
 62
3
 10
51.80000000000001
 20
77.39241090727353
 30
0
 11
51.80000000000001
 21
86.7424109072735
 31
0
  0
LINE
  8
0
 62
3
 10
51.80000000000001
 20
95.79241090727351
 30
0
 11
51.80000000000001
 21
95.84241090727352
 31
0
  0
LINE
  8
0
 62
3
 10
51.5
 20
95.04241090727351
 30
0
 11
51
 21
95.04241090727351
 31
0
  0
LINE
  8
0
 62
3
 10
51.80000000000001
 20
95.04241090727351
 30
0
 11
51.5
 21
95.04241090727351
 31
0
  0
LINE
  8
0
 62
3
 10
51.80000000000001
 20
95.79241090727351
 30
0
 11
51.80000000000001
 21
95.04241090727351
 31
0
  0
LINE
  8
0
 62
3
 10
51.80000000000001
 20
87.54241090727351
 30
0
 11
51.80000000000001
 21
86.79241090727351
 31
0
  0
LINE
  8
0
 62
3
 10
50.30000000000001
 20
88.3424725879371
 30
0
 11
50.30000000000001
 21
88.54241090727339
 31
0
  0
LINE
  8
0
 62
3
 10
51.10000000000002
 20
87.54241090727351
 30
0
 11
51.10000000000002
 21
87.91741090727351
 31
0
  0
LINE
  8
0
 62
3
 10
51.10000000000002
 20
87.91741090727351
 30
0
 11
51.10000000000002
 21
88.54241090727339
 31
0
  0
LINE
  8
0
 62
3
 10
51.10000000000002
 20
88.54241090727339
 30
0
 11
50.30000000000001
 21
88.54241090727339
 31
0
  0
LINE
  8
0
 62
3
 10
55
 20
92.6924109072736
 30
0
 11
55
 21
96.29241090727351
 31
0
  0
LINE
  8
0
 62
3
 10
55
 20
96.29241090727351
 30
0
 11
51.80000000000001
 21
96.29241090727351
 31
0
  0
LINE
  8
0
 62
3
 10
51.10000000000002
 20
94.04241090727339
 30
0
 11
51.10000000000002
 21
94.66741090727351
 31
0
  0
LINE
  8
0
 62
3
 10
51.10000000000002
 20
94.66741090727351
 30
0
 11
51.10000000000002
 21
95.04241090727351
 31
0
  0
LINE
  8
0
 62
3
 10
50.30000000000001
 20
94.04241090727339
 30
0
 11
50.30000000000001
 21
94.24234922661015
 31
0
  0
LINE
  8
0
 62
3
 10
51.10000000000002
 20
94.04241090727339
 30
0
 11
50.30000000000001
 21
94.04241090727339
 31
0
  0
LINE
  8
0
 62
3
 10
55
 20
86.29241090727351
 30
0
 11
51.80000000000001
 21
86.29241090727351
 31
0
  0
LINE
  8
0
 62
3
 10
55
 20
86.29241090727351
 30
0
 11
55
 21
89.89241090727347
 31
0
  0
LINE
  8
0
 62
3
 10
50.30000000000001
 20
90.79241090727339
 30
0
 11
50.30000000000001
 21
91.79241090727339
 31
0
  0
LINE
  8
0
 62
3
 10
58.80000000000001
 20
92.1924109072736
 30
0
 11
58.80000000000001
 21
90.39241090727364
 31
0
  0
LINE
  8
0
 62
3
 10
58.30000000000001
 20
92.6924109072736
 30
0
 11
58.80000000000001
 21
92.1924109072736
 31
0
  0
LINE
  8
0
 62
4
 10
58.30000000000001
 20
89.89241090727364
 30
0
 11
52.60000000000002
 21
89.89241090727364
 31
0
  0
LINE
  8
0
 62
3
 10
58.30000000000001
 20
89.89241090727364
 30
0
 11
58.80000000000001
 21
90.39241090727364
 31
0
  0
LINE
  8
0
 62
3
 10
52.60000000000002
 20
92.6924109072736
 30
0
 11
58.30000000000001
 21
92.6924109072736
 31
0
  0
LINE
  8
0
 62
3
 10
50.30000000000001
 20
87.54241090727351
 30
0
 11
42.36018625339425
 21
87.54241090727369
 31
0
  0
LINE
  8
0
 62
3
 10
52.60000000000002
 20
87.54241090727351
 30
0
 11
51.80000000000001
 21
87.54241090727351
 31
0
  0
LINE
  8
0
 62
3
 10
52.60000000000002
 20
90.79241090727339
 30
0
 11
50.30000000000001
 21
90.79241090727339
 31
0
  0
LINE
  8
0
 62
3
 10
52.60000000000002
 20
87.54241090727351
 30
0
 11
52.60000000000002
 21
89.8674109072735
 31
0
  0
LINE
  8
0
 62
3
 10
52.60000000000002
 20
89.8674109072735
 30
0
 11
52.60000000000002
 21
90.79241090727339
 31
0
  0
LINE
  8
0
 62
3
 10
52.60000000000002
 20
91.79241090727339
 30
0
 11
50.30000000000001
 21
91.79241090727339
 31
0
  0
LINE
  8
0
 62
3
 10
52.60000000000002
 20
91.79241090727339
 30
0
 11
52.60000000000002
 21
92.6924109072736
 31
0
  0
LINE
  8
0
 62
3
 10
52.60000000000002
 20
92.6924109072736
 30
0
 11
52.60000000000002
 21
92.71741090727352
 31
0
  0
LINE
  8
0
 62
3
 10
50.30000000000001
 20
87.54241090727351
 30
0
 11
50.30000000000001
 21
88.54241090727339
 31
0
  0
LINE
  8
0
 62
3
 10
51.10000000000002
 20
87.54241090727351
 30
0
 11
51.10000000000002
 21
87.91741090727351
 31
0
  0
LINE
  8
0
 62
3
 10
51.10000000000002
 20
87.91741090727351
 30
0
 11
51.10000000000002
 21
88.54241090727339
 31
0
  0
LINE
  8
0
 62
3
 10
51.10000000000002
 20
88.54241090727339
 30
0
 11
50.30000000000001
 21
88.54241090727339
 31
0
  0
LINE
  8
0
 62
3
 10
51.80000000000001
 20
87.54241090727351
 30
0
 11
51.10000000000002
 21
87.54241090727351
 31
0
  0
LINE
  8
0
 62
3
 10
50
 20
95.04241090727362
 30
0
 11
44.17097783758328
 21
95.04241090727365
 31
0
  0
LINE
  8
0
 62
3
 10
50.30000000000001
 20
95.04241090727351
 30
0
 11
50
 21
95.04241090727362
 31
0
  0
LINE
  8
0
 62
3
 10
51.10000000000002
 20
94.04241090727339
 30
0
 11
51.10000000000002
 21
94.66741090727351
 31
0
  0
LINE
  8
0
 62
3
 10
51.10000000000002
 20
94.66741090727351
 30
0
 11
51.10000000000002
 21
95.04241090727351
 31
0
  0
LINE
  8
0
 62
3
 10
51.5
 20
95.04241090727351
 30
0
 11
51.10000000000002
 21
95.04241090727351
 31
0
  0
LINE
  8
0
 62
3
 10
51.80000000000001
 20
95.04241090727351
 30
0
 11
51.5
 21
95.04241090727351
 31
0
  0
LINE
  8
0
 62
3
 10
50.30000000000001
 20
94.04241090727339
 30
0
 11
50.30000000000001
 21
95.04241090727351
 31
0
  0
LINE
  8
0
 62
3
 10
51.10000000000002
 20
94.04241090727339
 30
0
 11
50.30000000000001
 21
94.04241090727339
 31
0
  0
LINE
  8
0
 62
3
 10
52.60000000000002
 20
95.04241090727351
 30
0
 11
51.80000000000001
 21
95.04241090727351
 31
0
  0
LINE
  8
0
 62
3
 10
52.60000000000002
 20
92.71741090727352
 30
0
 11
52.60000000000002
 21
95.04241090727351
 31
0
  0
LINE
  8
0
 62
3
 10
50.30000000000001
 20
90.79241090727339
 30
0
 11
50.30000000000001
 21
91.79241090727339
 31
0
  0
LINE
  8
1
 62
3
 10
27.15183075530359
 20
14.5
 30
0
 11
44.15183075530359
 21
14.5
 31
0
  0
LINE
  8
1
 62
3
 10
44.15183075530359
 20
14.5
 30
0
 11
44.15183075530359
 21
6.99371589512505
 31
0
  0
LINE
  8
1
 62
3
 10
44.15183075530359
 20
6.99371589512505
 30
0
 11
27.15183075530359
 21
6.99371589512505
 31
0
  0
LINE
  8
1
 62
3
 10
27.15183075530359
 20
6.99371589512505
 30
0
 11
27.15183075530359
 21
14.5
 31
0
  0
LINE
  8
1
 62
3
 10
27.15183075530359
 20
14.5
 30
0
 11
44.15183075530359
 21
14.5
 31
0
  0
LINE
  8
1
 62
3
 10
44.15183075530359
 20
14.5
 30
0
 11
47.5
 21
14.5
 31
0
  0
LINE
  8
0
 62
3
 10
50.0801708036024
 20
77.39241090727353
 30
0
 11
51.80000000000001
 21
77.39241090727353
 31
0
  0
LINE
  8
0
 62
3
 10
47.4547034433326
 20
105.1924109072735
 30
0
 11
51.80000000000001
 21
105.1924109072735
 31
0
  0
LINE
  8
1
 62
2
 10
10.1026284570443
 20
68.0822467716166
 30
0
 11
100.1026284570443
 21
68.0822467716166
 31
0
  0
ARC
  8
1
 62
3
 10
17.70000000000005
 20
-17.5
 30
0
 40
1
 50
270
 51
0
  0
ARC
  8
1
 62
3
 10
17.70000000000005
 20
17.5
 30
0
 40
1
 50
0
 51
90
  0
ARC
  8
1
 62
3
 10
18.70000000000005
 20
-15.20000000000002
 30
0
 40
1.799999999999979
 50
270
 51
0
  0
ARC
  8
1
 62
3
 10
18.70000000000005
 20
12.19999999999999
 30
0
 40
1.799999999999951
 50
0
 51
90
  0
ARC
  8
1
 62
3
 10
-111.3935935394488
 20
8.433012701891983
 30
0
 40
0.3499999999999874
 50
209.9999999999818
 51
300.0000000000052
  0
ARC
  8
1
 62
3
 10
-110.8935935394489
 20
7.56698729810762
 30
0
 40
0.3499999999999879
 50
120.0000000000006
 51
210.0000000000061
  0
ARC
  8
1
 62
3
 10
-111.7596189432334
 20
7.066987298107733
 30
0
 40
0.3500000000001143
 50
29.9999999999806
 51
119.9999999999864
  0
ARC
  8
1
 62
3
 10
-112.2596189432332
 20
7.933012701892096
 30
0
 40
0.350000000000093
 50
299.9999999999745
 51
30.00000000000495
  0
ARC
  8
1
 62
3
 10
-112.0632087817195
 20
8.392820323027422
 30
0
 40
0.04999999999998725
 50
120.0000000000159
 51
209.9999999998743
  0
ARC
  8
1
 62
3
 10
-111.8900037009627
 20
8.492820323027388
 30
0
 40
0.050000000000046
 50
30.00000000016513
 51
120.0000000001147
  0
ARC
  8
1
 62
3
 10
-110.9337859183136
 20
8.236602540378158
 30
0
 40
0.05000000000005832
 50
30.00000000015698
 51
119.9999999999031
  0
ARC
  8
1
 62
3
 10
-110.8337859183135
 20
8.063397459621456
 30
0
 40
0.0499999999999299
 50
299.9999999997718
 51
30.00000000005231
  0
ARC
  8
1
 62
3
 10
-111.2632087817195
 20
7.007179676972328
 30
0
 40
0.05000000000000146
 50
210.0000000000442
 51
300.0000000001147
  0
ARC
  8
1
 62
3
 10
-111.0900037009626
 20
7.107179676972294
 30
0
 40
0.04999999999998014
 50
300.0000000000018
 51
29.99999999998717
  0
ARC
  8
1
 62
3
 10
-112.2194265643687
 20
7.263397459621501
 30
0
 40
0.05000000000001758
 50
210.0000000001087
 51
299.9999999998857
  0
ARC
  8
1
 62
3
 10
-112.3194265643688
 20
7.43660254037826
 30
0
 40
0.04999999999993701
 50
119.999999999786
 51
210.0000000001012
  0
ARC
  8
1
 62
3
 10
-124.5000000000003
 20
-16
 30
0
 40
0.3499999999999695
 50
90
 51
180
  0
ARC
  8
1
 62
3
 10
-125.5000000000003
 20
-16
 30
0
 40
0.3500000000001933
 50
0
 51
90
  0
ARC
  8
1
 62
3
 10
-125.5000000000002
 20
-15
 30
0
 40
0.35000000000014
 50
270
 51
0
  0
ARC
  8
1
 62
3
 10
-124.5000000000002
 20
-15
 30
0
 40
0.3500000000002075
 50
180
 51
270
  0
ARC
  8
1
 62
3
 10
-124.2000000000003
 20
-15.40000000000009
 30
0
 40
0.04999999999999716
 50
0
 51
90
  0
ARC
  8
1
 62
3
 10
-124.2000000000002
 20
-15.59999999999991
 30
0
 40
0.05000000000011973
 50
270
 51
0
  0
ARC
  8
1
 62
3
 10
-124.9000000000002
 20
-16.30000000000001
 30
0
 40
0.04999999999995808
 50
270
 51
0
  0
ARC
  8
1
 62
3
 10
-125.1000000000001
 20
-16.30000000000001
 30
0
 40
0.05000000000011085
 50
180
 51
270
  0
ARC
  8
1
 62
3
 10
-125.8000000000002
 20
-15.40000000000009
 30
0
 40
0.0499999999999492
 50
90
 51
180
  0
ARC
  8
1
 62
3
 10
-125.8000000000002
 20
-15.59999999999997
 30
0
 40
0.05000000000011085
 50
180
 51
270
  0
ARC
  8
1
 62
3
 10
-125.1
 20
-14.70000000000005
 30
0
 40
0.05000000000002025
 50
90
 51
180
  0
ARC
  8
1
 62
3
 10
-124.9000000000002
 20
-14.69999999999987
 30
0
 40
0.04999999999989768
 50
359.9999999997924
 51
90
  0
ARC
  8
1
 62
3
 10
-139.1064064605509
 20
7.566987298107961
 30
0
 40
0.3499999999999174
 50
330.0000000000007
 51
60.00000000001072
  0
ARC
  8
1
 62
3
 10
-138.6064064605509
 20
8.43301270189238
 30
0
 40
0.3500000000000443
 50
240.000000000002
 51
330.0000000000007
  0
ARC
  8
1
 62
3
 10
-137.7403810567665
 20
7.93301270189238
 30
0
 40
0.3500000000001427
 50
150.0000000000113
 51
240.000000000002
  0
ARC
  8
1
 62
3
 10
-138.2403810567665
 20
7.066987298107961
 30
0
 40
0.3500000000000793
 50
60.00000000001072
 51
150.0000000000113
  0
ARC
  8
1
 62
3
 10
-138.7367912182804
 20
7.007179676972669
 30
0
 40
0.04999999999994462
 50
240.0000000000687
 51
329.9999999998831
  0
ARC
  8
1
 62
3
 10
-138.9099962990371
 20
7.107179676972578
 30
0
 40
0.05000000000014534
 50
150.0000000001263
 51
239.9999999998712
  0
ARC
  8
1
 62
3
 10
-139.1662140816862
 20
8.063397459621797
 30
0
 40
0.05000000000014534
 50
150.0000000001263
 51
239.9999999999841
  0
ARC
  8
1
 62
3
 10
-139.0662140816863
 20
8.236602540378613
 30
0
 40
0.05000000000002988
 50
59.99999999989943
 51
150.0000000000123
  0
ARC
  8
1
 62
3
 10
-137.9367912182803
 20
8.392820323027763
 30
0
 40
0.04999999999997304
 50
330.0000000000123
 51
60.00000000001224
  0
ARC
  8
1
 62
3
 10
-138.1099962990371
 20
8.492820323027786
 30
0
 40
0.04999999999998725
 50
59.99999999998405
 51
150.0000000000611
  0
ARC
  8
1
 62
3
 10
-137.6805734356312
 20
7.436602540378487
 30
0
 40
0.05000000000001802
 50
330.0000000001184
 51
59.99999999999764
  0
ARC
  8
1
 62
3
 10
-137.7805734356311
 20
7.263397459621729
 30
0
 40
0.04999999999997304
 50
240.0000000000123
 51
330.0000000000687
  0
ARC
  8
1
 62
3
 10
-107
 20
-18
 30
0
 40
3.5
 50
270
 51
0
  0
ARC
  8
1
 62
3
 10
-107
 20
18
 30
0
 40
3.5
 50
0
 51
90
  0
ARC
  8
1
 62
3
 10
-143
 20
18
 30
0
 40
3.5
 50
90
 51
180
  0
ARC
  8
1
 62
3
 10
-143
 20
-18
 30
0
 40
3.499999999999886
 50
180
 51
270
  0
ARC
  8
1
 62
3
 10
130.97
 20
0
 30
0
 40
13.89999999999987
 50
292.5718242340335
 51
276.0264020426414
  0
ARC
  8
1
 62
3
 10
130.97
 20
0
 30
0
 40
13.89999999999996
 50
276.0264020426414
 51
292.5718242340335
  0
ARC
  8
1
 62
3
 10
130.97
 20
0
 30
0
 40
14.50000000000003
 50
292.22725490454
 51
276.370971372136
  0
ARC
  8
1
 62
3
 10
130.97
 20
0
 30
0
 40
13.49999999999995
 50
286.1276202131608
 51
73.87237978683918
  0
ARC
  8
1
 62
3
 10
130.97
 20
0
 30
0
 40
13.49999999999998
 50
106.1276202131608
 51
253.8723797868392
  0
ARC
  8
1
 62
1
  6
CENTER
 10
-125
 20
0
 30
0
 40
15.5
 50
22.60185787366988
 51
37.3981421263303
  0
ARC
  8
1
 62
1
  6
CENTER
 10
-125
 20
0
 30
0
 40
15.50000000000006
 50
262.6018578736699
 51
277.3981421263301
  0
ARC
  8
1
 62
1
  6
CENTER
 10
-125
 20
0
 30
0
 40
15.5
 50
142.6018578736698
 51
157.3981421263301
  0
ARC
  8
0
 62
4
 10
62
 20
-0.8500000000000227
 30
0
 40
0.3999999999999868
 50
318.5903778907338
 51
0
  0
ARC
  8
0
 62
4
 10
62
 20
0.8499999999999659
 30
0
 40
0.400000000000027
 50
0
 51
41.40962210927257
  0
ARC
  8
1
 62
3
 10
21.5
 20
-12.89999999999998
 30
0
 40
1
 50
180
 51
270
  0
ARC
  8
1
 62
3
 10
21.5
 20
12.90000000000003
 30
0
 40
1
 50
90
 51
180
  0
CIRCLE
  8
1
 62
2
 10
130.97
 20
0
 30
0
 40
0.8499999999999091
  0
CIRCLE
  8
1
 62
3
 10
130.97
 20
0
 30
0
 40
1.25
  0
CIRCLE
  8
1
 62
3
 10
130.97
 20
0
 30
0
 40
4.5
  0
CIRCLE
  8
1
 62
3
 10
130.97
 20
0
 30
0
 40
6.549999999999898
  0
CIRCLE
  8
1
 62
3
 10
130.97
 20
0
 30
0
 40
5
  0
CIRCLE
  8
1
 62
3
 10
-111.5766062413412
 20
7.75
 30
0
 40
1.5
  0
CIRCLE
  8
1
 62
3
 10
-125
 20
-15.5
 30
0
 40
1.499999999999901
  0
CIRCLE
  8
1
 62
3
 10
-138.4233937586588
 20
7.75
 30
0
 40
1.5
  0
CIRCLE
  8
1
 62
3
 10
-143
 20
-18
 30
0
 40
1.75
  0
CIRCLE
  8
1
 62
3
 10
-143
 20
18
 30
0
 40
1.75
  0
CIRCLE
  8
1
 62
3
 10
-107
 20
18
 30
0
 40
1.75
  0
CIRCLE
  8
1
 62
3
 10
-107
 20
-18
 30
0
 40
1.75
  0
CIRCLE
  8
1
 62
3
 10
-125
 20
0
 30
0
 40
18
  0
CIRCLE
  8
1
 62
3
 10
-125
 20
7
 30
0
 40
3
  0
CIRCLE
  8
1
 62
3
 10
-125
 20
7
 30
0
 40
6
  0
CIRCLE
  8
0
 62
3
 10
57.30000000000001
 20
91.29241090727351
 30
0
 40
0.6000000000000156
  0
CIRCLE
  8
0
 62
3
 10
57.30000000000001
 20
91.29241090727351
 30
0
 40
0.6000000000000156
  0
TEXT
  8
1
 62
2
 10
133.4104067823378
 20
-32.15911534819259
 30
0
 40
3.5
  1
   (BLACK)
 41
0.8910000000000004
  0
TEXT
  8
1
 62
2
 10
133.4104067823378
 20
-25.15911534819259
 30
0
 40
3.5
  1
(ü|)TERMINAL
 41
0.8910000000000004
  0
TEXT
  8
1
 62
2
 10
90.61669748230679
 20
22.25
 30
0
 40
3.5
  1
    (RED)
 41
0.8910000000000004
  0
TEXT
  8
1
 62
2
 10
90.61669748230679
 20
29.25
 30
0
 40
3.5
  1
(ü{)TERMINAL
 41
0.8910000000000004
  0
TEXT
  8
1
 62
2
 10
23.71636098606369
 20
30.400954955285
 30
0
 40
3.5
  1
NAME PLATE
 41
0.8910000000000004
 72
1
 73
2
 11
39.3088609860637
 21
32.150954955285
 31
0
  0
TEXT
  8
1
 62
2
 10
7.772769274953781
 20
69.33043841440239
 30
0
 40
3.5
  1
DETAIL DRAWING (+)(-) TERMINAL
 41
0.8910000000000004
 72
1
 73
2
 11
54.5502692749538
 21
71.08043841440239
 31
0
  0
TEXT
  8
1
 62
2
 10
-14.28162869999979
 20
-68.39999990326609
 30
0
 40
4.5
  1
DMN29B43G50üáü`DMN29B43G100üá
 41
0.891
  0
DIMENSION
  8
1
  6
CONTINUOUS
 62
2
  2
*D0
  3
DMST_1
 10
-2.799999999999951
 20
52.1865654874798
 30
0
 11
27.02676509352667
 21
55.7865654874798
 31
0
 12
0
 22
0
 32
0
 70
0
 13
62.5
 23
5
 33
0
 14
-2.799999999999949
 24
21.5
 34
0
 53
0
  0
DIMENSION
  8
1
  6
CONTINUOUS
 62
2
  2
*D1
  3
DMST_1
 10
-2.799999999999947
 20
42.4053818898157
 30
0
 11
7.227334024277942
 21
46.0053818898157
 31
0
 12
0
 22
0
 32
0
 70
0
 13
20.5
 23
12.90000000000003
 33
0
 14
-2.799999999999949
 24
21.5
 34
0
 53
0
  0
DIMENSION
  8
1
  6
CONTINUOUS
 62
2
  2
*D2
  3
DMST_2
 10
155.4768407529398
 20
12.29980776764609
 30
0
 11
152.8768407529398
 21
0
 31
0
 12
0
 22
0
 32
0
 70
0
  1
24.6
 13
133.6699999999998
 23
-12.29980776764609
 33
0
 14
133.6699999999998
 24
12.29980776764609
 34
0
 50
90
 53
0
  0
DIMENSION
  8
1
  6
CONTINUOUS
 62
2
  2
*D3
  3
DMST_3
 10
-10
 20
42.4335350972577
 30
0
 11
-17.30312915307478
 21
44.1235350972577
 31
0
 12
0
 22
0
 32
0
 70
0
 13
-2.799999999999949
 23
21.5
 33
0
 14
-10
 24
13
 34
0
 53
0
  0
DIMENSION
  8
1
  6
CONTINUOUS
 62
2
  2
*D4
  3
DMST_3
 10
-2.799999999999949
 20
52.4540739398335
 30
0
 11
-13.89999999999996
 21
54.1440739398335
 31
0
 12
0
 22
0
 32
0
 70
0
 13
-24.99999999999997
 23
9.5
 33
0
 14
-2.799999999999949
 24
21.5
 34
0
 53
0
  0
DIMENSION
  8
1
  6
CONTINUOUS
 62
2
  2
*D5
  3
DMST_3
 10
9.207349186685601
 20
-18.5
 30
0
 11
7.517349186685601
 21
-28.4045645888603
 31
0
 12
0
 22
0
 32
0
 70
0
  1
37
 13
17.70000000000005
 23
18.5
 33
0
 14
17.70000000000005
 24
-18.5
 34
0
 50
90
 53
0
  0
DIMENSION
  8
1
  6
CONTINUOUS
 62
2
  2
*D6
  3
DMST_3
 10
-12.99999999999997
 20
32.40999999999998
 30
0
 11
-18.99999999999997
 21
34.09999999999997
 31
0
 12
0
 22
0
 32
0
 70
0
 13
-24.99999999999997
 23
9.5
 33
0
 14
-12.99999999999997
 24
10
 34
0
 53
0
  0
DIMENSION
  8
1
  6
CONTINUOUS
 62
2
  2
*D7
  3
DMST_4
 10
-35.81102694212871
 20
9.499999999999998
 30
0
 11
-37.5010269421287
 21
23.5987072610852
 31
0
 12
0
 22
0
 32
0
 70
0
 13
-24.99999999999997
 23
4
 33
0
 14
-24.99999999999997
 24
9.5
 34
0
 50
90
 53
0
  0
DIMENSION
  8
1
  6
CONTINUOUS
 62
2
  2
*D8
  3
DMST_5
 10
-45.87139664129504
 20
9.999999999999998
 30
0
 11
-48.36139664129504
 21
23.5987072610852
 31
0
 12
0
 22
0
 32
0
 70
0
  1
6
 13
-24.99999999999997
 23
4
 33
0
 14
-12.99999999999997
 24
10
 34
0
 50
90
 53
0
  0
DIMENSION
  8
1
  6
CONTINUOUS
 62
2
  2
*D9
  3
DMST_6
 10
-55.45733357496663
 20
13
 30
0
 11
-57.14733357496663
 21
23.2584873746529
 31
0
 12
0
 22
0
 32
0
 70
0
  1
12
 13
-10
 23
1
 33
0
 14
-10
 24
13
 34
0
 50
90
 53
0
  0
DIMENSION
  8
1
  6
CONTINUOUS
 62
2
  2
*D10
  3
DMST_3
 10
-1.800000000000069
 20
32.403849235648
 30
0
 11
4.149440215859301
 21
34.093849235648
 31
0
 12
0
 22
0
 32
0
 70
0
 13
-2.799999999999949
 23
21.5
 33
0
 14
-1.80000000000007
 24
21.5
 34
0
 53
0
  0
DIMENSION
  8
1
  6
CONTINUOUS
 62
2
  2
*D11
  3
DMST_7
 10
-103.5
 20
41.4889815150419
 30
0
 11
-124.9999999999999
 21
44.0889815150419
 31
0
 12
0
 22
0
 32
0
 70
0
  1
43
 13
-146.4999999999999
 23
18
 33
0
 14
-103.5
 24
18
 34
0
 53
0
  0
DIMENSION
  8
1
  6
CONTINUOUS
 62
2
  2
*D12
  3
DMST_8
 10
-143
 20
31.49999999999997
 30
0
 11
-125
 21
34.09999999999997
 31
0
 12
0
 22
0
 32
0
 70
0
 13
-107
 23
15.5
 33
0
 14
-143
 24
15.5
 34
0
 53
0
  0
DIMENSION
  8
1
  6
CONTINUOUS
 62
2
  2
*D13
  3
DMST_3
 10
75.38999999999999
 20
5
 30
0
 11
73.69999999999999
 21
0
 31
0
 12
0
 22
0
 32
0
 70
0
  1
10
 13
62.5
 23
-5
 33
0
 14
62.5
 24
5
 34
0
 50
90
 53
0
  0
DIMENSION
  8
1
  6
CONTINUOUS
 62
2
  2
*D14
  3
DMST_3
 10
62.5
 20
43.0909758054583
 30
0
 11
71.2130684739855
 21
44.7809758054583
 31
0
 12
0
 22
0
 32
0
 70
0
 13
59.30000000000001
 23
13.38459935896481
 33
0
 14
62.5
 24
5
 34
0
 53
0
  0
DIMENSION
  8
1
  6
CONTINUOUS
 62
2
  2
*D15
  3
DMST_9
 10
71.50440636242246
 20
92.69241090727358
 30
0
 11
68.90440636242244
 21
110.7389552266197
 31
0
 12
0
 22
0
 32
0
 70
0
  1
2.8
 13
58.30000000000001
 23
89.89241090727364
 33
0
 14
58.30000000000001
 24
92.6924109072736
 34
0
 50
90
 53
0
  0
DIMENSION
  8
1
  6
CONTINUOUS
 62
2
  2
*D16
  3
DMST_3
 10
51.80000000000001
 20
110.1924109072735
 30
0
 11
55.30000000000001
 21
112.7924109072735
 31
0
 12
0
 22
0
 32
0
 70
0
 13
58.80000000000001
 23
92.1924109072736
 33
0
 14
51.80000000000001
 24
105.1924109072735
 34
0
 53
0
  0
DIMENSION
  8
1
  6
CONTINUOUS
 62
2
  2
*D17
  3
DMST_10
 10
-90.2466329348599
 20
6.999999999999998
 30
0
 11
-93.8466329348599
 21
15.5214818244081
 31
0
 12
0
 22
0
 32
0
 70
0
 13
-100.5
 23
0
 33
0
 14
-116.8492007090347
 24
7
 34
0
 50
90
 53
0
  0
DIMENSION
  8
1
  6
CONTINUOUS
 62
2
  2
*D18
  3
DMST_10
 10
-156.680568759311
 20
18
 30
0
 11
-160.280568759311
 21
0.279792990195787
 31
0
 12
0
 22
0
 32
0
 70
1
 13
-145.5
 23
-18
 33
0
 14
-145.5
 24
18
 34
0
 53
0
  0
DIMENSION
  8
1
  6
CONTINUOUS
 62
2
  2
*D19
  3
DMST_11
 10
-143
 20
-18
 30
0
 11
-138.6269128056078
 21
-28.87380333315338
 31
0
 12
0
 22
0
 32
0
 70
4
  1
3.5
 15
-143.92478368524
 25
-19.48569012095856
 35
0
 40
0
 53
0
  0
INSERT
  8
0
  2
_D22
 10
0
 20
0
 30
0
  0
INSERT
  8
0
  2
_D18
 10
2.5
 20
0
 30
0
  0
INSERT
  8
1
  2
*D20
 10
0
 20
0
 30
0
  0
ENDSEC
  0
EOF
