  0
SECTION
  2
HEADER
  9
$ACADVER
  1
AC1009
  9
$INSBASE
 10
0
 20
0
  9
$EXTMIN
 10
326.920081123116
 20
241.0056640913156
  9
$EXTMAX
 10
640.5018759407428
 20
430.7526192212017
  9
$LIMMIN
 10
326.920081123116
 20
241.0056640913156
  9
$LIMMAX
 10
640.5018759407428
 20
430.7526192212017
  9
$VIEWCTR
 10
10
 20
10
  9
$VIEWSIZE
 40
10
  9
$SNAPMODE
 70
0
  9
$SNAPUNIT
 10
1
 20
1
  9
$SNAPBASE
 10
0
 20
0
  9
$SNAPANG
 50
0
  9
$SNAPSTYLE
 70
0
  9
$SNAPISOPAIR
 70
0
  9
$GRIDMODE
 70
0
  9
$GRIDUNIT
 10
0
 20
0
  9
$ORTHOMODE
 70
0
  9
$REGENMODE
 70
1
  9
$FILLMODE
 70
1
  9
$QTEXTMODE
 70
0
  9
$DRAGMODE
 70
2
  9
$LTSCALE
 40
1
  9
$OSMODE
 70
0
  9
$ATTMODE
 70
1
  9
$TEXTSIZE
 40
3.5
  9
$TRACEWID
 40
0.5
  9
$TEXTSTYLE
  7
STANDARD
  9
$CLAYER
  8
0
  9
$CELTYPE
  6
BYLAYER
  9
$CECOLOR
 62
256
  9
$DIMSCALE
 40
1
  9
$DIMASZ
 40
0.18
  9
$DIMEXO
 40
0.0625
  9
$DIMDLI
 40
0.38
  9
$DIMRND
 40
0
  9
$DIMDLE
 40
0
  9
$DIMEXE
 40
0.18
  9
$DIMTP
 40
0
  9
$DIMTM
 40
0
  9
$DIMTXT
 40
0.18
  9
$DIMCEN
 40
0.09
  9
$DIMTSZ
 40
0
  9
$DIMTOL
 70
0
  9
$DIMLIM
 70
0
  9
$DIMTIH
 70
1
  9
$DIMTOH
 70
1
  9
$DIMSE1
 70
0
  9
$DIMSE2
 70
0
  9
$DIMTAD
 70
0
  9
$DIMZIN
 70
0
  9
$DIMBLK
  1

  9
$DIMASO
 70
1
  9
$DIMSHO
 70
1
  9
$DIMPOST
  1

  9
$DIMAPOST
  1

  9
$DIMALT
 70
0
  9
$DIMALTD
 70
2
  9
$DIMALTF
 40
25.4
  9
$DIMLFAC
 40
1
  9
$DIMTOFL
 70
0
  9
$DIMTVP
 40
0
  9
$DIMTIX
 70
0
  9
$DIMSOXD
 70
0
  9
$DIMSAH
 70
0
  9
$DIMBLK1
  1

  9
$DIMBLK2
  1

  9
$DIMSTYLE
  2
*UNNAMED
  9
$DIMCLRD
 70
0
  9
$DIMCLRE
 70
0
  9
$DIMCLRT
 70
0
  9
$DIMTFAC
 40
1
  9
$DIMGAP
 40
0.09
  9
$LUNITS
 70
2
  9
$LUPREC
 70
4
  9
$AXISMODE
 70
0
  9
$AXISUNIT
 10
0
 20
0
  9
$SKETCHINC
 40
0.1
  9
$FILLETRAD
 40
2
  9
$AUNITS
 70
0
  9
$AUPREC
 70
0
  9
$MENU
  1
ACAD
  9
$ELEVATION
 40
0
  9
$THICKNESS
 40
0
  9
$VIEWDIR
 10
0
 20
0
 30
1
  9
$LIMCHECK
 70
0
  9
$BLIPMODE
 70
1
  9
$CHAMFERA
 40
0
  9
$CHAMFERB
 40
0
  9
$FASTZOOM
 70
1
  9
$SKPOLY
 70
0
  9
$ANGBASE
 50
0
  9
$ANGDIR
 70
0
  9
$PDMODE
 70
0
  9
$PDSIZE
 40
0
  9
$PLINEWID
 40
0
  9
$COORDS
 70
2
  0
ENDSEC
  0
SECTION
  2
TABLES
  0
TABLE
  2
DIMSTYLE
 70
9
  0
DIMSTYLE
  2
DMST_1
 70
0
  3

  4

  5

  6

  7

 40
1
 41
3.2
 42
1
 43
7
 44
1.5
 45
0
 46
0
 47
0
 48
0
140
3.2
141
0
142
0
143
25.4
144
1
145
0
146
1
147
0.09
 71
0
 72
0
 73
0
 74
0
 75
0
 76
0
 77
1
 78
9
170
0
171
2
172
0
173
0
174
0
175
0
176
2
177
2
178
2
  0
DIMSTYLE
  2
DMST_2
 70
0
  3

  4

  5

  6

  7

 40
1
 41
3.2
 42
1
 43
7
 44
1
 45
0
 46
0
 47
0.5
 48
0.5
140
3.2
141
0
142
0
143
25.4
144
1
145
0
146
0.6
147
0.09
 71
1
 72
0
 73
0
 74
0
 75
0
 76
0
 77
1
 78
1
170
0
171
2
172
0
173
0
174
0
175
0
176
2
177
2
178
2
  0
DIMSTYLE
  2
DMST_3
 70
0
  3

  4

  5

  6

  7

 40
1
 41
3.2
 42
1
 43
7
 44
1
 45
0
 46
0
 47
0.1
 48
0.1
140
3.2
141
0
142
0
143
25.4
144
1
145
0
146
0.6
147
0.09
 71
1
 72
0
 73
1
 74
1
 75
0
 76
0
 77
1
 78
1
170
0
171
2
172
0
173
0
174
0
175
0
176
2
177
2
178
2
  0
DIMSTYLE
  2
DMST_4
 70
0
  3

  4

  5

  6

  7

 40
1
 41
3.2
 42
1
 43
7
 44
1
 45
0
 46
0
 47
0
 48
0
140
3.2
141
0
142
0
143
25.4
144
1
145
0
146
1
147
0.09
 71
0
 72
0
 73
1
 74
1
 75
0
 76
0
 77
1
 78
1
170
0
171
2
172
0
173
0
174
0
175
0
176
2
177
2
178
2
  0
DIMSTYLE
  2
DMST_5
 70
0
  3

  4

  5

  6

  7

 40
1
 41
3.2
 42
1
 43
7
 44
1
 45
0
 46
0
 47
0
 48
0.02
140
3.2
141
0
142
0
143
25.4
144
1
145
0
146
0.6
147
0.09
 71
1
 72
0
 73
0
 74
0
 75
0
 76
0
 77
1
 78
1
170
0
171
2
172
0
173
0
174
0
175
0
176
2
177
2
178
2
  0
DIMSTYLE
  2
DMST_6
 70
0
  3

  4

  5

  6

  7

 40
1
 41
3.2
 42
1
 43
7
 44
1
 45
0
 46
0
 47
0
 48
0
140
3.2
141
0
142
0
143
25.4
144
1
145
0
146
1
147
0.09
 71
0
 72
0
 73
0
 74
0
 75
0
 76
0
 77
1
 78
1
170
0
171
2
172
0
173
0
174
0
175
0
176
2
177
2
178
2
  0
DIMSTYLE
  2
DMST_7
 70
0
  3

  4

  5

  6

  7

 40
1
 41
3.2
 42
1
 43
7
 44
1
 45
0
 46
0
 47
0.2
 48
0.2
140
3.2
141
0
142
0
143
25.4
144
1
145
0
146
0.6
147
0.09
 71
1
 72
0
 73
0
 74
0
 75
0
 76
0
 77
1
 78
1
170
0
171
2
172
0
173
0
174
0
175
0
176
2
177
2
178
2
  0
DIMSTYLE
  2
DMST_8
 70
0
  3
)
  4

  5

  6

  7

 40
1
 41
3.2
 42
1
 43
7
 44
1
 45
0
 46
0
 47
0
 48
0
140
3.2
141
0
142
0
143
25.4
144
1
145
0
146
1
147
0.09
 71
0
 72
0
 73
0
 74
0
 75
0
 76
0
 77
1
 78
1
170
0
171
2
172
0
173
0
174
0
175
0
176
2
177
2
178
2
  0
DIMSTYLE
  2
DMST_9
 70
0
  3
ü~0.5
  4

  5

  6

  7

 40
1
 41
3.2
 42
1
 43
7
 44
1
 45
0
 46
0
 47
0
 48
0
140
3.2
141
0
142
0
143
25.4
144
1
145
0
146
1
147
0.09
 71
0
 72
0
 73
0
 74
0
 75
0
 76
0
 77
1
 78
1
170
0
171
2
172
0
173
0
174
0
175
0
176
2
177
2
178
2
  0
ENDTAB
  0
TABLE
  2
LTYPE
 70
9
  0
LTYPE
  2
CONTINUOUS
 70
64
  3
Solid line
 72
65
 73
0
 40
0
  0
LTYPE
  2
BORDER
 70
64
  3
__ __ . __ __ .
 72
65
 73
6
 40
14.44126686660124
 49
4.126076247600353
 49
-2.063038123800177
 49
4.126076247600353
 49
-2.063038123800177
 49
0
 49
-2.063038123800177
  0
LTYPE
  2
CENTER
 70
64
  3
____ _ ____ _
 72
65
 73
4
 40
16.50430499040141
 49
10.31519061900088
 49
-2.063038123800177
 49
2.063038123800177
 49
-2.063038123800177
  0
LTYPE
  2
DASHDOT
 70
64
  3
__ . __ . __ .
 72
65
 73
4
 40
8.252152495200706
 49
4.126076247600353
 49
-2.063038123800177
 49
0
 49
-2.063038123800177
  0
LTYPE
  2
DASHED
 70
64
  3
__ __ __ __ __
 72
65
 73
2
 40
6.18911437140053
 49
4.126076247600353
 49
-2.063038123800177
  0
LTYPE
  2
DIVIDE
 70
64
  3
__ . . __ . . 
 72
65
 73
6
 40
10.31519061900088
 49
4.126076247600353
 49
-2.063038123800177
 49
0
 49
-2.063038123800177
 49
0
 49
-2.063038123800177
  0
LTYPE
  2
DOT
 70
64
  3
..............
 72
65
 73
4
 40
4.126076247600353
 49
0
 49
-2.063038123800177
 49
0
 49
-2.063038123800177
  0
LTYPE
  2
HIDDEN
 70
64
  3
_ _ _ _ _ _ _
 72
65
 73
2
 40
3.094557185700265
 49
2.063038123800177
 49
-1.031519061900088
  0
LTYPE
  2
PHANTOM
 70
64
  3
_____ _ _ _____ _ _ 
 72
65
 73
6
 40
20.63038123800176
 49
10.31519061900088
 49
-2.063038123800177
 49
2.063038123800177
 49
-2.063038123800177
 49
2.063038123800177
 49
-2.063038123800177
  0
ENDTAB
  0
TABLE
  2
LAYER
 70
3
  0
LAYER
  2
0
 70
0
 62
7
  6
CONTINUOUS
  0
LAYER
  2
1
 70
0
 62
7
  6
CONTINUOUS
  0
ENDTAB
  0
TABLE
  2
STYLE
 70
4
  0
STYLE
  2
STANDARD
 70
0
 40
0
 41
1
 50
0
 71
0
 42
3.5
  3
txt
  4

  0
STYLE
  2
SIMPLEX
 70
0
 40
0
 41
1
 50
0
 71
0
 42
3.5
  3
simplex
  4

  0
STYLE
  2
COMPLEX
 70
0
 40
0
 41
1
 50
0
 71
0
 42
3.5
  3
complex
  4

  0
STYLE
  2
ITALIC
 70
0
 40
0
 41
1
 50
0
 71
0
 42
3.5
  3
italic
  4

  0
ENDTAB
  0
TABLE
  2
VIEW
 70
0
  0
ENDTAB
  0
ENDSEC
  0
SECTION
  2
BLOCKS
  0
BLOCK
  8
1
  2
*X0
 70
1
 10
0
 20
0
 30
0
  0
LINE
  8
1
 62
2
 10
356.8694240499804
 20
286.0164312817612
 30
0
 11
356.8694240499802
 21
286.1338772368945
 31
0
  0
LINE
  8
1
 62
2
 10
356.9694240499804
 20
285.7631408079572
 30
0
 11
356.9694240499802
 21
285.9980327182254
 31
0
  0
LINE
  8
1
 62
2
 10
357.0694240499805
 20
285.5098503341532
 30
0
 11
357.0694240499802
 21
285.8621881995563
 31
0
  0
LINE
  8
1
 62
2
 10
357.1694240499805
 20
285.2565598603492
 30
0
 11
357.1694240499803
 21
285.7263436808872
 31
0
  0
LINE
  8
1
 62
2
 10
357.2694240499805
 20
285.0032693865452
 30
0
 11
357.2694240499803
 21
285.5904991622181
 31
0
  0
LINE
  8
1
 62
2
 10
357.3694240499805
 20
284.7499789127413
 30
0
 11
357.3694240499803
 21
285.454654643549
 31
0
  0
LINE
  8
1
 62
2
 10
357.4694240499806
 20
284.4966884389373
 30
0
 11
357.4694240499803
 21
285.3188101248799
 31
0
  0
LINE
  8
1
 62
2
 10
357.5694240499806
 20
284.2433979651333
 30
0
 11
357.5694240499803
 21
285.1829656062108
 31
0
  0
LINE
  8
1
 62
2
 10
357.6694240499806
 20
283.9901074913293
 30
0
 11
357.6694240499804
 21
285.0471210875417
 31
0
  0
LINE
  8
1
 62
2
 10
357.7694240499806
 20
283.7368170175253
 30
0
 11
357.7694240499804
 21
284.9112765688726
 31
0
  0
LINE
  8
1
 62
2
 10
357.8694240499806
 20
283.4835265437213
 30
0
 11
357.8694240499804
 21
284.7754320502035
 31
0
  0
LINE
  8
1
 62
2
 10
357.9694240499804
 20
283.2765493418888
 30
0
 11
357.9694240499804
 21
284.6395875315344
 31
0
  0
LINE
  8
1
 62
2
 10
358.0694240499805
 20
283.3318689554757
 30
0
 11
358.0694240499805
 21
284.5037430128653
 31
0
  0
LINE
  8
1
 62
2
 10
358.1694240499805
 20
283.3871885690626
 30
0
 11
358.1694240499805
 21
284.3678984941962
 31
0
  0
LINE
  8
1
 62
2
 10
358.2694240499805
 20
283.4425081826495
 30
0
 11
358.2694240499805
 21
284.2320539755271
 31
0
  0
LINE
  8
1
 62
2
 10
358.3694240499805
 20
283.4978277962364
 30
0
 11
358.3694240499805
 21
284.096209456858
 31
0
  0
LINE
  8
1
 62
2
 10
358.4694240499806
 20
283.5531474098233
 30
0
 11
358.4694240499806
 21
283.9603649381889
 31
0
  0
LINE
  8
1
 62
2
 10
358.5694240499806
 20
283.6084670234102
 30
0
 11
358.5694240499806
 21
283.8245204195198
 31
0
  0
LINE
  8
1
 62
2
 10
358.6694240499806
 20
283.6637866369971
 30
0
 11
358.6694240499806
 21
283.6886759008507
 31
0
  0
ENDBLK
  8
0
  0
BLOCK
  8
0
  2
_D18
 70
0
 10
0
 20
0
 30
0
  0
INSERT
  8
1
  2
*X0
 10
0
 20
0
 30
0
  0
LINE
  8
1
 62
2
 10
363.5538534134309
 20
274.005663994582
 30
0
 11
411.9538534134309
 21
274.005663994582
 31
0
  0
LINE
  8
1
 62
2
 10
356.7694240499826
 20
286.2697217555604
 30
0
 11
363.5538534134309
 21
274.005663994582
 31
0
  0
TEXT
  8
1
 62
2
 10
381.5538534134309
 20
275.005663994582
 30
0
 40
3.2
  1
DEPTH 4MAX
 41
0.8910000000000004
  0
TEXT
  8
1
 62
2
 10
368.7538534134309
 20
275.005663994582
 30
0
 40
3.2
  1
3-M
 41
0.8910000000000004
  0
TEXT
  8
1
 62
2
 10
378.0338534134309
 20
275.005663994582
 30
0
 40
3.2
  1
3
 41
0.8910000000000004
  0
ENDBLK
  8
0
  0
BLOCK
  8
1
  2
*X1
 70
1
 10
0
 20
0
 30
0
  0
LINE
  8
1
 62
2
 10
599.5205494008468
 20
318.3350298115523
 30
0
 11
599.5205494008468
 21
318.6698219898526
 31
0
  0
LINE
  8
1
 62
2
 10
599.6205494008468
 20
318.0178703313159
 30
0
 11
599.6205494008468
 21
318.6874546879234
 31
0
  0
LINE
  8
1
 62
2
 10
599.7205494008468
 20
317.7007108510796
 30
0
 11
599.7205494008468
 21
318.7050873859942
 31
0
  0
LINE
  8
1
 62
2
 10
599.8205494008469
 20
317.3835513708432
 30
0
 11
599.8205494008469
 21
318.722720084065
 31
0
  0
LINE
  8
1
 62
2
 10
599.9205494008469
 20
317.0663918906069
 30
0
 11
599.9205494008469
 21
318.7403527821359
 31
0
  0
LINE
  8
1
 62
2
 10
600.0205494008469
 20
316.7492324103706
 30
0
 11
600.0205494008469
 21
318.7579854802067
 31
0
  0
LINE
  8
1
 62
2
 10
600.1205494008469
 20
316.4320729301342
 30
0
 11
600.1205494008469
 21
318.7756181782775
 31
0
  0
LINE
  8
1
 62
2
 10
600.220549400847
 20
316.1149134498979
 30
0
 11
600.220549400847
 21
318.7932508763483
 31
0
  0
LINE
  8
1
 62
2
 10
600.320549400847
 20
315.7977539696615
 30
0
 11
600.320549400847
 21
318.8108835744192
 31
0
  0
LINE
  8
1
 62
2
 10
600.420549400847
 20
315.4805944894252
 30
0
 11
600.420549400847
 21
316.6951495166817
 31
0
  0
ENDBLK
  8
0
  0
BLOCK
  8
1
  2
*X2
 70
1
 10
0
 20
0
 30
0
  0
LINE
  8
1
 62
2
 10
605.4752616925488
 20
285.9070631243833
 30
0
 11
605.4752616925485
 21
287.1216181515592
 31
0
  0
LINE
  8
1
 62
2
 10
605.5752616925486
 20
283.7913290665514
 30
0
 11
605.5752616925486
 21
286.8044586713229
 31
0
  0
LINE
  8
1
 62
2
 10
605.6752616925486
 20
283.8089617646223
 30
0
 11
605.6752616925486
 21
286.4872991910866
 31
0
  0
LINE
  8
1
 62
2
 10
605.7752616925486
 20
283.8265944626931
 30
0
 11
605.7752616925486
 21
286.1701397108502
 31
0
  0
LINE
  8
1
 62
2
 10
605.8752616925486
 20
283.8442271607639
 30
0
 11
605.8752616925486
 21
285.8529802306139
 31
0
  0
LINE
  8
1
 62
2
 10
605.9752616925487
 20
283.8618598588348
 30
0
 11
605.9752616925487
 21
285.5358207503775
 31
0
  0
LINE
  8
1
 62
2
 10
606.0752616925487
 20
283.8794925569056
 30
0
 11
606.0752616925487
 21
285.2186612701412
 31
0
  0
LINE
  8
1
 62
2
 10
606.1752616925487
 20
283.8971252549764
 30
0
 11
606.1752616925487
 21
284.9015017899048
 31
0
  0
LINE
  8
1
 62
2
 10
606.2752616925487
 20
283.9147579530472
 30
0
 11
606.2752616925487
 21
284.5843423096685
 31
0
  0
LINE
  8
1
 62
2
 10
606.3752616925488
 20
283.9323906511181
 30
0
 11
606.3752616925488
 21
284.2671828294322
 31
0
  0
ENDBLK
  8
0
  0
BLOCK
  8
1
  2
*X3
 70
1
 10
0
 20
0
 30
0
  0
LINE
  8
1
 62
2
 10
503.8868511144494
 20
317.6368236093829
 30
0
 11
503.8868511144499
 21
317.8127926681715
 31
0
  0
LINE
  8
1
 62
2
 10
503.9868511144495
 20
317.556451833879
 30
0
 11
503.98685111445
 21
317.9083899514592
 31
0
  0
LINE
  8
1
 62
2
 10
504.0868511144495
 20
317.476080058375
 30
0
 11
504.08685111445
 21
318.003987234747
 31
0
  0
LINE
  8
1
 62
2
 10
504.1868511144495
 20
317.395708282871
 30
0
 11
504.18685111445
 21
318.0995845180348
 31
0
  0
LINE
  8
1
 62
2
 10
504.2868511144495
 20
317.315336507367
 30
0
 11
504.28685111445
 21
318.1951818013225
 31
0
  0
LINE
  8
1
 62
2
 10
504.3868511144495
 20
317.234964731863
 30
0
 11
504.3868511144501
 21
318.2907790846103
 31
0
  0
LINE
  8
1
 62
2
 10
504.4868511144496
 20
317.1545929563591
 30
0
 11
504.4868511144496
 21
318.3077747554386
 31
0
  0
LINE
  8
1
 62
2
 10
504.5868511144496
 20
317.0742211808551
 30
0
 11
504.5868511144496
 21
318.1711948164423
 31
0
  0
LINE
  8
1
 62
2
 10
504.6868511144496
 20
316.9938494053511
 30
0
 11
504.6868511144496
 21
318.0346148774459
 31
0
  0
LINE
  8
1
 62
2
 10
504.7868511144496
 20
316.9134776298471
 30
0
 11
504.7868511144496
 21
317.8980349384495
 31
0
  0
LINE
  8
1
 62
2
 10
504.8868511144497
 20
316.8331058543432
 30
0
 11
504.8868511144497
 21
317.7614549994532
 31
0
  0
LINE
  8
1
 62
2
 10
504.9868511144497
 20
316.7527340788392
 30
0
 11
504.9868511144497
 21
317.6248750604568
 31
0
  0
LINE
  8
1
 62
2
 10
505.0868511144497
 20
316.6723623033352
 30
0
 11
505.0868511144497
 21
317.4882951214605
 31
0
  0
LINE
  8
1
 62
2
 10
505.1868511144497
 20
316.5919905278312
 30
0
 11
505.1868511144497
 21
317.3517151824641
 31
0
  0
LINE
  8
1
 62
2
 10
505.2868511144498
 20
316.5116187523273
 30
0
 11
505.2868511144498
 21
317.2151352434677
 31
0
  0
LINE
  8
1
 62
2
 10
505.3868511144498
 20
316.4312469768233
 30
0
 11
505.3868511144498
 21
317.0785553044714
 31
0
  0
LINE
  8
1
 62
2
 10
505.4868511144498
 20
316.3508752013193
 30
0
 11
505.4868511144498
 21
316.941975365475
 31
0
  0
LINE
  8
1
 62
2
 10
505.5868511144498
 20
316.2705034258153
 30
0
 11
505.5868511144498
 21
316.8053954264786
 31
0
  0
LINE
  8
1
 62
2
 10
505.6868511144498
 20
316.1901316503113
 30
0
 11
505.6868511144498
 21
316.6688154874823
 31
0
  0
LINE
  8
1
 62
2
 10
505.7868511144499
 20
316.1097598748074
 30
0
 11
505.7868511144499
 21
316.5322355484859
 31
0
  0
LINE
  8
1
 62
2
 10
505.8868511144499
 20
316.0293880993034
 30
0
 11
505.8868511144499
 21
316.3956556094896
 31
0
  0
LINE
  8
1
 62
2
 10
505.9868511144499
 20
315.9490163237994
 30
0
 11
505.9868511144499
 21
316.2590756704932
 31
0
  0
LINE
  8
1
 62
2
 10
506.0868511144499
 20
315.8686445482954
 30
0
 11
506.0868511144499
 21
316.1224957314968
 31
0
  0
LINE
  8
1
 62
2
 10
506.18685111445
 20
315.7882727727915
 30
0
 11
506.18685111445
 21
315.9859157925005
 31
0
  0
LINE
  8
1
 62
2
 10
506.28685111445
 20
315.7079009972875
 30
0
 11
506.28685111445
 21
315.8493358535041
 31
0
  0
LINE
  8
1
 62
2
 10
506.38685111445
 20
315.6275292217835
 30
0
 11
506.38685111445
 21
315.7127559145077
 31
0
  0
LINE
  8
1
 62
2
 10
506.48685111445
 20
315.5471574462795
 30
0
 11
506.48685111445
 21
315.5761759755114
 31
0
  0
ENDBLK
  8
0
  0
BLOCK
  8
1
  2
*D0
 70
1
 10
0
 20
0
 30
0
  0
LINE
  8
1
 62
2
 10
463.551079006672
 20
349.233671287311
 30
0
 11
532.8510790066721
 21
349.233671287311
 31
0
  0
LINE
  8
1
 62
2
 10
532.8510790066721
 20
307.005663994582
 30
0
 11
532.8510790066721
 21
350.733671287311
 31
0
  0
LINE
  8
1
 62
2
 10
463.551079006672
 20
320.0082435130573
 30
0
 11
463.551079006672
 21
350.733671287311
 31
0
  0
SOLID
  8
1
 62
2
 10
532.8510790066721
 20
349.233671287311
 30
0
 11
529.651079006672
 21
348.817671287311
 31
0
 12
529.651079006672
 22
349.649671287311
 32
0
 13
529.651079006672
 23
349.649671287311
 33
0
  0
SOLID
  8
1
 62
2
 10
463.551079006672
 20
349.233671287311
 30
0
 11
466.7510790066719
 21
349.649671287311
 31
0
 12
466.7510790066719
 22
348.817671287311
 32
0
 13
466.7510790066719
 23
348.817671287311
 33
0
  0
TEXT
  8
1
 62
2
 10
493.7996122184998
 20
351.233671287311
 30
0
 40
3.2
  1
69.3
 41
0.9
  0
ENDBLK
  8
0
  0
BLOCK
  8
1
  2
*D1
 70
1
 10
0
 20
0
 30
0
  0
LINE
  8
1
 62
2
 10
463.5510790066719
 20
339.386503622326
 30
0
 11
490.851079006672
 21
339.386503622326
 31
0
  0
LINE
  8
1
 62
2
 10
490.851079006672
 20
319.5056639945819
 30
0
 11
490.851079006672
 21
340.886503622326
 31
0
  0
LINE
  8
1
 62
2
 10
463.5510790066719
 20
320.0082435130573
 30
0
 11
463.5510790066719
 21
340.886503622326
 31
0
  0
SOLID
  8
1
 62
2
 10
463.5510790066719
 20
339.386503622326
 30
0
 11
466.7510790066719
 21
339.802503622326
 31
0
 12
466.7510790066719
 22
338.970503622326
 32
0
 13
466.7510790066719
 23
338.970503622326
 33
0
  0
SOLID
  8
1
 62
2
 10
490.851079006672
 20
339.386503622326
 30
0
 11
487.651079006672
 21
338.970503622326
 31
0
 12
487.651079006672
 22
339.802503622326
 32
0
 13
487.651079006672
 23
339.802503622326
 33
0
  0
TEXT
  8
1
 62
2
 10
472.412313575509
 20
341.386503622326
 30
0
 40
3.2
  1
27.3
 41
0.9
  0
ENDBLK
  8
0
  0
BLOCK
  8
1
  2
*D2
 70
1
 10
0
 20
0
 30
0
  0
LINE
  8
1
 62
2
 10
386.7933273025049
 20
294.6056639945821
 30
0
 11
386.7933273025049
 21
301.0056639945821
 31
0
  0
LINE
  8
1
 62
2
 10
386.7933273025049
 20
301.0056639945821
 30
0
 11
386.7933273025049
 21
308.0056639945821
 31
0
  0
LINE
  8
1
 62
2
 10
386.7933273025049
 20
308.0056639945821
 30
0
 11
386.7933273025049
 21
323.0977907555171
 31
0
  0
LINE
  8
1
 62
2
 10
371.0588910506883
 20
301.0056639945821
 30
0
 11
387.7933273025049
 21
301.0056639945821
 31
0
  0
LINE
  8
1
 62
2
 10
357.4441265934701
 20
308.0056639945821
 30
0
 11
387.7933273025049
 21
308.0056639945821
 31
0
  0
SOLID
  8
1
 62
2
 10
386.7933273025049
 20
301.0056639945821
 30
0
 11
386.3773273025049
 21
304.2056639945821
 31
0
 12
387.2093273025049
 22
304.2056639945821
 32
0
 13
387.2093273025049
 23
304.2056639945821
 33
0
  0
SOLID
  8
1
 62
2
 10
386.7933273025049
 20
308.0056639945821
 30
0
 11
387.2093273025049
 21
304.8056639945821
 31
0
 12
386.3773273025049
 22
304.8056639945821
 32
0
 13
386.3773273025049
 23
304.8056639945821
 33
0
  0
TEXT
  8
1
 62
2
 10
385.7933273025049
 20
314.729790755517
 30
0
 40
3.2
  1
7
 50
90
 41
0.8910000000000001
  0
TEXT
  8
1
 62
2
 10
385.1533273025048
 20
318.249790755517
 30
0
 40
1.92
  1
%%p0.5
 50
90
 41
0.8910000000000001
  0
ENDBLK
  8
0
  0
BLOCK
  8
1
  2
*D3
 70
1
 10
0
 20
0
 30
0
  0
LINE
  8
1
 62
2
 10
342.293327302505
 20
328.005663994582
 30
0
 11
354.293327302505
 21
328.005663994582
 31
0
  0
LINE
  8
1
 62
2
 10
342.293327302505
 20
328.005663994582
 30
0
 11
354.293327302505
 21
328.005663994582
 31
0
  0
LINE
  8
1
 62
2
 10
342.293327302505
 20
309.0056639945819
 30
0
 11
342.293327302505
 21
329.005663994582
 31
0
  0
LINE
  8
1
 62
2
 10
354.293327302505
 20
309.0056639945819
 30
0
 11
354.293327302505
 21
329.005663994582
 31
0
  0
SOLID
  8
1
 62
2
 10
354.293327302505
 20
328.005663994582
 30
0
 11
351.093327302505
 21
327.589663994582
 31
0
 12
351.093327302505
 22
328.421663994582
 32
0
 13
351.093327302505
 23
328.421663994582
 33
0
  0
SOLID
  8
1
 62
2
 10
342.293327302505
 20
328.005663994582
 30
0
 11
345.493327302505
 21
328.421663994582
 31
0
 12
345.493327302505
 22
327.589663994582
 32
0
 13
345.493327302505
 23
327.589663994582
 33
0
  0
TEXT
  8
1
 62
2
 10
341.837327302505
 20
329.005663994582
 30
0
 40
3.2
  1
%%c12
 41
0.8910000000000001
  0
TEXT
  8
1
 62
2
 10
350.4773273025051
 20
329.645663994582
 30
0
 40
1.92
  1
%%p0.1
 41
0.8910000000000001
  0
ENDBLK
  8
0
  0
BLOCK
  8
1
  2
*D4
 70
1
 10
0
 20
0
 30
0
  0
LINE
  8
1
 62
2
 10
329.793327302505
 20
348.0056639945821
 30
0
 11
366.793327302505
 21
348.0056639945821
 31
0
  0
LINE
  8
1
 62
2
 10
329.793327302505
 20
348.0056639945821
 30
0
 11
366.793327302505
 21
348.0056639945821
 31
0
  0
LINE
  8
1
 62
2
 10
329.793327302505
 20
302.0056639945819
 30
0
 11
329.793327302505
 21
349.0056639945821
 31
0
  0
LINE
  8
1
 62
2
 10
366.793327302505
 20
302.0056639945819
 30
0
 11
366.793327302505
 21
349.0056639945821
 31
0
  0
SOLID
  8
1
 62
2
 10
366.793327302505
 20
348.0056639945821
 30
0
 11
363.593327302505
 21
347.5896639945821
 31
0
 12
363.593327302505
 22
348.4216639945821
 32
0
 13
363.593327302505
 23
348.4216639945821
 33
0
  0
SOLID
  8
1
 62
2
 10
329.793327302505
 20
348.0056639945821
 30
0
 11
332.993327302505
 21
348.4216639945821
 31
0
 12
332.993327302505
 22
347.5896639945821
 32
0
 13
332.993327302505
 23
347.5896639945821
 33
0
  0
TEXT
  8
1
 62
2
 10
344.293327302505
 20
349.0056639945821
 30
0
 40
3.2
  1
%%c37
 41
0.8910000000000001
  0
ENDBLK
  8
0
  0
BLOCK
  8
1
  2
*D5
 70
1
 10
0
 20
0
 30
0
  0
LINE
  8
1
 62
2
 10
421.6410790066719
 20
311.005663994582
 30
0
 11
421.6410790066719
 21
333.7703352528621
 31
0
  0
LINE
  8
1
 62
2
 10
421.6410790066719
 20
305.005663994582
 30
0
 11
421.6410790066719
 21
311.005663994582
 31
0
  0
LINE
  8
1
 62
2
 10
421.6410790066719
 20
298.605663994582
 30
0
 11
421.6410790066719
 21
305.005663994582
 31
0
  0
LINE
  8
1
 62
2
 10
453.5510790066719
 20
311.005663994582
 30
0
 11
420.6410790066719
 21
311.005663994582
 31
0
  0
LINE
  8
1
 62
2
 10
441.5510790066719
 20
305.005663994582
 30
0
 11
420.6410790066719
 21
305.005663994582
 31
0
  0
SOLID
  8
1
 62
2
 10
421.6410790066719
 20
311.005663994582
 30
0
 11
421.2250790066719
 21
314.205663994582
 31
0
 12
422.0570790066719
 22
314.205663994582
 32
0
 13
422.0570790066719
 23
314.205663994582
 33
0
  0
SOLID
  8
1
 62
2
 10
421.6410790066719
 20
305.005663994582
 30
0
 11
422.0570790066719
 21
301.805663994582
 31
0
 12
421.2250790066719
 22
301.805663994582
 32
0
 13
421.2250790066719
 23
301.805663994582
 33
0
  0
TEXT
  8
1
 62
2
 10
420.7510790066719
 20
323.4741752528621
 30
0
 40
3.2
  1
6
 50
90
 41
0.8910000000000001
  0
TEXT
  8
1
 62
2
 10
418.6710790066719
 20
326.9749752528621
 30
0
 40
1.92
  1
 0
 50
90
 41
0.8910000000000001
  0
TEXT
  8
1
 62
2
 10
421.5510790066719
 20
326.9749752528621
 30
0
 40
1.92
  1
-0.02
 50
90
 41
0.8910000000000001
  0
TEXT
  8
1
 62
2
 10
420.7510790066719
 20
319.6565752528621
 30
0
 40
3.2
  1
%%c
 50
90
 41
0.8910000000000001
  0
ENDBLK
  8
0
  0
BLOCK
  8
1
  2
*D6
 70
1
 10
0
 20
0
 30
0
  0
LINE
  8
1
 62
2
 10
442.5510790066719
 20
329.415663994582
 30
0
 11
454.5510790066719
 21
329.415663994582
 31
0
  0
LINE
  8
1
 62
2
 10
454.5510790066719
 20
312.005663994582
 30
0
 11
454.5510790066719
 21
330.415663994582
 31
0
  0
LINE
  8
1
 62
2
 10
442.5510790066719
 20
311.505663994582
 30
0
 11
442.5510790066719
 21
330.415663994582
 31
0
  0
SOLID
  8
1
 62
2
 10
454.5510790066719
 20
329.415663994582
 30
0
 11
451.3510790066719
 21
328.999663994582
 31
0
 12
451.3510790066719
 22
329.831663994582
 32
0
 13
451.3510790066719
 23
329.831663994582
 33
0
  0
SOLID
  8
1
 62
2
 10
442.5510790066719
 20
329.415663994582
 30
0
 11
445.7510790066719
 21
329.831663994582
 31
0
 12
445.7510790066719
 22
328.999663994582
 32
0
 13
445.7510790066719
 23
328.999663994582
 33
0
  0
TEXT
  8
1
 62
2
 10
446.6502790066719
 20
329.505663994582
 30
0
 40
3.2
  1
12
 41
0.8910000000000001
  0
ENDBLK
  8
0
  0
BLOCK
  8
1
  2
*D7
 70
1
 10
0
 20
0
 30
0
  0
LINE
  8
1
 62
2
 10
431.6410790066719
 20
310.505663994582
 30
0
 11
431.6410790066719
 21
332.240679687534
 31
0
  0
LINE
  8
1
 62
2
 10
431.6410790066719
 20
305.005663994582
 30
0
 11
431.6410790066719
 21
310.505663994582
 31
0
  0
LINE
  8
1
 62
2
 10
431.6410790066719
 20
298.605663994582
 30
0
 11
431.6410790066719
 21
305.005663994582
 31
0
  0
LINE
  8
1
 62
2
 10
441.5510790066719
 20
310.505663994582
 30
0
 11
430.6410790066719
 21
310.505663994582
 31
0
  0
LINE
  8
1
 62
2
 10
441.5510790066719
 20
305.005663994582
 30
0
 11
430.6410790066719
 21
305.005663994582
 31
0
  0
SOLID
  8
1
 62
2
 10
431.6410790066719
 20
310.505663994582
 30
0
 11
431.2250790066719
 21
313.705663994582
 31
0
 12
432.0570790066719
 22
313.705663994582
 32
0
 13
432.0570790066719
 23
313.705663994582
 33
0
  0
SOLID
  8
1
 62
2
 10
431.6410790066719
 20
305.005663994582
 30
0
 11
432.0570790066719
 21
301.805663994582
 31
0
 12
431.2250790066719
 22
301.805663994582
 32
0
 13
431.2250790066719
 23
301.805663994582
 33
0
  0
TEXT
  8
1
 62
2
 10
431.5510790066719
 20
320.946599687534
 30
0
 40
3.2
  1
5.5
 50
90
 41
0.8910000000000001
  0
TEXT
  8
1
 62
2
 10
430.9110790066719
 20
328.486599687534
 30
0
 40
1.92
  1
%%p0.2
 50
90
 41
0.8910000000000001
  0
ENDBLK
  8
0
  0
BLOCK
  8
1
  2
*D8
 70
1
 10
0
 20
0
 30
0
  0
LINE
  8
1
 62
2
 10
442.5510790066719
 20
349.415663994582
 30
0
 11
463.5510790066719
 21
349.415663994582
 31
0
  0
LINE
  8
1
 62
2
 10
463.5510790066719
 20
320.0082435130573
 30
0
 11
463.5510790066719
 21
350.415663994582
 31
0
  0
LINE
  8
1
 62
2
 10
442.5510790066719
 20
311.505663994582
 30
0
 11
442.5510790066719
 21
350.415663994582
 31
0
  0
SOLID
  8
1
 62
2
 10
442.5510790066719
 20
349.415663994582
 30
0
 11
445.7510790066719
 21
349.831663994582
 31
0
 12
445.7510790066719
 22
348.999663994582
 32
0
 13
445.7510790066719
 23
348.999663994582
 33
0
  0
SOLID
  8
1
 62
2
 10
463.5510790066719
 20
349.415663994582
 30
0
 11
460.3510790066719
 21
348.999663994582
 31
0
 12
460.3510790066719
 22
349.831663994582
 32
0
 13
460.3510790066719
 23
349.831663994582
 33
0
  0
TEXT
  8
1
 62
2
 10
451.1502790066719
 20
349.505663994582
 30
0
 40
3.2
  1
21
 41
0.8910000000000001
  0
ENDBLK
  8
0
  0
BLOCK
  8
1
  2
*D9
 70
1
 10
0
 20
0
 30
0
  0
LINE
  8
1
 62
2
 10
463.5510790066719
 20
339.415663994582
 30
0
 11
469.9510790066719
 21
339.415663994582
 31
0
  0
LINE
  8
1
 62
2
 10
457.5510790066719
 20
339.415663994582
 30
0
 11
451.1510790066719
 21
339.415663994582
 31
0
  0
LINE
  8
1
 62
2
 10
457.5510790066719
 20
339.415663994582
 30
0
 11
463.5510790066719
 21
339.415663994582
 31
0
  0
LINE
  8
1
 62
2
 10
463.5510790066719
 20
320.0082435130573
 30
0
 11
463.5510790066719
 21
340.415663994582
 31
0
  0
LINE
  8
1
 62
2
 10
457.5510790066719
 20
315.005663994582
 30
0
 11
457.5510790066719
 21
340.415663994582
 31
0
  0
SOLID
  8
1
 62
2
 10
457.5510790066719
 20
339.415663994582
 30
0
 11
454.3510790066719
 21
338.999663994582
 31
0
 12
454.3510790066719
 22
339.831663994582
 32
0
 13
454.3510790066719
 23
339.831663994582
 33
0
  0
SOLID
  8
1
 62
2
 10
463.5510790066719
 20
339.415663994582
 30
0
 11
466.7510790066719
 21
339.831663994582
 31
0
 12
466.7510790066719
 22
338.999663994582
 32
0
 13
466.7510790066719
 23
338.999663994582
 33
0
  0
TEXT
  8
1
 62
2
 10
459.6006790066719
 20
339.505663994582
 30
0
 40
3.2
  1
6
 41
0.8910000000000001
  0
ENDBLK
  8
0
  0
BLOCK
  8
1
  2
*D10
 70
1
 10
0
 20
0
 30
0
  0
LINE
  8
1
 62
2
 10
332.793327302505
 20
339.105663994582
 30
0
 11
363.793327302505
 21
339.105663994582
 31
0
  0
LINE
  8
1
 62
2
 10
332.793327302505
 20
339.105663994582
 30
0
 11
363.793327302505
 21
339.105663994582
 31
0
  0
LINE
  8
1
 62
2
 10
363.793327302505
 20
302.0056639945819
 30
0
 11
363.793327302505
 21
340.105663994582
 31
0
  0
LINE
  8
1
 62
2
 10
332.793327302505
 20
302.0056639945819
 30
0
 11
332.793327302505
 21
340.105663994582
 31
0
  0
SOLID
  8
1
 62
2
 10
363.793327302505
 20
339.105663994582
 30
0
 11
360.593327302505
 21
338.689663994582
 31
0
 12
360.593327302505
 22
339.521663994582
 32
0
 13
360.593327302505
 23
339.521663994582
 33
0
  0
SOLID
  8
1
 62
2
 10
332.793327302505
 20
339.105663994582
 30
0
 11
335.993327302505
 21
339.521663994582
 31
0
 12
335.993327302505
 22
338.689663994582
 32
0
 13
335.993327302505
 23
338.689663994582
 33
0
  0
TEXT
  8
1
 62
2
 10
345.069327302505
 20
340.105663994582
 30
0
 40
3.2
  1
31
 41
0.8910000000000001
  0
TEXT
  8
1
 62
2
 10
350.509327302505
 20
340.745663994582
 30
0
 40
1.92
  1
%%p0.2
 41
0.8910000000000001
  0
TEXT
  8
1
 62
2
 10
341.229327302505
 20
340.105663994582
 30
0
 40
3.2
  1
%%c
 41
0.8910000000000001
  0
ENDBLK
  8
0
  0
BLOCK
  8
1
  2
*D11
 70
1
 10
0
 20
0
 30
0
  0
LINE
  8
1
 62
2
 10
553.2777456733387
 20
286.505663994582
 30
0
 11
553.2777456733387
 21
315.505663994582
 31
0
  0
LINE
  8
1
 62
2
 10
518.8510790066721
 20
286.505663994582
 30
0
 11
554.2777456733387
 21
286.505663994582
 31
0
  0
LINE
  8
1
 62
2
 10
518.8510790066721
 20
315.505663994582
 30
0
 11
554.2777456733387
 21
315.505663994582
 31
0
  0
SOLID
  8
1
 62
2
 10
553.2777456733387
 20
286.505663994582
 30
0
 11
552.8617456733387
 21
289.705663994582
 31
0
 12
553.6937456733388
 22
289.705663994582
 32
0
 13
553.6937456733388
 23
289.705663994582
 33
0
  0
SOLID
  8
1
 62
2
 10
553.2777456733387
 20
315.505663994582
 30
0
 11
553.6937456733388
 21
312.305663994582
 31
0
 12
552.8617456733387
 22
312.305663994582
 32
0
 13
552.8617456733387
 23
312.305663994582
 33
0
  0
TEXT
  8
1
 62
2
 10
552.2777456733387
 20
300.525663994582
 30
0
 40
3.2
  1
29
 50
90
 41
0.8910000000000001
  0
TEXT
  8
1
 62
2
 10
552.2777456733387
 20
296.685663994582
 30
0
 40
3.2
  1
%%c
 50
90
 41
0.8910000000000001
  0
ENDBLK
  8
0
  0
BLOCK
  8
1
  2
*D12
 70
1
 10
0
 20
0
 30
0
  0
LINE
  8
1
 62
2
 10
627.50684075294
 20
288.7058562269359
 30
0
 11
627.50684075294
 21
313.3054717622281
 31
0
  0
LINE
  8
1
 62
2
 10
606.6999999999999
 20
288.7058562269359
 30
0
 11
628.50684075294
 21
288.7058562269359
 31
0
  0
LINE
  8
1
 62
2
 10
606.6999999999999
 20
313.3054717622281
 30
0
 11
628.50684075294
 21
313.3054717622281
 31
0
  0
SOLID
  8
1
 62
2
 10
627.50684075294
 20
288.7058562269359
 30
0
 11
627.0908407529399
 21
291.9058562269359
 31
0
 12
627.92284075294
 22
291.9058562269359
 32
0
 13
627.92284075294
 23
291.9058562269359
 33
0
  0
SOLID
  8
1
 62
2
 10
627.50684075294
 20
313.3054717622281
 30
0
 11
627.92284075294
 21
310.1054717622281
 31
0
 12
627.0908407529399
 22
310.1054717622281
 32
0
 13
627.0908407529399
 23
310.1054717622281
 33
0
  0
TEXT
  8
1
 62
2
 10
626.50684075294
 20
296.645663994582
 30
0
 40
3.2
  1
24.6
 50
90
 41
0.8910000000000001
  0
TEXT
  8
1
 62
2
 10
626.50684075294
 20
294.565663994582
 30
0
 40
3.2
  1
(
 50
90
 41
0.8910000000000001
  0
TEXT
  8
1
 62
2
 10
629.67484075294
 20
306.965663994582
 30
0
 40
3.2
  1
)
 50
90
 41
0.8910000000000001
  0
ENDBLK
  8
0
  0
BLOCK
  8
1
  2
*D13
 70
1
 10
0
 20
0
 30
0
  0
LINE
  8
1
 62
2
 10
542.8510790066721
 20
296.005663994582
 30
0
 11
542.8510790066721
 21
306.005663994582
 31
0
  0
LINE
  8
1
 62
2
 10
533.8510790066721
 20
296.005663994582
 30
0
 11
543.8510790066721
 21
296.005663994582
 31
0
  0
LINE
  8
1
 62
2
 10
533.8510790066721
 20
306.005663994582
 30
0
 11
543.8510790066721
 21
306.005663994582
 31
0
  0
SOLID
  8
1
 62
2
 10
542.8510790066721
 20
296.005663994582
 30
0
 11
542.435079006672
 21
299.205663994582
 31
0
 12
543.2670790066721
 22
299.205663994582
 32
0
 13
543.2670790066721
 23
299.205663994582
 33
0
  0
SOLID
  8
1
 62
2
 10
542.8510790066721
 20
306.005663994582
 30
0
 11
543.2670790066721
 21
302.805663994582
 31
0
 12
542.435079006672
 22
302.805663994582
 32
0
 13
542.435079006672
 23
302.805663994582
 33
0
  0
TEXT
  8
1
 62
2
 10
541.8510790066721
 20
301.005663994582
 30
0
 40
3.2
  1
10
 50
90
 41
0.8910000000000001
  0
TEXT
  8
1
 62
2
 10
541.8510790066721
 20
297.165663994582
 30
0
 40
3.2
  1
%%c
 50
90
 41
0.8910000000000001
  0
ENDBLK
  8
0
  0
BLOCK
  8
1
  2
*D14
 70
1
 10
0
 20
0
 30
0
  0
LINE
  8
1
 62
2
 10
523.2510790066721
 20
338.505663994582
 30
0
 11
529.651079006672
 21
338.505663994582
 31
0
  0
LINE
  8
1
 62
2
 10
532.8510790066721
 20
338.505663994582
 30
0
 11
543.089174244767
 21
338.505663994582
 31
0
  0
LINE
  8
1
 62
2
 10
529.651079006672
 20
338.505663994582
 30
0
 11
532.8510790066721
 21
338.505663994582
 31
0
  0
LINE
  8
1
 62
2
 10
532.8510790066721
 20
338.505663994582
 30
0
 11
543.089174244767
 21
338.505663994582
 31
0
  0
LINE
  8
1
 62
2
 10
529.651079006672
 20
315.3902633535468
 30
0
 11
529.651079006672
 21
339.505663994582
 31
0
  0
LINE
  8
1
 62
2
 10
532.8510790066721
 20
307.005663994582
 30
0
 11
532.8510790066721
 21
339.505663994582
 31
0
  0
SOLID
  8
1
 62
2
 10
532.8510790066721
 20
338.505663994582
 30
0
 11
529.651079006672
 21
338.089663994582
 31
0
 12
529.651079006672
 22
338.921663994582
 32
0
 13
529.651079006672
 23
338.921663994582
 33
0
  0
SOLID
  8
1
 62
2
 10
529.651079006672
 20
338.505663994582
 30
0
 11
532.8510790066721
 21
338.921663994582
 31
0
 12
532.8510790066721
 22
338.089663994582
 32
0
 13
532.8510790066721
 23
338.089663994582
 33
0
  0
TEXT
  8
1
 62
2
 10
537.089174244767
 20
339.505663994582
 30
0
 40
3.2
  1
3.2
 41
0.8910000000000001
  0
ENDBLK
  8
0
  0
BLOCK
  8
1
  2
*D15
 70
1
 10
0
 20
0
 30
0
  0
LINE
  8
1
 62
2
 10
549.3554853690945
 20
393.6980749018555
 30
0
 11
549.3554853690945
 21
424.1257956917899
 31
0
  0
LINE
  8
1
 62
2
 10
549.3554853690945
 20
390.8980749018556
 30
0
 11
549.3554853690945
 21
393.6980749018555
 31
0
  0
LINE
  8
1
 62
2
 10
549.3554853690945
 20
384.4980749018556
 30
0
 11
549.3554853690945
 21
390.8980749018556
 31
0
  0
LINE
  8
1
 62
2
 10
537.151079006672
 20
390.8980749018556
 30
0
 11
550.3554853690945
 21
390.8980749018556
 31
0
  0
LINE
  8
1
 62
2
 10
537.151079006672
 20
393.6980749018555
 30
0
 11
550.3554853690945
 21
393.6980749018555
 31
0
  0
SOLID
  8
1
 62
2
 10
549.3554853690945
 20
390.8980749018556
 30
0
 11
548.9394853690944
 21
394.0980749018556
 31
0
 12
549.7714853690945
 22
394.0980749018556
 32
0
 13
549.7714853690945
 23
394.0980749018556
 33
0
  0
SOLID
  8
1
 62
2
 10
549.3554853690945
 20
393.6980749018555
 30
0
 11
549.7714853690945
 21
390.4980749018555
 31
0
 12
548.9394853690944
 22
390.4980749018555
 32
0
 13
548.9394853690944
 23
390.4980749018555
 33
0
  0
TEXT
  8
1
 62
2
 10
548.3554853690945
 20
406.921089809437
 30
0
 40
3.2
  1
2.8
 50
90
 41
0.8910000000000001
  0
TEXT
  8
1
 62
2
 10
548.3554853690945
 20
399.2034427506134
 30
0
 40
3.2
  1
éQü|
 50
90
 41
0.8910000000000001
  0
TEXT
  8
1
 62
2
 10
551.5234853690945
 20
414.5210898094369
 30
0
 40
3.2
  1
ü~0.5
 50
90
 41
0.8910000000000001
  0
ENDBLK
  8
0
  0
BLOCK
  8
1
  2
*D16
 70
1
 10
0
 20
0
 30
0
  0
LINE
  8
1
 62
2
 10
529.651079006672
 20
411.1980749018555
 30
0
 11
536.651079006672
 21
411.1980749018555
 31
0
  0
LINE
  8
1
 62
2
 10
536.651079006672
 20
411.1980749018555
 30
0
 11
543.051079006672
 21
411.1980749018555
 31
0
  0
LINE
  8
1
 62
2
 10
529.651079006672
 20
411.1980749018555
 30
0
 11
523.2510790066721
 21
411.1980749018555
 31
0
  0
LINE
  8
1
 62
2
 10
536.651079006672
 20
411.1980749018555
 30
0
 11
543.051079006672
 21
411.1980749018555
 31
0
  0
LINE
  8
1
 62
2
 10
529.651079006672
 20
407.1980749018555
 30
0
 11
529.651079006672
 21
412.1980749018555
 31
0
  0
LINE
  8
1
 62
2
 10
536.651079006672
 20
394.1980749018556
 30
0
 11
536.651079006672
 21
412.1980749018555
 31
0
  0
SOLID
  8
1
 62
2
 10
536.651079006672
 20
411.1980749018555
 30
0
 11
539.8510790066721
 21
411.6140749018555
 31
0
 12
539.8510790066721
 22
410.7820749018555
 32
0
 13
539.8510790066721
 23
410.7820749018555
 33
0
  0
SOLID
  8
1
 62
2
 10
529.651079006672
 20
411.1980749018555
 30
0
 11
526.451079006672
 21
410.7820749018555
 31
0
 12
526.451079006672
 22
411.6140749018555
 32
0
 13
526.451079006672
 23
411.6140749018555
 33
0
  0
TEXT
  8
1
 62
2
 10
532.191079006672
 20
412.1980749018555
 30
0
 40
3.2
  1
7
 41
0.8910000000000001
  0
ENDBLK
  8
0
  0
BLOCK
  8
1
  2
*D17
 70
1
 10
0
 20
0
 30
0
  0
LINE
  8
1
 62
2
 10
545.7046961908964
 20
379.4637666509489
 30
0
 11
559.6246961908964
 21
379.4637666509489
 31
0
  0
LINE
  8
1
 62
2
 10
535.532163009017
 20
391.8346366825029
 30
0
 11
545.7046961908964
 21
379.4637666509489
 31
0
  0
SOLID
  8
1
 62
2
 10
535.532163009017
 20
391.8346366825029
 30
0
 11
537.8859281869416
 21
389.6271844209148
 31
0
 12
537.2432938561059
 22
389.0987479376631
 32
0
 13
537.2432938561059
 23
389.0987479376631
 33
0
  0
TEXT
  8
1
 62
2
 10
554.7446961908964
 20
380.4637666509489
 30
0
 40
3.2
  1
1.2
 41
0.8910000000000001
  0
TEXT
  8
1
 62
2
 10
550.9046961908964
 20
380.4637666509489
 30
0
 40
3.2
  1
%%c
 41
0.8910000000000001
  0
ENDBLK
  8
0
  0
ENDSEC
  0
SECTION
  2
ENTITIES
  0
INSERT
  8
1
  2
*X1
 10
0
 20
0
 30
0
  0
INSERT
  8
1
  2
*X2
 10
0
 20
0
 30
0
  0
INSERT
  8
1
  2
*X3
 10
0
 20
0
 30
0
  0
POLYLINE
  8
1
 62
3
 66
1
  0
VERTEX
  8
1
 10
527.9312498102744
 20
378.3980749018555
 30
0
 42
0.0429863827860812
  0
VERTEX
  8
1
 10
526.8091226641438
 20
381.1325024763482
 30
0
 42
0.064103440273239
  0
VERTEX
  8
1
 10
525.1293607500961
 20
383.5733185368322
 30
0
 42
0.0741618762776487
  0
VERTEX
  8
1
 10
523.1937858688244
 20
385.2053429947333
 30
0
 42
-0.03147100946690071
  0
VERTEX
  8
1
 10
521.534820410801
 20
386.4126561906285
 30
0
 42
-0.1213881381458214
  0
VERTEX
  8
1
 10
520.3829719033495
 20
388.0237371447232
 30
0
 42
-0.09041020664263669
  0
VERTEX
  8
1
 10
520.0142426929532
 20
390.1404228467345
 30
0
 42
-0.06568364225452092
  0
VERTEX
  8
1
 10
520.3253996110169
 20
392.3973111762333
 30
0
 42
-0.0570574989264199
  0
VERTEX
  8
1
 10
521.2639493890658
 20
394.6540411699659
 30
0
 42
0.03292771833994555
  0
VERTEX
  8
1
 10
522.4087150179828
 20
396.9070858819575
 30
0
 42
0.05013265371422397
  0
VERTEX
  8
1
 10
522.8865319329414
 20
398.789941672323
 30
0
 42
0.01157185282294758
  0
VERTEX
  8
1
 10
523.1373902836315
 20
400.774252726086
 30
0
 42
-0.02491961949455909
  0
VERTEX
  8
1
 10
523.4390469200444
 20
402.7462347866559
 30
0
 42
-0.06423884780075012
  0
VERTEX
  8
1
 10
524.0692586921716
 20
404.5921035974425
 30
0
 42
-0.09199770479411093
  0
VERTEX
  8
1
 10
525.3057824500046
 20
406.1980749018555
 30
0
  0
SEQEND
  8
1
  0
LINE
  8
1
 62
2
 10
598.1510080305172
 20
328.505663994582
 30
0
 11
600.4821014238295
 21
315.285376413259
 31
0
  0
LINE
  8
1
 62
2
 10
565.393935152657
 20
328.505663994582
 30
0
 11
598.1510080305172
 21
328.505663994582
 31
0
  0
LINE
  8
1
 62
2
 10
607.7448030628826
 20
274.0965486463894
 30
0
 11
605.4137096695704
 21
287.3168362277123
 31
0
  0
LINE
  8
1
 62
2
 10
640.5018759407428
 20
274.0965486463894
 30
0
 11
607.7448030628826
 21
274.0965486463894
 31
0
  0
LINE
  8
1
 62
2
 10
492.8476129764
 20
329.8270595004296
 30
0
 11
506.5384780088882
 21
315.505663994582
 31
0
  0
LINE
  8
1
 62
2
 10
527.2729107378175
 20
329.8270595004296
 30
0
 11
492.8476129764
 21
329.8270595004296
 31
0
  0
LINE
  8
1
 62
3
 10
599.25
 20
308.0056639945819
 30
0
 11
602.5
 21
308.0056639945819
 31
0
  0
LINE
  8
1
 62
3
 10
599.25
 20
294.0056639945821
 30
0
 11
602.5
 21
294.0056639945821
 31
0
  0
LINE
  8
1
 62
3
 10
606.75
 20
294.0056639945821
 30
0
 11
606.75
 21
287.6210646356173
 31
0
  0
LINE
  8
1
 62
3
 10
599.25
 20
294.0056639945821
 30
0
 11
599.25
 21
287.6210646356173
 31
0
  0
LINE
  8
1
 62
3
 10
603.9
 20
288.4558562269359
 30
0
 11
604.4
 21
288.4558562269359
 31
0
  0
LINE
  8
1
 62
3
 10
603.9
 20
288.9558562269359
 30
0
 11
604.4
 21
288.9558562269359
 31
0
  0
LINE
  8
1
 62
3
 10
603.9
 20
288.9558562269359
 30
0
 11
603.9
 21
288.4558562269359
 31
0
  0
LINE
  8
1
 62
3
 10
604.4
 20
288.9558562269359
 30
0
 11
604.4
 21
288.4558562269359
 31
0
  0
LINE
  8
1
 62
3
 10
601.6
 20
288.9558562269359
 30
0
 11
601.6
 21
288.4558562269359
 31
0
  0
LINE
  8
1
 62
3
 10
602.1
 20
288.4558562269359
 30
0
 11
602.5
 21
288.4558562269359
 31
0
  0
LINE
  8
1
 62
3
 10
602.1
 20
288.9558562269359
 30
0
 11
602.5
 21
288.9558562269359
 31
0
  0
LINE
  8
1
 62
3
 10
602.1
 20
288.9558562269359
 30
0
 11
602.1
 21
288.4558562269359
 31
0
  0
LINE
  8
1
 62
3
 10
604.4
 20
313.5554717622281
 30
0
 11
604.4
 21
313.0554717622281
 31
0
  0
LINE
  8
1
 62
3
 10
601.6
 20
313.5554717622281
 30
0
 11
601.6
 21
313.0554717622281
 31
0
  0
LINE
  8
1
 62
3
 10
602.1
 20
313.0554717622281
 30
0
 11
602.5
 21
313.0554717622281
 31
0
  0
LINE
  8
1
 62
3
 10
602.1
 20
313.5554717622281
 30
0
 11
602.5
 21
313.5554717622281
 31
0
  0
LINE
  8
1
 62
3
 10
602.1
 20
313.5554717622281
 30
0
 11
602.1
 21
313.0554717622281
 31
0
  0
LINE
  8
1
 62
3
 10
603.9
 20
313.0554717622281
 30
0
 11
604.4
 21
313.0554717622281
 31
0
  0
LINE
  8
1
 62
3
 10
603.9
 20
313.5554717622281
 30
0
 11
604.4
 21
313.5554717622281
 31
0
  0
LINE
  8
1
 62
3
 10
603.9
 20
313.5554717622281
 30
0
 11
603.9
 21
313.0554717622281
 31
0
  0
LINE
  8
1
 62
3
 10
601.6
 20
288.4558562269359
 30
0
 11
602.1
 21
288.4558562269359
 31
0
  0
LINE
  8
1
 62
3
 10
601.6
 20
288.9558562269359
 30
0
 11
602.1
 21
288.9558562269359
 31
0
  0
LINE
  8
1
 62
3
 10
601.6
 20
313.0554717622281
 30
0
 11
602.1
 21
313.0554717622281
 31
0
  0
LINE
  8
1
 62
3
 10
601.6
 20
313.5554717622281
 30
0
 11
602.1
 21
313.5554717622281
 31
0
  0
LINE
  8
1
 62
3
 10
464.0484928343701
 20
319.5082368247253
 30
0
 11
490.0510790066719
 21
319.655663994582
 31
0
  0
LINE
  8
1
 62
3
 10
490.0510790066719
 20
282.355663994582
 30
0
 11
464.0484928343702
 21
282.5030911644388
 31
0
  0
LINE
  8
1
 62
3
 10
463.5510790066719
 20
319.0082435130573
 30
0
 11
463.5510790066719
 21
283.0030844761068
 31
0
  0
LINE
  8
1
 62
3
 10
490.0510790066719
 20
282.355663994582
 30
0
 11
490.0510790066719
 21
319.655663994582
 31
0
  0
LINE
  8
1
 62
1
 10
338.7295706693776
 20
317.5705763943826
 30
0
 11
342.4922419161763
 21
311.0534386227482
 31
0
  0
LINE
  8
1
 62
1
 10
340.0066014952662
 20
308.005663994582
 30
0
 11
356.4441265934701
 21
308.005663994582
 31
0
  0
LINE
  8
1
 62
1
 10
348.293327302505
 20
279.2355498873925
 30
0
 11
348.293327302505
 21
322.8687874359113
 31
0
  0
LINE
  8
1
 62
1
 10
337.4680097551994
 20
307.255663994582
 30
0
 11
332.2718573324928
 21
310.255663994582
 31
0
  0
LINE
  8
1
 62
1
 10
359.1186448498104
 20
307.255663994582
 30
0
 11
364.314797272517
 21
310.255663994582
 31
0
  0
LINE
  8
1
 62
1
 10
356.6433273025049
 20
315.4682882377821
 30
0
 11
357.168327302505
 21
316.3776149117559
 31
0
  0
LINE
  8
1
 62
1
 10
354.918327302505
 20
312.4805005947258
 30
0
 11
356.6433273025049
 21
315.4682882377821
 31
0
  0
LINE
  8
1
 62
1
 10
356.6433273025049
 20
286.5430397513819
 30
0
 11
357.168327302505
 21
285.6337130774082
 31
0
  0
LINE
  8
1
 62
1
 10
354.918327302505
 20
289.5308273944382
 30
0
 11
356.6433273025049
 21
286.5430397513819
 31
0
  0
LINE
  8
1
 62
1
 10
341.668327302505
 20
289.5308273944382
 30
0
 11
339.418327302505
 21
285.6337130774082
 31
0
  0
LINE
  8
1
 62
3
 10
349.293327302505
 20
298.6381669969844
 30
0
 11
349.293327302505
 21
291.6381669969844
 31
0
  0
LINE
  8
1
 62
3
 10
350.793327302505
 20
298.6381669969844
 30
0
 11
350.793327302505
 21
291.6381669969844
 31
0
  0
LINE
  8
1
 62
3
 10
347.293327302505
 20
291.6381669969844
 30
0
 11
347.293327302505
 21
298.6381669969844
 31
0
  0
LINE
  8
1
 62
3
 10
345.793327302505
 20
291.6381669969844
 30
0
 11
345.793327302505
 21
298.6381669969844
 31
0
  0
LINE
  8
1
 62
1
 10
326.920081123116
 20
301.005663994582
 30
0
 11
370.0588910506883
 21
301.005663994582
 31
0
  0
LINE
  8
1
 62
3
 10
490.0510790066719
 20
318.505663994582
 30
0
 11
490.851079006672
 21
318.505663994582
 31
0
  0
LINE
  8
1
 62
3
 10
490.851079006672
 20
283.505663994582
 30
0
 11
490.0510790066719
 21
283.505663994582
 31
0
  0
LINE
  8
1
 62
3
 10
490.851079006672
 20
318.505663994582
 30
0
 11
490.851079006672
 21
283.505663994582
 31
0
  0
LINE
  8
1
 62
3
 10
442.5510790066719
 20
305.005663994582
 30
0
 11
457.5510790066719
 21
305.005663994582
 31
0
  0
LINE
  8
1
 62
3
 10
442.5510790066719
 20
310.505663994582
 30
0
 11
442.5510790066719
 21
305.005663994582
 31
0
  0
LINE
  8
1
 62
3
 10
457.5510790066719
 20
311.005663994582
 30
0
 11
454.5510790066719
 21
311.005663994582
 31
0
  0
LINE
  8
1
 62
3
 10
454.5510790066719
 20
310.505663994582
 30
0
 11
442.5510790066719
 21
310.505663994582
 31
0
  0
LINE
  8
1
 62
3
 10
454.5510790066719
 20
311.005663994582
 30
0
 11
454.5510790066719
 21
310.505663994582
 31
0
  0
LINE
  8
1
 62
3
 10
457.5510790066719
 20
302.005663994582
 30
0
 11
463.5510790066719
 21
302.005663994582
 31
0
  0
LINE
  8
1
 62
3
 10
457.5510790066719
 20
302.005663994582
 30
0
 11
457.5510790066719
 21
314.005663994582
 31
0
  0
LINE
  8
1
 62
3
 10
346.7794250599542
 20
310.595663994582
 30
0
 11
349.8072295450555
 21
310.595663994582
 31
0
  0
LINE
  8
1
 62
3
 10
463.551079006672
 20
314.005663994582
 30
0
 11
457.5510790066719
 21
314.005663994582
 31
0
  0
LINE
  8
1
 62
1
 10
439.7857610440898
 20
308.005663994582
 30
0
 11
468.2146981532309
 21
308.005663994582
 31
0
  0
LINE
  8
1
 62
1
 10
458.9904502590529
 20
301.005663994582
 30
0
 11
531.1964168438029
 21
301.005663994582
 31
0
  0
LINE
  8
1
 62
3
 10
361.9868172505961
 20
307.9878436715546
 30
0
 11
361.836817250596
 21
308.2476512926899
 31
0
  0
LINE
  8
1
 62
3
 10
361.3587083592714
 20
308.3757601840144
 30
0
 11
361.0989007381362
 21
308.2257601840144
 31
0
  0
LINE
  8
1
 62
3
 10
361.0305994679469
 20
308.2440614542035
 30
0
 11
360.930599467947
 21
308.4172665349603
 31
0
  0
LINE
  8
1
 62
3
 10
360.9489007381362
 20
308.4855678051496
 30
0
 11
361.2087083592716
 21
308.6355678051497
 31
0
  0
LINE
  8
1
 62
3
 10
361.336817250596
 20
309.1136766964743
 30
0
 11
361.1868172505962
 21
309.3734843176096
 31
0
  0
LINE
  8
1
 62
3
 10
361.2051185207853
 20
309.4417855877989
 30
0
 11
361.3783236015421
 21
309.5417855877988
 31
0
  0
LINE
  8
1
 62
3
 10
361.4466248717314
 20
309.5234843176096
 30
0
 11
361.5966248717315
 21
309.2636766964743
 31
0
  0
LINE
  8
1
 62
3
 10
362.074733763056
 20
309.1355678051497
 30
0
 11
362.3345413841913
 21
309.2855678051497
 31
0
  0
LINE
  8
1
 62
3
 10
362.4028426543806
 20
309.2672665349605
 30
0
 11
362.5028426543805
 21
309.0940614542037
 31
0
  0
LINE
  8
1
 62
3
 10
362.4845413841913
 20
309.0257601840144
 30
0
 11
362.224733763056
 21
308.8757601840144
 31
0
  0
LINE
  8
1
 62
3
 10
362.0966248717315
 20
308.3976512926898
 30
0
 11
362.2466248717313
 21
308.1378436715544
 31
0
  0
LINE
  8
1
 62
3
 10
362.2283236015421
 20
308.0695424013651
 30
0
 11
362.0551185207853
 21
307.9695424013652
 31
0
  0
LINE
  8
1
 62
3
 10
347.6215758603777
 20
285.0460445868108
 30
0
 11
347.8337078947337
 21
285.2581766211667
 31
0
  0
LINE
  8
1
 62
3
 10
347.8337078947337
 20
285.7531513679973
 30
0
 11
347.6215758603777
 21
285.9652834023532
 31
0
  0
LINE
  8
1
 62
3
 10
347.6215758603777
 20
286.035994080472
 30
0
 11
347.762997216615
 21
286.1774154367092
 31
0
  0
LINE
  8
1
 62
3
 10
347.8337078947336
 20
286.1774154367093
 30
0
 11
348.0458399290895
 21
285.9652834023532
 31
0
  0
LINE
  8
1
 62
3
 10
348.5408146759202
 20
285.9652834023532
 30
0
 11
348.7529467102762
 21
286.1774154367092
 31
0
  0
LINE
  8
1
 62
3
 10
348.823657388395
 20
286.1774154367093
 30
0
 11
348.965078744632
 21
286.035994080472
 31
0
  0
LINE
  8
1
 62
3
 10
348.965078744632
 20
285.9652834023532
 30
0
 11
348.7529467102762
 21
285.7531513679973
 31
0
  0
LINE
  8
1
 62
3
 10
348.7529467102762
 20
285.2581766211667
 30
0
 11
348.965078744632
 21
285.0460445868108
 31
0
  0
LINE
  8
1
 62
3
 10
348.965078744632
 20
284.975333908692
 30
0
 11
348.823657388395
 21
284.8339125524547
 31
0
  0
LINE
  8
1
 62
3
 10
348.7529467102762
 20
284.8339125524547
 30
0
 11
348.5408146759202
 21
285.0460445868108
 31
0
  0
LINE
  8
1
 62
3
 10
348.0458399290895
 20
285.0460445868108
 30
0
 11
347.8337078947336
 21
284.8339125524547
 31
0
  0
LINE
  8
1
 62
3
 10
347.762997216615
 20
284.8339125524547
 30
0
 11
347.6215758603777
 21
284.975333908692
 31
0
  0
LINE
  8
1
 62
3
 10
335.4877538668737
 20
308.2257601840145
 30
0
 11
335.2279462457385
 21
308.3757601840146
 31
0
  0
LINE
  8
1
 62
3
 10
334.7498373544138
 20
308.24765129269
 30
0
 11
334.5998373544138
 21
307.9878436715546
 31
0
  0
LINE
  8
1
 62
3
 10
334.5315360842246
 20
307.9695424013655
 30
0
 11
334.3583310034678
 21
308.0695424013654
 31
0
  0
LINE
  8
1
 62
3
 10
334.3400297332785
 20
308.1378436715547
 30
0
 11
334.4900297332784
 21
308.39765129269
 31
0
  0
LINE
  8
1
 62
3
 10
334.361920841954
 20
308.8757601840146
 30
0
 11
334.1021132208188
 21
309.0257601840146
 31
0
  0
LINE
  8
1
 62
3
 10
334.0838119506294
 20
309.0940614542038
 30
0
 11
334.1838119506293
 21
309.2672665349606
 31
0
  0
LINE
  8
1
 62
3
 10
334.2521132208186
 20
309.2855678051498
 30
0
 11
334.5119208419541
 21
309.1355678051497
 31
0
  0
LINE
  8
1
 62
3
 10
334.9900297332784
 20
309.2636766964744
 30
0
 11
335.1400297332785
 21
309.5234843176099
 31
0
  0
LINE
  8
1
 62
3
 10
335.2083310034678
 20
309.541785587799
 30
0
 11
335.3815360842247
 21
309.4417855877991
 31
0
  0
LINE
  8
1
 62
3
 10
335.3998373544138
 20
309.3734843176098
 30
0
 11
335.2498373544138
 21
309.1136766964743
 31
0
  0
LINE
  8
1
 62
3
 10
335.3779462457384
 20
308.6355678051497
 30
0
 11
335.6377538668738
 21
308.4855678051499
 31
0
  0
LINE
  8
1
 62
3
 10
335.6560551370629
 20
308.4172665349606
 30
0
 11
335.556055137063
 21
308.2440614542038
 31
0
  0
LINE
  8
1
 62
2
 10
363.5538534134309
 20
267.005663994582
 30
0
 11
411.9538534134309
 21
267.005663994582
 31
0
  0
LINE
  8
1
 62
3
 10
603.5
 20
313.5554717622281
 30
0
 11
603.9
 21
313.5554717622281
 31
0
  0
LINE
  8
1
 62
3
 10
603.5
 20
313.0554717622281
 30
0
 11
603.5
 21
308.0056639945819
 31
0
  0
LINE
  8
1
 62
3
 10
603.5
 20
308.0056639945819
 30
0
 11
606.75
 21
308.0056639945819
 31
0
  0
LINE
  8
1
 62
3
 10
603.5
 20
313.0554717622281
 30
0
 11
603.9
 21
313.0554717622281
 31
0
  0
LINE
  8
1
 62
3
 10
602.5
 20
313.5554717622281
 30
0
 11
603.5
 21
313.5554717622281
 31
0
  0
LINE
  8
1
 62
3
 10
602.5
 20
313.0554717622281
 30
0
 11
602.5
 21
308.0056639945819
 31
0
  0
LINE
  8
1
 62
3
 10
602.5
 20
308.0056639945819
 30
0
 11
603.5
 21
308.0056639945819
 31
0
  0
LINE
  8
1
 62
3
 10
602.5
 20
313.0554717622281
 30
0
 11
603.5
 21
313.0554717622281
 31
0
  0
LINE
  8
1
 62
3
 10
603.5
 20
294.0056639945821
 30
0
 11
603.5
 21
288.9558562269359
 31
0
  0
LINE
  8
1
 62
3
 10
603.5
 20
294.0056639945821
 30
0
 11
606.75
 21
294.0056639945821
 31
0
  0
LINE
  8
1
 62
3
 10
603.5
 20
288.9558562269359
 30
0
 11
603.9
 21
288.9558562269359
 31
0
  0
LINE
  8
1
 62
3
 10
603.5
 20
288.4558562269359
 30
0
 11
603.5
 21
287.105663994582
 31
0
  0
LINE
  8
1
 62
3
 10
603.5
 20
288.4558562269359
 30
0
 11
603.9
 21
288.4558562269359
 31
0
  0
LINE
  8
1
 62
3
 10
602.5
 20
294.0056639945821
 30
0
 11
602.5
 21
288.9558562269359
 31
0
  0
LINE
  8
1
 62
3
 10
602.5
 20
294.0056639945821
 30
0
 11
603.5
 21
294.0056639945821
 31
0
  0
LINE
  8
1
 62
3
 10
602.5
 20
288.9558562269359
 30
0
 11
603.5
 21
288.9558562269359
 31
0
  0
LINE
  8
1
 62
3
 10
602.5
 20
288.4558562269359
 30
0
 11
602.5
 21
287.1146597112338
 31
0
  0
LINE
  8
1
 62
3
 10
602.5
 20
288.4558562269359
 30
0
 11
603.5
 21
288.4558562269359
 31
0
  0
LINE
  8
1
 62
3
 10
603.4999999999976
 20
314.8966682779303
 30
0
 11
603.5
 21
313.5554717622281
 31
0
  0
LINE
  8
1
 62
3
 10
602.5000000000024
 20
314.8966682779303
 30
0
 11
602.5
 21
313.5554717622281
 31
0
  0
LINE
  8
1
 62
3
 10
599.25
 20
314.3902633535467
 30
0
 11
599.25
 21
308.0056639945819
 31
0
  0
LINE
  8
1
 62
3
 10
606.75
 20
314.3902633535467
 30
0
 11
606.75
 21
308.0056639945819
 31
0
  0
LINE
  8
1
 62
3
 10
608.4850769565128
 20
287.583148180431
 30
0
 11
608.3353937706066
 21
288.1704166922286
 31
0
  0
LINE
  8
1
 62
3
 10
604.6089987384987
 20
286.5952121259031
 30
0
 11
604.4593155525926
 21
287.1824806377007
 31
0
  0
LINE
  8
1
 62
1
 10
600.3000000000001
 20
313.3054717622281
 30
0
 11
605.6999999999999
 21
313.3054717622281
 31
0
  0
LINE
  8
1
 62
1
 10
600.3000000000001
 20
288.7058562269359
 30
0
 11
605.6999999999999
 21
288.7058562269359
 31
0
  0
LINE
  8
1
 62
1
 10
603
 20
319.0756639945819
 30
0
 11
603
 21
282.9356639945821
 31
0
  0
LINE
  8
1
 62
1
 10
584.9300000000001
 20
301.005663994582
 30
0
 11
621.0699999999999
 21
301.005663994582
 31
0
  0
LINE
  8
1
 62
1
 10
462.0510790066721
 20
301.005663994582
 30
0
 11
528.351079006672
 21
301.005663994582
 31
0
  0
LINE
  8
1
 62
1
 10
534.7510790066721
 20
301.005663994582
 30
0
 11
467.451079006672
 21
301.005663994582
 31
0
  0
LINE
  8
0
 62
3
 10
529.651079006672
 20
299.755663994582
 30
0
 11
529.651079006672
 21
296.505663994582
 31
0
  0
LINE
  8
0
 62
3
 10
529.651079006672
 20
302.255663994582
 30
0
 11
529.651079006672
 21
299.755663994582
 31
0
  0
LINE
  8
0
 62
3
 10
529.651079006672
 20
305.505663994582
 30
0
 11
529.651079006672
 21
302.255663994582
 31
0
  0
LINE
  8
0
 62
3
 10
532.8510790066721
 20
296.005663994582
 30
0
 11
532.8510790066721
 21
306.005663994582
 31
0
  0
LINE
  8
0
 62
3
 10
532.8510790066721
 20
306.005663994582
 30
0
 11
529.651079006672
 21
306.005663994582
 31
0
  0
LINE
  8
0
 62
3
 10
532.8510790066721
 20
296.005663994582
 30
0
 11
529.651079006672
 21
296.005663994582
 31
0
  0
LINE
  8
0
 62
3
 10
536.151079006672
 20
288.9558562269359
 30
0
 11
530.451079006672
 21
288.9558562269359
 31
0
  0
LINE
  8
0
 62
3
 10
536.151079006672
 20
288.9558562269359
 30
0
 11
536.151079006672
 21
288.4558562269359
 31
0
  0
LINE
  8
0
 62
3
 10
536.151079006672
 20
288.4558562269359
 30
0
 11
530.451079006672
 21
288.4558562269359
 31
0
  0
LINE
  8
0
 62
3
 10
536.651079006672
 20
288.4558562269359
 30
0
 11
536.151079006672
 21
288.4558562269359
 31
0
  0
LINE
  8
0
 62
3
 10
536.651079006672
 20
288.9558562269359
 30
0
 11
536.151079006672
 21
288.9558562269359
 31
0
  0
LINE
  8
0
 62
3
 10
536.651079006672
 20
288.4558562269359
 30
0
 11
536.651079006672
 21
288.9558562269359
 31
0
  0
LINE
  8
0
 62
3
 10
530.451079006672
 20
313.0554717622281
 30
0
 11
536.151079006672
 21
313.0554717622281
 31
0
  0
LINE
  8
0
 62
3
 10
536.151079006672
 20
313.5554717622281
 30
0
 11
536.151079006672
 21
313.0554717622281
 31
0
  0
LINE
  8
0
 62
3
 10
530.451079006672
 20
313.5554717622281
 30
0
 11
536.151079006672
 21
313.5554717622281
 31
0
  0
LINE
  8
0
 62
3
 10
536.151079006672
 20
313.5554717622281
 30
0
 11
536.651079006672
 21
313.5554717622281
 31
0
  0
LINE
  8
0
 62
3
 10
536.151079006672
 20
313.0554717622281
 30
0
 11
536.651079006672
 21
313.0554717622281
 31
0
  0
LINE
  8
0
 62
3
 10
536.651079006672
 20
313.0554717622281
 30
0
 11
536.651079006672
 21
313.5554717622281
 31
0
  0
LINE
  8
0
 62
3
 10
528.151079006672
 20
287.105663994582
 30
0
 11
528.151079006672
 21
287.1146597112337
 31
0
  0
LINE
  8
0
 62
3
 10
518.151079006672
 20
287.105663994582
 30
0
 11
518.151079006672
 21
287.4222968158553
 31
0
  0
LINE
  8
0
 62
3
 10
518.151079006672
 20
287.4222968158553
 30
0
 11
528.151079006672
 21
287.4222968158553
 31
0
  0
LINE
  8
0
 62
3
 10
518.151079006672
 20
287.105663994582
 30
0
 11
528.151079006672
 21
287.105663994582
 31
0
  0
LINE
  8
0
 62
3
 10
528.151079006672
 20
287.3804117033399
 30
0
 11
528.151079006672
 21
287.4222968158553
 31
0
  0
LINE
  8
0
 62
3
 10
530.451079006672
 20
288.9558562269359
 30
0
 11
530.451079006672
 21
294.0056639945821
 31
0
  0
LINE
  8
0
 62
3
 10
529.651079006672
 20
294.0056639945821
 30
0
 11
530.451079006672
 21
294.0056639945821
 31
0
  0
LINE
  8
0
 62
3
 10
529.651079006672
 20
287.6210646356172
 30
0
 11
530.451079006672
 21
287.6210646356172
 31
0
  0
LINE
  8
0
 62
3
 10
528.951079006672
 20
287.6210646356172
 30
0
 11
529.651079006672
 21
287.6210646356172
 31
0
  0
LINE
  8
0
 62
3
 10
530.451079006672
 20
287.6210646356172
 30
0
 11
530.451079006672
 21
288.9558562269359
 31
0
  0
LINE
  8
0
 62
3
 10
530.451079006672
 20
287.6210646356172
 30
0
 11
530.451079006672
 21
287.1146597112337
 31
0
  0
LINE
  8
0
 62
3
 10
528.151079006672
 20
287.3804117033399
 30
0
 11
528.951079006672
 21
287.3804117033399
 31
0
  0
LINE
  8
0
 62
3
 10
528.951079006672
 20
287.3804117033399
 30
0
 11
528.951079006672
 21
287.6210646356172
 31
0
  0
LINE
  8
0
 62
3
 10
528.151079006672
 20
287.1146597112337
 30
0
 11
530.451079006672
 21
287.1146597112337
 31
0
  0
LINE
  8
0
 62
3
 10
528.151079006672
 20
314.8966682779303
 30
0
 11
528.151079006672
 21
314.905663994582
 31
0
  0
LINE
  8
0
 62
3
 10
518.151079006672
 20
314.5890311733087
 30
0
 11
518.151079006672
 21
314.905663994582
 31
0
  0
LINE
  8
0
 62
3
 10
528.151079006672
 20
314.5890311733087
 30
0
 11
518.151079006672
 21
314.5890311733087
 31
0
  0
LINE
  8
0
 62
3
 10
528.151079006672
 20
314.905663994582
 30
0
 11
518.151079006672
 21
314.905663994582
 31
0
  0
LINE
  8
0
 62
3
 10
528.151079006672
 20
314.5890311733087
 30
0
 11
528.151079006672
 21
314.6309162858242
 31
0
  0
LINE
  8
0
 62
3
 10
530.451079006672
 20
308.0056639945819
 30
0
 11
530.451079006672
 21
313.0554717622281
 31
0
  0
LINE
  8
0
 62
3
 10
530.451079006672
 20
308.0056639945819
 30
0
 11
529.651079006672
 21
308.0056639945819
 31
0
  0
LINE
  8
0
 62
3
 10
530.451079006672
 20
314.3902633535468
 30
0
 11
529.651079006672
 21
314.3902633535468
 31
0
  0
LINE
  8
0
 62
3
 10
529.651079006672
 20
314.3902633535468
 30
0
 11
528.951079006672
 21
314.3902633535468
 31
0
  0
LINE
  8
0
 62
3
 10
530.451079006672
 20
313.0554717622281
 30
0
 11
530.451079006672
 21
314.3902633535468
 31
0
  0
LINE
  8
0
 62
3
 10
530.451079006672
 20
314.8966682779303
 30
0
 11
530.451079006672
 21
314.3902633535468
 31
0
  0
LINE
  8
0
 62
3
 10
528.951079006672
 20
314.6309162858242
 30
0
 11
528.151079006672
 21
314.6309162858242
 31
0
  0
LINE
  8
0
 62
3
 10
528.951079006672
 20
314.3902633535468
 30
0
 11
528.951079006672
 21
314.6309162858242
 31
0
  0
LINE
  8
0
 62
3
 10
530.451079006672
 20
314.8966682779303
 30
0
 11
528.151079006672
 21
314.8966682779303
 31
0
  0
LINE
  8
0
 62
3
 10
517.8510790066721
 20
287.105663994582
 30
0
 11
518.151079006672
 21
287.105663994582
 31
0
  0
LINE
  8
1
 62
3
 10
491.851079006672
 20
314.905663994582
 30
0
 11
493.851079006672
 21
314.905663994582
 31
0
  0
LINE
  8
0
 62
3
 10
517.8510790066721
 20
314.905663994582
 30
0
 11
518.151079006672
 21
314.905663994582
 31
0
  0
LINE
  8
1
 62
3
 10
493.851079006672
 20
314.905663994582
 30
0
 11
493.851079006672
 21
315.505663994582
 31
0
  0
LINE
  8
1
 62
3
 10
493.851079006672
 20
286.505663994582
 30
0
 11
493.851079006672
 21
314.905663994582
 31
0
  0
LINE
  8
1
 62
3
 10
517.8510790066721
 20
286.505663994582
 30
0
 11
493.851079006672
 21
286.505663994582
 31
0
  0
LINE
  8
1
 62
3
 10
517.8510790066721
 20
315.505663994582
 30
0
 11
517.8510790066721
 21
286.505663994582
 31
0
  0
LINE
  8
1
 62
3
 10
493.851079006672
 20
315.505663994582
 30
0
 11
497.5029097619756
 21
315.505663994582
 31
0
  0
LINE
  8
1
 62
3
 10
493.851079006672
 20
299.705663994582
 30
0
 11
493.851079006672
 21
302.3056639945821
 31
0
  0
LINE
  8
1
 62
3
 10
496.351079006672
 20
299.705663994582
 30
0
 11
493.851079006672
 21
299.705663994582
 31
0
  0
LINE
  8
1
 62
3
 10
496.351079006672
 20
302.3056639945821
 30
0
 11
496.351079006672
 21
299.705663994582
 31
0
  0
LINE
  8
1
 62
3
 10
493.851079006672
 20
302.3056639945821
 30
0
 11
496.351079006672
 21
302.3056639945821
 31
0
  0
LINE
  8
0
 62
3
 10
518.151079006672
 20
314.5890311733087
 30
0
 11
518.151079006672
 21
314.905663994582
 31
0
  0
LINE
  8
0
 62
3
 10
490.851079006672
 20
288.105663994582
 30
0
 11
490.851079006672
 21
306.005663994582
 31
0
  0
LINE
  8
0
 62
3
 10
518.151079006672
 20
287.105663994582
 30
0
 11
518.151079006672
 21
287.2583434938514
 31
0
  0
LINE
  8
0
 62
3
 10
518.151079006672
 20
287.2583434938514
 30
0
 11
518.151079006672
 21
287.4222968158553
 31
0
  0
LINE
  8
0
 62
3
 10
528.151079006672
 20
314.5890311733087
 30
0
 11
518.151079006672
 21
314.5890311733087
 31
0
  0
LINE
  8
0
 62
3
 10
528.151079006672
 20
314.5890311733087
 30
0
 11
528.151079006672
 21
314.6309162858242
 31
0
  0
LINE
  8
0
 62
3
 10
490.851079006672
 20
306.005663994582
 30
0
 11
490.851079006672
 21
313.905663994582
 31
0
  0
LINE
  8
0
 62
3
 10
528.951079006672
 20
287.3804117033399
 30
0
 11
528.151079006672
 21
287.3804117033399
 31
0
  0
LINE
  8
0
 62
3
 10
528.951079006672
 20
287.3804117033399
 30
0
 11
528.951079006672
 21
287.6210646356172
 31
0
  0
LINE
  8
0
 62
3
 10
528.151079006672
 20
287.3804117033399
 30
0
 11
528.151079006672
 21
287.4222968158553
 31
0
  0
LINE
  8
0
 62
3
 10
529.651079006672
 20
287.6210646356172
 30
0
 11
528.951079006672
 21
287.6210646356172
 31
0
  0
LINE
  8
0
 62
3
 10
529.651079006672
 20
287.6210646356172
 30
0
 11
529.651079006672
 21
294.0056639945821
 31
0
  0
LINE
  8
0
 62
3
 10
529.651079006672
 20
299.755663994582
 30
0
 11
529.651079006672
 21
296.505663994582
 31
0
  0
LINE
  8
0
 62
3
 10
529.651079006672
 20
302.255663994582
 30
0
 11
529.651079006672
 21
299.755663994582
 31
0
  0
LINE
  8
0
 62
3
 10
529.651079006672
 20
294.0056639945821
 30
0
 11
529.651079006672
 21
296.505663994582
 31
0
  0
LINE
  8
0
 62
3
 10
528.151079006672
 20
287.4222968158553
 30
0
 11
518.151079006672
 21
287.4222968158553
 31
0
  0
LINE
  8
0
 62
3
 10
529.651079006672
 20
305.505663994582
 30
0
 11
529.651079006672
 21
306.005663994582
 31
0
  0
LINE
  8
0
 62
3
 10
529.651079006672
 20
305.505663994582
 30
0
 11
529.651079006672
 21
302.255663994582
 31
0
  0
LINE
  8
0
 62
3
 10
529.651079006672
 20
306.005663994582
 30
0
 11
529.651079006672
 21
308.0056639945819
 31
0
  0
LINE
  8
0
 62
3
 10
529.651079006672
 20
314.3902633535468
 30
0
 11
528.951079006672
 21
314.3902633535468
 31
0
  0
LINE
  8
0
 62
3
 10
529.651079006672
 20
308.0056639945819
 30
0
 11
529.651079006672
 21
314.3902633535468
 31
0
  0
LINE
  8
0
 62
3
 10
528.951079006672
 20
314.6309162858242
 30
0
 11
528.151079006672
 21
314.6309162858242
 31
0
  0
LINE
  8
0
 62
3
 10
528.951079006672
 20
314.3902633535468
 30
0
 11
528.951079006672
 21
314.6309162858242
 31
0
  0
LINE
  8
0
 62
3
 10
491.851079006672
 20
287.105663994582
 30
0
 11
493.851079006672
 21
287.105663994582
 31
0
  0
LINE
  8
1
 62
3
 10
534.3710790066721
 20
392.2980749018555
 30
0
 11
535.931079006672
 21
392.2980749018555
 31
0
  0
LINE
  8
1
 62
3
 10
535.151079006672
 20
393.0780749018555
 30
0
 11
535.151079006672
 21
391.5180749018556
 31
0
  0
LINE
  8
0
 62
3
 10
536.651079006672
 20
393.1980749018556
 30
0
 11
536.651079006672
 21
391.3980749018556
 31
0
  0
LINE
  8
0
 62
3
 10
536.151079006672
 20
393.6980749018556
 30
0
 11
536.651079006672
 21
393.1980749018556
 31
0
  0
LINE
  8
0
 62
3
 10
536.151079006672
 20
390.8980749018556
 30
0
 11
530.451079006672
 21
390.8980749018556
 31
0
  0
LINE
  8
0
 62
3
 10
536.151079006672
 20
390.8980749018556
 30
0
 11
536.651079006672
 21
391.3980749018556
 31
0
  0
LINE
  8
0
 62
3
 10
530.451079006672
 20
393.6980749018556
 30
0
 11
536.151079006672
 21
393.6980749018556
 31
0
  0
LINE
  8
1
 62
1
 10
538.651079006672
 20
392.2980749018555
 30
0
 11
516.2524467249365
 21
392.2980749018555
 31
0
  0
LINE
  8
0
 62
3
 10
528.8510790066721
 20
388.5480749018555
 30
0
 11
520.2112652600663
 21
388.5480749018557
 31
0
  0
LINE
  8
0
 62
3
 10
529.651079006672
 20
387.7480749018555
 30
0
 11
529.651079006672
 21
387.7980749018555
 31
0
  0
LINE
  8
1
 62
3
 10
528.8510790066721
 20
388.5480749018555
 30
0
 11
529.651079006672
 21
387.7480749018555
 31
0
  0
LINE
  8
0
 62
3
 10
529.651079006672
 20
396.8480749018555
 30
0
 11
529.651079006672
 21
406.1980749018555
 31
0
  0
LINE
  8
0
 62
3
 10
528.8510790066721
 20
396.0480749018555
 30
0
 11
522.0220568442553
 21
396.0480749018557
 31
0
  0
LINE
  8
1
 62
3
 10
528.8510790066721
 20
396.0480749018555
 30
0
 11
529.651079006672
 21
396.8480749018555
 31
0
  0
LINE
  8
0
 62
3
 10
529.651079006672
 20
396.7980749018555
 30
0
 11
529.651079006672
 21
396.0480749018555
 31
0
  0
LINE
  8
0
 62
3
 10
529.651079006672
 20
388.5480749018555
 30
0
 11
528.8510790066721
 21
388.5480749018555
 31
0
  0
LINE
  8
0
 62
3
 10
529.651079006672
 20
388.5480749018555
 30
0
 11
529.651079006672
 21
387.7980749018555
 31
0
  0
LINE
  8
0
 62
3
 10
529.651079006672
 20
378.3980749018555
 30
0
 11
529.651079006672
 21
387.7480749018555
 31
0
  0
LINE
  8
0
 62
3
 10
529.651079006672
 20
396.7980749018555
 30
0
 11
529.651079006672
 21
396.8480749018555
 31
0
  0
LINE
  8
0
 62
3
 10
529.3510790066721
 20
396.0480749018555
 30
0
 11
528.8510790066721
 21
396.0480749018555
 31
0
  0
LINE
  8
0
 62
3
 10
529.651079006672
 20
396.0480749018555
 30
0
 11
529.3510790066721
 21
396.0480749018555
 31
0
  0
LINE
  8
0
 62
3
 10
529.651079006672
 20
396.7980749018555
 30
0
 11
529.651079006672
 21
396.0480749018555
 31
0
  0
LINE
  8
0
 62
3
 10
529.651079006672
 20
388.5480749018555
 30
0
 11
529.651079006672
 21
387.7980749018555
 31
0
  0
LINE
  8
0
 62
3
 10
528.151079006672
 20
389.3481365825191
 30
0
 11
528.151079006672
 21
389.5480749018554
 31
0
  0
LINE
  8
0
 62
3
 10
528.951079006672
 20
388.5480749018555
 30
0
 11
528.951079006672
 21
388.9230749018555
 31
0
  0
LINE
  8
0
 62
3
 10
528.951079006672
 20
388.9230749018555
 30
0
 11
528.951079006672
 21
389.5480749018554
 31
0
  0
LINE
  8
0
 62
3
 10
528.951079006672
 20
389.5480749018554
 30
0
 11
528.151079006672
 21
389.5480749018554
 31
0
  0
LINE
  8
0
 62
3
 10
532.8510790066721
 20
393.6980749018556
 30
0
 11
532.8510790066721
 21
397.2980749018555
 31
0
  0
LINE
  8
0
 62
3
 10
532.8510790066721
 20
397.2980749018555
 30
0
 11
529.651079006672
 21
397.2980749018555
 31
0
  0
LINE
  8
0
 62
3
 10
528.951079006672
 20
395.0480749018554
 30
0
 11
528.951079006672
 21
395.6730749018555
 31
0
  0
LINE
  8
0
 62
3
 10
528.951079006672
 20
395.6730749018555
 30
0
 11
528.951079006672
 21
396.0480749018555
 31
0
  0
LINE
  8
0
 62
3
 10
528.151079006672
 20
395.0480749018554
 30
0
 11
528.151079006672
 21
395.2480132211921
 31
0
  0
LINE
  8
0
 62
3
 10
528.951079006672
 20
395.0480749018554
 30
0
 11
528.151079006672
 21
395.0480749018554
 31
0
  0
LINE
  8
0
 62
3
 10
532.8510790066721
 20
387.2980749018555
 30
0
 11
529.651079006672
 21
387.2980749018555
 31
0
  0
LINE
  8
0
 62
3
 10
532.8510790066721
 20
387.2980749018555
 30
0
 11
532.8510790066721
 21
390.8980749018555
 31
0
  0
LINE
  8
0
 62
3
 10
528.151079006672
 20
391.7980749018554
 30
0
 11
528.151079006672
 21
392.7980749018554
 31
0
  0
LINE
  8
0
 62
3
 10
536.651079006672
 20
393.1980749018556
 30
0
 11
536.651079006672
 21
391.3980749018556
 31
0
  0
LINE
  8
0
 62
3
 10
536.151079006672
 20
393.6980749018556
 30
0
 11
536.651079006672
 21
393.1980749018556
 31
0
  0
LINE
  8
0
 62
3
 10
536.151079006672
 20
390.8980749018556
 30
0
 11
530.451079006672
 21
390.8980749018556
 31
0
  0
LINE
  8
0
 62
3
 10
536.151079006672
 20
390.8980749018556
 30
0
 11
536.651079006672
 21
391.3980749018556
 31
0
  0
LINE
  8
0
 62
3
 10
530.451079006672
 20
393.6980749018556
 30
0
 11
536.151079006672
 21
393.6980749018556
 31
0
  0
LINE
  8
0
 62
3
 10
528.151079006672
 20
388.5480749018555
 30
0
 11
520.2112652600663
 21
388.5480749018557
 31
0
  0
LINE
  8
0
 62
3
 10
530.451079006672
 20
388.5480749018555
 30
0
 11
529.651079006672
 21
388.5480749018555
 31
0
  0
LINE
  8
0
 62
3
 10
530.451079006672
 20
391.7980749018554
 30
0
 11
528.151079006672
 21
391.7980749018554
 31
0
  0
LINE
  8
0
 62
3
 10
530.451079006672
 20
388.5480749018555
 30
0
 11
530.451079006672
 21
390.8730749018555
 31
0
  0
LINE
  8
0
 62
3
 10
530.451079006672
 20
390.8730749018555
 30
0
 11
530.451079006672
 21
391.7980749018554
 31
0
  0
LINE
  8
0
 62
3
 10
530.451079006672
 20
392.7980749018554
 30
0
 11
528.151079006672
 21
392.7980749018554
 31
0
  0
LINE
  8
0
 62
3
 10
530.451079006672
 20
392.7980749018554
 30
0
 11
530.451079006672
 21
393.6980749018556
 31
0
  0
LINE
  8
0
 62
3
 10
530.451079006672
 20
393.6980749018556
 30
0
 11
530.451079006672
 21
393.7230749018555
 31
0
  0
LINE
  8
0
 62
3
 10
528.151079006672
 20
388.5480749018555
 30
0
 11
528.151079006672
 21
389.5480749018554
 31
0
  0
LINE
  8
0
 62
3
 10
528.951079006672
 20
388.5480749018555
 30
0
 11
528.951079006672
 21
388.9230749018555
 31
0
  0
LINE
  8
0
 62
3
 10
528.951079006672
 20
388.9230749018555
 30
0
 11
528.951079006672
 21
389.5480749018554
 31
0
  0
LINE
  8
0
 62
3
 10
528.951079006672
 20
389.5480749018554
 30
0
 11
528.151079006672
 21
389.5480749018554
 31
0
  0
LINE
  8
0
 62
3
 10
529.651079006672
 20
388.5480749018555
 30
0
 11
528.951079006672
 21
388.5480749018555
 31
0
  0
LINE
  8
0
 62
3
 10
527.8510790066721
 20
396.0480749018556
 30
0
 11
522.0220568442553
 21
396.0480749018557
 31
0
  0
LINE
  8
0
 62
3
 10
528.151079006672
 20
396.0480749018555
 30
0
 11
527.8510790066721
 21
396.0480749018556
 31
0
  0
LINE
  8
0
 62
3
 10
528.951079006672
 20
395.0480749018554
 30
0
 11
528.951079006672
 21
395.6730749018555
 31
0
  0
LINE
  8
0
 62
3
 10
528.951079006672
 20
395.6730749018555
 30
0
 11
528.951079006672
 21
396.0480749018555
 31
0
  0
LINE
  8
0
 62
3
 10
529.3510790066721
 20
396.0480749018555
 30
0
 11
528.951079006672
 21
396.0480749018555
 31
0
  0
LINE
  8
0
 62
3
 10
529.651079006672
 20
396.0480749018555
 30
0
 11
529.3510790066721
 21
396.0480749018555
 31
0
  0
LINE
  8
0
 62
3
 10
528.151079006672
 20
395.0480749018554
 30
0
 11
528.151079006672
 21
396.0480749018555
 31
0
  0
LINE
  8
0
 62
3
 10
528.951079006672
 20
395.0480749018554
 30
0
 11
528.151079006672
 21
395.0480749018554
 31
0
  0
LINE
  8
0
 62
3
 10
530.451079006672
 20
396.0480749018555
 30
0
 11
529.651079006672
 21
396.0480749018555
 31
0
  0
LINE
  8
0
 62
3
 10
530.451079006672
 20
393.7230749018555
 30
0
 11
530.451079006672
 21
396.0480749018555
 31
0
  0
LINE
  8
0
 62
3
 10
528.151079006672
 20
391.7980749018554
 30
0
 11
528.151079006672
 21
392.7980749018554
 31
0
  0
LINE
  8
1
 62
3
 10
497.5029097619756
 20
315.505663994582
 30
0
 11
514.5029097619756
 21
315.505663994582
 31
0
  0
LINE
  8
1
 62
3
 10
514.5029097619756
 20
315.505663994582
 30
0
 11
514.5029097619756
 21
307.999379889707
 31
0
  0
LINE
  8
1
 62
3
 10
514.5029097619756
 20
307.999379889707
 30
0
 11
497.5029097619756
 21
307.999379889707
 31
0
  0
LINE
  8
1
 62
3
 10
497.5029097619756
 20
307.999379889707
 30
0
 11
497.5029097619756
 21
315.505663994582
 31
0
  0
LINE
  8
1
 62
3
 10
497.5029097619756
 20
315.505663994582
 30
0
 11
514.5029097619756
 21
315.505663994582
 31
0
  0
LINE
  8
1
 62
3
 10
514.5029097619756
 20
315.505663994582
 30
0
 11
517.8510790066721
 21
315.505663994582
 31
0
  0
LINE
  8
0
 62
3
 10
527.9312498102744
 20
378.3980749018555
 30
0
 11
529.651079006672
 21
378.3980749018555
 31
0
  0
LINE
  8
0
 62
3
 10
525.3057824500046
 20
406.1980749018555
 30
0
 11
529.651079006672
 21
406.1980749018555
 31
0
  0
LINE
  8
1
 62
2
 10
487.9537074637163
 20
369.0879107661986
 30
0
 11
577.9537074637163
 21
369.0879107661986
 31
0
  0
ARC
  8
1
 62
3
 10
464.0510790066719
 20
319.0082435130573
 30
0
 40
0.499999999999901
 50
90.2963548373866
 51
180
  0
ARC
  8
1
 62
3
 10
464.0510790066719
 20
283.0030844761068
 30
0
 40
0.5
 50
180
 51
269.7036451626264
  0
ARC
  8
1
 62
3
 10
351.793327302505
 20
291.6381669969844
 30
0
 40
1
 50
180
 51
290.4873151147142
  0
ARC
  8
1
 62
3
 10
351.793327302505
 20
298.6381669969844
 30
0
 40
1.000000000000093
 50
110.4873151147325
 51
180
  0
ARC
  8
1
 62
3
 10
351.793327302505
 20
291.6381669969844
 30
0
 40
2.5
 50
180
 51
290.4873151147228
  0
ARC
  8
1
 62
3
 10
351.793327302505
 20
298.6381669969844
 30
0
 40
2.499999999999984
 50
110.4873151147228
 51
180
  0
ARC
  8
1
 62
3
 10
344.793327302505
 20
298.6381669969844
 30
0
 40
2.5
 50
0
 51
69.51268488527828
  0
ARC
  8
1
 62
3
 10
344.793327302505
 20
291.6381669969844
 30
0
 40
2.50000000000009
 50
249.5126848852781
 51
0
  0
ARC
  8
1
 62
3
 10
344.793327302505
 20
291.6381669969844
 30
0
 40
1.000000000000093
 50
249.5126848852675
 51
0
  0
ARC
  8
1
 62
3
 10
344.793327302505
 20
298.6381669969844
 30
0
 40
1
 50
0
 51
69.51268488528659
  0
ARC
  8
1
 62
3
 10
361.0337083592715
 20
308.9386766964742
 30
0
 40
0.3500000000000026
 50
300.0000000000234
 51
30.00000000001068
  0
ARC
  8
1
 62
3
 10
361.8997337630559
 20
309.4386766964742
 30
0
 40
0.3499999999998398
 50
209.9999999999958
 51
300.0000000000154
  0
ARC
  8
1
 62
3
 10
362.3997337630559
 20
308.5726512926898
 30
0
 40
0.3499999999999874
 50
119.9999999999818
 51
210.0000000000119
  0
ARC
  8
1
 62
3
 10
361.5337083592715
 20
308.0726512926898
 30
0
 40
0.3500000000000519
 50
30.00000000001874
 51
120.000000000006
  0
ARC
  8
1
 62
3
 10
361.0739007381361
 20
308.2690614542036
 30
0
 40
0.05000000000002988
 50
210.0000000001006
 51
300.0000000001006
  0
ARC
  8
1
 62
3
 10
360.9739007381362
 20
308.4422665349604
 30
0
 40
0.04999999999997304
 50
119.9999999999878
 51
210.000000000157
  0
ARC
  8
1
 62
3
 10
361.2301185207854
 20
309.3984843176096
 30
0
 40
0.05000000000015677
 50
120.0000000000919
 51
209.9999999999878
  0
ARC
  8
1
 62
3
 10
361.4033236015422
 20
309.4984843176096
 30
0
 40
0.04999999999997304
 50
29.99999999998775
 51
120.0000000001006
  0
ARC
  8
1
 62
3
 10
362.4595413841913
 20
309.0690614542036
 30
0
 40
0.04999999999997304
 50
299.9999999999878
 51
30.00000000010057
  0
ARC
  8
1
 62
3
 10
362.3595413841914
 20
309.2422665349604
 30
0
 40
0.05000000000005832
 50
30.00000000015698
 51
120.0000000000354
  0
ARC
  8
1
 62
3
 10
362.2033236015421
 20
308.1128436715546
 30
0
 40
0.0500000000002476
 50
299.9999999998813
 51
29.99999999981852
  0
ARC
  8
1
 62
3
 10
362.0301185207853
 20
308.0128436715544
 30
0
 40
0.04999999999988777
 50
209.9999999998185
 51
299.9999999999878
  0
ARC
  8
1
 62
3
 10
348.293327302505
 20
286.2127707757686
 30
0
 40
0.3500000000002682
 50
224.9999999999869
 51
314.9999999999737
  0
ARC
  8
1
 62
3
 10
349.0004340836915
 20
285.505663994582
 30
0
 40
0.350000000000027
 50
135
 51
225
  0
ARC
  8
1
 62
3
 10
348.293327302505
 20
284.7985572133954
 30
0
 40
0.350000000000027
 50
45.00000000002632
 51
135.0000000000132
  0
ARC
  8
1
 62
3
 10
347.5862205213184
 20
285.505663994582
 30
0
 40
0.350000000000027
 50
315
 51
45
  0
ARC
  8
1
 62
3
 10
347.6569311994371
 20
286.0006387414126
 30
0
 40
0.05000000000011294
 50
135.0000000000461
 51
225
  0
ARC
  8
1
 62
3
 10
347.7983525556743
 20
286.1420600976499
 30
0
 40
0.05000000000003255
 50
45.00000000004606
 51
134.999999999954
  0
ARC
  8
1
 62
3
 10
348.7883020493355
 20
286.1420600976499
 30
0
 40
0.05000000000015314
 50
44.99999999990789
 51
135
  0
ARC
  8
1
 62
3
 10
348.9297234055729
 20
286.0006387414126
 30
0
 40
0.04999999999995217
 50
314.9999999997697
 51
45.00000000018423
  0
ARC
  8
1
 62
3
 10
348.7883020493355
 20
284.8692678915141
 30
0
 40
0.05000000000003255
 50
225.0000000000461
 51
315.0000000000921
  0
ARC
  8
1
 62
3
 10
348.9297234055729
 20
285.0106892477514
 30
0
 40
0.04999999999991198
 50
314.9999999998158
 51
45.0000000002303
  0
ARC
  8
1
 62
3
 10
347.7983525556743
 20
284.8692678915141
 30
0
 40
0.04999999999999237
 50
225.0000000000921
 51
314.999999999954
  0
ARC
  8
1
 62
3
 10
347.6569311994371
 20
285.0106892477514
 30
0
 40
0.05000000000015314
 50
135
 51
224.9999999999539
  0
ARC
  8
1
 62
3
 10
334.186920841954
 20
308.5726512926901
 30
0
 40
0.3499999999999042
 50
329.9999999999673
 51
60.00000000000078
  0
ARC
  8
1
 62
3
 10
334.686920841954
 20
309.4386766964744
 30
0
 40
0.3500000000000366
 50
240.0000000000228
 51
329.9999999999915
  0
ARC
  8
1
 62
3
 10
335.5529462457383
 20
308.9386766964744
 30
0
 40
0.3499999999999382
 50
150.0000000000135
 51
240.0000000000228
  0
ARC
  8
1
 62
3
 10
335.0529462457383
 20
308.0726512926901
 30
0
 40
0.3500000000000311
 50
59.99999999996856
 51
150.0000000000135
  0
ARC
  8
1
 62
3
 10
334.5565360842246
 20
308.0128436715547
 30
0
 40
0.04999999999997304
 50
240.0000000000123
 51
329.999999999843
  0
ARC
  8
1
 62
3
 10
334.3833310034678
 20
308.1128436715546
 30
0
 40
0.05000000000010754
 50
149.9999999998756
 51
239.9999999999797
  0
ARC
  8
1
 62
3
 10
334.1271132208186
 20
309.0690614542038
 30
0
 40
0.05000000000000146
 50
149.9999999999558
 51
240.0000000001815
  0
ARC
  8
1
 62
3
 10
334.2271132208185
 20
309.2422665349606
 30
0
 40
0.05000000000002988
 50
59.99999999989943
 51
150.0000000000123
  0
ARC
  8
1
 62
3
 10
335.3565360842246
 20
309.3984843176099
 30
0
 40
0.05000000000005832
 50
329.999999999843
 51
59.99999999986686
  0
ARC
  8
1
 62
3
 10
335.1833310034677
 20
309.4984843176098
 30
0
 40
0.05000000000002988
 50
59.99999999989943
 51
149.999999999843
  0
ARC
  8
1
 62
3
 10
335.6127538668737
 20
308.4422665349604
 30
0
 40
0.04999999999988777
 50
330.0000000001815
 51
60.00000000000586
  0
ARC
  8
1
 62
3
 10
335.5127538668738
 20
308.2690614542036
 30
0
 40
0.04999999999995985
 50
239.9999999997779
 51
330.0000000001815
  0
ARC
  8
1
 62
3
 10
348.293327302505
 20
308.005663994582
 30
0
 40
6
 50
180
 51
0
  0
ARC
  8
1
 62
3
 10
348.293327302505
 20
308.005663994582
 30
0
 40
6
 50
0
 51
180
  0
ARC
  8
1
 62
3
 10
348.293327302505
 20
301.005663994582
 30
0
 40
18.5
 50
180
 51
0
  0
ARC
  8
1
 62
3
 10
348.293327302505
 20
301.005663994582
 30
0
 40
18.5
 50
0
 51
180
  0
ARC
  8
1
 62
3
 10
348.293327302505
 20
301.005663994582
 30
0
 40
12.49999999999997
 50
290.4873151147227
 51
58.36739030356617
  0
ARC
  8
1
 62
3
 10
348.293327302505
 20
308.005663994582
 30
0
 40
7.500000000000004
 50
290.4873151147226
 51
29.05928106804105
  0
ARC
  8
1
 62
3
 10
348.293327302505
 20
301.005663994582
 30
0
 40
10.99999999999996
 50
290.4873151147219
 51
35.30452499558597
  0
ARC
  8
1
 62
3
 10
348.293327302505
 20
308.005663994582
 30
0
 40
8.999999999999895
 50
290.4873151147216
 51
355.9039562418478
  0
ARC
  8
1
 62
3
 10
348.293327302505
 20
308.005663994582
 30
0
 40
7.500000000000235
 50
150.9407189319608
 51
249.512684885277
  0
ARC
  8
1
 62
3
 10
348.293327302505
 20
301.005663994582
 30
0
 40
12.50000000000012
 50
121.6326096964352
 51
249.5126848852775
  0
ARC
  8
1
 62
3
 10
348.293327302505
 20
301.005663994582
 30
0
 40
11.00000000000013
 50
144.6954750044149
 51
249.5126848852764
  0
ARC
  8
1
 62
3
 10
348.293327302505
 20
308.005663994582
 30
0
 40
9.00000000000013
 50
184.0960437581521
 51
249.5126848852763
  0
ARC
  8
1
 62
1
 10
348.293327302505
 20
301.005663994582
 30
0
 40
15.5
 50
180
 51
0
  0
ARC
  8
1
 62
1
 10
348.293327302505
 20
301.005663994582
 30
0
 40
15.5
 50
0
 51
180
  0
ARC
  8
1
 62
3
 10
603
 20
301.005663994582
 30
0
 40
13.49999999999999
 50
106.1276202131608
 51
253.8723797868392
  0
ARC
  8
1
 62
3
 10
603
 20
301.005663994582
 30
0
 40
13.49999999999993
 50
286.1276202131608
 51
73.87237978683923
  0
ARC
  8
1
 62
3
 10
603
 20
301.005663994582
 30
0
 40
14.50000000000003
 50
292.22725490454
 51
276.370971372136
  0
ARC
  8
1
 62
3
 10
603
 20
301.005663994582
 30
0
 40
13.89999999999997
 50
276.0264020426419
 51
292.5718242340339
  0
ARC
  8
1
 62
3
 10
603
 20
301.005663994582
 30
0
 40
13.89999999999991
 50
292.5718242340339
 51
276.0264020426419
  0
ARC
  8
1
 62
3
 10
491.851079006672
 20
288.105663994582
 30
0
 40
1
 50
180
 51
270
  0
ARC
  8
1
 62
3
 10
491.851079006672
 20
313.905663994582
 30
0
 40
1
 50
90
 51
180
  0
CIRCLE
  8
1
 62
3
 10
603
 20
301.005663994582
 30
0
 40
5
  0
CIRCLE
  8
1
 62
3
 10
348.293327302505
 20
308.005663994582
 30
0
 40
3
  0
CIRCLE
  8
1
 62
3
 10
348.293327302505
 20
285.505663994582
 30
0
 40
2
  0
CIRCLE
  8
1
 62
3
 10
334.8699335438461
 20
308.755663994582
 30
0
 40
2.000000000000057
  0
CIRCLE
  8
1
 62
3
 10
361.7167210611636
 20
308.755663994582
 30
0
 40
1.99999999999983
  0
CIRCLE
  8
1
 62
1
 10
332.793327302505
 20
301.005663994582
 30
0
 40
1.5
  0
CIRCLE
  8
1
 62
3
 10
332.793327302505
 20
301.005663994582
 30
0
 40
1.200000000000102
  0
CIRCLE
  8
1
 62
1
 10
356.043327302505
 20
314.4290577532408
 30
0
 40
1.500000000000057
  0
CIRCLE
  8
1
 62
3
 10
356.043327302505
 20
314.4290577532408
 30
0
 40
1.199999999999875
  0
CIRCLE
  8
1
 62
1
 10
356.043327302505
 20
287.5822702359232
 30
0
 40
1.5
  0
CIRCLE
  8
1
 62
3
 10
356.043327302505
 20
287.5822702359232
 30
0
 40
1.199999999999875
  0
CIRCLE
  8
1
 62
3
 10
340.543327302505
 20
314.4290577532408
 30
0
 40
1.799999999999955
  0
CIRCLE
  8
1
 62
3
 10
340.543327302505
 20
287.5822702359232
 30
0
 40
1.799999999999955
  0
CIRCLE
  8
1
 62
3
 10
363.793327302505
 20
301.005663994582
 30
0
 40
1.799999999999955
  0
CIRCLE
  8
1
 62
3
 10
340.543327302505
 20
314.4290577532408
 30
0
 40
1.299999999999955
  0
CIRCLE
  8
1
 62
3
 10
340.543327302505
 20
287.5822702359232
 30
0
 40
1.299999999999955
  0
CIRCLE
  8
1
 62
3
 10
363.793327302505
 20
301.005663994582
 30
0
 40
1.299999999999955
  0
CIRCLE
  8
1
 62
3
 10
334.8699335438461
 20
308.755663994582
 30
0
 40
1.5
  0
CIRCLE
  8
1
 62
3
 10
348.293327302505
 20
285.505663994582
 30
0
 40
1.5
  0
CIRCLE
  8
1
 62
3
 10
361.7167210611636
 20
308.755663994582
 30
0
 40
1.5
  0
CIRCLE
  8
1
 62
3
 10
603
 20
301.005663994582
 30
0
 40
6.549999999999955
  0
CIRCLE
  8
1
 62
3
 10
603
 20
301.005663994582
 30
0
 40
4.5
  0
CIRCLE
  8
1
 62
3
 10
603
 20
301.005663994582
 30
0
 40
1.25
  0
CIRCLE
  8
1
 62
2
 10
603
 20
301.005663994582
 30
0
 40
0.8500000000000227
  0
CIRCLE
  8
0
 62
3
 10
535.151079006672
 20
392.2980749018555
 30
0
 40
0.6000000000000227
  0
CIRCLE
  8
0
 62
3
 10
535.151079006672
 20
392.2980749018555
 30
0
 40
0.6000000000000227
  0
TEXT
  8
1
 62
2
 10
368.870298034812
 20
268.129653686666
 30
0
 40
3.5
  1
120%%p2
 41
0.8910000000000004
 73
2
 11
368.870298034812
 21
269.879653686666
 31
0
  0
TEXT
  8
1
 62
2
 10
562.646697482307
 20
323.255663994582
 30
0
 40
3.5
  1
    (RED)
 41
0.8910000000000004
  0
TEXT
  8
1
 62
2
 10
562.646697482307
 20
330.255663994582
 30
0
 40
3.5
  1
(ü{)TERMINAL
 41
0.8910000000000004
  0
TEXT
  8
1
 62
2
 10
605.4404067823379
 20
268.8465486463894
 30
0
 40
3.5
  1
   (BLACK)
 41
0.8910000000000004
  0
TEXT
  8
1
 62
2
 10
605.4404067823379
 20
275.8465486463894
 30
0
 40
3.5
  1
(ü|)TERMINAL
 41
0.8910000000000004
  0
TEXT
  8
1
 62
2
 10
494.0674399927356
 20
331.406618949867
 30
0
 40
3.5
  1
NAME PLATE
 41
0.8910000000000004
 72
1
 73
2
 11
509.6599399927356
 21
333.156618949867
 31
0
  0
TEXT
  8
1
 62
2
 10
485.6238482816258
 20
370.3361024089844
 30
0
 40
3.5
  1
DETAIL DRAWING (+)(-) TERMINAL
 41
0.8910000000000004
 72
1
 73
2
 11
532.4013482816258
 21
372.0861024089844
 31
0
  0
TEXT
  8
1
 62
2
 10
455.1694503066722
 20
241.0056640913156
 30
0
 40
4.5
  1
DMN29B36G120üáü`DNM29B36G300üá
 41
0.891
  0
DIMENSION
  8
1
  6
CONTINUOUS
 62
2
  2
*D0
  3
DMST_1
 10
532.8510790066721
 20
349.233671287311
 30
0
 11
498.2396122184998
 21
352.833671287311
 31
0
 12
0
 22
0
 32
0
 70
0
 13
463.5510790066719
 23
319.0082435130573
 33
0
 14
532.8510790066721
 24
306.005663994582
 34
0
 53
0
  0
DIMENSION
  8
1
  6
CONTINUOUS
 62
2
  2
*D1
  3
DMST_1
 10
463.5510790066719
 20
339.386503622326
 30
0
 11
476.852313575509
 21
342.986503622326
 31
0
 12
0
 22
0
 32
0
 70
0
 13
490.851079006672
 23
318.505663994582
 33
0
 14
463.5510790066719
 24
319.0082435130573
 34
0
 53
0
  0
DIMENSION
  8
1
  6
CONTINUOUS
 62
2
  2
*D2
  3
DMST_2
 10
386.7933273025049
 20
308.0056639945821
 30
0
 11
384.1933273025048
 21
318.913790755517
 31
0
 12
0
 22
0
 32
0
 70
0
 13
370.0588910506883
 23
301.005663994582
 33
0
 14
356.4441265934701
 24
308.005663994582
 34
0
 50
90
 53
0
  0
DIMENSION
  8
1
  6
CONTINUOUS
 62
2
  2
*D3
  3
DMST_3
 10
342.293327302505
 20
328.005663994582
 30
0
 11
348.293327302505
 21
330.605663994582
 31
0
 12
0
 22
0
 32
0
 70
0
  1
¾12
 13
354.293327302505
 23
308.005663994582
 33
0
 14
342.293327302505
 24
308.005663994582
 34
0
 53
0
  0
DIMENSION
  8
1
  6
CONTINUOUS
 62
2
  2
*D4
  3
DMST_4
 10
329.793327302505
 20
348.0056639945821
 30
0
 11
348.293327302505
 21
350.6056639945821
 31
0
 12
0
 22
0
 32
0
 70
0
  1
¾37
 13
366.793327302505
 23
301.005663994582
 33
0
 14
329.793327302505
 24
301.005663994582
 34
0
 53
0
  0
DIMENSION
  8
1
  6
CONTINUOUS
 62
2
  2
*D5
  3
DMST_5
 10
421.6410790066719
 20
311.005663994582
 30
0
 11
419.1510790066719
 21
326.7134552528621
 31
0
 12
0
 22
0
 32
0
 70
0
  1
6
 13
442.5510790066719
 23
305.005663994582
 33
0
 14
454.5510790066719
 24
311.005663994582
 34
0
 50
90
 53
0
  0
DIMENSION
  8
1
  6
CONTINUOUS
 62
2
  2
*D6
  3
DMST_6
 10
454.5510790066719
 20
329.415663994582
 30
0
 11
448.5510790066719
 21
331.105663994582
 31
0
 12
0
 22
0
 32
0
 70
0
 13
442.5510790066719
 23
310.505663994582
 33
0
 14
454.5510790066719
 24
311.005663994582
 34
0
 53
0
  0
DIMENSION
  8
1
  6
CONTINUOUS
 62
2
  2
*D7
  3
DMST_7
 10
431.6410790066719
 20
310.505663994582
 30
0
 11
429.9510790066719
 21
326.593639687534
 31
0
 12
0
 22
0
 32
0
 70
0
 13
442.5510790066719
 23
305.005663994582
 33
0
 14
442.5510790066719
 24
310.505663994582
 34
0
 50
90
 53
0
  0
DIMENSION
  8
1
  6
CONTINUOUS
 62
2
  2
*D8
  3
DMST_4
 10
463.5510790066719
 20
349.415663994582
 30
0
 11
453.0510790066719
 21
351.105663994582
 31
0
 12
0
 22
0
 32
0
 70
0
 13
442.5510790066719
 23
310.505663994582
 33
0
 14
463.5510790066719
 24
319.0082435130573
 34
0
 53
0
  0
DIMENSION
  8
1
  6
CONTINUOUS
 62
2
  2
*D9
  3
DMST_4
 10
457.5510790066719
 20
339.415663994582
 30
0
 11
460.5510790066719
 21
341.105663994582
 31
0
 12
0
 22
0
 32
0
 70
0
 13
463.5510790066719
 23
319.0082435130573
 33
0
 14
457.5510790066719
 24
314.005663994582
 34
0
 53
0
  0
DIMENSION
  8
1
  6
CONTINUOUS
 62
2
  2
*D10
  3
DMST_7
 10
363.793327302505
 20
339.105663994582
 30
0
 11
348.293327302505
 21
341.705663994582
 31
0
 12
0
 22
0
 32
0
 70
0
  1
31
 13
332.793327302505
 23
301.005663994582
 33
0
 14
363.793327302505
 24
301.005663994582
 34
0
 53
0
  0
DIMENSION
  8
1
  6
CONTINUOUS
 62
2
  2
*D11
  3
DMST_6
 10
553.2777456733387
 20
286.505663994582
 30
0
 11
550.6777456733387
 21
301.005663994582
 31
0
 12
0
 22
0
 32
0
 70
0
  1
29
 13
517.8510790066721
 23
315.505663994582
 33
0
 14
517.8510790066721
 24
286.505663994582
 34
0
 50
90
 53
0
  0
DIMENSION
  8
1
  6
CONTINUOUS
 62
2
  2
*D12
  3
DMST_8
 10
627.50684075294
 20
288.7058562269359
 30
0
 11
624.90684075294
 21
301.005663994582
 31
0
 12
0
 22
0
 32
0
 70
0
  1
24.6
 13
605.6999999999999
 23
313.3054717622281
 33
0
 14
605.6999999999999
 24
288.7058562269359
 34
0
 50
90
 53
0
  0
DIMENSION
  8
1
  6
CONTINUOUS
 62
2
  2
*D13
  3
DMST_6
 10
542.8510790066721
 20
296.005663994582
 30
0
 11
540.2510790066721
 21
301.005663994582
 31
0
 12
0
 22
0
 32
0
 70
0
  1
10
 13
532.8510790066721
 23
306.005663994582
 33
0
 14
532.8510790066721
 24
296.005663994582
 34
0
 50
90
 53
0
  0
DIMENSION
  8
1
  6
CONTINUOUS
 62
2
  2
*D14
  3
DMST_6
 10
532.8510790066721
 20
338.505663994582
 30
0
 11
540.089174244767
 21
341.105663994582
 31
0
 12
0
 22
0
 32
0
 70
0
 13
529.651079006672
 23
314.3902633535468
 33
0
 14
532.8510790066721
 24
306.005663994582
 34
0
 53
0
  0
DIMENSION
  8
1
  6
CONTINUOUS
 62
2
  2
*D15
  3
DMST_9
 10
549.3554853690945
 20
393.6980749018555
 30
0
 11
546.7554853690945
 21
411.7446192212017
 31
0
 12
0
 22
0
 32
0
 70
0
  1
2.8
 13
536.151079006672
 23
390.8980749018556
 33
0
 14
536.151079006672
 24
393.6980749018556
 34
0
 50
90
 53
0
  0
DIMENSION
  8
1
  6
CONTINUOUS
 62
2
  2
*D16
  3
DMST_6
 10
529.651079006672
 20
411.1980749018555
 30
0
 11
533.151079006672
 21
413.7980749018555
 31
0
 12
0
 22
0
 32
0
 70
0
 13
536.651079006672
 23
393.1980749018556
 33
0
 14
529.651079006672
 24
406.1980749018555
 34
0
 53
0
  0
INSERT
  8
0
  2
_D18
 10
0
 20
0
 30
0
  0
INSERT
  8
1
  2
*D17
 10
0
 20
0
 30
0
  0
ENDSEC
  0
EOF
