  0
SECTION
  2
HEADER
  9
$ACADVER
  1
AC1009
  9
$INSBASE
 10
0
 20
0
  9
$EXTMIN
 10
339.2374557006313
 20
-74.80265510005761
  9
$EXTMAX
 10
595.0691230458627
 20
90.47135484575819
  9
$LIMMIN
 10
339.2374557006313
 20
-74.80265510005761
  9
$LIMMAX
 10
595.0691230458627
 20
90.47135484575819
  9
$VIEWCTR
 10
10
 20
10
  9
$VIEWSIZE
 40
10
  9
$SNAPMODE
 70
0
  9
$SNAPUNIT
 10
1
 20
1
  9
$SNAPBASE
 10
0
 20
0
  9
$SNAPANG
 50
0
  9
$SNAPSTYLE
 70
0
  9
$SNAPISOPAIR
 70
0
  9
$GRIDMODE
 70
0
  9
$GRIDUNIT
 10
0
 20
0
  9
$ORTHOMODE
 70
0
  9
$REGENMODE
 70
1
  9
$FILLMODE
 70
1
  9
$QTEXTMODE
 70
0
  9
$DRAGMODE
 70
2
  9
$LTSCALE
 40
1
  9
$OSMODE
 70
0
  9
$ATTMODE
 70
1
  9
$TEXTSIZE
 40
3.5
  9
$TRACEWID
 40
0.5
  9
$TEXTSTYLE
  7
STANDARD
  9
$CLAYER
  8
0
  9
$CELTYPE
  6
BYLAYER
  9
$CECOLOR
 62
256
  9
$DIMSCALE
 40
1
  9
$DIMASZ
 40
0.18
  9
$DIMEXO
 40
0.0625
  9
$DIMDLI
 40
0.38
  9
$DIMRND
 40
0
  9
$DIMDLE
 40
0
  9
$DIMEXE
 40
0.18
  9
$DIMTP
 40
0
  9
$DIMTM
 40
0
  9
$DIMTXT
 40
0.18
  9
$DIMCEN
 40
0.09
  9
$DIMTSZ
 40
0
  9
$DIMTOL
 70
0
  9
$DIMLIM
 70
0
  9
$DIMTIH
 70
1
  9
$DIMTOH
 70
1
  9
$DIMSE1
 70
0
  9
$DIMSE2
 70
0
  9
$DIMTAD
 70
0
  9
$DIMZIN
 70
0
  9
$DIMBLK
  1

  9
$DIMASO
 70
1
  9
$DIMSHO
 70
1
  9
$DIMPOST
  1

  9
$DIMAPOST
  1

  9
$DIMALT
 70
0
  9
$DIMALTD
 70
2
  9
$DIMALTF
 40
25.4
  9
$DIMLFAC
 40
1
  9
$DIMTOFL
 70
0
  9
$DIMTVP
 40
0
  9
$DIMTIX
 70
0
  9
$DIMSOXD
 70
0
  9
$DIMSAH
 70
0
  9
$DIMBLK1
  1

  9
$DIMBLK2
  1

  9
$DIMSTYLE
  2
*UNNAMED
  9
$DIMCLRD
 70
0
  9
$DIMCLRE
 70
0
  9
$DIMCLRT
 70
0
  9
$DIMTFAC
 40
1
  9
$DIMGAP
 40
0.09
  9
$LUNITS
 70
2
  9
$LUPREC
 70
4
  9
$AXISMODE
 70
0
  9
$AXISUNIT
 10
0
 20
0
  9
$SKETCHINC
 40
0.1
  9
$FILLETRAD
 40
2
  9
$AUNITS
 70
0
  9
$AUPREC
 70
0
  9
$MENU
  1
ACAD
  9
$ELEVATION
 40
0
  9
$THICKNESS
 40
0
  9
$VIEWDIR
 10
0
 20
0
 30
1
  9
$LIMCHECK
 70
0
  9
$BLIPMODE
 70
1
  9
$CHAMFERA
 40
0
  9
$CHAMFERB
 40
0
  9
$FASTZOOM
 70
1
  9
$SKPOLY
 70
0
  9
$ANGBASE
 50
0
  9
$ANGDIR
 70
0
  9
$PDMODE
 70
0
  9
$PDSIZE
 40
0
  9
$PLINEWID
 40
0
  9
$COORDS
 70
2
  0
ENDSEC
  0
SECTION
  2
TABLES
  0
TABLE
  2
DIMSTYLE
 70
11
  0
DIMSTYLE
  2
DMST_1
 70
0
  3

  4

  5

  6

  7

 40
1
 41
3.2
 42
1
 43
7
 44
1.5
 45
0
 46
0
 47
0
 48
0
140
3.2
141
0
142
0
143
25.4
144
1
145
0
146
1
147
0.09
 71
0
 72
0
 73
0
 74
0
 75
0
 76
0
 77
1
 78
9
170
0
171
2
172
0
173
0
174
0
175
0
176
2
177
2
178
2
  0
DIMSTYLE
  2
DMST_2
 70
0
  3

  4

  5

  6
DOT
  7

 40
1
 41
1.5
 42
1
 43
7
 44
1.5
 45
0
 46
0
 47
0
 48
0
140
3.2
141
0
142
0
143
25.4
144
1
145
0
146
1
147
0.09
 71
0
 72
0
 73
0
 74
0
 75
0
 76
0
 77
1
 78
9
170
0
171
2
172
0
173
1
174
0
175
0
176
2
177
2
178
2
  0
DIMSTYLE
  2
DMST_3
 70
0
  3

  4

  5

  6

  7

 40
1
 41
3.2
 42
1
 43
7
 44
1
 45
0
 46
0
 47
0
 48
0
140
3.2
141
0
142
0
143
25.4
144
1
145
0
146
1
147
0.09
 71
0
 72
0
 73
0
 74
0
 75
0
 76
0
 77
1
 78
9
170
0
171
2
172
0
173
0
174
0
175
0
176
2
177
2
178
2
  0
DIMSTYLE
  2
DMST_4
 70
0
  3

  4

  5

  6

  7

 40
1
 41
3.2
 42
1
 43
7
 44
1
 45
0
 46
0
 47
0
 48
0
140
3.2
141
0
142
0
143
25.4
144
1
145
0
146
1
147
0.09
 71
0
 72
0
 73
1
 74
1
 75
0
 76
0
 77
1
 78
9
170
0
171
2
172
0
173
0
174
0
175
0
176
2
177
2
178
2
  0
DIMSTYLE
  2
DMST_5
 70
0
  3

  4

  5

  6

  7

 40
1
 41
3.2
 42
1
 43
7
 44
1
 45
0
 46
0
 47
0
 48
0.1
140
3.2
141
0
142
0
143
25.4
144
1
145
0
146
0.6
147
0.09
 71
1
 72
0
 73
0
 74
0
 75
0
 76
0
 77
1
 78
9
170
0
171
2
172
0
173
0
174
0
175
0
176
2
177
2
178
2
  0
DIMSTYLE
  2
DMST_6
 70
0
  3

  4

  5

  6

  7

 40
1
 41
3.2
 42
1
 43
7
 44
1
 45
0
 46
0
 47
0
 48
0.01
140
3.2
141
0
142
0
143
25.4
144
1
145
0
146
0.6
147
0.09
 71
1
 72
0
 73
0
 74
0
 75
0
 76
0
 77
1
 78
9
170
0
171
2
172
0
173
0
174
0
175
0
176
2
177
2
178
2
  0
DIMSTYLE
  2
DMST_7
 70
0
  3
ü~0.5t
  4

  5

  6

  7

 40
1
 41
3.2
 42
1
 43
7
 44
1
 45
0
 46
0
 47
0
 48
0
140
3.2
141
0
142
0
143
25.4
144
1
145
0
146
1
147
0.09
 71
0
 72
0
 73
0
 74
0
 75
0
 76
0
 77
1
 78
9
170
0
171
2
172
0
173
0
174
0
175
0
176
2
177
2
178
2
  0
DIMSTYLE
  2
DMST_8
 70
0
  3
)
  4

  5

  6

  7

 40
1
 41
3.2
 42
1
 43
7
 44
1
 45
0
 46
0
 47
0
 48
0
140
3.2
141
0
142
0
143
25.4
144
1
145
0
146
1
147
0.09
 71
0
 72
0
 73
0
 74
0
 75
0
 76
0
 77
1
 78
9
170
0
171
2
172
0
173
0
174
0
175
0
176
2
177
2
178
2
  0
DIMSTYLE
  2
DMST_9
 70
0
  3
HOLE
  4

  5

  6

  7

 40
1
 41
3.2
 42
1
 43
7
 44
1
 45
0
 46
0
 47
0
 48
0
140
3.2
141
0
142
0
143
25.4
144
1
145
0
146
1
147
0.09
 71
0
 72
0
 73
1
 74
1
 75
0
 76
0
 77
1
 78
9
170
0
171
2
172
0
173
0
174
0
175
0
176
2
177
2
178
2
  0
DIMSTYLE
  2
DMST_10
 70
0
  3
DEPTH 3MAX
  4

  5

  6

  7

 40
1
 41
3.2
 42
1
 43
7
 44
1
 45
0
 46
0
 47
0
 48
0
140
3.2
141
0
142
0
143
25.4
144
1
145
0
146
1
147
0.09
 71
0
 72
0
 73
1
 74
1
 75
0
 76
0
 77
1
 78
9
170
0
171
2
172
0
173
0
174
0
175
0
176
2
177
2
178
2
  0
DIMSTYLE
  2
DMST_11
 70
0
  3

  4

  5

  6

  7

 40
1
 41
3.2
 42
1
 43
7
 44
1
 45
0
 46
0
 47
0.2
 48
0.2
140
3.2
141
0
142
0
143
25.4
144
1
145
0
146
0.6
147
0.09
 71
1
 72
0
 73
1
 74
1
 75
0
 76
0
 77
1
 78
9
170
0
171
2
172
0
173
0
174
0
175
0
176
2
177
2
178
2
  0
ENDTAB
  0
TABLE
  2
LTYPE
 70
9
  0
LTYPE
  2
CONTINUOUS
 70
64
  3
Solid line
 72
65
 73
0
 40
0
  0
LTYPE
  2
BORDER
 70
64
  3
__ __ . __ __ .
 72
65
 73
6
 40
11.78172152247776
 49
3.366206149279361
 49
-1.683103074639681
 49
3.366206149279361
 49
-1.683103074639681
 49
0
 49
-1.683103074639681
  0
LTYPE
  2
CENTER
 70
64
  3
____ _ ____ _
 72
65
 73
4
 40
13.46482459711744
 49
8.415515373198403
 49
-1.683103074639681
 49
1.683103074639681
 49
-1.683103074639681
  0
LTYPE
  2
DASHDOT
 70
64
  3
__ . __ . __ .
 72
65
 73
4
 40
6.732412298558722
 49
3.366206149279361
 49
-1.683103074639681
 49
0
 49
-1.683103074639681
  0
LTYPE
  2
DASHED
 70
64
  3
__ __ __ __ __
 72
65
 73
2
 40
5.049309223919042
 49
3.366206149279361
 49
-1.683103074639681
  0
LTYPE
  2
DIVIDE
 70
64
  3
__ . . __ . . 
 72
65
 73
6
 40
8.415515373198403
 49
3.366206149279361
 49
-1.683103074639681
 49
0
 49
-1.683103074639681
 49
0
 49
-1.683103074639681
  0
LTYPE
  2
DOT
 70
64
  3
..............
 72
65
 73
4
 40
3.366206149279361
 49
0
 49
-1.683103074639681
 49
0
 49
-1.683103074639681
  0
LTYPE
  2
HIDDEN
 70
64
  3
_ _ _ _ _ _ _
 72
65
 73
2
 40
2.524654611959521
 49
1.683103074639681
 49
-0.8415515373198402
  0
LTYPE
  2
PHANTOM
 70
64
  3
_____ _ _ _____ _ _ 
 72
65
 73
6
 40
16.83103074639681
 49
8.415515373198403
 49
-1.683103074639681
 49
1.683103074639681
 49
-1.683103074639681
 49
1.683103074639681
 49
-1.683103074639681
  0
ENDTAB
  0
TABLE
  2
LAYER
 70
3
  0
LAYER
  2
1
 70
0
 62
7
  6
CONTINUOUS
  0
LAYER
  2
0
 70
0
 62
7
  6
CONTINUOUS
  0
ENDTAB
  0
TABLE
  2
STYLE
 70
4
  0
STYLE
  2
STANDARD
 70
0
 40
0
 41
1
 50
0
 71
0
 42
3.5
  3
txt
  4

  0
STYLE
  2
SIMPLEX
 70
0
 40
0
 41
1
 50
0
 71
0
 42
3.5
  3
simplex
  4

  0
STYLE
  2
COMPLEX
 70
0
 40
0
 41
1
 50
0
 71
0
 42
3.5
  3
complex
  4

  0
STYLE
  2
ITALIC
 70
0
 40
0
 41
1
 50
0
 71
0
 42
3.5
  3
italic
  4

  0
ENDTAB
  0
TABLE
  2
VIEW
 70
0
  0
ENDTAB
  0
ENDSEC
  0
SECTION
  2
BLOCKS
  0
BLOCK
  8
1
  2
*D0
 70
1
 10
0
 20
0
 30
0
  0
LINE
  8
1
 62
2
 10
492.7924537084001
 20
77.1797535863214
 30
0
 11
501.9785669931994
 21
77.1797535863214
 31
0
  0
LINE
  8
1
 62
2
 10
491.8924537084001
 20
77.1797535863214
 30
0
 11
492.7924537084001
 21
77.1797535863214
 31
0
  0
LINE
  8
1
 62
2
 10
485.4924537084001
 20
77.1797535863214
 30
0
 11
491.8924537084001
 21
77.1797535863214
 31
0
  0
LINE
  8
1
 62
2
 10
492.7924537084001
 20
62.30997876521076
 30
0
 11
492.7924537084001
 21
78.6797535863214
 31
0
  0
LINE
  8
1
 62
2
 10
491.8924537084001
 20
62.18997876521064
 30
0
 11
491.8924537084001
 21
78.6797535863214
 31
0
  0
SOLID
  8
1
 62
2
 10
491.8924537084001
 20
77.1797535863214
 30
0
 11
488.6924537084001
 21
76.7637535863214
 31
0
 12
488.6924537084001
 22
77.59575358632139
 32
0
 13
488.6924537084001
 23
77.59575358632139
 33
0
  0
SOLID
  8
1
 62
2
 10
492.7924537084001
 20
77.1797535863214
 30
0
 11
495.9924537084
 21
77.59575358632139
 31
0
 12
495.9924537084
 22
76.7637535863214
 32
0
 13
495.9924537084
 23
76.7637535863214
 33
0
  0
TEXT
  8
1
 62
2
 10
495.9785669931994
 20
79.1797535863214
 30
0
 40
3.2
  1
0.9
 41
0.9
  0
ENDBLK
  8
0
  0
BLOCK
  8
1
  2
*D1
 70
1
 10
0
 20
0
 30
0
  0
LINE
  8
1
 62
2
 10
492.7924537084
 20
85.2713548457582
 30
0
 11
499.1924537084
 21
85.2713548457582
 31
0
  0
LINE
  8
1
 62
2
 10
486.5924537084
 20
85.2713548457582
 30
0
 11
492.7924537084
 21
85.2713548457582
 31
0
  0
LINE
  8
1
 62
2
 10
492.7924537084
 20
62.30997876521076
 30
0
 11
492.7924537084
 21
86.7713548457582
 31
0
  0
LINE
  8
1
 62
2
 10
486.5924537084
 20
65.15997876521067
 30
0
 11
486.5924537084
 21
86.7713548457582
 31
0
  0
CIRCLE
  8
1
 62
2
 10
486.5924537084
 20
85.2713548457582
 30
0
 40
0.75
  0
SOLID
  8
1
 62
2
 10
492.7924537084
 20
85.2713548457582
 30
0
 11
495.9924537084
 21
85.68735484575819
 31
0
 12
495.9924537084
 22
84.8553548457582
 32
0
 13
495.9924537084
 23
84.8553548457582
 33
0
  0
TEXT
  8
1
 62
2
 10
492.8873934783584
 20
87.2713548457582
 30
0
 40
3.2
  1
6.2
 41
0.9
  0
ENDBLK
  8
0
  0
BLOCK
  8
1
  2
*D2
 70
1
 10
0
 20
0
 30
0
  0
LINE
  8
1
 62
2
 10
485.7924537084
 20
85.2205830882572
 30
0
 11
478.1122872728184
 21
85.2205830882572
 31
0
  0
LINE
  8
1
 62
2
 10
485.7924537084
 20
85.2205830882572
 30
0
 11
486.5924537084
 21
85.2205830882572
 31
0
  0
LINE
  8
1
 62
2
 10
486.5924537084
 20
85.2205830882572
 30
0
 11
486.5924537084
 21
85.2205830882572
 31
0
  0
LINE
  8
1
 62
2
 10
486.5924537084
 20
65.15997876521067
 30
0
 11
486.5924537084
 21
86.7205830882572
 31
0
  0
LINE
  8
1
 62
2
 10
485.7924537084
 20
75.30997876521064
 30
0
 11
485.7924537084
 21
86.7205830882572
 31
0
  0
SOLID
  8
1
 62
2
 10
485.7924537084
 20
85.2205830882572
 30
0
 11
482.5924537084
 21
84.8045830882572
 31
0
 12
482.5924537084
 22
85.6365830882572
 32
0
 13
482.5924537084
 23
85.6365830882572
 33
0
  0
TEXT
  8
1
 62
2
 10
478.1122872728184
 20
87.2205830882572
 30
0
 40
3.2
  1
0.8
 41
0.9
  0
ENDBLK
  8
0
  0
BLOCK
  8
1
  2
*D3
 70
1
 10
0
 20
0
 30
0
  0
LINE
  8
1
 62
2
 10
423.791176967488
 20
-29.93516668669531
 30
0
 11
423.791176967488
 21
-0.9351666866952986
 31
0
  0
LINE
  8
1
 62
2
 10
471.3236615679236
 20
-0.9351666866952986
 30
0
 11
422.791176967488
 21
-0.9351666866952986
 31
0
  0
LINE
  8
1
 62
2
 10
471.3236615679236
 20
-29.93516668669531
 30
0
 11
422.791176967488
 21
-29.93516668669531
 31
0
  0
SOLID
  8
1
 62
2
 10
423.791176967488
 20
-0.9351666866952986
 30
0
 11
424.207176967488
 21
-4.1351666866953
 31
0
 12
423.375176967488
 22
-4.1351666866953
 32
0
 13
423.375176967488
 23
-4.1351666866953
 33
0
  0
SOLID
  8
1
 62
2
 10
423.791176967488
 20
-29.93516668669531
 30
0
 11
423.375176967488
 21
-26.73516668669531
 31
0
 12
424.207176967488
 22
-26.73516668669531
 32
0
 13
424.207176967488
 23
-26.73516668669531
 33
0
  0
TEXT
  8
1
 62
2
 10
421.9378436341547
 20
-15.8116372749306
 30
0
 40
3.2
  1
29
 50
90
 41
0.9
  0
TEXT
  8
1
 62
2
 10
421.9378436341547
 20
-19.85869609846002
 30
0
 40
3.2
  1
âË
 50
90
 41
0.9
  0
ENDBLK
  8
0
  0
BLOCK
  8
1
  2
*D4
 70
1
 10
0
 20
0
 30
0
  0
LINE
  8
1
 62
2
 10
434.138160344662
 20
-29.33516668669531
 30
0
 11
434.138160344662
 21
-1.535166686695309
 31
0
  0
LINE
  8
1
 62
2
 10
469.3236615679236
 20
-1.535166686695309
 30
0
 11
433.138160344662
 21
-1.535166686695309
 31
0
  0
LINE
  8
1
 62
2
 10
469.3236615679236
 20
-29.33516668669531
 30
0
 11
433.138160344662
 21
-29.33516668669531
 31
0
  0
SOLID
  8
1
 62
2
 10
434.138160344662
 20
-1.535166686695309
 30
0
 11
434.554160344662
 21
-4.73516668669531
 31
0
 12
433.722160344662
 22
-4.73516668669531
 32
0
 13
433.722160344662
 23
-4.73516668669531
 33
0
  0
SOLID
  8
1
 62
2
 10
434.138160344662
 20
-29.33516668669531
 30
0
 11
433.722160344662
 21
-26.13516668669531
 31
0
 12
434.554160344662
 22
-26.13516668669531
 32
0
 13
434.554160344662
 23
-26.13516668669531
 33
0
  0
TEXT
  8
1
 62
2
 10
432.2848270113287
 20
-17.8516372749306
 30
0
 40
3.2
  1
27.8
 50
90
 41
0.9
  0
TEXT
  8
1
 62
2
 10
432.2848270113287
 20
-21.89869609846002
 30
0
 40
3.2
  1
âË
 50
90
 41
0.9
  0
ENDBLK
  8
0
  0
BLOCK
  8
1
  2
*D5
 70
1
 10
0
 20
0
 30
0
  0
LINE
  8
1
 62
2
 10
381.449918693951
 20
-39.77589670544311
 30
0
 11
391.449918693951
 21
-39.77589670544311
 31
0
  0
LINE
  8
1
 62
2
 10
391.449918693951
 20
-35.28516668669532
 30
0
 11
391.449918693951
 21
-40.77589670544311
 31
0
  0
LINE
  8
1
 62
2
 10
381.449918693951
 20
-18.06016668669531
 30
0
 11
381.449918693951
 21
-40.77589670544311
 31
0
  0
SOLID
  8
1
 62
2
 10
381.449918693951
 20
-39.77589670544311
 30
0
 11
384.649918693951
 21
-39.35989670544311
 31
0
 12
384.649918693951
 22
-40.19189670544311
 32
0
 13
384.649918693951
 23
-40.19189670544311
 33
0
  0
SOLID
  8
1
 62
2
 10
391.449918693951
 20
-39.77589670544311
 30
0
 11
388.249918693951
 21
-40.19189670544311
 31
0
 12
388.249918693951
 22
-39.35989670544311
 32
0
 13
388.249918693951
 23
-39.35989670544311
 33
0
  0
TEXT
  8
1
 62
2
 10
384.529918693951
 20
-38.77589670544311
 30
0
 40
3.2
  1
10
 41
0.9
  0
ENDBLK
  8
0
  0
BLOCK
  8
1
  2
*D6
 70
1
 10
0
 20
0
 30
0
  0
LINE
  8
1
 62
2
 10
440.7236615679236
 20
-20.4351666866953
 30
0
 11
440.7236615679236
 21
-10.4351666866953
 31
0
  0
LINE
  8
1
 62
2
 10
440.7236615679236
 20
-10.4351666866953
 30
0
 11
440.7236615679236
 21
15.3368333133047
 31
0
  0
LINE
  8
1
 62
2
 10
465.6236615679235
 20
-20.4351666866953
 30
0
 11
439.7236615679236
 21
-20.4351666866953
 31
0
  0
LINE
  8
1
 62
2
 10
465.6236615679235
 20
-10.4351666866953
 30
0
 11
439.7236615679236
 21
-10.4351666866953
 31
0
  0
SOLID
  8
1
 62
2
 10
440.7236615679236
 20
-10.4351666866953
 30
0
 11
441.1396615679236
 21
-13.63516668669531
 31
0
 12
440.3076615679236
 22
-13.63516668669531
 32
0
 13
440.3076615679236
 23
-13.63516668669531
 33
0
  0
SOLID
  8
1
 62
2
 10
440.7236615679236
 20
-20.4351666866953
 30
0
 11
440.3076615679236
 21
-17.23516668669531
 31
0
 12
441.1396615679236
 22
-17.23516668669531
 32
0
 13
441.1396615679236
 23
-17.23516668669531
 33
0
  0
TEXT
  8
1
 62
2
 10
438.9236615679236
 20
5.384833313304695
 30
0
 40
3.2
  1
10
 50
90
 41
0.9
  0
TEXT
  8
1
 62
2
 10
436.8436615679236
 20
10.82483331330469
 30
0
 40
1.92
  1
 0
 50
90
 41
0.9
  0
TEXT
  8
1
 62
2
 10
439.7236615679236
 20
10.82483331330469
 30
0
 40
1.92
  1
-0.1
 50
90
 41
0.9
  0
TEXT
  8
1
 62
2
 10
438.9236615679236
 20
1.544833313304695
 30
0
 40
3.2
  1
%%c
 50
90
 41
0.9
  0
ENDBLK
  8
0
  0
BLOCK
  8
1
  2
*D7
 70
1
 10
0
 20
0
 30
0
  0
LINE
  8
1
 62
2
 10
525.1236615679236
 20
-20.43516668669531
 30
0
 11
525.1236615679236
 21
-10.43516668669531
 31
0
  0
LINE
  8
1
 62
2
 10
512.3236615679235
 20
-10.43516668669531
 30
0
 11
526.1236615679236
 21
-10.43516668669531
 31
0
  0
LINE
  8
1
 62
2
 10
512.3236615679235
 20
-20.43516668669531
 30
0
 11
526.1236615679236
 21
-20.43516668669531
 31
0
  0
SOLID
  8
1
 62
2
 10
525.1236615679236
 20
-10.43516668669531
 30
0
 11
525.5396615679236
 21
-13.63516668669531
 31
0
 12
524.7076615679235
 22
-13.63516668669531
 32
0
 13
524.7076615679235
 23
-13.63516668669531
 33
0
  0
SOLID
  8
1
 62
2
 10
525.1236615679236
 20
-20.43516668669531
 30
0
 11
524.7076615679235
 21
-17.23516668669531
 31
0
 12
525.5396615679236
 22
-17.23516668669531
 32
0
 13
525.5396615679236
 23
-17.23516668669531
 33
0
  0
TEXT
  8
1
 62
2
 10
524.1236615679236
 20
-15.43516668669531
 30
0
 40
3.2
  1
10
 50
90
 41
0.9
  0
TEXT
  8
1
 62
2
 10
524.1236615679236
 20
-19.27516668669531
 30
0
 40
3.2
  1
%%c
 50
90
 41
0.9
  0
ENDBLK
  8
0
  0
BLOCK
  8
1
  2
*D8
 70
1
 10
0
 20
0
 30
0
  0
LINE
  8
1
 62
2
 10
511.3236615679236
 20
18.4648333133047
 30
0
 11
517.7236615679236
 21
18.4648333133047
 31
0
  0
LINE
  8
1
 62
2
 10
508.1236615679236
 20
18.4648333133047
 30
0
 11
501.7236615679236
 21
18.4648333133047
 31
0
  0
LINE
  8
1
 62
2
 10
508.1236615679236
 20
18.4648333133047
 30
0
 11
511.3236615679236
 21
18.4648333133047
 31
0
  0
LINE
  8
1
 62
2
 10
511.3236615679236
 20
-9.435166686695311
 30
0
 11
511.3236615679236
 21
19.4648333133047
 31
0
  0
LINE
  8
1
 62
2
 10
508.1236615679236
 20
-1.05056732773053
 30
0
 11
508.1236615679236
 21
19.4648333133047
 31
0
  0
SOLID
  8
1
 62
2
 10
508.1236615679236
 20
18.4648333133047
 30
0
 11
504.9236615679236
 21
18.04883331330469
 31
0
 12
504.9236615679236
 22
18.8808333133047
 32
0
 13
504.9236615679236
 23
18.8808333133047
 33
0
  0
SOLID
  8
1
 62
2
 10
511.3236615679236
 20
18.4648333133047
 30
0
 11
514.5236615679236
 21
18.8808333133047
 31
0
 12
514.5236615679236
 22
18.04883331330469
 32
0
 13
514.5236615679236
 23
18.04883331330469
 33
0
  0
TEXT
  8
1
 62
2
 10
506.7236615679236
 20
19.46483331330469
 30
0
 40
3.2
  1
3.2
 41
0.9
  0
ENDBLK
  8
0
  0
BLOCK
  8
1
  2
*D9
 70
1
 10
0
 20
0
 30
0
  0
LINE
  8
1
 62
2
 10
469.3236615679236
 20
18.4648333133047
 30
0
 11
508.1236615679237
 21
18.4648333133047
 31
0
  0
LINE
  8
1
 62
2
 10
508.1236615679237
 20
-1.05056732773053
 30
0
 11
508.1236615679237
 21
19.4648333133047
 31
0
  0
LINE
  8
1
 62
2
 10
469.3236615679236
 20
-1.535166686695302
 30
0
 11
469.3236615679236
 21
19.4648333133047
 31
0
  0
SOLID
  8
1
 62
2
 10
469.3236615679236
 20
18.4648333133047
 30
0
 11
472.5236615679236
 21
18.8808333133047
 31
0
 12
472.5236615679236
 22
18.04883331330469
 32
0
 13
472.5236615679236
 23
18.04883331330469
 33
0
  0
SOLID
  8
1
 62
2
 10
508.1236615679237
 20
18.4648333133047
 30
0
 11
504.9236615679237
 21
18.04883331330469
 31
0
 12
504.9236615679237
 22
18.8808333133047
 32
0
 13
504.9236615679237
 23
18.8808333133047
 33
0
  0
TEXT
  8
1
 62
2
 10
484.2836615679236
 20
19.46483331330469
 30
0
 40
3.2
  1
38.8
 41
0.9
  0
ENDBLK
  8
0
  0
BLOCK
  8
1
  2
*D10
 70
1
 10
0
 20
0
 30
0
  0
LINE
  8
1
 62
2
 10
469.3236615679236
 20
8.464833313304697
 30
0
 11
479.6722367126719
 21
8.464833313304697
 31
0
  0
LINE
  8
1
 62
2
 10
466.6236615679236
 20
8.464833313304697
 30
0
 11
469.3236615679236
 21
8.464833313304697
 31
0
  0
LINE
  8
1
 62
2
 10
460.2236615679236
 20
8.464833313304697
 30
0
 11
466.6236615679236
 21
8.464833313304697
 31
0
  0
LINE
  8
1
 62
2
 10
469.3236615679236
 20
-1.5351666866953
 30
0
 11
469.3236615679236
 21
9.464833313304697
 31
0
  0
LINE
  8
1
 62
2
 10
466.6236615679236
 20
-9.435166686695299
 30
0
 11
466.6236615679236
 21
9.464833313304697
 31
0
  0
SOLID
  8
1
 62
2
 10
466.6236615679236
 20
8.464833313304697
 30
0
 11
463.4236615679236
 21
8.048833313304698
 31
0
 12
463.4236615679236
 22
8.880833313304697
 32
0
 13
463.4236615679236
 23
8.880833313304697
 33
0
  0
SOLID
  8
1
 62
2
 10
469.3236615679236
 20
8.464833313304697
 30
0
 11
472.5236615679236
 21
8.880833313304697
 31
0
 12
472.5236615679236
 22
8.048833313304696
 32
0
 13
472.5236615679236
 23
8.048833313304696
 33
0
  0
TEXT
  8
1
 62
2
 10
473.7522367126719
 20
9.464833313304691
 30
0
 40
3.2
  1
2.7
 41
0.9
  0
ENDBLK
  8
0
  0
BLOCK
  8
1
  2
*D11
 70
1
 10
0
 20
0
 30
0
  0
LINE
  8
1
 62
2
 10
457.3236615679236
 20
18.4648333133047
 30
0
 11
469.3236615679236
 21
18.4648333133047
 31
0
  0
LINE
  8
1
 62
2
 10
457.3236615679236
 20
-13.48516668669531
 30
0
 11
457.3236615679236
 21
19.4648333133047
 31
0
  0
LINE
  8
1
 62
2
 10
469.3236615679236
 20
-1.535166686695302
 30
0
 11
469.3236615679236
 21
19.4648333133047
 31
0
  0
SOLID
  8
1
 62
2
 10
469.3236615679236
 20
18.4648333133047
 30
0
 11
466.1236615679236
 21
18.04883331330469
 31
0
 12
466.1236615679236
 22
18.8808333133047
 32
0
 13
466.1236615679236
 23
18.8808333133047
 33
0
  0
SOLID
  8
1
 62
2
 10
457.3236615679236
 20
18.4648333133047
 30
0
 11
460.5236615679236
 21
18.8808333133047
 31
0
 12
460.5236615679236
 22
18.04883331330469
 32
0
 13
460.5236615679236
 23
18.04883331330469
 33
0
  0
TEXT
  8
1
 62
2
 10
461.4036615679236
 20
19.46483331330469
 30
0
 40
3.2
  1
12
 41
0.9
  0
ENDBLK
  8
0
  0
BLOCK
  8
1
  2
*D12
 70
1
 10
0
 20
0
 30
0
  0
LINE
  8
1
 62
2
 10
450.7503282345903
 20
-23.0851666866953
 30
0
 11
450.7503282345903
 21
-16.6851666866953
 31
0
  0
LINE
  8
1
 62
2
 10
450.7503282345903
 20
-16.6851666866953
 30
0
 11
450.7503282345903
 21
-14.18516668669532
 31
0
  0
LINE
  8
1
 62
2
 10
450.7503282345903
 20
-14.18516668669532
 30
0
 11
450.7503282345903
 21
17.30436272506941
 31
0
  0
LINE
  8
1
 62
2
 10
456.6236615679236
 20
-16.6851666866953
 30
0
 11
449.7503282345903
 21
-16.6851666866953
 31
0
  0
LINE
  8
1
 62
2
 10
456.6236615679236
 20
-14.18516668669532
 30
0
 11
449.7503282345903
 21
-14.18516668669532
 31
0
  0
SOLID
  8
1
 62
2
 10
450.7503282345903
 20
-14.18516668669532
 30
0
 11
450.3343282345903
 21
-10.98516668669531
 31
0
 12
451.1663282345903
 22
-10.98516668669531
 32
0
 13
451.1663282345903
 23
-10.98516668669531
 33
0
  0
SOLID
  8
1
 62
2
 10
450.7503282345903
 20
-16.6851666866953
 30
0
 11
451.1663282345903
 21
-19.8851666866953
 31
0
 12
450.3343282345903
 22
-19.8851666866953
 32
0
 13
450.3343282345903
 23
-19.8851666866953
 33
0
  0
TEXT
  8
1
 62
2
 10
448.8969949012569
 20
3.544362725069401
 30
0
 40
3.2
  1
2.5
 50
90
 41
0.9
  0
TEXT
  8
1
 62
2
 10
446.8169949012569
 20
11.1443627250694
 30
0
 40
1.92
  1
 0
 50
90
 41
0.9
  0
TEXT
  8
1
 62
2
 10
449.6969949012569
 20
11.1443627250694
 30
0
 40
1.92
  1
-0.01
 50
90
 41
0.9
  0
TEXT
  8
1
 62
2
 10
448.8969949012569
 20
-0.5026960984600102
 30
0
 40
3.2
  1
âË
 50
90
 41
0.9
  0
ENDBLK
  8
0
  0
BLOCK
  8
1
  2
*D13
 70
1
 10
0
 20
0
 30
0
  0
LINE
  8
1
 62
2
 10
511.9796791291485
 20
61.80997876521076
 30
0
 11
511.9796791291485
 21
89.60084450799043
 31
0
  0
LINE
  8
1
 62
2
 10
511.9796791291485
 20
59.00997876521075
 30
0
 11
511.9796791291485
 21
61.80997876521076
 31
0
  0
LINE
  8
1
 62
2
 10
511.9796791291485
 20
52.60997876521074
 30
0
 11
511.9796791291485
 21
59.00997876521075
 31
0
  0
LINE
  8
1
 62
2
 10
493.2924537084001
 20
61.80997876521076
 30
0
 11
512.9796791291485
 21
61.80997876521076
 31
0
  0
LINE
  8
1
 62
2
 10
493.2924537084001
 20
59.00997876521075
 30
0
 11
512.9796791291485
 21
59.00997876521075
 31
0
  0
SOLID
  8
1
 62
2
 10
511.9796791291485
 20
61.80997876521076
 30
0
 11
511.5636791291485
 21
65.00997876521076
 31
0
 12
512.3956791291485
 22
65.00997876521076
 32
0
 13
512.3956791291485
 23
65.00997876521076
 33
0
  0
SOLID
  8
1
 62
2
 10
511.9796791291485
 20
59.00997876521075
 30
0
 11
512.3956791291485
 21
55.80997876521074
 31
0
 12
511.5636791291485
 22
55.80997876521074
 32
0
 13
511.5636791291485
 23
55.80997876521074
 33
0
  0
TEXT
  8
1
 62
2
 10
510.9796791291485
 20
70.47613862563749
 30
0
 40
3.2
  1
2.8
 50
90
 41
0.9
  0
TEXT
  8
1
 62
2
 10
510.9796791291485
 20
62.75849156681396
 30
0
 40
3.2
  1
éQü|
 50
90
 41
0.9
  0
TEXT
  8
1
 62
2
 10
510.9796791291485
 20
78.07613862563748
 30
0
 40
3.2
  1
ü~0.5t
 50
90
 41
0.9
  0
ENDBLK
  8
0
  0
BLOCK
  8
1
  2
*D14
 70
1
 10
0
 20
0
 30
0
  0
LINE
  8
1
 62
2
 10
582.0740878580599
 20
-27.7349744543414
 30
0
 11
582.0740878580599
 21
-3.135358919049219
 31
0
  0
LINE
  8
1
 62
2
 10
561.2672471051199
 20
-3.135358919049219
 30
0
 11
583.0740878580599
 21
-3.135358919049219
 31
0
  0
LINE
  8
1
 62
2
 10
561.2672471051199
 20
-27.7349744543414
 30
0
 11
583.0740878580599
 21
-27.7349744543414
 31
0
  0
SOLID
  8
1
 62
2
 10
582.0740878580599
 20
-3.135358919049219
 30
0
 11
582.49008785806
 21
-6.33535891904922
 31
0
 12
581.6580878580598
 22
-6.33535891904922
 32
0
 13
581.6580878580598
 23
-6.33535891904922
 33
0
  0
SOLID
  8
1
 62
2
 10
582.0740878580599
 20
-27.7349744543414
 30
0
 11
581.6580878580598
 21
-24.5349744543414
 31
0
 12
582.49008785806
 22
-24.5349744543414
 32
0
 13
582.49008785806
 23
-24.5349744543414
 33
0
  0
TEXT
  8
1
 62
2
 10
581.0740878580599
 20
-19.87516668669531
 30
0
 40
3.2
  1
24.6
 50
90
 41
0.9
  0
TEXT
  8
1
 62
2
 10
581.0740878580599
 20
-21.95516668669531
 30
0
 40
3.2
  1
(
 50
90
 41
0.9
  0
TEXT
  8
1
 62
2
 10
581.0740878580599
 20
-9.395166686695308
 30
0
 40
3.2
  1
)
 50
90
 41
0.9
  0
ENDBLK
  8
0
  0
BLOCK
  8
1
  2
*D15
 70
1
 10
0
 20
0
 30
0
  0
LINE
  8
1
 62
2
 10
380.9326306321242
 20
-16.57310915496487
 30
0
 11
370.3850631270476
 21
-39.77589670544311
 31
0
  0
LINE
  8
1
 62
2
 10
370.3850631270476
 20
-39.77589670544311
 30
0
 11
342.2250631270476
 21
-39.77589670544311
 31
0
  0
SOLID
  8
1
 62
2
 10
380.9326306321242
 20
-16.57310915496487
 30
0
 11
379.9870804472876
 21
-19.65839534071094
 31
0
 12
379.2296659404074
 22
-19.31408840675899
 32
0
 13
379.2296659404074
 23
-19.31408840675899
 33
0
  0
TEXT
  8
1
 62
2
 10
346.0650631270476
 20
-38.77589670544311
 30
0
 40
3.2
  1
2.5
 41
0.9
  0
TEXT
  8
1
 62
2
 10
342.2250631270476
 20
-38.77589670544311
 30
0
 40
3.2
  1
%%c
 41
0.9
  0
TEXT
  8
1
 62
2
 10
353.6650631270476
 20
-38.77589670544311
 30
0
 40
3.2
  1
HOLE
 41
0.9
  0
ENDBLK
  8
0
  0
BLOCK
  8
1
  2
*D16
 70
1
 10
0
 20
0
 30
0
  0
LINE
  8
1
 62
2
 10
391.7507761882391
 20
-6.17045930230525
 30
0
 11
399.6405101244091
 21
26.99542474376269
 31
0
  0
LINE
  8
1
 62
2
 10
399.6405101244091
 20
26.99542474376269
 30
0
 11
452.120510124409
 21
26.99542474376269
 31
0
  0
SOLID
  8
1
 62
2
 10
391.7507761882391
 20
-6.17045930230525
 30
0
 11
392.0866421188663
 21
-2.96105903486526
 31
0
 12
392.896054844876
 22
-3.153607831209603
 32
0
 13
392.896054844876
 23
-3.153607831209603
 33
0
  0
TEXT
  8
1
 62
2
 10
414.120510124409
 20
27.99542474376269
 30
0
 40
3.2
  1
2.6
 41
0.9
  0
TEXT
  8
1
 62
2
 10
404.840510124409
 20
27.99542474376269
 30
0
 40
3.2
  1
2-M
 41
0.9
  0
TEXT
  8
1
 62
2
 10
421.720510124409
 20
27.99542474376269
 30
0
 40
3.2
  1
DEPTH 3MAX
 41
0.9
  0
ENDBLK
  8
0
  0
BLOCK
  8
1
  2
*D17
 70
1
 10
0
 20
0
 30
0
  0
LINE
  8
1
 62
2
 10
502.1663586864953
 20
45.7225172294099
 30
0
 11
528.2303586864954
 21
45.7225172294099
 31
0
  0
LINE
  8
1
 62
2
 10
492.236366687027
 20
59.91832455427378
 30
0
 11
502.1663586864953
 21
45.7225172294099
 31
0
  0
SOLID
  8
1
 62
2
 10
492.236366687027
 20
59.91832455427378
 30
0
 11
494.4114494926201
 21
57.53461509445842
 31
0
 12
493.7296889867877
 22
57.05772243076243
 32
0
 13
493.7296889867877
 23
57.05772243076243
 33
0
  0
TEXT
  8
1
 62
2
 10
516.6463586864953
 20
46.7225172294099
 30
0
 40
3.2
  1
1.2
 41
0.9
  0
TEXT
  8
1
 62
2
 10
523.2863586864954
 20
47.3625172294099
 30
0
 40
1.92
  1
%%p0.2
 41
0.9
  0
TEXT
  8
1
 62
2
 10
507.3663586864954
 20
46.7225172294099
 30
0
 40
3.2
  1
2-%%c
 41
0.9
  0
ENDBLK
  8
0
  0
ENDSEC
  0
SECTION
  2
ENTITIES
  0
LINE
  8
1
 62
2
 10
475.9754923232272
 20
-0.935166686695311
 30
0
 11
492.9754923232272
 21
-0.935166686695311
 31
0
  0
LINE
  8
1
 62
3
 10
475.9754923232272
 20
-7.428928742277375
 30
0
 11
475.9754923232272
 21
-0.935166686695311
 31
0
  0
LINE
  8
1
 62
3
 10
492.9754923232272
 20
-7.428928742277379
 30
0
 11
475.9754923232272
 21
-7.428928742277375
 31
0
  0
LINE
  8
1
 62
3
 10
492.9754923232272
 20
-0.935166686695311
 30
0
 11
492.9754923232272
 21
-7.428928742277379
 31
0
  0
LINE
  8
1
 62
2
 10
475.9754923232272
 20
-0.935166686695311
 30
0
 11
492.9754923232272
 21
-0.935166686695311
 31
0
  0
LINE
  8
1
 62
2
 10
452.120510124409
 20
19.9954247437627
 30
0
 11
397.9282370596637
 21
19.9954247437627
 31
0
  0
LINE
  8
1
 62
1
 10
513.2236615679236
 20
-15.4351666866953
 30
0
 11
450.9236615679236
 21
-15.4351666866953
 31
0
  0
LINE
  8
0
 62
4
 10
511.2236615679236
 20
-15.4351666866953
 30
0
 11
511.2236615679236
 21
-14.58516668669532
 31
0
  0
LINE
  8
0
 62
3
 10
466.6236615679236
 20
-16.6851666866953
 30
0
 11
457.6236615679236
 21
-16.68516668669529
 31
0
  0
LINE
  8
0
 62
3
 10
466.6236615679236
 20
-14.1851666866953
 30
0
 11
457.6236615679236
 21
-14.18516668669531
 31
0
  0
LINE
  8
0
 62
4
 10
511.2236615679236
 20
-16.28516668669531
 30
0
 11
511.2236615679236
 21
-15.4351666866953
 31
0
  0
LINE
  8
1
 62
3
 10
457.3236615679236
 20
-14.4851666866953
 30
0
 11
457.3236615679236
 21
-16.3851666866953
 31
0
  0
LINE
  8
0
 62
3
 10
508.1236615679236
 20
-16.6851666866953
 30
0
 11
508.1236615679236
 21
-19.93516668669531
 31
0
  0
LINE
  8
0
 62
3
 10
508.1236615679236
 20
-14.1851666866953
 30
0
 11
508.1236615679236
 21
-16.6851666866953
 31
0
  0
LINE
  8
0
 62
3
 10
508.1236615679236
 20
-10.93516668669531
 30
0
 11
508.1236615679236
 21
-14.1851666866953
 31
0
  0
LINE
  8
0
 62
3
 10
511.3236615679236
 20
-20.43516668669531
 30
0
 11
511.3236615679236
 21
-10.43516668669531
 31
0
  0
LINE
  8
0
 62
3
 10
511.3236615679236
 20
-10.43516668669531
 30
0
 11
508.1236615679236
 21
-10.43516668669531
 31
0
  0
LINE
  8
0
 62
3
 10
511.3236615679236
 20
-20.43516668669531
 30
0
 11
508.1236615679236
 21
-20.43516668669531
 31
0
  0
LINE
  8
0
 62
2
 10
514.6236615679236
 20
-27.48497445434139
 30
0
 11
508.9236615679236
 21
-27.48497445434139
 31
0
  0
LINE
  8
0
 62
2
 10
514.6236615679236
 20
-27.48497445434139
 30
0
 11
514.6236615679236
 21
-27.98497445434139
 31
0
  0
LINE
  8
0
 62
2
 10
514.6236615679236
 20
-27.98497445434139
 30
0
 11
508.9236615679236
 21
-27.98497445434139
 31
0
  0
LINE
  8
0
 62
2
 10
515.1236615679236
 20
-27.98497445434139
 30
0
 11
514.6236615679236
 21
-27.98497445434139
 31
0
  0
LINE
  8
0
 62
2
 10
515.1236615679236
 20
-27.48497445434139
 30
0
 11
514.6236615679236
 21
-27.48497445434139
 31
0
  0
LINE
  8
0
 62
2
 10
515.1236615679236
 20
-27.98497445434139
 30
0
 11
515.1236615679236
 21
-27.48497445434139
 31
0
  0
LINE
  8
0
 62
2
 10
508.9236615679236
 20
-3.385358919049196
 30
0
 11
514.6236615679236
 21
-3.385358919049196
 31
0
  0
LINE
  8
0
 62
2
 10
514.6236615679236
 20
-2.885358919049196
 30
0
 11
514.6236615679236
 21
-3.385358919049196
 31
0
  0
LINE
  8
0
 62
2
 10
508.9236615679236
 20
-2.885358919049196
 30
0
 11
514.6236615679236
 21
-2.885358919049196
 31
0
  0
LINE
  8
0
 62
2
 10
514.6236615679236
 20
-2.885358919049196
 30
0
 11
515.1236615679236
 21
-2.885358919049196
 31
0
  0
LINE
  8
0
 62
2
 10
514.6236615679236
 20
-3.385358919049196
 30
0
 11
515.1236615679236
 21
-3.385358919049196
 31
0
  0
LINE
  8
0
 62
2
 10
515.1236615679236
 20
-3.385358919049196
 30
0
 11
515.1236615679236
 21
-2.885358919049196
 31
0
  0
LINE
  8
0
 62
3
 10
506.6236615679236
 20
-29.3351666866953
 30
0
 11
506.6236615679236
 21
-29.32617097004357
 31
0
  0
LINE
  8
0
 62
3
 10
496.6236615679236
 20
-29.3351666866953
 30
0
 11
496.6236615679236
 21
-29.01853386542202
 31
0
  0
LINE
  8
0
 62
3
 10
496.6236615679236
 20
-29.01853386542202
 30
0
 11
506.6236615679236
 21
-29.01853386542202
 31
0
  0
LINE
  8
0
 62
3
 10
496.6236615679236
 20
-29.3351666866953
 30
0
 11
506.6236615679236
 21
-29.3351666866953
 31
0
  0
LINE
  8
0
 62
3
 10
506.6236615679236
 20
-29.06041897793746
 30
0
 11
506.6236615679236
 21
-29.01853386542202
 31
0
  0
LINE
  8
0
 62
3
 10
508.9236615679236
 20
-27.48497445434139
 30
0
 11
508.9236615679236
 21
-22.43516668669524
 31
0
  0
LINE
  8
0
 62
3
 10
508.1236615679236
 20
-22.43516668669524
 30
0
 11
508.9236615679236
 21
-22.43516668669524
 31
0
  0
LINE
  8
0
 62
3
 10
508.1236615679236
 20
-28.81976604566007
 30
0
 11
508.9236615679236
 21
-28.81976604566007
 31
0
  0
LINE
  8
0
 62
3
 10
507.4236615679236
 20
-28.81976604566007
 30
0
 11
508.1236615679236
 21
-28.81976604566007
 31
0
  0
LINE
  8
0
 62
3
 10
508.9236615679236
 20
-28.81976604566007
 30
0
 11
508.9236615679236
 21
-27.48497445434139
 31
0
  0
LINE
  8
0
 62
3
 10
508.9236615679236
 20
-28.81976604566007
 30
0
 11
508.9236615679236
 21
-29.32617097004357
 31
0
  0
LINE
  8
0
 62
3
 10
506.6236615679236
 20
-29.06041897793746
 30
0
 11
507.4236615679236
 21
-29.06041897793746
 31
0
  0
LINE
  8
0
 62
3
 10
507.4236615679236
 20
-29.06041897793746
 30
0
 11
507.4236615679236
 21
-28.81976604566007
 31
0
  0
LINE
  8
0
 62
3
 10
506.6236615679236
 20
-29.32617097004357
 30
0
 11
508.9236615679236
 21
-29.32617097004357
 31
0
  0
LINE
  8
0
 62
3
 10
506.6236615679236
 20
-1.544162403347031
 30
0
 11
506.6236615679236
 21
-1.535166686695305
 31
0
  0
LINE
  8
0
 62
3
 10
496.6236615679236
 20
-1.851799507968593
 30
0
 11
496.6236615679236
 21
-1.535166686695305
 31
0
  0
LINE
  8
0
 62
3
 10
506.6236615679236
 20
-1.851799507968593
 30
0
 11
496.6236615679236
 21
-1.851799507968593
 31
0
  0
LINE
  8
0
 62
3
 10
506.6236615679236
 20
-1.535166686695305
 30
0
 11
496.6236615679236
 21
-1.535166686695305
 31
0
  0
LINE
  8
0
 62
3
 10
506.6236615679236
 20
-1.851799507968593
 30
0
 11
506.6236615679236
 21
-1.809914395453141
 31
0
  0
LINE
  8
0
 62
3
 10
508.9236615679236
 20
-8.435166686695361
 30
0
 11
508.9236615679236
 21
-3.385358919049196
 31
0
  0
LINE
  8
0
 62
3
 10
508.9236615679236
 20
-8.435166686695361
 30
0
 11
508.1236615679236
 21
-8.435166686695361
 31
0
  0
LINE
  8
0
 62
3
 10
508.9236615679236
 20
-2.050567327730533
 30
0
 11
508.1236615679236
 21
-2.050567327730533
 31
0
  0
LINE
  8
0
 62
3
 10
508.1236615679236
 20
-2.050567327730533
 30
0
 11
507.4236615679236
 21
-2.050567327730533
 31
0
  0
LINE
  8
0
 62
3
 10
508.9236615679236
 20
-3.385358919049196
 30
0
 11
508.9236615679236
 21
-2.050567327730533
 31
0
  0
LINE
  8
0
 62
3
 10
508.9236615679236
 20
-1.544162403347031
 30
0
 11
508.9236615679236
 21
-2.050567327730533
 31
0
  0
LINE
  8
0
 62
3
 10
507.4236615679236
 20
-1.809914395453141
 30
0
 11
506.6236615679236
 21
-1.809914395453141
 31
0
  0
LINE
  8
0
 62
3
 10
507.4236615679236
 20
-2.050567327730533
 30
0
 11
507.4236615679236
 21
-1.809914395453141
 31
0
  0
LINE
  8
0
 62
3
 10
508.9236615679236
 20
-1.544162403347031
 30
0
 11
506.6236615679236
 21
-1.544162403347031
 31
0
  0
LINE
  8
1
 62
3
 10
389.449918693951
 20
-29.79657330304038
 30
0
 11
389.449918693951
 21
-29.19052927733609
 31
0
  0
LINE
  8
1
 62
3
 10
393.449918693951
 20
-29.79657330304038
 30
0
 11
393.449918693951
 21
-29.18248718742594
 31
0
  0
LINE
  8
0
 62
3
 10
496.3236615679236
 20
-29.33516668669531
 30
0
 11
496.6236615679236
 21
-29.3351666866953
 31
0
  0
LINE
  8
1
 62
3
 10
470.3236615679236
 20
-1.535166686695305
 30
0
 11
472.3236615679236
 21
-1.535166686695305
 31
0
  0
LINE
  8
0
 62
3
 10
496.3236615679236
 20
-1.535166686695305
 30
0
 11
496.6236615679236
 21
-1.535166686695305
 31
0
  0
LINE
  8
1
 62
3
 10
472.3236615679236
 20
-1.535166686695305
 30
0
 11
472.3236615679236
 21
-0.9351666866953057
 31
0
  0
LINE
  8
1
 62
3
 10
472.3236615679236
 20
-29.93516668669532
 30
0
 11
472.3236615679236
 21
-1.535166686695305
 31
0
  0
LINE
  8
1
 62
3
 10
496.3236615679236
 20
-29.93516668669532
 30
0
 11
472.3236615679236
 21
-29.93516668669532
 31
0
  0
LINE
  8
1
 62
3
 10
496.3236615679236
 20
-0.9351666866953057
 30
0
 11
496.3236615679236
 21
-29.93516668669532
 31
0
  0
LINE
  8
1
 62
3
 10
472.3236615679236
 20
-0.9351666866953057
 30
0
 11
496.3236615679236
 21
-0.9351666866953057
 31
0
  0
LINE
  8
1
 62
3
 10
472.3236615679236
 20
-16.73516668669529
 30
0
 11
472.3236615679236
 21
-14.13516668669527
 31
0
  0
LINE
  8
1
 62
3
 10
474.8236615679236
 20
-16.73516668669529
 30
0
 11
472.3236615679236
 21
-16.73516668669529
 31
0
  0
LINE
  8
1
 62
3
 10
474.8236615679236
 20
-14.13516668669527
 30
0
 11
474.8236615679236
 21
-16.73516668669529
 31
0
  0
LINE
  8
1
 62
3
 10
472.3236615679236
 20
-14.13516668669527
 30
0
 11
474.8236615679236
 21
-14.13516668669527
 31
0
  0
LINE
  8
0
 62
3
 10
496.6236615679236
 20
-1.851799507968593
 30
0
 11
496.6236615679236
 21
-1.535166686695305
 31
0
  0
LINE
  8
0
 62
3
 10
469.3236615679236
 20
-28.33516668669531
 30
0
 11
469.3236615679236
 21
-20.4351666866953
 31
0
  0
LINE
  8
0
 62
3
 10
469.3236615679236
 20
-20.4351666866953
 30
0
 11
469.3236615679236
 21
-10.4351666866953
 31
0
  0
LINE
  8
0
 62
3
 10
466.6236615679236
 20
-10.4351666866953
 30
0
 11
466.6236615679236
 21
-20.4351666866953
 31
0
  0
LINE
  8
0
 62
3
 10
496.6236615679236
 20
-29.3351666866953
 30
0
 11
496.6236615679236
 21
-29.18248718742594
 31
0
  0
LINE
  8
0
 62
3
 10
496.6236615679236
 20
-29.18248718742594
 30
0
 11
496.6236615679236
 21
-29.01853386542202
 31
0
  0
LINE
  8
0
 62
3
 10
506.6236615679236
 20
-1.851799507968593
 30
0
 11
496.6236615679236
 21
-1.851799507968593
 31
0
  0
LINE
  8
0
 62
3
 10
506.6236615679236
 20
-1.851799507968593
 30
0
 11
506.6236615679236
 21
-1.809914395453141
 31
0
  0
LINE
  8
0
 62
3
 10
466.6236615679236
 20
-10.4351666866953
 30
0
 11
469.3236615679236
 21
-10.4351666866953
 31
0
  0
LINE
  8
0
 62
3
 10
469.3236615679236
 20
-10.4351666866953
 30
0
 11
469.3236615679236
 21
-2.535166686695305
 31
0
  0
LINE
  8
0
 62
3
 10
466.6236615679236
 20
-20.4351666866953
 30
0
 11
469.3236615679236
 21
-20.4351666866953
 31
0
  0
LINE
  8
0
 62
3
 10
507.4236615679236
 20
-29.06041897793746
 30
0
 11
506.6236615679236
 21
-29.06041897793746
 31
0
  0
LINE
  8
0
 62
3
 10
507.4236615679236
 20
-29.06041897793746
 30
0
 11
507.4236615679236
 21
-28.81976604566007
 31
0
  0
LINE
  8
0
 62
3
 10
506.6236615679236
 20
-29.06041897793746
 30
0
 11
506.6236615679236
 21
-29.01853386542202
 31
0
  0
LINE
  8
0
 62
3
 10
508.1236615679236
 20
-28.81976604566007
 30
0
 11
507.4236615679236
 21
-28.81976604566007
 31
0
  0
LINE
  8
0
 62
3
 10
508.1236615679236
 20
-28.81976604566007
 30
0
 11
508.1236615679236
 21
-22.43516668669524
 31
0
  0
LINE
  8
0
 62
3
 10
508.1236615679236
 20
-16.6851666866953
 30
0
 11
508.1236615679236
 21
-19.93516668669531
 31
0
  0
LINE
  8
0
 62
3
 10
508.1236615679236
 20
-14.1851666866953
 30
0
 11
508.1236615679236
 21
-16.6851666866953
 31
0
  0
LINE
  8
0
 62
3
 10
508.1236615679236
 20
-22.43516668669524
 30
0
 11
508.1236615679236
 21
-19.93516668669531
 31
0
  0
LINE
  8
0
 62
3
 10
506.6236615679236
 20
-29.01853386542202
 30
0
 11
496.6236615679236
 21
-29.01853386542202
 31
0
  0
LINE
  8
0
 62
3
 10
508.1236615679236
 20
-10.93516668669531
 30
0
 11
508.1236615679236
 21
-10.43516668669531
 31
0
  0
LINE
  8
0
 62
3
 10
508.1236615679236
 20
-10.93516668669531
 30
0
 11
508.1236615679236
 21
-14.1851666866953
 31
0
  0
LINE
  8
0
 62
3
 10
508.1236615679236
 20
-10.43516668669531
 30
0
 11
508.1236615679236
 21
-8.435166686695361
 31
0
  0
LINE
  8
0
 62
3
 10
508.1236615679236
 20
-2.050567327730533
 30
0
 11
507.4236615679236
 21
-2.050567327730533
 31
0
  0
LINE
  8
0
 62
3
 10
508.1236615679236
 20
-8.435166686695361
 30
0
 11
508.1236615679236
 21
-2.050567327730533
 31
0
  0
LINE
  8
0
 62
3
 10
507.4236615679236
 20
-1.809914395453141
 30
0
 11
506.6236615679236
 21
-1.809914395453141
 31
0
  0
LINE
  8
0
 62
3
 10
507.4236615679236
 20
-2.050567327730533
 30
0
 11
507.4236615679236
 21
-1.809914395453141
 31
0
  0
LINE
  8
0
 62
3
 10
470.3236615679236
 20
-29.33516668669531
 30
0
 11
472.3236615679236
 21
-29.33516668669531
 31
0
  0
LINE
  8
1
 62
1
 10
383.074918693951
 20
-15.4351666866953
 30
0
 11
409.519918693951
 21
-15.4351666866953
 31
0
  0
LINE
  8
1
 62
1
 10
379.824918693951
 20
-15.4351666866953
 30
0
 11
382.699918693951
 21
-15.4351666866953
 31
0
  0
LINE
  8
1
 62
1
 10
379.824918693951
 20
-15.4351666866953
 30
0
 11
383.074918693951
 21
-15.4351666866953
 31
0
  0
LINE
  8
1
 62
1
 10
381.449918693951
 20
-13.8101666866953
 30
0
 11
381.449918693951
 21
-17.0601666866953
 31
0
  0
LINE
  8
1
 62
1
 10
382.699918693951
 20
-15.4351666866953
 30
0
 11
383.074918693951
 21
-15.4351666866953
 31
0
  0
LINE
  8
1
 62
1
 10
373.379918693951
 20
-15.4351666866953
 30
0
 11
379.824918693951
 21
-15.4351666866953
 31
0
  0
LINE
  8
1
 62
1
 10
391.449918693951
 20
2.634833313304725
 30
0
 11
391.449918693951
 21
-33.50516668669533
 31
0
  0
LINE
  8
1
 62
1
 10
389.759918693951
 20
-23.43516668669531
 30
0
 11
393.139918693951
 21
-23.43516668669531
 31
0
  0
LINE
  8
1
 62
1
 10
391.449918693951
 20
-21.74516668669531
 30
0
 11
391.449918693951
 21
-25.12516668669532
 31
0
  0
LINE
  8
1
 62
1
 10
389.759918693951
 20
-7.435166686695311
 30
0
 11
393.139918693951
 21
-7.435166686695311
 31
0
  0
LINE
  8
1
 62
1
 10
391.449918693951
 20
-5.745166686695306
 30
0
 11
391.449918693951
 21
-9.125166686695316
 31
0
  0
LINE
  8
1
 62
1
 10
372.599918693951
 20
-15.4351666866953
 30
0
 11
410.299918693951
 21
-15.4351666866953
 31
0
  0
LINE
  8
1
 62
1
 10
391.449918693951
 20
3.414833313304719
 30
0
 11
391.449918693951
 21
-34.28516668669531
 31
0
  0
LINE
  8
1
 62
2
 10
465.2246197880944
 20
35.98992656356068
 30
0
 11
521.1214484369764
 21
35.98992656356068
 31
0
  0
LINE
  8
0
 62
3
 10
481.4471571517327
 20
74.30997876521064
 30
0
 11
485.7924537084
 21
74.30997876521064
 31
0
  0
LINE
  8
0
 62
3
 10
484.0726245120025
 20
46.5099787652107
 30
0
 11
485.7924537084
 21
46.5099787652107
 31
0
  0
LINE
  8
0
 62
3
 10
484.2924537084
 20
59.90997876521055
 30
0
 11
484.2924537084
 21
60.90997876521055
 31
0
  0
LINE
  8
0
 62
3
 10
486.5924537084
 20
61.83497876521068
 30
0
 11
486.5924537084
 21
64.15997876521067
 31
0
  0
LINE
  8
0
 62
3
 10
486.5924537084
 20
64.15997876521067
 30
0
 11
485.7924537084
 21
64.15997876521067
 31
0
  0
LINE
  8
0
 62
3
 10
485.0924537084
 20
63.15997876521055
 30
0
 11
484.2924537084
 21
63.15997876521055
 31
0
  0
LINE
  8
0
 62
3
 10
484.2924537084
 20
63.15997876521055
 30
0
 11
484.2924537084
 21
64.15997876521067
 31
0
  0
LINE
  8
0
 62
3
 10
485.7924537084
 20
64.15997876521067
 30
0
 11
485.4924537084
 21
64.15997876521067
 31
0
  0
LINE
  8
0
 62
3
 10
485.4924537084
 20
64.15997876521067
 30
0
 11
485.0924537084
 21
64.15997876521067
 31
0
  0
LINE
  8
0
 62
3
 10
485.0924537084
 20
63.78497876521067
 30
0
 11
485.0924537084
 21
64.15997876521067
 31
0
  0
LINE
  8
0
 62
3
 10
485.0924537084
 20
63.15997876521055
 30
0
 11
485.0924537084
 21
63.78497876521067
 31
0
  0
LINE
  8
0
 62
3
 10
484.2924537084
 20
64.15997876521067
 30
0
 11
483.9924537084
 21
64.15997876521078
 31
0
  0
LINE
  8
0
 62
3
 10
483.9924537084
 20
64.15997876521078
 30
0
 11
478.1634315459833
 21
64.15997876521089
 31
0
  0
LINE
  8
0
 62
3
 10
485.7924537084
 20
56.65997876521067
 30
0
 11
485.0924537084
 21
56.65997876521067
 31
0
  0
LINE
  8
0
 62
3
 10
485.0924537084
 20
57.65997876521055
 30
0
 11
484.2924537084
 21
57.65997876521055
 31
0
  0
LINE
  8
0
 62
3
 10
485.0924537084
 20
57.03497876521067
 30
0
 11
485.0924537084
 21
57.65997876521055
 31
0
  0
LINE
  8
0
 62
3
 10
485.0924537084
 20
56.65997876521067
 30
0
 11
485.0924537084
 21
57.03497876521067
 31
0
  0
LINE
  8
0
 62
3
 10
484.2924537084
 20
56.65997876521067
 30
0
 11
484.2924537084
 21
57.65997876521055
 31
0
  0
LINE
  8
0
 62
3
 10
486.5924537084
 20
61.80997876521076
 30
0
 11
486.5924537084
 21
61.83497876521068
 31
0
  0
LINE
  8
0
 62
3
 10
486.5924537084
 20
60.90997876521055
 30
0
 11
486.5924537084
 21
61.80997876521076
 31
0
  0
LINE
  8
0
 62
3
 10
486.5924537084
 20
60.90997876521055
 30
0
 11
484.2924537084
 21
60.90997876521055
 31
0
  0
LINE
  8
0
 62
3
 10
486.5924537084
 20
58.98497876521066
 30
0
 11
486.5924537084
 21
59.90997876521055
 31
0
  0
LINE
  8
0
 62
3
 10
486.5924537084
 20
56.65997876521067
 30
0
 11
486.5924537084
 21
58.98497876521066
 31
0
  0
LINE
  8
0
 62
3
 10
486.5924537084
 20
59.90997876521055
 30
0
 11
484.2924537084
 21
59.90997876521055
 31
0
  0
LINE
  8
0
 62
3
 10
486.5924537084
 20
56.65997876521067
 30
0
 11
485.7924537084
 21
56.65997876521067
 31
0
  0
LINE
  8
0
 62
3
 10
484.2924537084
 20
56.65997876521067
 30
0
 11
476.3526399617942
 21
56.65997876521089
 31
0
  0
LINE
  8
0
 62
3
 10
486.5924537084
 20
61.80997876521076
 30
0
 11
492.2924537084
 21
61.80997876521076
 31
0
  0
LINE
  8
0
 62
3
 10
492.2924537084
 20
59.00997876521075
 30
0
 11
492.7924537084
 21
59.50997876521075
 31
0
  0
LINE
  8
0
 62
3
 10
492.2924537084
 20
59.00997876521075
 30
0
 11
486.5924537084
 21
59.00997876521075
 31
0
  0
LINE
  8
0
 62
3
 10
492.2924537084
 20
61.80997876521076
 30
0
 11
492.7924537084
 21
61.30997876521076
 31
0
  0
LINE
  8
0
 62
3
 10
492.7924537084
 20
61.30997876521076
 30
0
 11
492.7924537084
 21
59.50997876521075
 31
0
  0
LINE
  8
0
 62
3
 10
484.2924537084
 20
59.90997876521055
 30
0
 11
484.2924537084
 21
60.90997876521055
 31
0
  0
LINE
  8
0
 62
3
 10
488.9924537084
 20
55.40997876521067
 30
0
 11
488.9924537084
 21
59.00997876521069
 31
0
  0
LINE
  8
0
 62
3
 10
488.9924537084
 20
55.40997876521067
 30
0
 11
485.7924537084
 21
55.40997876521067
 31
0
  0
LINE
  8
0
 62
3
 10
485.0924537084
 20
63.15997876521055
 30
0
 11
484.2924537084
 21
63.15997876521055
 31
0
  0
LINE
  8
0
 62
3
 10
484.2924537084
 20
63.15997876521055
 30
0
 11
484.2924537084
 21
63.35991708454725
 31
0
  0
LINE
  8
0
 62
3
 10
485.0924537084
 20
63.78497876521067
 30
0
 11
485.0924537084
 21
64.15997876521067
 31
0
  0
LINE
  8
0
 62
3
 10
485.0924537084
 20
63.15997876521055
 30
0
 11
485.0924537084
 21
63.78497876521067
 31
0
  0
LINE
  8
0
 62
3
 10
488.9924537084
 20
65.40997876521067
 30
0
 11
485.7924537084
 21
65.40997876521067
 31
0
  0
LINE
  8
0
 62
3
 10
488.9924537084
 20
61.80997876521076
 30
0
 11
488.9924537084
 21
65.40997876521067
 31
0
  0
LINE
  8
0
 62
3
 10
485.0924537084
 20
57.65997876521055
 30
0
 11
484.2924537084
 21
57.65997876521055
 31
0
  0
LINE
  8
0
 62
3
 10
485.0924537084
 20
57.03497876521067
 30
0
 11
485.0924537084
 21
57.65997876521055
 31
0
  0
LINE
  8
0
 62
3
 10
485.0924537084
 20
56.65997876521067
 30
0
 11
485.0924537084
 21
57.03497876521067
 31
0
  0
LINE
  8
0
 62
3
 10
484.2924537084
 20
57.46004044587426
 30
0
 11
484.2924537084
 21
57.65997876521055
 31
0
  0
LINE
  8
0
 62
3
 10
485.7924537084
 20
56.65997876521067
 30
0
 11
485.7924537084
 21
55.90997876521067
 31
0
  0
LINE
  8
0
 62
3
 10
485.7924537084
 20
64.90997876521067
 30
0
 11
485.7924537084
 21
64.15997876521067
 31
0
  0
LINE
  8
0
 62
3
 10
485.7924537084
 20
64.15997876521067
 30
0
 11
485.4924537084
 21
64.15997876521067
 31
0
  0
LINE
  8
0
 62
3
 10
485.4924537084
 20
64.15997876521067
 30
0
 11
484.9924537084
 21
64.15997876521067
 31
0
  0
LINE
  8
0
 62
3
 10
485.7924537084
 20
64.90997876521067
 30
0
 11
485.7924537084
 21
64.95997876521068
 31
0
  0
LINE
  8
0
 62
3
 10
485.7924537084
 20
46.5099787652107
 30
0
 11
485.7924537084
 21
55.85997876521066
 31
0
  0
LINE
  8
0
 62
3
 10
485.7924537084
 20
56.65997876521067
 30
0
 11
485.7924537084
 21
55.90997876521067
 31
0
  0
LINE
  8
0
 62
3
 10
485.7924537084
 20
56.65997876521067
 30
0
 11
484.9924537084
 21
56.65997876521067
 31
0
  0
LINE
  8
0
 62
3
 10
485.7924537084
 20
64.90997876521067
 30
0
 11
485.7924537084
 21
64.15997876521067
 31
0
  0
LINE
  8
1
 62
3
 10
484.9924537084
 20
64.15997876521067
 30
0
 11
485.7924537084
 21
64.95997876521068
 31
0
  0
LINE
  8
0
 62
3
 10
484.9924537084
 20
64.15997876521067
 30
0
 11
478.1634315459833
 21
64.15997876521089
 31
0
  0
LINE
  8
0
 62
3
 10
485.7924537084
 20
64.95997876521068
 30
0
 11
485.7924537084
 21
74.30997876521064
 31
0
  0
LINE
  8
1
 62
3
 10
484.9924537084
 20
56.65997876521067
 30
0
 11
485.7924537084
 21
55.85997876521066
 31
0
  0
LINE
  8
0
 62
3
 10
485.7924537084
 20
55.85997876521066
 30
0
 11
485.7924537084
 21
55.90997876521067
 31
0
  0
LINE
  8
0
 62
3
 10
484.9924537084
 20
56.65997876521067
 30
0
 11
476.3526399617942
 21
56.65997876521089
 31
0
  0
LINE
  8
1
 62
1
 10
494.7924537084
 20
60.40997876521067
 30
0
 11
472.3938214266646
 21
60.40997876521067
 31
0
  0
LINE
  8
0
 62
3
 10
486.5924537084
 20
61.80997876521076
 30
0
 11
492.2924537084
 21
61.80997876521076
 31
0
  0
LINE
  8
0
 62
3
 10
492.2924537084
 20
59.00997876521075
 30
0
 11
492.7924537084
 21
59.50997876521075
 31
0
  0
LINE
  8
0
 62
3
 10
492.2924537084
 20
59.00997876521075
 30
0
 11
486.5924537084
 21
59.00997876521075
 31
0
  0
LINE
  8
0
 62
3
 10
492.2924537084
 20
61.80997876521076
 30
0
 11
492.7924537084
 21
61.30997876521076
 31
0
  0
LINE
  8
0
 62
3
 10
492.7924537084
 20
61.30997876521076
 30
0
 11
492.7924537084
 21
59.50997876521075
 31
0
  0
LINE
  8
1
 62
1
 10
491.8924537084
 20
61.18997876521064
 30
0
 11
491.8924537084
 21
59.62997876521075
 31
0
  0
LINE
  8
1
 62
1
 10
539.49724710512
 20
-15.43516668669531
 30
0
 11
575.6372471051199
 21
-15.43516668669531
 31
0
  0
LINE
  8
1
 62
1
 10
557.5672471051199
 20
2.634833313304569
 30
0
 11
557.5672471051199
 21
-33.50516668669519
 31
0
  0
LINE
  8
1
 62
1
 10
554.86724710512
 20
-27.7349744543414
 30
0
 11
560.2672471051199
 21
-27.7349744543414
 31
0
  0
LINE
  8
1
 62
1
 10
554.86724710512
 20
-3.135358919049224
 30
0
 11
560.2672471051199
 21
-3.135358919049224
 31
0
  0
LINE
  8
1
 62
3
 10
559.1762458436186
 20
-29.84561855537419
 30
0
 11
559.0265626577125
 21
-29.25835004357663
 31
0
  0
LINE
  8
1
 62
3
 10
563.0523240616327
 20
-28.8576825008463
 30
0
 11
562.9026408757266
 21
-28.27041398904868
 31
0
  0
LINE
  8
1
 62
3
 10
561.3172471051199
 20
-2.050567327730619
 30
0
 11
561.3172471051199
 21
-8.435166686695425
 31
0
  0
LINE
  8
1
 62
3
 10
553.8172471051199
 20
-2.050567327730619
 30
0
 11
553.8172471051199
 21
-8.435166686695425
 31
0
  0
LINE
  8
1
 62
3
 10
557.0672471051223
 20
-1.544162403347002
 30
0
 11
557.0672471051199
 21
-2.885358919049224
 31
0
  0
LINE
  8
1
 62
3
 10
558.0672471051175
 20
-1.544162403347002
 30
0
 11
558.0672471051199
 21
-2.885358919049224
 31
0
  0
LINE
  8
1
 62
3
 10
557.0672471051199
 20
-27.9849744543414
 30
0
 11
558.0672471051199
 21
-27.9849744543414
 31
0
  0
LINE
  8
1
 62
3
 10
557.0672471051199
 20
-27.9849744543414
 30
0
 11
557.0672471051199
 21
-29.32617097004351
 31
0
  0
LINE
  8
1
 62
3
 10
557.0672471051199
 20
-27.4849744543414
 30
0
 11
558.0672471051199
 21
-27.4849744543414
 31
0
  0
LINE
  8
1
 62
3
 10
557.0672471051199
 20
-22.4351666866952
 30
0
 11
558.0672471051199
 21
-22.4351666866952
 31
0
  0
LINE
  8
1
 62
3
 10
557.0672471051199
 20
-22.4351666866952
 30
0
 11
557.0672471051199
 21
-27.4849744543414
 31
0
  0
LINE
  8
1
 62
3
 10
558.0672471051199
 20
-27.9849744543414
 30
0
 11
558.4672471051199
 21
-27.9849744543414
 31
0
  0
LINE
  8
1
 62
3
 10
558.0672471051199
 20
-27.9849744543414
 30
0
 11
558.0672471051199
 21
-29.33516668669529
 31
0
  0
LINE
  8
1
 62
3
 10
558.0672471051199
 20
-27.4849744543414
 30
0
 11
558.4672471051199
 21
-27.4849744543414
 31
0
  0
LINE
  8
1
 62
3
 10
558.0672471051199
 20
-22.4351666866952
 30
0
 11
561.3172471051199
 21
-22.4351666866952
 31
0
  0
LINE
  8
1
 62
3
 10
558.0672471051199
 20
-22.4351666866952
 30
0
 11
558.0672471051199
 21
-27.4849744543414
 31
0
  0
LINE
  8
1
 62
3
 10
557.0672471051199
 20
-3.385358919049224
 30
0
 11
558.0672471051199
 21
-3.385358919049224
 31
0
  0
LINE
  8
1
 62
3
 10
557.0672471051199
 20
-8.435166686695425
 30
0
 11
558.0672471051199
 21
-8.435166686695425
 31
0
  0
LINE
  8
1
 62
3
 10
557.0672471051199
 20
-3.385358919049224
 30
0
 11
557.0672471051199
 21
-8.435166686695425
 31
0
  0
LINE
  8
1
 62
3
 10
557.0672471051199
 20
-2.885358919049224
 30
0
 11
558.0672471051199
 21
-2.885358919049224
 31
0
  0
LINE
  8
1
 62
3
 10
558.0672471051199
 20
-3.385358919049224
 30
0
 11
558.4672471051199
 21
-3.385358919049224
 31
0
  0
LINE
  8
1
 62
3
 10
558.0672471051199
 20
-8.435166686695425
 30
0
 11
561.3172471051199
 21
-8.435166686695425
 31
0
  0
LINE
  8
1
 62
3
 10
558.0672471051199
 20
-3.385358919049224
 30
0
 11
558.0672471051199
 21
-8.435166686695425
 31
0
  0
LINE
  8
1
 62
3
 10
558.0672471051199
 20
-2.885358919049224
 30
0
 11
558.4672471051199
 21
-2.885358919049224
 31
0
  0
LINE
  8
1
 62
3
 10
556.1672471051199
 20
-2.885358919049224
 30
0
 11
556.6672471051199
 21
-2.885358919049224
 31
0
  0
LINE
  8
1
 62
3
 10
556.1672471051199
 20
-3.385358919049224
 30
0
 11
556.6672471051199
 21
-3.385358919049224
 31
0
  0
LINE
  8
1
 62
3
 10
556.1672471051199
 20
-27.4849744543414
 30
0
 11
556.6672471051199
 21
-27.4849744543414
 31
0
  0
LINE
  8
1
 62
3
 10
556.1672471051199
 20
-27.9849744543414
 30
0
 11
556.6672471051199
 21
-27.9849744543414
 31
0
  0
LINE
  8
1
 62
3
 10
558.4672471051199
 20
-2.885358919049224
 30
0
 11
558.4672471051199
 21
-3.385358919049224
 31
0
  0
LINE
  8
1
 62
3
 10
558.4672471051199
 20
-2.885358919049224
 30
0
 11
558.9672471051199
 21
-2.885358919049224
 31
0
  0
LINE
  8
1
 62
3
 10
558.4672471051199
 20
-3.385358919049224
 30
0
 11
558.9672471051199
 21
-3.385358919049224
 31
0
  0
LINE
  8
1
 62
3
 10
556.6672471051199
 20
-2.885358919049224
 30
0
 11
556.6672471051199
 21
-3.385358919049224
 31
0
  0
LINE
  8
1
 62
3
 10
556.6672471051199
 20
-2.885358919049224
 30
0
 11
557.0672471051199
 21
-2.885358919049224
 31
0
  0
LINE
  8
1
 62
3
 10
556.6672471051199
 20
-3.385358919049224
 30
0
 11
557.0672471051199
 21
-3.385358919049224
 31
0
  0
LINE
  8
1
 62
3
 10
556.1672471051199
 20
-2.885358919049224
 30
0
 11
556.1672471051199
 21
-3.385358919049224
 31
0
  0
LINE
  8
1
 62
3
 10
558.9672471051199
 20
-2.885358919049224
 30
0
 11
558.9672471051199
 21
-3.385358919049224
 31
0
  0
LINE
  8
1
 62
3
 10
556.6672471051199
 20
-27.4849744543414
 30
0
 11
556.6672471051199
 21
-27.9849744543414
 31
0
  0
LINE
  8
1
 62
3
 10
556.6672471051199
 20
-27.4849744543414
 30
0
 11
557.0672471051199
 21
-27.4849744543414
 31
0
  0
LINE
  8
1
 62
3
 10
556.6672471051199
 20
-27.9849744543414
 30
0
 11
557.0672471051199
 21
-27.9849744543414
 31
0
  0
LINE
  8
1
 62
3
 10
556.1672471051199
 20
-27.4849744543414
 30
0
 11
556.1672471051199
 21
-27.9849744543414
 31
0
  0
LINE
  8
1
 62
3
 10
558.9672471051199
 20
-27.4849744543414
 30
0
 11
558.9672471051199
 21
-27.9849744543414
 31
0
  0
LINE
  8
1
 62
3
 10
558.4672471051199
 20
-27.4849744543414
 30
0
 11
558.4672471051199
 21
-27.9849744543414
 31
0
  0
LINE
  8
1
 62
3
 10
558.4672471051199
 20
-27.4849744543414
 30
0
 11
558.9672471051199
 21
-27.4849744543414
 31
0
  0
LINE
  8
1
 62
3
 10
558.4672471051199
 20
-27.9849744543414
 30
0
 11
558.9672471051199
 21
-27.9849744543414
 31
0
  0
LINE
  8
1
 62
3
 10
553.8172471051199
 20
-22.4351666866952
 30
0
 11
553.8172471051199
 21
-28.81976604566
 31
0
  0
LINE
  8
1
 62
3
 10
561.3172471051199
 20
-22.4351666866952
 30
0
 11
561.3172471051199
 21
-28.81976604566
 31
0
  0
LINE
  8
1
 62
3
 10
553.8172471051199
 20
-22.4351666866952
 30
0
 11
557.0672471051199
 21
-22.4351666866952
 31
0
  0
LINE
  8
1
 62
3
 10
553.8172471051199
 20
-8.435166686695425
 30
0
 11
557.0672471051199
 21
-8.435166686695425
 31
0
  0
ARC
  8
1
 62
3
 10
391.449918693951
 20
-15.4351666866953
 30
0
 40
15.10000000000004
 50
32.01994437309083
 51
147.9800556269089
  0
ARC
  8
0
 62
4
 10
510.8236615679236
 20
-16.28516668669531
 30
0
 40
0.4000000000000031
 50
318.5903778907311
 51
0
  0
ARC
  8
0
 62
4
 10
510.8236615679236
 20
-14.58516668669532
 30
0
 40
0.4000000000000341
 50
0
 51
41.40962210927214
  0
ARC
  8
1
 62
3
 10
391.449918693951
 20
-15.4351666866953
 30
0
 40
14.50000000000001
 50
277.9281417662022
 51
262.0718582337978
  0
ARC
  8
1
 62
3
 10
470.3236615679236
 20
-28.33516668669531
 30
0
 40
1
 50
180
 51
270
  0
ARC
  8
1
 62
3
 10
470.3236615679236
 20
-2.535166686695305
 30
0
 40
0.9999999999999998
 50
90
 51
180
  0
ARC
  8
0
 62
3
 10
391.449918693951
 20
-15.4351666866953
 30
0
 40
4.500000000000016
 50
209.7228686446995
 51
257.824441657224
  0
ARC
  8
0
 62
3
 10
391.449918693951
 20
-15.4351666866953
 30
0
 40
4.500000000000026
 50
257.824441657224
 51
270
  0
ARC
  8
0
 62
3
 10
391.449918693951
 20
-15.4351666866953
 30
0
 40
4.5
 50
270
 51
283.5053772535847
  0
ARC
  8
0
 62
3
 10
391.449918693951
 20
-15.4351666866953
 30
0
 40
4.499999999999999
 50
283.5053772535847
 51
330.6860181709185
  0
ARC
  8
0
 62
3
 10
391.449918693951
 20
-15.4351666866953
 30
0
 40
4.500000000000083
 50
184.0387080648414
 51
209.7228686446995
  0
ARC
  8
0
 62
3
 10
391.449918693951
 20
-15.4351666866953
 30
0
 40
4.499999999999972
 50
330.6860181709185
 51
356.3745131150495
  0
ARC
  8
0
 62
3
 10
391.449918693951
 20
-15.4351666866953
 30
0
 40
4.500000000000052
 50
137.4865515438183
 51
184.0387080648414
  0
ARC
  8
0
 62
3
 10
391.449918693951
 20
-15.4351666866953
 30
0
 40
4.499999999999972
 50
111.8000509805781
 51
137.4865515438183
  0
ARC
  8
0
 62
3
 10
391.449918693951
 20
-15.4351666866953
 30
0
 40
4.500000000000001
 50
67.12048047327716
 51
111.8000509805781
  0
ARC
  8
0
 62
3
 10
391.449918693951
 20
-15.4351666866953
 30
0
 40
4.499999999999998
 50
41.44099014285851
 51
67.12048047327716
  0
ARC
  8
0
 62
3
 10
391.449918693951
 20
-15.4351666866953
 30
0
 40
4.499999999999995
 50
356.3745131150495
 51
41.44099014285851
  0
ARC
  8
0
 62
4
 10
391.449918693951
 20
-15.4351666866953
 30
0
 40
4.500000000000016
 50
209.7228686446995
 51
257.824441657224
  0
ARC
  8
0
 62
4
 10
391.449918693951
 20
-15.4351666866953
 30
0
 40
4.500000000000026
 50
257.824441657224
 51
270
  0
ARC
  8
0
 62
4
 10
391.449918693951
 20
-15.4351666866953
 30
0
 40
4.5
 50
270
 51
283.5053772535847
  0
ARC
  8
0
 62
4
 10
391.449918693951
 20
-15.4351666866953
 30
0
 40
4.499999999999999
 50
283.5053772535847
 51
330.6860181709185
  0
ARC
  8
0
 62
4
 10
391.449918693951
 20
-15.4351666866953
 30
0
 40
4.500000000000083
 50
184.0387080648414
 51
209.7228686446995
  0
ARC
  8
0
 62
4
 10
391.449918693951
 20
-15.4351666866953
 30
0
 40
4.499999999999972
 50
330.6860181709185
 51
356.3745131150495
  0
ARC
  8
0
 62
4
 10
391.449918693951
 20
-15.4351666866953
 30
0
 40
4.500000000000052
 50
137.4865515438183
 51
184.0387080648414
  0
ARC
  8
0
 62
4
 10
391.449918693951
 20
-15.4351666866953
 30
0
 40
4.499999999999972
 50
111.8000509805781
 51
137.4865515438183
  0
ARC
  8
0
 62
4
 10
391.449918693951
 20
-15.4351666866953
 30
0
 40
4.500000000000001
 50
67.12048047327716
 51
111.8000509805781
  0
ARC
  8
0
 62
4
 10
391.449918693951
 20
-15.4351666866953
 30
0
 40
4.499999999999998
 50
41.44099014285851
 51
67.12048047327716
  0
ARC
  8
0
 62
4
 10
391.449918693951
 20
-15.4351666866953
 30
0
 40
4.499999999999995
 50
356.3745131150495
 51
41.44099014285851
  0
ARC
  8
0
 62
3
 10
391.449918693951
 20
-15.4351666866953
 30
0
 40
4.500000000000016
 50
209.7228686446995
 51
257.824441657224
  0
ARC
  8
0
 62
3
 10
391.449918693951
 20
-15.4351666866953
 30
0
 40
4.500000000000026
 50
257.824441657224
 51
270
  0
ARC
  8
0
 62
3
 10
391.449918693951
 20
-15.4351666866953
 30
0
 40
4.5
 50
270
 51
283.5053772535847
  0
ARC
  8
0
 62
3
 10
391.449918693951
 20
-15.4351666866953
 30
0
 40
4.499999999999999
 50
283.5053772535847
 51
330.6860181709185
  0
ARC
  8
0
 62
3
 10
391.449918693951
 20
-15.4351666866953
 30
0
 40
4.500000000000083
 50
184.0387080648414
 51
209.7228686446995
  0
ARC
  8
0
 62
3
 10
391.449918693951
 20
-15.4351666866953
 30
0
 40
4.499999999999972
 50
330.6860181709185
 51
356.3745131150495
  0
ARC
  8
0
 62
3
 10
391.449918693951
 20
-15.4351666866953
 30
0
 40
4.500000000000052
 50
137.4865515438183
 51
184.0387080648414
  0
ARC
  8
0
 62
3
 10
391.449918693951
 20
-15.4351666866953
 30
0
 40
4.499999999999972
 50
111.8000509805781
 51
137.4865515438183
  0
ARC
  8
0
 62
3
 10
391.449918693951
 20
-15.4351666866953
 30
0
 40
4.500000000000001
 50
67.12048047327716
 51
111.8000509805781
  0
ARC
  8
0
 62
3
 10
391.449918693951
 20
-15.4351666866953
 30
0
 40
4.499999999999998
 50
41.44099014285851
 51
67.12048047327716
  0
ARC
  8
0
 62
3
 10
391.449918693951
 20
-15.4351666866953
 30
0
 40
4.499999999999995
 50
356.3745131150495
 51
41.44099014285851
  0
ARC
  8
0
 62
3
 10
391.449918693951
 20
-15.4351666866953
 30
0
 40
13.9
 50
285.6514242751598
 51
74.34857572483999
  0
ARC
  8
0
 62
3
 10
391.449918693951
 20
-15.4351666866953
 30
0
 40
13.9
 50
282.2528205177792
 51
285.6514242751598
  0
ARC
  8
0
 62
3
 10
391.449918693951
 20
-15.4351666866953
 30
0
 40
13.90000000000002
 50
74.34857572483999
 51
77.74717948222127
  0
ARC
  8
0
 62
3
 10
391.449918693951
 20
-15.4351666866953
 30
0
 40
13.90000000000001
 50
77.74717948222127
 51
78.58922262123691
  0
ARC
  8
0
 62
3
 10
391.449918693951
 20
-15.4351666866953
 30
0
 40
4.500000000000016
 50
209.7228686446995
 51
257.824441657224
  0
ARC
  8
0
 62
3
 10
391.449918693951
 20
-15.4351666866953
 30
0
 40
4.500000000000026
 50
257.824441657224
 51
270
  0
ARC
  8
0
 62
3
 10
391.449918693951
 20
-15.4351666866953
 30
0
 40
4.5
 50
270
 51
283.5053772535847
  0
ARC
  8
0
 62
3
 10
391.449918693951
 20
-15.4351666866953
 30
0
 40
4.499999999999999
 50
283.5053772535847
 51
330.6860181709185
  0
ARC
  8
0
 62
3
 10
391.449918693951
 20
-15.4351666866953
 30
0
 40
4.500000000000083
 50
184.0387080648414
 51
209.7228686446995
  0
ARC
  8
0
 62
3
 10
391.449918693951
 20
-15.4351666866953
 30
0
 40
4.499999999999972
 50
330.6860181709185
 51
356.3745131150495
  0
ARC
  8
0
 62
3
 10
391.449918693951
 20
-15.4351666866953
 30
0
 40
4.500000000000052
 50
137.4865515438183
 51
184.0387080648414
  0
ARC
  8
0
 62
3
 10
391.449918693951
 20
-15.4351666866953
 30
0
 40
4.499999999999972
 50
111.8000509805781
 51
137.4865515438183
  0
ARC
  8
0
 62
3
 10
391.449918693951
 20
-15.4351666866953
 30
0
 40
13.89999999999998
 50
102.2528205177792
 51
105.6514242751598
  0
ARC
  8
0
 62
3
 10
391.449918693951
 20
-15.4351666866953
 30
0
 40
4.500000000000001
 50
67.12048047327716
 51
111.8000509805781
  0
ARC
  8
0
 62
3
 10
391.449918693951
 20
-15.4351666866953
 30
0
 40
13.9
 50
78.58922262123691
 51
101.4107773787626
  0
ARC
  8
0
 62
3
 10
391.4499186939524
 20
-15.43516668669501
 30
0
 40
13.89999999999998
 50
101.4107773787683
 51
102.252820517785
  0
ARC
  8
0
 62
3
 10
391.449918693951
 20
-15.4351666866953
 30
0
 40
4.499999999999998
 50
41.44099014285851
 51
67.12048047327716
  0
ARC
  8
0
 62
3
 10
391.449918693951
 20
-15.4351666866953
 30
0
 40
4.499999999999995
 50
356.3745131150495
 51
41.44099014285851
  0
ARC
  8
0
 62
3
 10
391.449918693951
 20
-15.4351666866953
 30
0
 40
13.9
 50
270
 51
278.5
  0
ARC
  8
0
 62
3
 10
391.449918693951
 20
-15.4351666866953
 30
0
 40
13.90000000000002
 50
254.3485757248403
 51
257.747179482221
  0
ARC
  8
0
 62
3
 10
391.449918693951
 20
-15.4351666866953
 30
0
 40
13.9
 50
261.4999999999999
 51
270
  0
ARC
  8
0
 62
3
 10
391.4499186939496
 20
-15.4351666866956
 30
0
 40
13.89999999999999
 50
281.4107773787683
 51
282.2528205177852
  0
ARC
  8
0
 62
3
 10
391.449918693951
 20
-15.4351666866953
 30
0
 40
13.90000000000005
 50
257.747179482221
 51
258.5892226212367
  0
ARC
  8
0
 62
3
 10
391.449918693951
 20
-15.4351666866953
 30
0
 40
13.9
 50
278.5
 51
281.4107773787624
  0
ARC
  8
0
 62
3
 10
391.449918693951
 20
-15.4351666866953
 30
0
 40
13.90000000000002
 50
258.5892226212367
 51
261.4999999999999
  0
ARC
  8
0
 62
3
 10
391.449918693951
 20
-15.4351666866953
 30
0
 40
13.89999999999997
 50
105.6514242751598
 51
254.3485757248403
  0
ARC
  8
1
 62
3
 10
557.5672471051199
 20
-15.43516668669531
 30
0
 40
13.89999999999991
 50
292.5718242340339
 51
276.0264020426419
  0
ARC
  8
1
 62
3
 10
557.5672471051199
 20
-15.43516668669531
 30
0
 40
13.89999999999998
 50
276.0264020426419
 51
292.5718242340339
  0
ARC
  8
1
 62
3
 10
557.5672471051199
 20
-15.43516668669531
 30
0
 40
14.50000000000003
 50
292.22725490454
 51
276.370971372136
  0
ARC
  8
1
 62
3
 10
557.5672471051199
 20
-15.43516668669531
 30
0
 40
13.49999999999994
 50
286.1276202131608
 51
73.87237978683923
  0
ARC
  8
1
 62
3
 10
557.5672471051199
 20
-15.43516668669531
 30
0
 40
13.49999999999998
 50
106.1276202131608
 51
253.8723797868392
  0
CIRCLE
  8
0
 62
4
 10
391.449918693951
 20
-15.4351666866953
 30
0
 40
1.550000000000019
  0
CIRCLE
  8
0
 62
4
 10
391.449918693951
 20
-15.4351666866953
 30
0
 40
1.25
  0
CIRCLE
  8
0
 62
4
 10
391.449918693951
 20
-15.4351666866953
 30
0
 40
4.19999999999998
  0
CIRCLE
  8
0
 62
2
 10
391.449918693951
 20
-15.4351666866953
 30
0
 40
1.550000000000019
  0
CIRCLE
  8
0
 62
3
 10
391.449918693951
 20
-15.4351666866953
 30
0
 40
1.25
  0
CIRCLE
  8
0
 62
2
 10
391.449918693951
 20
-15.4351666866953
 30
0
 40
4.19999999999998
  0
CIRCLE
  8
1
 62
3
 10
381.449918693951
 20
-15.4351666866953
 30
0
 40
1.25
  0
CIRCLE
  8
1
 62
3
 10
391.449918693951
 20
-23.43516668669531
 30
0
 40
1.040000000000021
  0
CIRCLE
  8
1
 62
3
 10
391.449918693951
 20
-7.435166686695311
 30
0
 40
1.040000000000021
  0
CIRCLE
  8
0
 62
3
 10
391.449918693951
 20
-15.4351666866953
 30
0
 40
5
  0
CIRCLE
  8
0
 62
1
 10
391.449918693951
 20
-7.435166686695311
 30
0
 40
1.300000000000004
  0
CIRCLE
  8
0
 62
1
 10
391.449918693951
 20
-23.43516668669531
 30
0
 40
1.29999999999999
  0
CIRCLE
  8
0
 62
3
 10
491.8924537084001
 20
60.40997876521067
 30
0
 40
0.6000000000000796
  0
CIRCLE
  8
0
 62
3
 10
491.8924537084001
 20
60.40997876521067
 30
0
 40
0.6000000000000796
  0
CIRCLE
  8
1
 62
2
 10
557.5672471051199
 20
-15.43516668669531
 30
0
 40
0.8500000000000227
  0
CIRCLE
  8
1
 62
3
 10
557.5672471051199
 20
-15.43516668669531
 30
0
 40
1.25
  0
CIRCLE
  8
1
 62
3
 10
557.5672471051199
 20
-15.43516668669531
 30
0
 40
4.5
  0
CIRCLE
  8
1
 62
3
 10
557.5672471051199
 20
-15.43516668669531
 30
0
 40
6.549999999999955
  0
CIRCLE
  8
1
 62
3
 10
557.5672471051199
 20
-15.43516668669531
 30
0
 40
5
  0
POLYLINE
  8
1
 62
3
 66
1
  0
VERTEX
  8
1
 10
481.4471571517327
 20
74.30997876521064
 30
0
 42
0.09199770479408286
  0
VERTEX
  8
1
 10
480.2106333938997
 20
72.70400746079767
 30
0
 42
0.06423884780076423
  0
VERTEX
  8
1
 10
479.5804216217724
 20
70.85813865001104
 30
0
 42
0.02491961949461325
  0
VERTEX
  8
1
 10
479.2787649853595
 20
68.8861565894411
 30
0
 42
-0.01157185282291071
  0
VERTEX
  8
1
 10
479.0279066346694
 20
66.90184553567819
 30
0
 42
-0.05013265371428736
  0
VERTEX
  8
1
 10
478.5500897197109
 20
65.01898974531261
 30
0
 42
-0.03292771833987795
  0
VERTEX
  8
1
 10
477.405324090794
 20
62.76594503332105
 30
0
 42
0.05705749892646757
  0
VERTEX
  8
1
 10
476.466774312745
 20
60.50921503958838
 30
0
 42
0.06568364225452537
  0
VERTEX
  8
1
 10
476.1556173946813
 20
58.25232671008971
 30
0
 42
0.09041020664258284
  0
VERTEX
  8
1
 10
476.5243466050775
 20
56.13564100807835
 30
0
 42
0.1213881381458621
  0
VERTEX
  8
1
 10
477.6761951125292
 20
54.52456005398365
 30
0
 42
0.03147100946700521
  0
VERTEX
  8
1
 10
479.3351605705524
 20
53.31724685808857
 30
0
 42
-0.07416187627766811
  0
VERTEX
  8
1
 10
481.270735451824
 20
51.68522240018736
 30
0
 42
-0.06410344027324848
  0
VERTEX
  8
1
 10
482.950497365872
 20
49.24440633970335
 30
0
 42
-0.04298638278605575
  0
VERTEX
  8
1
 10
484.0726245120025
 20
46.5099787652107
 30
0
  0
SEQEND
  8
1
  0
ARC
  8
1
 62
3
 10
457.6236615679236
 20
-14.4851666866953
 30
0
 40
0.2999999999999901
 50
90
 51
180
  0
ARC
  8
1
 62
3
 10
457.6236615679236
 20
-16.3851666866953
 30
0
 40
0.3000000000000114
 50
180
 51
270
  0
LINE
  8
1
 62
2
 10
339.2374557006313
 20
8.464833313304695
 30
0
 11
373.8431352412625
 21
8.464833313304695
 31
0
  0
LINE
  8
1
 62
2
 10
373.8431352412625
 20
8.464833313304695
 30
0
 11
381.1333390058048
 21
-4.246045844437596
 31
0
  0
SOLID
  8
1
 62
2
 10
378.9923131162768
 20
-1.439209583297163
 30
0
 11
379.7917294852236
 21
-0.9807119333699759
 31
0
 12
381.1333390058048
 22
-4.246045844437596
 32
0
 13
381.1333390058048
 23
-4.246045844437596
 33
0
  0
LINE
  8
1
 62
2
 10
595.0691230458627
 20
-42.3442820348879
 30
0
 11
562.3120501680025
 21
-42.3442820348879
 31
0
  0
LINE
  8
1
 62
2
 10
562.3120501680025
 20
-42.3442820348879
 30
0
 11
559.9809567746903
 21
-29.12399445356499
 31
0
  0
SOLID
  8
1
 62
2
 10
561.0425087976707
 20
-32.49080733208799
 30
0
 11
560.1349419953783
 21
-32.65083584612745
 31
0
 12
559.9809567746903
 22
-29.12399445356499
 32
0
 13
559.9809567746903
 23
-29.12399445356499
 33
0
  0
LINE
  8
1
 62
2
 10
519.961182257777
 20
12.06483331330469
 30
0
 11
552.7182551356372
 21
12.06483331330469
 31
0
  0
LINE
  8
1
 62
2
 10
552.7182551356372
 20
12.06483331330469
 30
0
 11
555.0493485289494
 21
-1.155454268018332
 31
0
  0
SOLID
  8
1
 62
2
 10
553.987796505969
 20
2.211358610504671
 30
0
 11
554.8953633082614
 21
2.371387124544127
 31
0
 12
555.0493485289494
 22
-1.155454268018332
 32
0
 13
555.0493485289494
 23
-1.155454268018332
 33
0
  0
TEXT
  8
1
 62
2
 10
432.9435191297045
 20
21.7454247437627
 30
0
 40
2.5
  1
%%p0.2
 41
0.9
 73
2
 11
432.9435191297045
 21
22.9954247437627
 31
0
  0
TEXT
  8
1
 62
2
 10
408.4435191297045
 20
20.84542474376269
 30
0
 40
3.5
  1
P.C.D=%%c16
 41
0.9
 73
2
 11
408.4435191297045
 21
22.59542474376269
 31
0
  0
TEXT
  8
1
 62
2
 10
339.4610445899387
 20
9.314833313304691
 30
0
 40
3.5
  1
NAME PLATE
 41
0.9
 73
2
 11
339.4610445899387
 21
11.06483331330469
 31
0
  0
TEXT
  8
1
 62
2
 10
417.2327492714644
 20
-74.80265510005761
 30
0
 40
5
  1
DMN29B
 41
0.9
  0
TEXT
  8
1
 62
2
 10
460.3072752473268
 20
37.23811820634648
 30
0
 40
3.5
  1
(+)(-) TERMINALÅ┌ìÎÉ}
 41
0.9
 72
1
 73
2
 11
493.3822752473268
 21
38.98811820634648
 31
0
  0
TEXT
  8
1
 62
2
 10
560.0076538874578
 20
-40.5942820348879
 30
0
 40
3.5
  1
(ü|)TERMINAL
 41
0.9
  0
TEXT
  8
1
 62
2
 10
560.0076538874578
 20
-47.5942820348879
 30
0
 40
3.5
  1
   (BLACK)
 41
0.9
  0
TEXT
  8
1
 62
2
 10
517.2139445874269
 20
13.81483331330469
 30
0
 40
3.5
  1
(ü{)TERMINAL
 41
0.9
  0
TEXT
  8
1
 62
2
 10
517.2139445874269
 20
6.814833313304689
 30
0
 40
3.5
  1
    (RED)
 41
0.9
  0
DIMENSION
  8
1
  6
CONTINUOUS
 62
2
  2
*D0
  3
DMST_1
 10
492.7924537084001
 20
77.1797535863214
 30
0
 11
498.9785669931994
 21
80.77975358632139
 31
0
 12
0
 22
0
 32
0
 70
0
 13
491.8924537084
 23
61.18997876521064
 33
0
 14
492.7924537084
 24
61.30997876521076
 34
0
 53
0
  0
DIMENSION
  8
1
  6
CONTINUOUS
 62
2
  2
*D1
  3
DMST_2
 10
492.7924537084
 20
85.2713548457582
 30
0
 11
495.8873934783584
 21
88.87135484575819
 31
0
 12
0
 22
0
 32
0
 70
0
 13
486.5924537084
 23
64.15997876521067
 33
0
 14
492.7924537084
 24
61.30997876521076
 34
0
 53
0
  0
DIMENSION
  8
1
  6
CONTINUOUS
 62
2
  2
*D3
  3
DMST_3
 10
423.791176967488
 20
-29.93516668669531
 30
0
 11
420.7645103008213
 21
-15.43516668669531
 31
0
 12
0
 22
0
 32
0
 70
0
  1
âË<>
 13
472.3236615679236
 23
-0.9351666866953057
 33
0
 14
472.3236615679236
 24
-29.93516668669532
 34
0
 50
90
 53
0
  0
DIMENSION
  8
1
  6
CONTINUOUS
 62
2
  2
*D4
  3
DMST_3
 10
434.138160344662
 20
-1.535166686695309
 30
0
 11
431.1114936779953
 21
-15.43516668669531
 31
0
 12
0
 22
0
 32
0
 70
0
  1
âË<>
 13
470.3236615679236
 23
-29.33516668669531
 33
0
 14
470.3236615679236
 24
-1.535166686695305
 34
0
 50
90
 53
0
  0
DIMENSION
  8
1
  6
CONTINUOUS
 62
2
  2
*D5
  3
DMST_4
 10
391.449918693951
 20
-39.77589670544311
 30
0
 11
386.449918693951
 21
-37.17589670544311
 31
0
 12
0
 22
0
 32
0
 70
0
 13
381.449918693951
 23
-17.0601666866953
 33
0
 14
391.449918693951
 24
-34.28516668669531
 34
0
 53
0
  0
DIMENSION
  8
1
  6
CONTINUOUS
 62
2
  2
*D6
  3
DMST_5
 10
440.7236615679236
 20
-10.4351666866953
 30
0
 11
437.3236615679236
 21
8.464833313304695
 31
0
 12
0
 22
0
 32
0
 70
0
  1
%%c<>
 13
466.6236615679236
 23
-20.4351666866953
 33
0
 14
466.6236615679236
 24
-10.4351666866953
 34
0
 50
90
 53
0
  0
DIMENSION
  8
1
  6
CONTINUOUS
 62
2
  2
*D7
  3
DMST_3
 10
525.1236615679236
 20
-10.43516668669531
 30
0
 11
522.5236615679236
 21
-15.43516668669531
 31
0
 12
0
 22
0
 32
0
 70
0
  1
%%c<>
 13
511.3236615679236
 23
-20.43516668669531
 33
0
 14
511.3236615679236
 24
-10.43516668669531
 34
0
 50
90
 53
0
  0
DIMENSION
  8
1
  6
CONTINUOUS
 62
2
  2
*D8
  3
DMST_3
 10
511.3236615679236
 20
18.4648333133047
 30
0
 11
509.7236615679236
 21
21.06483331330469
 31
0
 12
0
 22
0
 32
0
 70
0
 13
508.1236615679236
 23
-2.050567327730533
 33
0
 14
511.3236615679236
 24
-10.43516668669531
 34
0
 53
0
  0
DIMENSION
  8
1
  6
CONTINUOUS
 62
2
  2
*D9
  3
DMST_3
 10
508.1236615679237
 20
18.4648333133047
 30
0
 11
488.7236615679236
 21
21.06483331330469
 31
0
 12
0
 22
0
 32
0
 70
0
 13
469.3236615679236
 23
-2.535166686695305
 33
0
 14
508.1236615679236
 24
-2.050567327730533
 34
0
 53
0
  0
DIMENSION
  8
1
  6
CONTINUOUS
 62
2
  2
*D10
  3
DMST_3
 10
469.3236615679236
 20
8.464833313304697
 30
0
 11
476.7522367126719
 21
11.06483331330469
 31
0
 12
0
 22
0
 32
0
 70
0
 13
466.6236615679236
 23
-10.4351666866953
 33
0
 14
469.3236615679236
 24
-2.535166686695305
 34
0
 53
0
  0
DIMENSION
  8
1
  6
CONTINUOUS
 62
2
  2
*D11
  3
DMST_3
 10
469.3236615679236
 20
18.4648333133047
 30
0
 11
463.3236615679236
 21
21.06483331330469
 31
0
 12
0
 22
0
 32
0
 70
0
 13
457.3236615679236
 23
-14.4851666866953
 33
0
 14
469.3236615679236
 24
-2.535166686695305
 34
0
 53
0
  0
DIMENSION
  8
1
  6
CONTINUOUS
 62
2
  2
*D12
  3
DMST_6
 10
450.7503282345903
 20
-14.18516668669531
 30
0
 11
447.3236615679236
 21
8.464833313304695
 31
0
 12
0
 22
0
 32
0
 70
0
  1
âË<>
 13
457.6236615679236
 23
-16.68516668669529
 33
0
 14
457.6236615679236
 24
-14.18516668669531
 34
0
 50
90
 53
0
  0
DIMENSION
  8
1
  6
CONTINUOUS
 62
2
  2
*D13
  3
DMST_7
 10
511.9796791291485
 20
61.80997876521076
 30
0
 11
509.3796791291484
 21
76.1796680374022
 31
0
 12
0
 22
0
 32
0
 70
0
  1
éQü|<>
 13
492.2924537084
 23
59.00997876521075
 33
0
 14
492.2924537084
 24
61.80997876521076
 34
0
 50
90
 53
0
  0
DIMENSION
  8
1
  6
CONTINUOUS
 62
2
  2
*D14
  3
DMST_8
 10
582.0740878580599
 20
-3.135358919049219
 30
0
 11
579.4740878580599
 21
-15.43516668669531
 31
0
 12
0
 22
0
 32
0
 70
0
  1
(<>
 13
560.2672471051199
 23
-27.7349744543414
 33
0
 14
560.2672471051199
 24
-3.135358919049224
 34
0
 50
90
 53
0
  0
DIMENSION
  8
1
  6
CONTINUOUS
 62
2
  2
*D15
  3
DMST_9
 10
381.9672067557779
 20
-14.29722421842573
 30
0
 11
353.7050631270476
 21
-37.17589670544311
 31
0
 12
0
 22
0
 32
0
 70
3
 15
380.9326306321242
 25
-16.57310915496487
 35
0
 40
0
 53
0
  0
DIMENSION
  8
1
  6
CONTINUOUS
 62
2
  2
*D16
  3
DMST_10
 10
391.149061199663
 20
-8.699874071085375
 30
0
 11
428.480510124409
 21
29.59542474376269
 31
0
 12
0
 22
0
 32
0
 70
3
  1
2-M<>
 15
391.7507761882391
 25
-6.170459302305256
 35
0
 40
0
 53
0
  0
DIMENSION
  8
1
  6
CONTINUOUS
 62
2
  2
*D17
  3
DMST_11
 10
491.5485407297732
 20
60.90163297614758
 30
0
 11
517.7983586864954
 21
48.3225172294099
 31
0
 12
0
 22
0
 32
0
 70
3
  1
2-%%c<>
 15
492.2363666870271
 25
59.91832455427372
 35
0
 40
0
 53
0
  0
INSERT
  8
1
  2
*D2
 10
0
 20
0
 30
0
  0
ENDSEC
  0
EOF
