  0
SECTION
  2
HEADER
  9
$ACADVER
  1
AC1014
  9
$ACADMAINTVER
 70
             0
  9
$DWGCODEPAGE
  3
ANSI_1252
  9
$INSBASE
 10
0.0
 20
0.0
 30
0.0
  9
$EXTMIN
 10
4.82130898568311
 20
5.46257277091742
 30
0.0
  9
$EXTMAX
 10
212.50878253638101
 20
141.89472853127529
 30
0.0
  9
$LIMMIN
 10
0.0
 20
0.0
  9
$LIMMAX
 10
0.0
 20
0.0
  9
$ORTHOMODE
 70
             0
  9
$REGENMODE
 70
             1
  9
$FILLMODE
 70
             1
  9
$QTEXTMODE
 70
             0
  9
$MIRRTEXT
 70
             1
  9
$DRAGMODE
 70
             2
  9
$LTSCALE
 40
1.0
  9
$OSMODE
 70
             0
  9
$ATTMODE
 70
             1
  9
$TEXTSIZE
 40
0.2
  9
$TRACEWID
 40
0.05
  9
$TEXTSTYLE
  7
STANDARD
  9
$CLAYER
  8
0
  9
$CELTYPE
  6
CONTINUOUS
  9
$CECOLOR
 62
           256
  9
$CELTSCALE
 40
1.0
  9
$DELOBJ
 70
             1
  9
$DISPSILH
 70
             0
  9
$DIMSCALE
 40
1.0
  9
$DIMASZ
 40
0.18
  9
$DIMEXO
 40
0.0625
  9
$DIMDLI
 40
0.38
  9
$DIMRND
 40
0.0
  9
$DIMDLE
 40
0.0
  9
$DIMEXE
 40
0.18
  9
$DIMTP
 40
0.0
  9
$DIMTM
 40
0.0
  9
$DIMTXT
 40
0.18
  9
$DIMCEN
 40
0.09
  9
$DIMTSZ
 40
0.0
  9
$DIMTOL
 70
             0
  9
$DIMLIM
 70
             0
  9
$DIMTIH
 70
             1
  9
$DIMTOH
 70
             1
  9
$DIMSE1
 70
             0
  9
$DIMSE2
 70
             0
  9
$DIMTAD
 70
             0
  9
$DIMZIN
 70
             0
  9
$DIMBLK
  1

  9
$DIMASO
 70
             1
  9
$DIMSHO
 70
             1
  9
$DIMPOST
  1

  9
$DIMAPOST
  1

  9
$DIMALT
 70
             0
  9
$DIMALTD
 70
             2
  9
$DIMALTF
 40
25.4
  9
$DIMLFAC
 40
1.0
  9
$DIMTOFL
 70
             0
  9
$DIMTVP
 40
0.0
  9
$DIMTIX
 70
             0
  9
$DIMSOXD
 70
             0
  9
$DIMSAH
 70
             0
  9
$DIMBLK1
  1

  9
$DIMBLK2
  1

  9
$DIMSTYLE
  2
STANDARD
  9
$DIMCLRD
 70
             0
  9
$DIMCLRE
 70
             0
  9
$DIMCLRT
 70
             0
  9
$DIMTFAC
 40
1.0
  9
$DIMGAP
 40
0.09
  9
$DIMJUST
 70
             0
  9
$DIMSD1
 70
             0
  9
$DIMSD2
 70
             0
  9
$DIMTOLJ
 70
             1
  9
$DIMTZIN
 70
             0
  9
$DIMALTZ
 70
             0
  9
$DIMALTTZ
 70
             0
  9
$DIMFIT
 70
             3
  9
$DIMUPT
 70
             0
  9
$DIMUNIT
 70
             2
  9
$DIMDEC
 70
             4
  9
$DIMTDEC
 70
             4
  9
$DIMALTU
 70
             2
  9
$DIMALTTD
 70
             2
  9
$DIMTXSTY
  7
STANDARD
  9
$DIMAUNIT
 70
             0
  9
$LUNITS
 70
             2
  9
$LUPREC
 70
             4
  9
$SKETCHINC
 40
0.1
  9
$FILLETRAD
 40
0.0
  9
$AUNITS
 70
             0
  9
$AUPREC
 70
             0
  9
$MENU
  1
acad
  9
$ELEVATION
 40
0.0
  9
$PELEVATION
 40
0.0
  9
$THICKNESS
 40
0.0
  9
$LIMCHECK
 70
             0
  9
$BLIPMODE
 70
             1
  9
$CHAMFERA
 40
0.0
  9
$CHAMFERB
 40
0.0
  9
$CHAMFERC
 40
0.0
  9
$CHAMFERD
 40
0.0
  9
$SKPOLY
 70
             0
  9
$TDCREATE
 40
0.000000000
  9
$TDUPDATE
 40
0.000000000
  9
$TDINDWG
 40
0.0000000000
  9
$TDUSRTIMER
 40
0.0000000000
  9
$USRTIMER
 70
             1
  9
$ANGBASE
 50
0.0
  9
$ANGDIR
 70
             0
  9
$PDMODE
 70
             0
  9
$PDSIZE
 40
0.0
  9
$PLINEWID
 40
0.0
  9
$COORDS
 70
             0
  9
$SPLFRAME
 70
             0
  9
$SPLINETYPE
 70
             6
  9
$SPLINESEGS
 70
             8
  9
$ATTDIA
 70
             0
  9
$ATTREQ
 70
             1
  9
$HANDLING
 70
             1
  9
$HANDSEED
  5
29E
  9
$SURFTAB1
 70
             6
  9
$SURFTAB2
 70
             6
  9
$SURFTYPE
 70
             6
  9
$SURFU
 70
             6
  9
$SURFV
 70
             6
  9
$UCSNAME
  2

  9
$UCSORG
 10
0.0
 20
0.0
 30
0.0
  9
$UCSXDIR
 10
1.0
 20
0.0
 30
0.0
  9
$UCSYDIR
 10
0.0
 20
1.0
 30
0.0
  9
$PUCSNAME
  2

  9
$PUCSORG
 10
0.0
 20
0.0
 30
0.0
  9
$PUCSXDIR
 10
1.0
 20
0.0
 30
0.0
  9
$PUCSYDIR
 10
0.0
 20
1.0
 30
0.0
  9
$USERI1
 70
             0
  9
$USERI2
 70
             0
  9
$USERI3
 70
             0
  9
$USERI4
 70
             0
  9
$USERI5
 70
             0
  9
$USERR1
 40
12.01
  9
$USERR2
 40
0.0
  9
$USERR3
 40
0.0
  9
$USERR4
 40
0.0
  9
$USERR5
 40
0.0
  9
$WORLDVIEW
 70
             1
  9
$SHADEDGE
 70
             3
  9
$SHADEDIF
 70
            70
  9
$TILEMODE
 70
             1
  9
$MAXACTVP
 70
            16
  9
$PINSBASE
 10
0.0
 20
0.0
 30
0.0
  9
$PLIMCHECK
 70
             0
  9
$PEXTMIN
 10
1.00000000000000E+20
 20
1.00000000000000E+20
 30
1.00000000000000E+20
  9
$PEXTMAX
 10
-1.00000000000000E+20
 20
-1.00000000000000E+20
 30
-1.00000000000000E+20
  9
$PLIMMIN
 10
0.0
 20
0.0
  9
$PLIMMAX
 10
12.0
 20
9.0
  9
$UNITMODE
 70
             0
  9
$VISRETAIN
 70
             0
  9
$PLINEGEN
 70
             1
  9
$PSLTSCALE
 70
             0
  9
$TREEDEPTH
 70
          3020
  9
$PICKSTYLE
 70
             1
  9
$CMLSTYLE
  2
STANDARD
  9
$CMLJUST
 70
             0
  9
$CMLSCALE
 40
1.0
  9
$PROXYGRAPHICS
 70
             0
  9
$MEASUREMENT
 70
             1
  0
ENDSEC
  0
SECTION
  2
CLASSES
  0
CLASS
  1
LWPOLYLINE
  2
AcDbPolyline
  3
"AutoCAD"
 90
        0
280
             0
281
             1
  0
CLASS
  1
IMAGE
  2
AcDbRasterImage
  3
ISM
 90
      127
280
             0
281
             1
  0
CLASS
  1
OLE2FRAME
  2
AcDbOle2Frame
  3
""
 90
        0
280
             0
281
             1
  0
CLASS
  1
HATCH
  2
AcDbHatch
  3
"ACAD_SEDONA"
 90
        0
280
             0
281
             1
  0
CLASS
  1
DICTIONARYVAR
  2
AcDbDictionaryVar
  3
"AutoCAD"
 90
        0
280
             0
281
             0
  0
CLASS
  1
RASTERVARIABLES
  2
AcDbRasterVariables
  3
ISM
 90
        0
280
             0
281
             0
  0
CLASS
  1
IMAGEDEF
  2
AcDbRasterImageDef
  3
ISM
 90
        0
280
             0
281
             0
  0
CLASS
  1
IMAGEDEF_REACTOR
  2
AcDbRasterImageDefReactor
  3
ISM
 90
        1
280
             0
281
             0
  0
CLASS
  1
IDBUFFER
  2
AcDbIdBuffer
  3
"Acad"
 90
        0
280
             0
281
             0
  0
CLASS
  1
SPATIAL_FILTER
  2
AcDbSpatialFilter
  3
"Acad"
 90
        0
280
             0
281
             0
  0
CLASS
  1
XRECORD
  2
AcDbXrecord
  3
"<Built In>"
 90
        0
280
             0
281
             0
  0
CLASS
  1
SORTENTSTABLE
  2
AcDbSortentsTable
  3
"AutoCAD"
 90
        0
280
             0
281
             0
  0
CLASS
  1
LAYER_INDEX
  2
AcDbLayerIndex
  3
"Acad"
 90
        0
280
             0
281
             0
  0
CLASS
  1
SPATIAL_INDEX
  2
AcDbSpatialIndex
  3
"Acad"
 90
        0
280
             0
281
             0
  0
CLASS
  1
OBJECT_PTR
  2
CAseDLPNTableRecord
  3
"ASE-LPNTableRecord"
 90
        1
280
             0
281
             0
  0
CLASS
  1
LAYOUT
  2
AcDbLayout
  3
"AutoCAD 2000"
 90
        0
280
             0
281
             0
  0
CLASS
  1
PLOTSETTINGS
  2
AcDbPlotSettings
  3
"AutoCAD 2000"
 90
        0
280
             0
281
             0
  0
CLASS
  1
ACDBDICTIONARYWDFLT
  2
AcDbDictionaryWithDefault
  3
"AutoCAD 2000"
 90
        0
280
             0
281
             0
  0
CLASS
  1
ACDBPLACEHOLDER
  2
AcDbPlaceHolder
  3
"AutoCAD 2000"
 90
        0
280
             0
281
             0
  0
ENDSEC
  0
SECTION
  2
TABLES
  0
TABLE
  2
VPORT
  5
7
100
AcDbSymbolTable
 70
             1
  0
VPORT
  5
15
100
AcDbSymbolTableRecord
100
AcDbViewportTableRecord
  2
*ACTIVE
 70
             0
 10
0.0
 20
0.0
 11
1.0
 21
1.0
 12
108.66504576103206
 22
73.67865065109636
 13
0.0
 23
0.0
 14
1.0
 24
1.0
 15
0.0
 25
0.0
 16
0.0
 26
0.0
 36
1.0
 17
0.0
 27
0.0
 37
0.0
 40
150.07537133639366
 41
1.60267857142857
 42
50.0
 43
0.0
 44
0.0
 50
0.0
 51
0.0
 71
             0
 72
           100
 73
             1
 74
             1
 75
             0
 76
             0
 77
             0
 78
             0
  0
ENDTAB
  0
TABLE
  2
LTYPE
  5
4
100
AcDbSymbolTable
 70
            10
  0
LTYPE
  5
11
100
AcDbSymbolTableRecord
100
AcDbLinetypeTableRecord
  2
BYBLOCK
 70
            64
  3

 72
            65
 73
             0
 40
0.0
  0
LTYPE
  5
12
100
AcDbSymbolTableRecord
100
AcDbLinetypeTableRecord
  2
BYLAYER
 70
            64
  3

 72
            65
 73
             0
 40
0.0
  0
LTYPE
  5
13
100
AcDbSymbolTableRecord
100
AcDbLinetypeTableRecord
  2
CONTINUOUS
 70
            64
  3
Solid line
 72
            65
 73
             0
 40
0.0
  0
LTYPE
  5
1D
100
AcDbSymbolTableRecord
100
AcDbLinetypeTableRecord
  2
DASHED
 70
            64
  3
Dashed
 72
            65
 73
             2
 40
15.0
 49
7.0
 74
             0
 49
-8.0
 74
             0
  0
LTYPE
  5
1E
100
AcDbSymbolTableRecord
100
AcDbLinetypeTableRecord
  2
DOTTED
 70
            64
  3
Dotted
 72
            65
 73
             2
 40
1.0
 49
0.0
 74
             0
 49
-1.0
 74
             0
  0
LTYPE
  5
1F
100
AcDbSymbolTableRecord
100
AcDbLinetypeTableRecord
  2
DOT_CENTER
 70
            64
  3
Dot_Center
 72
            65
 73
             4
 40
14.0
 49
12.0
 74
             0
 49
-1.0
 74
             0
 49
0.0
 74
             0
 49
-1.0
 74
             0
  0
LTYPE
  5
20
100
AcDbSymbolTableRecord
100
AcDbLinetypeTableRecord
  2
LONG_DASHED
 70
            64
  3
Long_Dashed
 72
            65
 73
             2
 40
15.0
 49
10.0
 74
             0
 49
-5.0
 74
             0
  0
LTYPE
  5
21
100
AcDbSymbolTableRecord
100
AcDbLinetypeTableRecord
  2
DASH_CENTER
 70
            64
  3
Dash_Center
 72
            65
 73
             4
 40
14.0
 49
11.0
 74
             0
 49
-1.0
 74
             0
 49
1.0
 74
             0
 49
-1.0
 74
             0
  0
LTYPE
  5
22
100
AcDbSymbolTableRecord
100
AcDbLinetypeTableRecord
  2
PHANTOM
 70
            64
  3
Phantom
 72
            65
 73
             6
 40
13.0
 49
10.0
 74
             0
 49
-1.0
 74
             0
 49
0.0
 74
             0
 49
-1.0
 74
             0
 49
0.0
 74
             0
 49
-1.0
 74
             0
  0
LTYPE
  5
23
100
AcDbSymbolTableRecord
100
AcDbLinetypeTableRecord
  2
CENTER_DASH_DASH
 70
            64
  3
Center_Dash_Dash
 72
            65
 73
             6
 40
14.0
 49
9.0
 74
             0
 49
-1.0
 74
             0
 49
1.0
 74
             0
 49
-1.0
 74
             0
 49
1.0
 74
             0
 49
-1.0
 74
             0
  0
ENDTAB
  0
TABLE
  2
LAYER
  5
2
100
AcDbSymbolTable
 70
             3
  0
LAYER
  5
14
100
AcDbSymbolTableRecord
100
AcDbLayerTableRecord
  2
0
 70
             0
 62
             7
  6
CONTINUOUS
  0
LAYER
  5
24
100
AcDbSymbolTableRecord
100
AcDbLayerTableRecord
  2
1
 70
             0
 62
             7
  6
CONTINUOUS
  0
LAYER
  5
25
100
AcDbSymbolTableRecord
100
AcDbLayerTableRecord
  2
___C_____1
 70
             0
 62
             7
  6
CONTINUOUS
  0
ENDTAB
  0
TABLE
  2
STYLE
  5
3
100
AcDbSymbolTable
 70
             2
  0
STYLE
  5
17
100
AcDbSymbolTableRecord
100
AcDbTextStyleTableRecord
  2
STANDARD
 70
             0
 40
0.0
 41
1.0
 50
0.0
 71
             0
 42
0.0
  3
txt
  4

  0
STYLE
  5
23F
100
AcDbSymbolTableRecord
100
AcDbTextStyleTableRecord
  2
CONVERTER_1
 70
             0
 40
0.0
 41
0.9
 50
0.0
 71
             0
 42
0.0
  3
txt.shx
  4

  0
ENDTAB
  0
TABLE
  2
VIEW
  5
5
100
AcDbSymbolTable
 70
             0
  0
ENDTAB
  0
TABLE
  2
UCS
  5
6
100
AcDbSymbolTable
 70
             0
  0
ENDTAB
  0
TABLE
  2
APPID
  5
8
100
AcDbSymbolTable
 70
             1
  0
APPID
  5
16
100
AcDbSymbolTableRecord
100
AcDbRegAppTableRecord
  2
ACAD
 70
             0
  0
ENDTAB
  0
TABLE
  2
DIMSTYLE
  5
9
100
AcDbSymbolTable
 70
             7
  0
DIMSTYLE
105
18
100
AcDbSymbolTableRecord
100
AcDbDimStyleTableRecord
  2
STANDARD
 70
             0
  3

  4

  5

  6

  7

 40
1.0
 41
0.18
 42
0.0625
 43
0.38
 44
0.18
 45
0.0
 46
0.0
 47
0.0
 48
0.0
 71
             0
 72
             0
 73
             1
 74
             1
 75
             0
 76
             0
 77
             0
 78
             0
140
0.18
141
0.09
142
0.0
143
25.4
144
1.0
145
0.0
146
1.0
147
0.09
170
             0
171
             2
172
             0
173
             0
174
             0
175
             0
176
             0
177
             0
178
             0
270
             2
271
             4
272
             4
273
             2
274
             2
275
             0
280
             0
281
             0
282
             0
283
             1
284
             0
285
             0
286
             0
287
             3
288
             0
340
17
  0
DIMSTYLE
105
24D
100
AcDbSymbolTableRecord
100
AcDbDimStyleTableRecord
  2
ME10_DIM_0
 70
             0
  3

  4

  5

  6

  7

 40
1.0
 41
4.0
 42
1.0
 43
0.38
 44
1.5
 45
0.0
 46
0.0
 47
0.0
 48
0.0
 71
             0
 72
             0
 73
             1
 74
             1
 75
             0
 76
             0
 77
             1
 78
             8
140
4.0
141
0.09
142
0.0
143
25.4
144
1.0
145
0.0
146
1.0
147
0.625
170
             0
171
             2
172
             1
173
             1
174
             0
175
             0
176
             2
177
             2
178
             2
270
             2
271
             4
272
             4
273
             2
274
             2
275
             0
280
             0
281
             0
282
             0
283
             1
284
             0
285
             0
286
             0
287
             3
288
             0
340
23F
  0
DIMSTYLE
105
25A
100
AcDbSymbolTableRecord
100
AcDbDimStyleTableRecord
  2
ME10_DIM_1
 70
             0
  3

  4

  5

  6

  7

 40
1.0
 41
4.0
 42
1.0
 43
0.38
 44
1.5
 45
0.0
 46
0.0
 47
0.0
 48
0.0
 71
             0
 72
             0
 73
             1
 74
             1
 75
             0
 76
             0
 77
             1
 78
             8
140
4.0
141
0.09
142
0.0
143
25.4
144
1.0
145
0.0
146
1.0
147
0.625
170
             0
171
             2
172
             1
173
             1
174
             0
175
             0
176
             2
177
             2
178
             2
270
             2
271
             4
272
             4
273
             2
274
             2
275
             0
280
             0
281
             0
282
             0
283
             1
284
             0
285
             0
286
             0
287
             3
288
             0
340
23F
  0
DIMSTYLE
105
265
100
AcDbSymbolTableRecord
100
AcDbDimStyleTableRecord
  2
ME10_DIM_2
 70
             0
  3
 <>
  4

  5

  6

  7

 40
1.0
 41
4.0
 42
1.0
 43
0.38
 44
1.5
 45
0.0
 46
0.0
 47
0.3
 48
0.3
 71
             1
 72
             0
 73
             1
 74
             1
 75
             0
 76
             0
 77
             1
 78
             8
140
4.0
141
0.09
142
0.0
143
25.4
144
1.0
145
0.0
146
0.625
147
0.625
170
             0
171
             2
172
             1
173
             1
174
             0
175
             0
176
             2
177
             2
178
             2
270
             2
271
             4
272
             1
273
             2
274
             2
275
             0
280
             0
281
             0
282
             0
283
             1
284
             0
285
             0
286
             0
287
             3
288
             0
340
23F
  0
DIMSTYLE
105
270
100
AcDbSymbolTableRecord
100
AcDbDimStyleTableRecord
  2
ME10_DIM_3
 70
             0
  3

  4

  5

  6

  7

 40
1.0
 41
4.0
 42
1.0
 43
0.38
 44
1.5
 45
0.0
 46
0.0
 47
0.5
 48
0.5
 71
             1
 72
             0
 73
             1
 74
             1
 75
             0
 76
             0
 77
             1
 78
             8
140
4.0
141
0.09
142
0.0
143
25.4
144
1.0
145
0.0
146
0.625
147
0.625
170
             0
171
             2
172
             1
173
             1
174
             0
175
             0
176
             2
177
             2
178
             2
270
             2
271
             4
272
             1
273
             2
274
             2
275
             0
280
             0
281
             0
282
             0
283
             1
284
             0
285
             0
286
             0
287
             3
288
             0
340
23F
  0
DIMSTYLE
105
27B
100
AcDbSymbolTableRecord
100
AcDbDimStyleTableRecord
  2
ME10_DIM_4
 70
             0
  3
 <>
  4

  5

  6

  7

 40
1.0
 41
4.0
 42
1.0
 43
0.38
 44
1.5
 45
0.0
 46
0.0
 47
0.3
 48
0.3
 71
             1
 72
             0
 73
             1
 74
             1
 75
             0
 76
             0
 77
             1
 78
             8
140
4.0
141
0.09
142
0.0
143
25.4
144
1.0
145
0.0
146
0.625
147
0.625
170
             0
171
             2
172
             1
173
             1
174
             0
175
             0
176
             2
177
             2
178
             2
270
             2
271
             4
272
             1
273
             2
274
             2
275
             0
280
             0
281
             0
282
             0
283
             1
284
             0
285
             0
286
             0
287
             3
288
             0
340
23F
  0
DIMSTYLE
105
286
100
AcDbSymbolTableRecord
100
AcDbDimStyleTableRecord
  2
ME10_DIM_5
 70
             0
  3

  4

  5

  6

  7

 40
1.0
 41
4.0
 42
1.0
 43
0.38
 44
1.5
 45
0.0
 46
0.0
 47
30.0
 48
30.0
 71
             1
 72
             0
 73
             1
 74
             1
 75
             0
 76
             0
 77
             1
 78
             8
140
4.0
141
0.09
142
0.0
143
25.4
144
1.0
145
0.0
146
0.625
147
0.625
170
             0
171
             2
172
             1
173
             1
174
             0
175
             0
176
             2
177
             2
178
             2
270
             2
271
             4
272
             0
273
             2
274
             2
275
             0
280
             0
281
             0
282
             0
283
             1
284
             0
285
             0
286
             0
287
             3
288
             0
340
23F
  0
ENDTAB
  0
TABLE
  2
BLOCK_RECORD
  5
1
100
AcDbSymbolTable
 70
             7
  0
BLOCK_RECORD
  5
A
100
AcDbSymbolTableRecord
100
AcDbBlockTableRecord
  2
*MODEL_SPACE
  0
BLOCK_RECORD
  5
B
100
AcDbSymbolTableRecord
100
AcDbBlockTableRecord
  2
*PAPER_SPACE
  0
BLOCK_RECORD
  5
242
100
AcDbSymbolTableRecord
100
AcDbBlockTableRecord
  2
*D0
  0
BLOCK_RECORD
  5
24F
100
AcDbSymbolTableRecord
100
AcDbBlockTableRecord
  2
*D1
  0
BLOCK_RECORD
  5
25C
100
AcDbSymbolTableRecord
100
AcDbBlockTableRecord
  2
*D2
  0
BLOCK_RECORD
  5
267
100
AcDbSymbolTableRecord
100
AcDbBlockTableRecord
  2
*D3
  0
BLOCK_RECORD
  5
272
100
AcDbSymbolTableRecord
100
AcDbBlockTableRecord
  2
*D4
  0
BLOCK_RECORD
  5
27D
100
AcDbSymbolTableRecord
100
AcDbBlockTableRecord
  2
*D5
  0
BLOCK_RECORD
  5
288
100
AcDbSymbolTableRecord
100
AcDbBlockTableRecord
  2
*D6
  0
ENDTAB
  0
ENDSEC
  0
SECTION
  2
BLOCKS
  0
BLOCK
  5
D
100
AcDbEntity
  8
0
100
AcDbBlockBegin
  2
*MODEL_SPACE
 70
             0
 10
0.0
 20
0.0
 30
0.0
  3
*MODEL_SPACE
  1

  0
ENDBLK
  5
E
100
AcDbEntity
  8
0
100
AcDbBlockEnd
  0
BLOCK
  5
F
100
AcDbEntity
 67
             1
  8
0
100
AcDbBlockBegin
  2
*PAPER_SPACE
 70
             0
 10
0.0
 20
0.0
 30
0.0
  3
*PAPER_SPACE
  1

  0
ENDBLK
  5
10
100
AcDbEntity
 67
             1
  8
0
100
AcDbBlockEnd
  0
BLOCK
  5
243
100
AcDbEntity
  8
0
100
AcDbBlockBegin
  2
*D0
 70
             1
 10
0.0
 20
0.0
 30
0.0
  3
*D0
  1

  0
LINE
  5
244
100
AcDbEntity
  8
0
  6
CONTINUOUS
 62
             2
100
AcDbLine
 10
188.7938747498423
 20
125.89472853127529
 11
180.7938747498423
 21
125.89472853127529
  0
LINE
  5
245
100
AcDbEntity
  8
0
  6
CONTINUOUS
 62
             2
100
AcDbLine
 10
180.7938747498423
 20
125.89472853127529
 11
176.7938747498421
 21
125.89472853127529
  0
LINE
  5
246
100
AcDbEntity
  8
0
  6
CONTINUOUS
 62
             2
100
AcDbLine
 10
176.7938747498421
 20
125.89472853127529
 11
165.91758790061201
 21
125.89472853127529
  0
LINE
  5
247
100
AcDbEntity
  8
0
  6
CONTINUOUS
 62
             2
100
AcDbLine
 10
180.7938747498423
 20
116.89472853127531
 11
180.7938747498423
 21
127.39472853127529
  0
LINE
  5
248
100
AcDbEntity
  8
0
  6
CONTINUOUS
 62
             2
100
AcDbLine
 10
176.7938747498421
 20
116.89472853127531
 11
176.7938747498421
 21
127.39472853127529
  0
SOLID
  5
249
100
AcDbEntity
  8
0
 62
             2
100
AcDbTrace
 10
184.7938747498423
 20
126.42133852162488
 11
184.7938747498423
 21
125.36811854092571
 12
180.7938747498423
 22
125.89472853127529
 13
180.7938747498423
 23
125.89472853127529
  0
SOLID
  5
24A
100
AcDbEntity
  8
0
 62
             2
100
AcDbTrace
 10
172.7938747498421
 20
125.36811854092571
 11
172.7938747498421
 21
126.42133852162488
 12
176.7938747498421
 22
125.89472853127529
 13
176.7938747498421
 23
125.89472853127529
  0
MTEXT
  5
24B
100
AcDbEntity
  8
0
 62
             2
100
AcDbMText
 10
165.91758790061201
 20
127.89472853127529
 30
0.0
 40
4.0
 41
0.0
 71
             7
 72
             1
  1
(4)
  7
CONVERTER_1
 11
0.99999999999706
 21
0.00000242406841
 31
0.0
  0
ENDBLK
  5
24C
100
AcDbEntity
  8
0
100
AcDbBlockEnd
  0
BLOCK
  5
250
100
AcDbEntity
  8
0
100
AcDbBlockBegin
  2
*D1
 70
             1
 10
0.0
 20
0.0
 30
0.0
  3
*D1
  1

  0
LINE
  5
251
100
AcDbEntity
  8
0
  6
CONTINUOUS
 62
             2
100
AcDbLine
 10
189.79387474984139
 20
125.89472853127529
 11
197.79387474984139
 21
125.89472853127529
  0
LINE
  5
252
100
AcDbEntity
  8
0
  6
CONTINUOUS
 62
             2
100
AcDbLine
 10
197.79387474984139
 20
125.89472853127529
 11
201.79387474984159
 21
125.89472853127529
  0
LINE
  5
253
100
AcDbEntity
  8
0
  6
CONTINUOUS
 62
             2
100
AcDbLine
 10
201.79387474984159
 20
125.89472853127529
 11
212.50878253638101
 21
125.89472853127529
  0
LINE
  5
254
100
AcDbEntity
  8
0
  6
CONTINUOUS
 62
             2
100
AcDbLine
 10
197.79387474984139
 20
116.89472853127531
 11
197.79387474984139
 21
127.39472853127529
  0
LINE
  5
255
100
AcDbEntity
  8
0
  6
CONTINUOUS
 62
             2
100
AcDbLine
 10
201.79387474984159
 20
116.89472853127531
 11
201.79387474984159
 21
127.39472853127529
  0
SOLID
  5
256
100
AcDbEntity
  8
0
 62
             2
100
AcDbTrace
 10
193.79387474984139
 20
125.36811854092571
 11
193.79387474984139
 21
126.42133852162488
 12
197.79387474984139
 22
125.89472853127529
 13
197.79387474984139
 23
125.89472853127529
  0
SOLID
  5
257
100
AcDbEntity
  8
0
 62
             2
100
AcDbTrace
 10
205.79387474984159
 20
126.42133852162488
 11
205.79387474984159
 21
125.36811854092571
 12
201.79387474984159
 22
125.89472853127529
 13
201.79387474984159
 23
125.89472853127529
  0
MTEXT
  5
258
100
AcDbEntity
  8
0
 62
             2
100
AcDbMText
 10
206.50878253638101
 20
127.89472853127529
 30
0.0
 40
4.0
 41
0.0
 71
             7
 72
             1
  1
(4)
  7
CONVERTER_1
 11
0.99999999999706
 21
0.00000242406841
 31
0.0
  0
ENDBLK
  5
259
100
AcDbEntity
  8
0
100
AcDbBlockEnd
  0
BLOCK
  5
25D
100
AcDbEntity
  8
0
100
AcDbBlockBegin
  2
*D2
 70
             1
 10
0.0
 20
0.0
 30
0.0
  3
*D2
  1

  0
LINE
  5
25E
100
AcDbEntity
  8
0
  6
CONTINUOUS
 62
             2
100
AcDbLine
 10
135.97119260087081
 20
135.89472853127529
 11
43.97119260087079
 21
135.89472853127529
  0
LINE
  5
25F
100
AcDbEntity
  8
0
  6
CONTINUOUS
 62
             2
100
AcDbLine
 10
135.97119260087081
 20
112.8947285312755
 11
135.97119260087081
 21
137.39472853127529
  0
LINE
  5
260
100
AcDbEntity
  8
0
  6
CONTINUOUS
 62
             2
100
AcDbLine
 10
43.97119260087079
 20
112.8947285312755
 11
43.97119260087079
 21
137.39472853127529
  0
SOLID
  5
261
100
AcDbEntity
  8
0
 62
             2
100
AcDbTrace
 10
131.97119260087081
 20
135.36811854092571
 11
131.97119260087081
 21
136.42133852162488
 12
135.97119260087081
 22
135.89472853127529
 13
135.97119260087081
 23
135.89472853127529
  0
SOLID
  5
262
100
AcDbEntity
  8
0
 62
             2
100
AcDbTrace
 10
47.97119260087079
 20
136.42133852162488
 11
47.97119260087079
 21
135.36811854092571
 12
43.97119260087079
 22
135.89472853127529
 13
43.97119260087079
 23
135.89472853127529
  0
MTEXT
  5
263
100
AcDbEntity
  8
0
 62
             2
100
AcDbMText
 10
78.80355371200166
 20
137.89471262938656
 30
0.0
 40
4.0
 41
0.0
 71
             7
 72
             1
  1
\C2; \C2;\C2;92\C2;\H2.500000;{\Fgdt;`}0.3
  7
CONVERTER_1
 11
0.99999999999706
 21
0.00000242406841
 31
0.0
  0
ENDBLK
  5
264
100
AcDbEntity
  8
0
100
AcDbBlockEnd
  0
BLOCK
  5
268
100
AcDbEntity
  8
0
100
AcDbBlockBegin
  2
*D3
 70
             1
 10
0.0
 20
0.0
 30
0.0
  3
*D3
  1

  0
LINE
  5
269
100
AcDbEntity
  8
0
  6
CONTINUOUS
 62
             2
100
AcDbLine
 10
201.79387474984159
 20
135.89472853127529
 11
176.7938747498421
 21
135.89472853127529
  0
LINE
  5
26A
100
AcDbEntity
  8
0
  6
CONTINUOUS
 62
             2
100
AcDbLine
 10
201.79387474984159
 20
116.89472853127531
 11
201.79387474984159
 21
137.39472853127529
  0
LINE
  5
26B
100
AcDbEntity
  8
0
  6
CONTINUOUS
 62
             2
100
AcDbLine
 10
176.7938747498421
 20
116.89472853127531
 11
176.7938747498421
 21
137.39472853127529
  0
SOLID
  5
26C
100
AcDbEntity
  8
0
 62
             2
100
AcDbTrace
 10
197.79387474984159
 20
135.36811854092571
 11
197.79387474984159
 21
136.42133852162488
 12
201.79387474984159
 22
135.89472853127529
 13
201.79387474984159
 23
135.89472853127529
  0
SOLID
  5
26D
100
AcDbEntity
  8
0
 62
             2
100
AcDbTrace
 10
180.7938747498421
 20
136.42133852162488
 11
180.7938747498421
 21
135.36811854092571
 12
176.7938747498421
 22
135.89472853127529
 13
176.7938747498421
 23
135.89472853127529
  0
MTEXT
  5
26E
100
AcDbEntity
  8
0
 62
             2
100
AcDbMText
 10
182.0751247498419
 20
137.89472853127529
 30
0.0
 40
4.0
 41
0.0
 71
             7
 72
             1
  1
\C2;25\C2;\H2.500000;{\Fgdt;`}0.5
  7
CONVERTER_1
 11
0.99999999999706
 21
0.00000242406841
 31
0.0
  0
ENDBLK
  5
26F
100
AcDbEntity
  8
0
100
AcDbBlockEnd
  0
BLOCK
  5
273
100
AcDbEntity
  8
0
100
AcDbBlockBegin
  2
*D4
 70
             1
 10
0.0
 20
0.0
 30
0.0
  3
*D4
  1

  0
LINE
  5
274
100
AcDbEntity
  8
0
  6
CONTINUOUS
 62
             2
100
AcDbLine
 10
131.22119260087049
 20
125.89472853127529
 11
48.72119260087078
 21
125.89472853127529
  0
LINE
  5
275
100
AcDbEntity
  8
0
  6
CONTINUOUS
 62
             2
100
AcDbLine
 10
131.22119260087049
 20
115.4422247118876
 11
131.22119260087049
 21
127.39472853127529
  0
LINE
  5
276
100
AcDbEntity
  8
0
  6
CONTINUOUS
 62
             2
100
AcDbLine
 10
48.72119260087078
 20
115.99424052983269
 11
48.72119260087078
 21
127.39472853127529
  0
SOLID
  5
277
100
AcDbEntity
  8
0
 62
             2
100
AcDbTrace
 10
127.22119260087049
 20
125.36811854092571
 11
127.22119260087049
 21
126.42133852162488
 12
131.22119260087049
 22
125.89472853127529
 13
131.22119260087049
 23
125.89472853127529
  0
SOLID
  5
278
100
AcDbEntity
  8
0
 62
             2
100
AcDbTrace
 10
52.72119260087078
 20
126.42133852162488
 11
52.72119260087078
 21
125.36811854092571
 12
48.72119260087078
 22
125.89472853127529
 13
48.72119260087078
 23
125.89472853127529
  0
MTEXT
  5
279
100
AcDbEntity
  8
0
 62
             2
100
AcDbMText
 10
76.25355371200166
 20
127.89471262938655
 30
0.0
 40
4.0
 41
0.0
 71
             7
 72
             1
  1
\C2; \C2;\C2;82.5\C2;\H2.500000;{\Fgdt;`}0.3
  7
CONVERTER_1
 11
0.99999999999706
 21
0.00000242406841
 31
0.0
  0
ENDBLK
  5
27A
100
AcDbEntity
  8
0
100
AcDbBlockEnd
  0
BLOCK
  5
27E
100
AcDbEntity
  8
0
100
AcDbBlockBegin
  2
*D5
 70
             1
 10
0.0
 20
0.0
 30
0.0
  3
*D5
  1

  0
LINE
  5
27F
100
AcDbEntity
  8
0
  6
CONTINUOUS
 62
             2
100
AcDbLine
 10
43.97119260087079
 20
135.89472853127529
 11
4.82130898568311
 21
135.89472853127529
  0
LINE
  5
280
100
AcDbEntity
  8
0
  6
CONTINUOUS
 62
             2
100
AcDbLine
 10
43.97119260087079
 20
112.8947285312755
 11
43.97119260087079
 21
137.39472853127529
  0
LINE
  5
281
100
AcDbEntity
  8
0
  6
CONTINUOUS
 62
             2
100
AcDbLine
 10
4.82130898568311
 20
104.64472853127469
 11
4.82130898568311
 21
137.39472853127529
  0
SOLID
  5
282
100
AcDbEntity
  8
0
 62
             2
100
AcDbTrace
 10
39.97119260087079
 20
135.36811854092571
 11
39.97119260087079
 21
136.42133852162488
 12
43.97119260087079
 22
135.89472853127529
 13
43.97119260087079
 23
135.89472853127529
  0
SOLID
  5
283
100
AcDbEntity
  8
0
 62
             2
100
AcDbTrace
 10
8.82130898568311
 20
136.42133852162488
 11
8.82130898568311
 21
135.36811854092571
 12
4.82130898568311
 22
135.89472853127529
 13
4.82130898568311
 23
135.89472853127529
  0
MTEXT
  5
284
100
AcDbEntity
  8
0
 62
             2
100
AcDbMText
 10
16.7223683069854
 20
137.89472853127529
 30
0.0
 40
4.0
 41
0.0
 71
             7
 72
             1
  1
\C2;300\C2;\H2.500000;{\Fgdt;`}30
  7
CONVERTER_1
 11
0.99999999999706
 21
0.00000242406841
 31
0.0
  0
ENDBLK
  5
285
100
AcDbEntity
  8
0
100
AcDbBlockEnd
  0
BLOCK
  5
289
100
AcDbEntity
  8
0
100
AcDbBlockBegin
  2
*D6
 70
             1
 10
0.0
 20
0.0
 30
0.0
  3
*D6
  1

  0
LINE
  5
28A
100
AcDbEntity
  8
0
  6
CONTINUOUS
 62
             2
100
AcDbLine
 10
47.46727286968532
 20
26.77652476622793
 11
35.4651896132834
 21
8.89472853127711
  0
LINE
  5
28B
100
AcDbEntity
  8
0
  6
CONTINUOUS
 62
             2
100
AcDbLine
 10
35.4651896132834
 20
8.89472853127711
 11
6.3749193124412
 21
8.89472853127711
  0
SOLID
  5
28C
100
AcDbEntity
  8
0
 62
             2
100
AcDbTrace
 10
45.67533324388159
 20
23.16179511390116
 11
44.80083122905175
 21
23.74875214282449
 12
47.46727286968532
 22
26.77652476622793
 13
47.46727286968532
 23
26.77652476622793
  0
MTEXT
  5
28D
100
AcDbEntity
  8
0
 62
             2
100
AcDbMText
 10
8.53491931247011
 20
9.99383328185239
 30
0.0
 40
4.0
 41
0.0
 71
             7
 72
             1
  1
\C2;4x{\Fgdt;n}\C2;\C2;4.5\C2;\H2.500000;{\Fgdt;`}0.3
  7
CONVERTER_1
 11
0.99999999999706
 21
0.00000242406841
 31
0.0
  0
ENDBLK
  5
28E
100
AcDbEntity
  8
0
100
AcDbBlockEnd
  0
ENDSEC
  0
SECTION
  2
ENTITIES
  0
HATCH
  5
29C
100
AcDbEntity
  8
1
  6
CONTINUOUS
 62
             2
100
AcDbHatch
 10
0.0
 20
0.0
 30
0.0
210
0.0
220
0.0
230
1.0
  2
USER
 70
             0
 71
             1
 91
        1
 92
        1
 93
        1
 72
             4
 94
        3
 73
             0
 74
             0
 95
       71
 96
       67
 40
0.0
 40
0.0
 40
0.0
 40
0.0
 40
0.42107740882197
 40
0.50730476340199
 40
0.60777581057547
 40
0.83923115355966
 40
1.09673993175389
 40
1.2754045862366
 40
1.47449634894083
 40
1.7985502821999
 40
2.18939218605274
 40
2.68660660493813
 40
3.22322548023831
 40
3.60984381815931
 40
3.90451355949502
 40
4.03123888887131
 40
4.17625031945549
 40
4.53877889591594
 40
5.0100660453145
 40
5.48135319471308
 40
5.84388177117351
 40
5.98889320175769
 40
6.08418071324895
 40
6.29381323852974
 40
6.50344576381049
 40
6.59873327530175
 40
6.76458549523583
 40
7.16007925046327
 40
7.63212018412182
 40
8.02761393934925
 40
8.19346615928333
 40
8.28448232581301
 40
8.47205797370662
 40
8.72015493654463
 40
8.96440917744591
 40
9.1491313854257
 40
9.24034136787003
 40
9.51989386375056
 40
9.84270175982634
 40
10.10931588765953
 40
10.22028707881231
 40
10.37670782634427
 40
10.6471518936965
 40
11.00618561013863
 40
11.53420446953526
 40
12.06683440390685
 40
12.46567964582518
 40
12.77631714028414
 40
12.91030961178099
 40
13.05721696917127
 40
13.42448536264697
 40
13.90193427416536
 40
14.37938318568377
 40
14.74665157915947
 40
14.89355893654974
 40
15.00688117531084
 40
15.25619010058527
 40
15.50549902585972
 40
15.61882126462082
 40
15.75903525900722
 40
16.0933917071594
 40
16.49246230656685
 40
16.82681875471904
 40
16.96703274910544
 40
17.04720803243312
 40
17.44932403399362
 40
17.44932403399362
 40
17.44932403399362
 40
17.44932403399362
 10
83.434265896568576
 20
81.872201037060591
 10
83.411322428216636
 20
81.707384332270024
 10
83.559452738799507
 20
81.570878678684224
 10
83.760527951375266
 20
81.53986285779655
 10
83.900177013701054
 20
81.547168005535127
 10
84.096525690296644
 20
81.545440760551998
 10
84.318981931847077
 20
81.545381950163517
 10
84.531123971813315
 20
81.548532405892246
 10
84.763040290787046
 20
81.509545279840665
 10
85.050425912143524
 20
81.397963756469849
 10
85.359226072087921
 20
81.110750749724488
 10
85.480545991993296
 20
80.632159457367365
 10
85.416000008279894
 20
80.139124757977143
 10
85.126179619995838
 20
79.825160534902153
 10
84.872745761103204
 20
79.72233254246629
 10
84.68649041225359
 20
79.685565519305015
 10
84.474425783018447
 20
79.696317802248927
 10
84.147501334888403
 20
79.688347650508149
 10
83.718322473289703
 20
79.697240274299688
 10
83.26160800759169
 20
79.674842668918487
 10
82.987107113419924
 20
79.726444299641244
 10
82.709632728406589
 20
79.650390531555828
 10
82.748188493262489
 20
79.837712947291905
 10
82.725470939540116
 20
79.99614394507671
 10
82.747193770779305
 20
80.156375309161263
 10
82.709913308711037
 20
80.34922986101148
 10
83.017156086788447
 20
80.261444215936095
 10
83.30393453179866
 20
80.319112422348994
 10
83.746755395474295
 20
80.295656153209762
 10
84.086200531046103
 20
80.305417516558236
 10
84.304634743766044
 20
80.297167278026308
 10
84.451640803782183
 20
80.313169348871128
 10
84.623060852619687
 20
80.389249475152454
 10
84.708471797940192
 20
80.626253526508563
 10
84.623235019785113
 20
80.864882288505612
 10
84.448442270639219
 20
80.931835358342624
 10
84.264058345223987
 20
80.938069422129729
 10
84.032446353954782
 20
80.934820429424803
 10
83.742841206213498
 20
80.93460583180881
 10
83.509644114389062
 20
80.938421561788203
 10
83.331089668294027
 20
80.93091850122272
 10
83.154737175135367
 20
80.970561385035467
 10
82.910985443103868
 20
81.080795145188702
 10
82.668239868865868
 20
81.405435445595813
 10
82.606182634015198
 20
81.886954670875838
 10
82.709009311551654
 20
82.388792808021606
 10
83.038600173475388
 20
82.674542415313908
 10
83.309284357765478
 20
82.762793960161929
 10
83.505646303827916
 20
82.786580862431137
 10
83.721789322678077
 20
82.779926704747041
 10
84.053818163511295
 20
82.785013539485263
 10
84.485806745368293
 20
82.778438995519153
 10
84.958081920386419
 20
82.79621250894202
 10
85.213411285778221
 20
82.75494438826658
 10
85.536792867469131
 20
82.817480174374481
 10
85.373021830498388
 20
82.634839499660885
 10
85.303042499828393
 20
82.476351381634515
 10
85.172207701022799
 20
82.318584128279412
 10
85.106054609625119
 20
82.137211792897503
 10
84.877759151593892
 20
82.195016755981214
 10
84.60645735377507
 20
82.159314326648825
 10
84.243079664855742
 20
82.173136977111881
 10
83.953370152256781
 20
82.169103531648744
 10
83.768465483126676
 20
82.17114402837106
 10
83.560427419772836
 20
82.165034729404283
 10
83.413109747605176
 20
82.025902974578855
 10
83.434265896568576
 20
81.872201037060591
 97
        1
330
1D6
 75
             1
 76
             0
 52
45.0
 41
0.01
 77
             0
 78
             1
 53
45.0
 43
-194.6724631197084
 44
-236.91240289085081
 45
-0.0070710678118655
 46
0.0070710678118655
 79
             0
 98
        1
 10
0.0
 20
0.0
  0
HATCH
  5
29B
100
AcDbEntity
  8
1
  6
CONTINUOUS
 62
             2
100
AcDbHatch
 10
0.0
 20
0.0
 30
0.0
210
0.0
220
0.0
230
1.0
  2
USER
 70
             0
 71
             1
 91
        1
 92
        1
 93
        1
 72
             4
 94
        3
 73
             0
 74
             0
 95
       69
 96
       65
 40
0.0
 40
0.0
 40
0.0
 40
0.0
 40
0.33628140665533
 40
0.61906349861552
 40
0.85598903512269
 40
0.95534490527085
 40
1.1047439171731
 40
1.4782414469287
 40
1.96378823561101
 40
2.4493350242933
 40
2.82283255404891
 40
2.97223156595116
 40
3.10344099830851
 40
3.39210174949471
 40
3.6807625006809
 40
3.81197193303825
 40
3.9141596491608
 40
4.12777753653767
 40
4.41783907023429
 40
4.7002339972709
 40
4.90214196672102
 40
5.04474976800576
 40
5.26382526468112
 40
5.60125990484457
 40
5.86795158108059
 40
6.00444161563617
 40
6.35644223106897
 40
6.8377491950281
 40
7.36215827516266
 40
7.8434652391218
 40
8.1954658545546
 40
8.33195588911018
 40
8.45596179698636
 40
8.72877479431397
 40
9.00158779164157
 40
9.12559369951775
 40
9.25827536490903
 40
9.6080724827587
 40
10.10261323558068
 40
10.6695258058888
 40
11.23643837619692
 40
11.73097912901888
 40
12.08077624686857
 40
12.21345791225983
 40
12.35558958084597
 40
12.71091875231132
 40
13.17284667521629
 40
13.63477459812123
 40
13.9901037695866
 40
14.13223543817274
 40
14.22282468714603
 40
14.44514817349903
 40
14.74250079651375
 40
15.10332255651869
 40
15.58702946805962
 40
16.09684233010665
 40
16.46692582410049
 40
16.76960397714496
 40
16.99762185758723
 40
17.09131516729842
 40
17.24144729380885
 40
17.59945467241064
 40
18.02675380170954
 40
18.53489330682174
 40
18.53489330682174
 40
18.53489330682174
 40
18.53489330682174
 10
90.937739937233701
 20
79.693479630583838
 10
90.825419904291891
 20
79.693065434141914
 10
90.62047499618339
 20
79.695646196587617
 10
90.330978386628601
 20
79.688017135232769
 10
90.134512456699355
 20
79.706121706916747
 10
89.953892671414437
 20
79.671836478698125
 10
89.877588446677436
 20
79.911886278849821
 10
89.66979808672329
 20
80.150967185540395
 10
89.445764779993866
 20
80.541811383434904
 10
89.169895445954523
 20
80.929999679546867
 10
89.060792907225164
 20
81.174137014631157
 10
88.830057846928668
 20
81.418762764820656
 10
89.107144858124542
 20
81.371284473194393
 10
89.298546575228045
 20
81.394579107144239
 10
89.547578913226019
 20
81.391388967357244
 10
89.720620031537919
 20
81.38510304321899
 10
89.868283083841646
 20
81.406570185209119
 10
90.062267888132766
 20
81.501916018310453
 10
90.148094437236153
 20
81.775138741137411
 10
90.078412014901573
 20
82.050777487052514
 10
89.875799250239112
 20
82.153249296765338
 10
89.688952905124495
 20
82.158280121111218
 10
89.448642325597945
 20
82.163108220642158
 10
89.215467448428882
 20
82.122909751133705
 10
88.855098897022287
 20
82.236179373404951
 10
88.910039988986881
 20
81.929545203949175
 10
88.880271342705356
 20
81.636031594023748
 10
88.89498463396437
 20
81.168741531342107
 10
88.88462027192972
 20
80.683482126960016
 10
88.905426062950212
 20
80.209935363637584
 10
88.861011663358383
 20
79.931462229331061
 10
88.927798279016599
 20
79.659938940427793
 10
88.697030183690558
 20
79.714911337283894
 10
88.493493377057533
 20
79.678649007073275
 10
88.290465546669182
 20
79.715191555914458
 10
88.060577028923731
 20
79.659866409018903
 10
88.125622125055784
 20
79.92761117163063
 10
88.081568232464406
 20
80.208987418835633
 10
88.102497479247532
 20
80.699718977934637
 10
88.093812068682297
 20
81.237296544193015
 10
88.102165861303035
 20
81.775535856104511
 10
88.082563556677968
 20
82.264693305330866
 10
88.123719827771737
 20
82.549378830252678
 10
88.061149487757405
 20
82.820093917246979
 10
88.339185688060482
 20
82.752318470317704
 10
88.615846699086546
 20
82.79572914876519
 10
89.06034312056471
 20
82.777638935225553
 10
89.48170818409821
 20
82.78419804747125
 10
89.802407741980517
 20
82.780680201827479
 10
89.998396940396788
 20
82.785072156193706
 10
90.149951038804488
 20
82.774726208381708
 10
90.349182476417738
 20
82.726319792218987
 10
90.613160814226177
 20
82.585646940665683
 10
90.853260484039723
 20
82.271117452082279
 10
90.92842055116877
 20
81.813855593573052
 10
90.872999949609522
 20
81.351248407790308
 10
90.64328460498362
 20
81.011427140486802
 10
90.358323540848033
 20
80.87226504974754
 10
90.187613445068223
 20
80.808131078488515
 10
89.968219645267666
 20
80.830058641191783
 10
90.222148566605483
 20
80.617004936288723
 10
90.337039929221746
 20
80.412193780117875
 10
90.643765702559833
 20
80.062230016877024
 10
90.828933496598864
 20
79.825685413182427
 10
90.937739937233687
 20
79.693479630583823
 97
        1
330
1D5
 75
             1
 76
             0
 52
45.0
 41
0.01
 77
             0
 78
             1
 53
45.0
 43
-194.6724631197084
 44
-236.91240289085081
 45
-0.0070710678118655
 46
0.0070710678118655
 79
             0
 98
        1
 10
0.0
 20
0.0
  0
HATCH
  5
29A
100
AcDbEntity
  8
1
  6
CONTINUOUS
 62
             2
100
AcDbHatch
 10
0.0
 20
0.0
 30
0.0
210
0.0
220
0.0
230
1.0
  2
USER
 70
             0
 71
             0
 91
        1
 92
        1
 93
        6
 72
             1
 10
82.494630467184081
 20
84.603471179668517
 11
82.494630467184081
 21
83.692363329471604
 72
             1
 10
82.494630467184081
 20
83.692363329471604
 11
83.010255467184138
 21
83.692363329471604
 72
             1
 10
83.010255467184138
 20
83.692363329471604
 11
83.010255467184138
 21
84.854506997708754
 72
             1
 10
83.010255467184138
 20
84.854506997708754
 11
82.895715647525847
 21
84.805422053271755
 72
             1
 10
82.895715647525847
 20
84.805422053271755
 11
82.653384873244249
 21
84.665983127737249
 72
             1
 10
82.653384873244249
 20
84.665983127737249
 11
82.494630467184081
 21
84.603471179668517
 97
        0
 75
             1
 76
             0
 52
45.0
 41
0.2
 77
             0
 78
             1
 53
45.0
 43
-194.6724631197084
 44
-236.91240289085121
 45
-0.1414213562373095
 46
0.1414213562373095
 79
             0
 98
        1
 10
0.0
 20
0.0
  0
HATCH
  5
299
100
AcDbEntity
  8
1
  6
CONTINUOUS
 62
             2
100
AcDbHatch
 10
0.0
 20
0.0
 30
0.0
210
0.0
220
0.0
230
1.0
  2
USER
 70
             0
 71
             0
 91
        1
 92
        1
 93
        4
 72
             1
 10
82.494630467184081
 20
84.571772988993217
 11
83.010255467184138
 21
84.854506997708754
 72
             1
 10
83.010255467184138
 20
84.854506997708754
 11
83.010255467184138
 21
83.692363329471604
 72
             1
 10
83.010255467184138
 20
83.692363329471604
 11
82.494630467184081
 21
83.692363329471604
 72
             1
 10
82.494630467184081
 20
83.692363329471604
 11
82.494630467184081
 21
84.571772988993217
 97
        0
 75
             1
 76
             0
 52
45.0
 41
4.0
 77
             0
 78
             1
 53
45.0
 43
-194.6724631197084
 44
-236.91240289085101
 45
-2.8284271247461898
 46
2.8284271247461903
 79
             0
 98
        1
 10
0.0
 20
0.0
  0
HATCH
  5
298
100
AcDbEntity
  8
1
  6
CONTINUOUS
 62
             2
100
AcDbHatch
 10
0.0
 20
0.0
 30
0.0
210
0.0
220
0.0
230
1.0
  2
USER
 70
             0
 71
             0
 91
        1
 92
        1
 93
        4
 72
             1
 10
82.494630467184081
 20
84.571772988993217
 11
83.010255467184138
 21
84.854506997708754
 72
             1
 10
83.010255467184138
 20
84.854506997708754
 11
83.010255467184138
 21
83.692363329471604
 72
             1
 10
83.010255467184138
 20
83.692363329471604
 11
82.494630467184081
 21
83.692363329471604
 72
             1
 10
82.494630467184081
 20
83.692363329471604
 11
82.494630467184081
 21
84.571772988993217
 97
        0
 75
             1
 76
             0
 52
45.0
 41
4.0
 77
             0
 78
             1
 53
45.0
 43
-194.6724631197084
 44
-236.91240289085101
 45
-2.8284271247461898
 46
2.8284271247461903
 79
             0
 98
        1
 10
0.0
 20
0.0
  0
HATCH
  5
297
100
AcDbEntity
  8
1
  6
CONTINUOUS
 62
             2
100
AcDbHatch
 10
0.0
 20
0.0
 30
0.0
210
0.0
220
0.0
230
1.0
  2
USER
 70
             0
 71
             0
 91
        1
 92
        1
 93
        4
 72
             1
 10
82.494630467184081
 20
84.571772988993217
 11
83.010255467184138
 21
84.854506997708754
 72
             1
 10
83.010255467184138
 20
84.854506997708754
 11
83.010255467184138
 21
83.692363329471604
 72
             1
 10
83.010255467184138
 20
83.692363329471604
 11
82.494630467184081
 21
83.692363329471604
 72
             1
 10
82.494630467184081
 20
83.692363329471604
 11
82.494630467184081
 21
84.571772988993217
 97
        0
 75
             1
 76
             0
 52
45.0
 41
0.2
 77
             0
 78
             1
 53
45.0
 43
-194.6724631197084
 44
-236.91240289085121
 45
-0.1414213562373095
 46
0.1414213562373095
 79
             0
 98
        1
 10
0.0
 20
0.0
  0
HATCH
  5
296
100
AcDbEntity
  8
1
  6
CONTINUOUS
 62
             2
100
AcDbHatch
 10
0.0
 20
0.0
 30
0.0
210
0.0
220
0.0
230
1.0
  2
USER
 70
             0
 71
             1
 91
        2
 92
        1
 93
        1
 72
             2
 10
95.733306876771678
 20
81.205983512334072
 40
1.7175793126586711
 50
0.0
 51
360.0
 73
             1
 97
        1
330
1CE
 92
       16
 93
        1
 72
             2
 10
95.733306876771678
 20
81.206348147312141
 40
0.9728613234457981
 50
0.0
 51
360.0
 73
             1
 97
        1
330
1CD
 75
             1
 76
             0
 52
45.0
 41
0.01
 77
             0
 78
             1
 53
45.0
 43
-194.6724631197084
 44
-236.91240289085081
 45
-0.0070710678118655
 46
0.0070710678118655
 79
             0
 98
        1
 10
0.0
 20
0.0
  0
HATCH
  5
295
100
AcDbEntity
  8
1
  6
CONTINUOUS
 62
             2
100
AcDbHatch
 10
0.0
 20
0.0
 30
0.0
210
0.0
220
0.0
230
1.0
  2
USER
 70
             0
 71
             1
 91
        1
 92
        1
 93
        4
 72
             1
 10
93.017760111103527
 20
80.109281514189504
 11
92.545166853582103
 21
79.152941998919104
 72
             1
 10
92.545166853582103
 20
79.152941998919104
 11
90.736293760509696
 21
82.778874655628385
 72
             1
 10
90.736293760509696
 20
82.778874655628385
 11
91.676508715590359
 21
82.778874655628385
 72
             1
 10
91.676508715590359
 20
82.778874655628385
 11
93.017760111103527
 21
80.109281514189504
 97
        1
330
206
 75
             1
 76
             0
 52
45.0
 41
0.01
 77
             0
 78
             1
 53
45.0
 43
-194.6724631197084
 44
-236.91240289085081
 45
-0.0070710678118655
 46
0.0070710678118655
 79
             0
 98
        1
 10
0.0
 20
0.0
  0
HATCH
  5
294
100
AcDbEntity
  8
1
  6
CONTINUOUS
 62
             2
100
AcDbHatch
 10
0.0
 20
0.0
 30
0.0
210
0.0
220
0.0
230
1.0
  2
USER
 70
             0
 71
             1
 91
        1
 92
        1
 93
        4
 72
             1
 10
93.382802670793481
 20
80.841090021585899
 11
93.182185004932322
 21
80.43915867556413
 72
             1
 10
93.182185004932322
 20
80.43915867556413
 11
92.019809108198501
 21
82.778874655628385
 72
             1
 10
92.019809108198501
 20
82.778874655628385
 11
92.416967768486188
 21
82.778874655628385
 72
             1
 10
92.416967768486188
 20
82.778874655628385
 11
93.382802670793481
 21
80.841090021585899
 97
        1
330
208
 75
             1
 76
             0
 52
45.0
 41
0.01
 77
             0
 78
             1
 53
45.0
 43
-194.6724631197084
 44
-236.91240289085081
 45
-0.0070710678118655
 46
0.0070710678118655
 79
             0
 98
        1
 10
0.0
 20
0.0
  0
HATCH
  5
293
100
AcDbEntity
  8
1
  6
CONTINUOUS
 62
             2
100
AcDbHatch
 10
0.0
 20
0.0
 30
0.0
210
0.0
220
0.0
230
1.0
  2
USER
 70
             0
 71
             1
 91
        1
 92
        1
 93
        3
 72
             1
 10
94.354404513387038
 20
82.778874655628385
 11
94.059294728888716
 21
82.191141017322337
 72
             1
 10
94.059294728888716
 20
82.191141017322337
 11
93.769023905420354
 21
82.778874655628385
 72
             1
 10
93.769023905420354
 20
82.778874655628385
 11
94.354404513387038
 21
82.778874655628385
 97
        1
330
20A
 75
             1
 76
             0
 52
45.0
 41
0.01
 77
             0
 78
             1
 53
45.0
 43
-194.6724631197084
 44
-236.91240289085081
 45
-0.0070710678118655
 46
0.0070710678118655
 79
             0
 98
        1
 10
0.0
 20
0.0
  0
HATCH
  5
292
100
AcDbEntity
  8
1
  6
CONTINUOUS
 62
             2
100
AcDbHatch
 10
0.0
 20
0.0
 30
0.0
210
0.0
220
0.0
230
1.0
  2
USER
 70
             0
 71
             1
 91
        1
 92
        1
 93
        4
 72
             1
 10
93.93619971169214
 20
81.945464465049966
 11
93.776381714411372
 21
81.626773064776756
 72
             1
 10
93.776381714411372
 20
81.626773064776756
 11
93.207175147752451
 21
82.778874655628286
 72
             1
 10
93.207175147752451
 20
82.778874655628286
 11
93.524491140145159
 21
82.778874655628385
 72
             1
 10
93.524491140145159
 20
82.778874655628385
 11
93.93619971169214
 21
81.945464465049966
 97
        1
330
20C
 75
             1
 76
             0
 52
45.0
 41
0.01
 77
             0
 78
             1
 53
45.0
 43
-194.6724631197084
 44
-236.91240289085081
 45
-0.0070710678118655
 46
0.0070710678118655
 79
             0
 98
        1
 10
0.0
 20
0.0
  0
HATCH
  5
291
100
AcDbEntity
  8
1
  6
CONTINUOUS
 62
             2
100
AcDbHatch
 10
0.0
 20
0.0
 30
0.0
210
0.0
220
0.0
230
1.0
  2
USER
 70
             0
 71
             1
 91
        1
 92
        1
 93
        4
 72
             1
 10
93.652922181666995
 20
81.381362080033668
 11
93.529330106861963
 21
81.135917842478108
 72
             1
 10
93.529330106861963
 20
81.135917842478108
 11
92.716817111023204
 21
82.778874655628385
 72
             1
 10
92.716817111023204
 20
82.778874655628385
 11
92.962244722172571
 21
82.778874655628385
 72
             1
 10
92.962244722172571
 20
82.778874655628385
 11
93.652922181666995
 21
81.381362080033668
 97
        1
330
20E
 75
             1
 76
             0
 52
45.0
 41
0.01
 77
             0
 78
             1
 53
45.0
 43
-194.6724631197084
 44
-236.91240289085081
 45
-0.0070710678118655
 46
0.0070710678118655
 79
             0
 98
        1
 10
0.0
 20
0.0
  0
HATCH
  5
290
100
AcDbEntity
  8
1
  6
CONTINUOUS
 62
             2
100
AcDbHatch
 10
0.0
 20
0.0
 30
0.0
210
0.0
220
0.0
230
1.0
  2
USER
 70
             0
 71
             1
 91
        1
 92
        1
 93
       12
 72
             1
 10
88.008707602699943
 20
82.782835172547706
 11
87.633755158837459
 21
82.164443859813545
 72
             1
 10
87.633755158837459
 20
82.164443859813545
 11
86.426527809092534
 21
82.164443859813545
 72
             1
 10
86.426527809092534
 20
82.164443859813545
 11
86.426527809092534
 21
81.548024310346932
 72
             1
 10
86.426527809092534
 20
81.548024310346932
 11
87.912094248065188
 21
81.548024310346932
 72
             1
 10
87.912094248065188
 20
81.548024310346932
 11
87.912094248065188
 21
80.930362031552036
 72
             1
 10
87.912094248065188
 20
80.930362031552036
 11
86.426527809092534
 21
80.930362031552036
 72
             1
 10
86.426527809092534
 20
80.930362031552036
 11
86.426527809092534
 21
80.313362266852835
 72
             1
 10
86.426527809092534
 20
80.313362266852835
 11
87.912094248065188
 21
80.313362266852835
 72
             1
 10
87.912094248065188
 20
80.313362266852835
 11
87.912094248065188
 21
79.695451402381963
 72
             1
 10
87.912094248065188
 20
79.695451402381963
 11
85.632616582877475
 21
79.693479630583823
 72
             1
 10
85.632616582877475
 20
79.693479630583823
 11
85.632616582877475
 21
82.781343843325899
 72
             1
 10
85.632616582877475
 20
82.781343843325899
 11
88.008707602699943
 21
82.782835172547706
 97
        1
330
210
 75
             1
 76
             0
 52
45.0
 41
0.01
 77
             0
 78
             1
 53
45.0
 43
-194.6724631197084
 44
-236.91240289085081
 45
-0.0070710678118655
 46
0.0070710678118655
 79
             0
 98
        1
 10
0.0
 20
0.0
  0
DIMENSION
  5
287
100
AcDbEntity
  8
1
100
AcDbDimension
  2
*D5
 10
43.97119260087079
 20
135.89472853127529
 11
25.2723683069854
 21
139.89472853127529
 31
0.0
 53
0.00013888888889
  1
300
  3
ME10_DIM_5
100
AcDbAlignedDimension
 13
4.82130898568311
 23
103.64472853127469
 14
43.97119260087079
 24
111.8947285312755
100
AcDbRotatedDimension
  0
DIMENSION
  5
27C
100
AcDbEntity
  8
1
100
AcDbDimension
  2
*D4
 10
131.22119260087049
 20
125.89472853127529
 11
89.97119260087128
 21
129.89472853127529
 31
0.0
 53
0.00013888888889
  1
<>
  3
ME10_DIM_4
100
AcDbAlignedDimension
 13
48.72119260087077
 23
114.99424052983269
 14
131.22119260087049
 24
114.4422247118876
100
AcDbRotatedDimension
  0
DIMENSION
  5
271
100
AcDbEntity
  8
1
100
AcDbDimension
  2
*D3
 10
201.79387474984159
 20
135.89472853127529
 11
189.2938747498419
 21
139.89472853127529
 31
0.0
 70
             1
 53
0.00013888888889
  1
<>
  3
ME10_DIM_3
100
AcDbAlignedDimension
 13
176.7938747498421
 23
115.89472853127531
 14
201.79387474984159
 24
115.89472853127531
  0
DIMENSION
  5
266
100
AcDbEntity
  8
1
100
AcDbDimension
  2
*D2
 10
135.97119260087081
 20
135.89472853127529
 11
89.97119260087128
 21
139.89472853127529
 31
0.0
 70
             1
 53
0.00013888888889
  1
<>
  3
ME10_DIM_2
100
AcDbAlignedDimension
 13
43.97119260087079
 23
111.8947285312755
 14
135.97119260087081
 24
111.8947285312755
  0
DIMENSION
  5
25B
100
AcDbEntity
  8
1
100
AcDbDimension
  2
*D1
 10
197.79387474984139
 20
125.89472853127529
 11
209.50878253638101
 21
129.89472853127529
 31
0.0
 53
0.00013888888889
  1
(4)
  3
ME10_DIM_1
100
AcDbAlignedDimension
 13
201.79387474984159
 23
115.89472853127531
 14
197.79387474984139
 24
115.89472853127531
100
AcDbRotatedDimension
  0
DIMENSION
  5
24E
100
AcDbEntity
  8
1
100
AcDbDimension
  2
*D0
 10
180.7938747498423
 20
125.89472853127529
 11
168.91758790061201
 21
129.89472853127529
 31
0.0
 53
0.00013888888889
  1
(4)
  3
ME10_DIM_0
100
AcDbAlignedDimension
 13
176.7938747498421
 23
115.89472853127531
 14
180.7938747498423
 24
115.89472853127531
100
AcDbRotatedDimension
  0
MTEXT
  5
241
100
AcDbEntity
  8
1
 62
             2
100
AcDbMText
 10
190.37460736233999
 20
11.92521740523104
 30
0.0
 40
4.0
 41
0.0
 71
             8
 72
             1
  1
%%d *
  7
CONVERTER_1
  0
MTEXT
  5
240
100
AcDbEntity
  8
1
 62
             2
100
AcDbMText
 10
89.97119260087128
 20
8.89472853127739
 30
0.0
 40
4.0
 41
0.0
 71
             8
 72
             1
  1
%%p]«*
  7
CONVERTER_1
  0
LEADER
  5
23E
100
AcDbEntity
  8
1
  6
CONTINUOUS
 62
             2
100
AcDbLeader
  3
Standard
 71
             0
 73
             3
 74
             0
 75
             0
 40
0.0
 76
             2
 10
176.92032904484839
 20
8.89472853127711
 30
0.0
 10
201.60928811490899
 20
8.89472853127711
 30
0.0
 77
             2
  0
LEADER
  5
23C
100
AcDbEntity
  8
1
  6
CONTINUOUS
 62
             2
100
AcDbLeader
  3
Standard
 71
             0
 73
             3
 74
             0
 75
             0
 40
0.0
 76
             2
 10
74.87843614220746
 20
9.2600941819728
 30
0.0
 10
77.31855648410026
 20
8.22779898406071
 30
0.0
 77
             2
  0
LWPOLYLINE
  5
23A
100
AcDbEntity
  8
0
  6
CONTINUOUS
 62
             3
100
AcDbPolyline
 90
        4
 70
             0
 10
134.08484484597179
 20
90.85718879797531
 10
133.54163347887061
 20
90.67734109147537
 10
133.54163347887061
 20
90.67734109147537
 10
132.86692303457031
 20
90.30947306267549
  0
LWPOLYLINE
  5
238
100
AcDbEntity
  8
0
  6
CONTINUOUS
 62
             3
100
AcDbPolyline
 90
       18
 70
             0
 10
77.9466228491717
 20
89.06578556247546
 10
78.0949238976701
 20
88.97293159437531
 10
78.0949238976701
 20
88.97293159437531
 10
78.22056359957036
 20
88.84396479297558
 10
78.22056359957036
 20
88.84396479297558
 10
78.31972445617022
 20
88.68280374917521
 10
78.31972445617022
 20
88.68280374917521
 10
78.38939351487015
 20
88.49434525977522
 10
78.38939351487015
 20
88.49434525977522
 10
78.42745391677006
 20
88.28431554057555
 10
78.42745391677006
 20
88.28431554057555
 10
78.43274921577022
 20
88.05909623837565
 10
78.43274921577022
 20
88.05909623837565
 10
78.40511851677036
 20
87.82553052767544
 10
78.40511851677036
 20
87.82553052767544
 10
78.34540136467021
 20
87.59071518447533
 10
78.34540136467021
 20
87.59071518447533
 10
78.25541223487018
 20
87.36178495407562
  0
LWPOLYLINE
  5
236
100
AcDbEntity
  8
0
  6
CONTINUOUS
 62
             3
100
AcDbPolyline
 90
       10
 70
             0
 10
134.47119260087061
 20
89.60309833887533
 10
134.45448361577201
 20
89.94936845787539
 10
134.45448361577201
 20
89.94936845787539
 10
134.4050014227706
 20
90.25887727817558
 10
134.4050014227706
 20
90.25887727817558
 10
134.3246554280706
 20
90.5196815512756
 10
134.3246554280706
 20
90.5196815512756
 10
134.21654600267081
 20
90.72171742777509
 10
134.21654600267081
 20
90.72171742777509
 10
134.0848448460705
 20
90.85718879797531
  0
LWPOLYLINE
  5
234
100
AcDbEntity
  8
0
  6
CONTINUOUS
 62
             3
100
AcDbPolyline
 90
       12
 70
             0
 10
84.44860805157009
 20
25.3947285312771
 10
84.73025530927019
 20
25.41016183297676
 10
84.73025530927019
 20
25.41016183297676
 10
84.9991637065701
 20
25.45591166937665
 10
84.9991637065701
 20
25.45591166937665
 10
85.24574889537001
 20
25.53034743927664
 10
85.24574889537001
 20
25.53034743927664
 10
85.46122216457006
 20
25.63081612647676
 10
85.46122216457006
 20
25.63081612647676
 10
85.63790368397018
 20
25.75373685767691
 10
85.63790368397018
 20
25.75373685767691
 10
85.76949622667007
 20
25.89472853127704
  0
LWPOLYLINE
  5
232
100
AcDbEntity
  8
0
  6
CONTINUOUS
 62
             3
100
AcDbPolyline
 90
        8
 70
             0
 10
71.79921992357018
 20
86.1844023648753
 10
71.83826873327027
 20
86.16397565467543
 10
71.83826873327027
 20
86.16397565467543
 10
72.04917458057045
 20
86.08701938847558
 10
72.04917458057045
 20
86.08701938847558
 10
72.3291481089702
 20
85.98395690397587
 10
72.3291481089702
 20
85.98395690397587
 10
72.59465104317042
 20
85.87015052717551
  0
LWPOLYLINE
  5
230
100
AcDbEntity
  8
0
  6
CONTINUOUS
 62
             3
100
AcDbPolyline
 90
       20
 70
             0
 10
197.07041260434161
 20
24.19369686407698
 10
197.08064264504151
 20
24.19482009477668
 10
197.08064264504151
 20
24.19482009477668
 10
197.26690221674201
 20
24.17646848267682
 10
197.26690221674201
 20
24.17646848267682
 10
197.39786600204141
 20
24.14152232947623
 10
197.39786600204141
 20
24.14152232947623
 10
197.48259369064181
 20
24.10808631387611
 10
197.48259369064181
 20
24.10808631387611
 10
197.551282264642
 20
24.07380631977692
 10
197.551282264642
 20
24.07380631977692
 10
197.6090740375416
 20
24.03904511647676
 10
197.6090740375416
 20
24.03904511647676
 10
197.65566859774191
 20
24.00589807577679
 10
197.65566859774191
 20
24.00589807577679
 10
197.69484301484201
 20
23.97245820357636
 10
197.69484301484201
 20
23.97245820357636
 10
197.72866013314189
 20
23.93445928357692
 10
197.72866013314189
 20
23.93445928357692
 10
197.73363561774181
 20
23.92311567597625
  0
LWPOLYLINE
  5
22E
100
AcDbEntity
  8
0
  6
CONTINUOUS
 62
             3
100
AcDbPolyline
 90
       16
 70
             0
 10
180.85379377644199
 20
23.92378525607653
 10
180.8581191939422
 20
23.9331177853765
 10
180.8581191939422
 20
23.9331177853765
 10
180.901571348842
 20
23.98049333027678
 10
180.901571348842
 20
23.98049333027678
 10
180.9466139780418
 20
24.01684050287651
 10
180.9466139780418
 20
24.01684050287651
 10
181.01744863974221
 20
24.06302461087683
 10
181.01744863974221
 20
24.06302461087683
 10
181.12080205744221
 20
24.11495803997633
 10
181.12080205744221
 20
24.11495803997633
 10
181.2454291142422
 20
24.15869855117683
 10
181.2454291142422
 20
24.15869855117683
 10
181.4346845533419
 20
24.19188383797708
 10
181.4346845533419
 20
24.19188383797708
 10
181.51632482484209
 20
24.18782829127681
  0
LWPOLYLINE
  5
22C
100
AcDbEntity
  8
0
  6
CONTINUOUS
 62
             3
100
AcDbPolyline
 90
       16
 70
             0
 10
197.79387474984139
 20
77.95016148057573
 10
197.77466003024179
 20
77.91650972447587
 10
197.77466003024179
 20
77.91650972447587
 10
197.7177542823415
 20
77.88415118657575
 10
197.7177542823415
 20
77.88415118657575
 10
197.6253443621419
 20
77.8543293871755
 10
197.6253443621419
 20
77.8543293871755
 10
197.5009815309416
 20
77.8281903614763
 10
197.5009815309416
 20
77.8281903614763
 10
197.34944498284199
 20
77.8067386173755
 10
197.34944498284199
 20
77.8067386173755
 10
197.176558182142
 20
77.79079853357592
 10
197.176558182142
 20
77.79079853357592
 10
196.98896507184179
 20
77.78098267837507
 10
196.98896507184179
 20
77.78098267837507
 10
196.79387474984171
 20
77.77766826967607
  0
LWPOLYLINE
  5
22A
100
AcDbEntity
  8
0
  6
CONTINUOUS
 62
             3
100
AcDbPolyline
 90
       10
 70
             0
 10
196.79387474984171
 20
98.47998228697503
 10
197.1233998561415
 20
98.51971468397517
 10
197.1233998561415
 20
98.51971468397517
 10
197.41576327574199
 20
98.63427150287552
 10
197.41576327574199
 20
98.63427150287552
 10
197.63899331734169
 20
98.81105208217521
 10
197.63899331734169
 20
98.81105208217521
 10
197.76821424524161
 20
99.03118469917492
 10
197.76821424524161
 20
99.03118469917492
 10
197.79387474984139
 20
99.19126735927466
  0
LWPOLYLINE
  5
228
100
AcDbEntity
  8
0
  6
CONTINUOUS
 62
             3
100
AcDbPolyline
 90
       16
 70
             0
 10
181.79387474984199
 20
77.77766826967607
 10
181.5987844277418
 20
77.78098267837507
 10
181.5987844277418
 20
77.78098267837507
 10
181.4111913174423
 20
77.79079853357592
 10
181.4111913174423
 20
77.79079853357592
 10
181.23830451674169
 20
77.8067386173755
 10
181.23830451674169
 20
77.8067386173755
 10
181.08676796864211
 20
77.8281903614763
 10
181.08676796864211
 20
77.8281903614763
 10
180.96240513754179
 20
77.8543293871755
 10
180.96240513754179
 20
77.8543293871755
 10
180.86999521724209
 20
77.88415118657575
 10
180.86999521724209
 20
77.88415118657575
 10
180.81308946944199
 20
77.91650972447587
 10
180.81308946944199
 20
77.91650972447587
 10
180.7938747498423
 20
77.95016148057573
  0
LWPOLYLINE
  5
226
100
AcDbEntity
  8
0
  6
CONTINUOUS
 62
             3
100
AcDbPolyline
 90
       10
 70
             0
 10
180.7938747498423
 20
99.19126735927466
 10
180.85076649364191
 20
98.95479533857494
 10
180.85076649364191
 20
98.95479533857494
 10
181.01523293284191
 20
98.74497965487501
 10
181.01523293284191
 20
98.74497965487501
 10
181.26831752054201
 20
98.58614739097494
 10
181.26831752054201
 20
98.58614739097494
 10
181.57998514254231
 20
98.49644504567516
 10
181.57998514254231
 20
98.49644504567516
 10
181.79387474984199
 20
98.47998228697503
  0
LWPOLYLINE
  5
224
100
AcDbEntity
  8
0
  6
CONTINUOUS
 62
             3
100
AcDbPolyline
 90
       12
 70
             0
 10
181.79387474984199
 20
77.77766826967607
 10
181.7846694610418
 20
76.97968027327565
 10
181.7846694610418
 20
76.97968027327565
 10
181.677021721042
 20
74.43362857267584
 10
181.677021721042
 20
74.43362857267584
 10
181.5481550287418
 20
71.86557970857572
 10
181.5481550287418
 20
71.86557970857572
 10
181.51017923384191
 20
69.44991834327551
 10
181.51017923384191
 20
69.44991834327551
 10
181.65663237744221
 20
65.72940535217572
 10
181.65663237744221
 20
65.72940535217572
 10
181.79387474984199
 20
62.01178879297576
  0
LWPOLYLINE
  5
222
100
AcDbEntity
  8
0
  6
CONTINUOUS
 62
             3
100
AcDbPolyline
 90
       16
 70
             0
 10
181.79387474984199
 20
62.01178879297576
 10
181.5987844277418
 20
62.00847438427562
 10
181.5987844277418
 20
62.00847438427562
 10
181.4111913174423
 20
61.99865852907582
 10
181.4111913174423
 20
61.99865852907582
 10
181.23830451674169
 20
61.98271844527632
 10
181.23830451674169
 20
61.98271844527632
 10
181.08676796864211
 20
61.96126670117633
 10
181.08676796864211
 20
61.96126670117633
 10
180.96240513754179
 20
61.93512767547625
 10
180.96240513754179
 20
61.93512767547625
 10
180.86999521724209
 20
61.90530587607582
 10
180.86999521724209
 20
61.90530587607582
 10
180.81308946944199
 20
61.87294733817594
 10
180.81308946944199
 20
61.87294733817594
 10
180.7938747498423
 20
61.83929558207576
  0
LWPOLYLINE
  5
220
100
AcDbEntity
  8
0
  6
CONTINUOUS
 62
             3
100
AcDbPolyline
 90
       16
 70
             0
 10
197.79387474984139
 20
61.83929558207576
 10
197.77466003024179
 20
61.87294733817594
 10
197.77466003024179
 20
61.87294733817594
 10
197.7177542823415
 20
61.90530587607582
 10
197.7177542823415
 20
61.90530587607582
 10
197.6253443621419
 20
61.93512767547625
 10
197.6253443621419
 20
61.93512767547625
 10
197.5009815309416
 20
61.96126670117633
 10
197.5009815309416
 20
61.96126670117633
 10
197.34944498284199
 20
61.98271844527632
 10
197.34944498284199
 20
61.98271844527632
 10
197.176558182142
 20
61.99865852907582
 10
197.176558182142
 20
61.99865852907582
 10
196.98896507184179
 20
62.00847438427562
 10
196.98896507184179
 20
62.00847438427562
 10
196.79387474984171
 20
62.01178879297576
  0
LWPOLYLINE
  5
21E
100
AcDbEntity
  8
0
  6
CONTINUOUS
 62
             3
100
AcDbPolyline
 90
       14
 70
             0
 10
196.79387474984171
 20
62.01178879297576
 10
196.86334682734179
 20
64.44060594287585
 10
196.86334682734179
 20
64.44060594287585
 10
196.993202997542
 20
66.89227309937583
 10
196.993202997542
 20
66.89227309937583
 10
197.0767436833419
 20
69.37143550387562
 10
197.0767436833419
 20
69.37143550387562
 10
197.03959447084191
 20
71.86557970857572
 10
197.03959447084191
 20
71.86557970857572
 10
196.91117559634199
 20
74.42536468987511
 10
196.91117559634199
 20
74.42536468987511
 10
196.80308003854191
 20
76.97968027327565
 10
196.80308003854191
 20
76.97968027327565
 10
196.79387474984171
 20
77.77766826967607
  0
LWPOLYLINE
  5
21C
100
AcDbEntity
  8
0
  6
CONTINUOUS
 62
             3
100
AcDbPolyline
 90
       10
 70
             0
 10
197.79387474984139
 20
37.58752023557626
 10
197.7374830324415
 20
37.82167194647612
 10
197.7374830324415
 20
37.82167194647612
 10
197.5746575522418
 20
38.02942504807643
 10
197.5746575522418
 20
38.02942504807643
 10
197.32377154844181
 20
38.18733079607585
 10
197.32377154844181
 20
38.18733079607585
 10
197.01316962034181
 20
38.27757666797685
 10
197.01316962034181
 20
38.27757666797685
 10
196.79387474984171
 20
38.29479273667654
  0
LWPOLYLINE
  5
21A
100
AcDbEntity
  8
0
  6
CONTINUOUS
 62
             3
100
AcDbPolyline
 90
       10
 70
             0
 10
181.79387474984199
 20
38.29479273667654
 10
181.4629282510422
 20
38.2549373984764
 10
181.4629282510422
 20
38.2549373984764
 10
181.16929382884209
 20
38.13987121907653
 10
181.16929382884209
 20
38.13987121907653
 10
180.9460366961419
 20
37.962554301176
 10
180.9460366961419
 20
37.962554301176
 10
180.81831619944171
 20
37.74293543757609
 10
180.81831619944171
 20
37.74293543757609
 10
180.7938747498423
 20
37.58752023557626
  0
LWPOLYLINE
  5
218
100
AcDbEntity
  8
0
  6
CONTINUOUS
 62
             3
100
AcDbPolyline
 90
       10
 70
             0
 10
181.14560769274189
 20
24.64472853127706
 10
181.08676796864211
 20
24.59123628157647
 10
181.08676796864211
 20
24.59123628157647
 10
180.96240513754179
 20
24.44197115917634
 10
180.96240513754179
 20
24.44197115917634
 10
180.86999521724209
 20
24.27167580947682
 10
180.86999521724209
 20
24.27167580947682
 10
180.81308946944199
 20
24.08689458727641
 10
180.81308946944199
 20
24.08689458727641
 10
180.7938747498423
 20
23.89472853127711
  0
LWPOLYLINE
  5
216
100
AcDbEntity
  8
0
  6
CONTINUOUS
 62
             3
100
AcDbPolyline
 90
        6
 70
             0
 10
197.06895212064191
 20
24.20601365237606
 10
197.03959447084191
 20
24.2372456217764
 10
197.03959447084191
 20
24.2372456217764
 10
196.91117559634199
 20
24.41986364977711
 10
196.91117559634199
 20
24.41986364977711
 10
196.83693371834161
 20
24.64472853127706
  0
LWPOLYLINE
  5
214
100
AcDbEntity
  8
0
  6
CONTINUOUS
 62
             3
100
AcDbPolyline
 90
        6
 70
             0
 10
181.75087095774231
 20
24.64472853127706
 10
181.677021721042
 20
24.42068773427709
 10
181.677021721042
 20
24.42068773427709
 10
181.5481550287418
 20
24.2372456217764
 10
181.5481550287418
 20
24.2372456217764
 10
181.5171694253423
 20
24.20432094627637
  0
LWPOLYLINE
  5
212
100
AcDbEntity
  8
0
  6
CONTINUOUS
 62
             3
100
AcDbPolyline
 90
       10
 70
             0
 10
197.79387474984139
 20
23.89472853127711
 10
197.77466003024179
 20
24.08689458727641
 10
197.77466003024179
 20
24.08689458727641
 10
197.7177542823415
 20
24.27167580947682
 10
197.7177542823415
 20
24.27167580947682
 10
197.6253443621419
 20
24.44197115917634
 10
197.6253443621419
 20
24.44197115917634
 10
197.5009815309416
 20
24.59123628157647
 10
197.5009815309416
 20
24.59123628157647
 10
197.44214180684179
 20
24.64472853127706
  0
LWPOLYLINE
  5
210
102
{ACAD_REACTORS
330
290
330
290
330
290
330
290
330
290
330
290
330
290
330
290
330
290
330
290
330
290
330
290
102
}
100
AcDbEntity
  8
___C_____1
  6
CONTINUOUS
 62
             2
100
AcDbPolyline
 90
       24
 70
             1
 10
87.91209424806519
 20
79.69545140238196
 10
87.91209424806519
 20
80.31336226685284
 10
87.91209424806519
 20
80.31336226685284
 10
86.42652780909253
 20
80.31336226685284
 10
86.42652780909253
 20
80.31336226685284
 10
86.42652780909253
 20
80.93036203155204
 10
86.42652780909253
 20
80.93036203155204
 10
87.91209424806519
 20
80.93036203155204
 10
87.91209424806519
 20
80.93036203155204
 10
87.91209424806519
 20
81.54802431034693
 10
87.91209424806519
 20
81.54802431034693
 10
86.42652780909253
 20
81.54802431034693
 10
86.42652780909253
 20
81.54802431034693
 10
86.42652780909253
 20
82.16444385981355
 10
86.42652780909253
 20
82.16444385981355
 10
87.63375515883746
 20
82.16444385981355
 10
87.63375515883746
 20
82.16444385981355
 10
88.00870760269994
 20
82.78283517254771
 10
88.00870760269994
 20
82.78283517254771
 10
85.63261658287748
 20
82.7813438433259
 10
85.63261658287748
 20
82.7813438433259
 10
85.63261658287748
 20
79.69347963058382
 10
85.63261658287748
 20
79.69347963058382
 10
87.91209424806519
 20
79.69545140238196
  0
LWPOLYLINE
  5
20E
102
{ACAD_REACTORS
330
291
330
291
330
291
330
291
102
}
100
AcDbEntity
  8
___C_____1
  6
CONTINUOUS
 62
             2
100
AcDbPolyline
 90
        8
 70
             1
 10
93.652922181667
 20
81.38136208003367
 10
92.96224472217257
 20
82.77887465562839
 10
92.96224472217257
 20
82.77887465562839
 10
92.7168171110232
 20
82.77887465562839
 10
92.7168171110232
 20
82.77887465562839
 10
93.52933010686196
 20
81.13591784247811
 10
93.52933010686196
 20
81.13591784247811
 10
93.652922181667
 20
81.38136208003367
  0
LWPOLYLINE
  5
20C
102
{ACAD_REACTORS
330
292
330
292
330
292
330
292
102
}
100
AcDbEntity
  8
___C_____1
  6
CONTINUOUS
 62
             2
100
AcDbPolyline
 90
        8
 70
             1
 10
93.20717514775245
 20
82.77887465562829
 10
93.77638171441137
 20
81.62677306477676
 10
93.77638171441137
 20
81.62677306477676
 10
93.93619971169214
 20
81.94546446504997
 10
93.93619971169214
 20
81.94546446504997
 10
93.52449114014516
 20
82.77887465562839
 10
93.52449114014516
 20
82.77887465562839
 10
93.20717514775245
 20
82.77887465562829
  0
LWPOLYLINE
  5
20A
102
{ACAD_REACTORS
330
293
330
293
330
293
102
}
100
AcDbEntity
  8
___C_____1
  6
CONTINUOUS
 62
             2
100
AcDbPolyline
 90
        6
 70
             1
 10
93.76902390542035
 20
82.77887465562839
 10
94.05929472888872
 20
82.19114101732234
 10
94.05929472888872
 20
82.19114101732234
 10
94.35440451338704
 20
82.77887465562839
 10
94.35440451338704
 20
82.77887465562839
 10
93.76902390542035
 20
82.77887465562839
  0
LWPOLYLINE
  5
208
102
{ACAD_REACTORS
330
294
330
294
330
294
330
294
102
}
100
AcDbEntity
  8
___C_____1
  6
CONTINUOUS
 62
             2
100
AcDbPolyline
 90
        8
 70
             1
 10
92.0198091081985
 20
82.77887465562839
 10
93.18218500493232
 20
80.43915867556413
 10
93.18218500493232
 20
80.43915867556413
 10
93.38280267079348
 20
80.8410900215859
 10
93.38280267079348
 20
80.8410900215859
 10
92.41696776848619
 20
82.77887465562839
 10
92.41696776848619
 20
82.77887465562839
 10
92.0198091081985
 20
82.77887465562839
  0
LWPOLYLINE
  5
206
102
{ACAD_REACTORS
330
295
330
295
330
295
330
295
102
}
100
AcDbEntity
  8
___C_____1
  6
CONTINUOUS
 62
             2
100
AcDbPolyline
 90
        8
 70
             1
 10
93.01776011110353
 20
80.1092815141895
 10
91.67650871559036
 20
82.77887465562839
 10
91.67650871559036
 20
82.77887465562839
 10
90.7362937605097
 20
82.77887465562839
 10
90.7362937605097
 20
82.77887465562839
 10
92.5451668535821
 20
79.1529419989191
 10
92.5451668535821
 20
79.1529419989191
 10
93.01776011110353
 20
80.1092815141895
  0
ARC
  5
204
100
AcDbEntity
  8
1
  6
CONTINUOUS
 62
             3
100
AcDbCircle
 10
52.48152482192212
 20
97.86990904026521
 40
0.49999999999929
100
AcDbArc
 50
-115.00000000035993
 51
-24.99999999873002
  0
ARC
  5
203
100
AcDbEntity
  8
1
  6
CONTINUOUS
 62
             3
100
AcDbCircle
 10
53.19997586684937
 20
99.41063227824313
 40
0.49999999999829
100
AcDbArc
 50
-24.99999999879224
 51
64.99999999967857
  0
ARC
  5
202
100
AcDbEntity
  8
1
  6
CONTINUOUS
 62
             3
100
AcDbCircle
 10
51.80997855464635
 20
101.16217658871869
 40
0.50000000000039
100
AcDbArc
 50
154.99999999954701
 51
-115.00000000049843
  0
ARC
  5
201
100
AcDbEntity
  8
1
  6
CONTINUOUS
 62
             3
100
AcDbCircle
 10
50.24629098617778
 20
97.80883777669585
 40
0.50000000000027
100
AcDbArc
 50
64.99999999948624
 51
154.9999999995367
  0
ARC
  5
200
100
AcDbEntity
  8
1
  6
CONTINUOUS
 62
             3
100
AcDbCircle
 10
46.28873019163787
 20
100.89472853127479
 40
1.00000000000028
100
AcDbArc
 50
65.0000000000545
 51
90.0
  0
ARC
  5
1FF
100
AcDbEntity
  8
1
  6
CONTINUOUS
 62
             3
100
AcDbCircle
 10
46.06703552899526
 20
99.89472853127475
 40
1.00000000000023
100
AcDbArc
 50
65.00000000005313
 51
90.0
  0
ARC
  5
1FE
100
AcDbEntity
  8
1
  6
CONTINUOUS
 62
             3
100
AcDbCircle
 10
72.28409517921318
 20
83.73735056602082
 40
4.99999999999975
100
AcDbArc
 50
-38.04813899270199
 51
10.00000000053729
  0
ARC
  5
1FD
100
AcDbEntity
  8
1
  6
CONTINUOUS
 62
             3
100
AcDbCircle
 10
75.14348095630028
 20
55.79683622833019
 40
2.99999999999969
100
AcDbArc
 50
5.00000000013476
 51
43.55468192477409
  0
ARC
  5
1FC
100
AcDbEntity
  8
1
  6
CONTINUOUS
 62
             3
100
AcDbCircle
 10
85.73034133708163
 20
50.90244639988311
 40
2.00000000000041
100
AcDbArc
 50
77.41271975868376
 51
-174.99999999987861
  0
ARC
  5
1FB
100
AcDbEntity
  8
1
  6
CONTINUOUS
 62
             3
100
AcDbCircle
 10
87.07268973702566
 20
90.14837711982067
 40
2.99999999999954
100
AcDbArc
 50
-115.00000000016908
 51
-81.85569134397004
  0
ARC
  5
1FA
100
AcDbEntity
  8
1
  6
CONTINUOUS
 62
             3
100
AcDbCircle
 10
108.53941703428529
 20
75.71818466919785
 40
1.99999999999781
100
AcDbArc
 50
-162.58728024028662
 51
-55.00000000002762
  0
ARC
  5
1F9
100
AcDbEntity
  8
1
  6
CONTINUOUS
 62
             3
100
AcDbCircle
 10
109.5941812973555
 20
64.10249971866465
 40
2.99999999999968
100
AcDbArc
 50
124.99999999949746
 51
163.55468192508692
  0
ARC
  5
1F8
100
AcDbEntity
  8
1
  6
CONTINUOUS
 62
             3
100
AcDbCircle
 10
45.97119260087089
 20
100.4911097821237
 40
0.50000000000018
100
AcDbArc
 50
180.0
 51
-114.99999999998089
  0
ARC
  5
1F7
100
AcDbEntity
  8
1
  6
CONTINUOUS
 62
             3
100
AcDbCircle
 10
45.97119260087089
 20
103.3598923714262
 40
0.50000000000001
100
AcDbArc
 50
65.00000000004728
 51
180.0
  0
SPLINE
  5
1F2
100
AcDbEntity
  8
1
  6
CONTINUOUS
 62
             3
100
AcDbSpline
210
0.0
220
0.0
230
1.0
 70
             0
 71
             3
 72
            14
 73
            10
 74
            15
 42
0.00000000001
 43
0.00000000001
 44
0.00000000001
 40
4.6505385686245644
 40
4.6505385686245644
 40
4.6505385686245644
 40
4.6505385686245644
 40
5.3229379573396276
 40
7.1504159499624986
 40
9.7259340333885049
 40
12.19874590560358
 40
17.00953247012189
 40
20.03388494414229
 40
25.797578622927752
 40
25.797578622927752
 40
25.797578622927752
 40
25.797578622927752
 10
128.7146660806435
 20
87.403496959232172
 30
0.0
 10
128.62257926642781
 20
87.607861056149659
 30
0.0
 10
128.2758607928279
 20
88.365600152176953
 30
0.0
 10
127.4861406586847
 20
89.862836120898251
 30
0.0
 10
126.3593759048033
 20
91.859584246261761
 30
0.0
 10
124.55746491882221
 20
94.610382047659797
 30
0.0
 10
122.42003927255919
 20
97.312263085913017
 30
0.0
 10
119.2834431280295
 20
100.5886016071376
 30
0.0
 10
117.0498745432139
 20
102.49753353891001
 30
0.0
 10
115.47828617147231
 20
103.604960537531
 30
0.0
 11
128.7146660806435
 21
87.403496959232172
 31
0.0
 11
128.57542179553536
 21
87.70951423723217
 31
0.0
 11
128.43300635490758
 21
88.014016646472726
 31
0.0
 11
128.02545379048451
 21
88.83171877437556
 31
0.0
 11
127.59625663189371
 21
89.638678369588433
 31
0.0
 11
126.9709734735878
 21
90.764770415700681
 31
0.0
 11
126.31772152737537
 21
91.874442530802284
 31
0.0
 11
125.65724490798749
 21
92.91965372612016
 31
0.0
 11
124.96412223473251
 21
93.943879050805563
 31
0.0
 11
123.52756659688526
 21
95.874505134546908
 31
0.0
 11
121.98080057348565
 21
97.717929823502459
 31
0.0
 11
120.95517838296679
 21
98.829464942922229
 31
0.0
 11
119.89080987579078
 21
99.903941436157368
 31
0.0
 11
117.75788025646563
 21
101.84226865622256
 31
0.0
 11
115.47828617147231
 21
103.604960537531
 31
0.0
  0
SPLINE
  5
1F1
100
AcDbEntity
  8
1
  6
CONTINUOUS
 62
             3
100
AcDbSpline
210
0.0
220
0.0
230
1.0
 70
             0
 71
             3
 72
            18
 73
            14
 74
            23
 42
0.00000000001
 43
0.00000000001
 44
0.00000000001
 40
4.1903947664422549
 40
4.1903947664422549
 40
4.1903947664422549
 40
4.1903947664422549
 40
6.6750575547669779
 40
9.7917965100896023
 40
12.360436242243701
 40
15.07634983061787
 40
17.469061419096469
 40
20.83784419011652
 40
23.49510461756698
 40
27.064308922205988
 40
33.953927121516138
 40
38.467301704811412
 40
41.501974087581459
 40
41.501974087581459
 40
41.501974087581459
 40
41.501974087581459
 10
85.563536156465815
 20
29.8616118475977
 30
0.0
 10
86.330587937308522
 20
30.175009549333652
 30
0.0
 10
88.031263414251328
 20
30.953825451486821
 30
0.0
 10
90.372435075772742
 20
32.351650410272228
 30
0.0
 10
92.714998004262725
 20
33.88801564375391
 30
0.0
 10
94.72889371572991
 20
35.474194453384129
 30
0.0
 10
96.790325080599928
 20
37.40966775749429
 30
0.0
 10
98.666387464216854
 20
39.507070382959192
 30
0.0
 10
100.4890291680012
 20
42.142221952988983
 30
0.0
 10
102.6337284447211
 20
45.954833576451279
 30
0.0
 10
104.230430750501
 20
50.78734271484231
 30
0.0
 10
104.27777474947391
 20
55.646906406640092
 30
0.0
 10
103.8748843801483
 20
58.131467471881898
 30
0.0
 10
103.7313692872725
 20
59.132748165765683
 30
0.0
 11
85.563536156465815
 21
29.8616118475977
 31
0.0
 11
86.703845779929452
 21
30.356166950637054
 31
0.0
 11
87.820551948247783
 21
30.901267906493938
 31
0.0
 11
89.184469668269941
 21
31.655018348873885
 31
0.0
 11
90.51630213458543
 21
32.465554532561583
 31
0.0
 11
91.595900851135013
 21
33.161896167039728
 31
0.0
 11
92.653314642954612
 21
33.890716843554827
 31
0.0
 11
93.738682641413689
 21
34.707337104918054
 31
0.0
 11
94.786023220252389
 21
35.572305599415039
 31
0.0
 11
95.675023727813425
 21
36.373029761262345
 31
0.0
 11
96.532780207067333
 21
37.207514691443201
 31
0.0
 11
97.686132789203683
 21
38.436544525628797
 31
0.0
 11
98.763003213570983
 21
39.732351854426739
 31
0.0
 11
99.550108167379136
 21
40.803134963193067
 31
0.0
 11
100.28582397125408
 21
41.909976688796064
 31
0.0
 11
101.19992816583942
 21
43.442382170317181
 31
0.0
 11
102.02151270268047
 21
45.028727078912802
 31
0.0
 11
103.29568594830545
 21
48.244109385004066
 31
0.0
 11
104.05356896844587
 21
51.611855990382622
 31
0.0
 11
104.21822879487659
 21
53.866474005281788
 31
0.0
 11
104.12972146977994
 21
56.124588081441679
 31
0.0
 11
103.94954250879017
 21
57.631175925101232
 31
0.0
 11
103.7313692872725
 21
59.132748165765683
 31
0.0
  0
SPLINE
  5
1F0
100
AcDbEntity
  8
1
  6
CONTINUOUS
 62
             3
100
AcDbSpline
210
0.0
220
0.0
230
1.0
 70
             0
 71
             3
 72
            24
 73
            20
 74
            35
 42
0.00000000001
 43
0.00000000001
 44
0.00000000001
 40
16.352507594431369
 40
16.352507594431369
 40
16.352507594431369
 40
16.352507594431369
 40
18.33601305483031
 40
19.75017647401372
 40
22.13235436862335
 40
23.830804187385809
 40
26.295872125967499
 40
28.677782563478321
 40
30.351033437771839
 40
31.409701128593479
 40
32.305785352391318
 40
33.183589305344498
 40
34.378254737910169
 40
35.367308742818572
 40
35.757394776344249
 40
36.113776025144531
 40
36.579347452821722
 40
37.016114655673533
 40
37.759872923884913
 40
37.759872923884913
 40
37.759872923884913
 40
37.759872923884913
 10
79.325592106625791
 20
42.416226781578857
 30
0.0
 10
78.70553043971158
 20
42.183509544205037
 30
0.0
 10
77.634484846215884
 20
41.805476793522082
 30
0.0
 10
75.735811114223125
 20
41.462267983932627
 30
0.0
 10
73.93634457712308
 20
41.117709711330797
 30
0.0
 10
71.764722903591661
 20
40.8965514981358
 30
0.0
 10
69.592057353433304
 20
40.67968872883889
 30
0.0
 10
67.414952539279156
 20
40.703086918922793
 30
0.0
 10
65.714262960451762
 20
40.870128454609592
 30
0.0
 10
64.534246088056292
 20
41.139380433890011
 30
0.0
 10
63.615889740139181
 20
41.359649388016209
 30
0.0
 10
62.676614124103367
 20
41.67690147326573
 30
0.0
 10
61.722460212150651
 20
42.023928356129069
 30
0.0
 10
60.8739879917634
 20
42.236881363953763
 30
0.0
 10
60.291146505813529
 20
42.16039799307989
 30
0.0
 10
59.930578456130448
 20
41.939727957048468
 30
0.0
 10
59.749391217079243
 20
41.54880724976686
 30
0.0
 10
59.450128559277843
 20
41.089243392503057
 30
0.0
 10
59.359111809239103
 20
40.696137328313647
 30
0.0
 10
59.25579026296333
 20
40.472100737185919
 30
0.0
 11
79.325592106625791
 21
42.416226781578857
 31
0.0
 11
78.390330303745898
 21
42.082177771795763
 31
0.0
 11
77.439646218820002
 21
41.802206785596553
 31
0.0
 11
76.749720139050964
 21
41.649307217467154
 31
0.0
 11
76.054336556133293
 21
41.517996802268939
 31
0.0
 11
74.882073476138544
 21
41.303307808575667
 31
0.0
 11
73.706484829432071
 21
41.115052896750981
 31
0.0
 11
72.863890709726618
 21
41.011143139181698
 31
0.0
 11
72.018938779498185
 21
40.922906816363806
 31
0.0
 11
70.791483542354911
 21
40.8053162439247
 31
0.0
 11
69.561992516927432
 21
40.722969314485447
 31
0.0
 11
68.371256923001965
 21
40.703266312704216
 31
0.0
 11
67.180196439685901
 21
40.746309810685915
 31
0.0
 11
66.34562652795961
 21
40.816051451108834
 31
0.0
 11
65.517368971802256
 21
40.932785815505795
 31
0.0
 11
64.998316300934633
 21
41.035978206487343
 31
0.0
 11
64.481960410833693
 21
41.153481061175725
 31
0.0
 11
64.046243549669967
 21
41.258376371692222
 31
0.0
 11
63.613496568077274
 21
41.374246751363749
 31
0.0
 11
63.194133299767444
 21
41.504202233377157
 31
0.0
 11
62.778637333711465
 21
41.645447486272886
 31
0.0
 11
62.215811743575799
 21
41.842166639091388
 31
0.0
 11
61.646617083564472
 21
42.027227068002233
 31
0.0
 11
61.164051451491339
 21
42.150732422000139
 31
0.0
 11
60.672154887578429
 21
42.196493878743993
 31
0.0
 11
60.477223598773094
 21
42.179433710567487
 31
0.0
 11
60.28764338545075
 21
42.130782249002792
 31
0.0
 11
60.12587164923923
 21
42.051517634632816
 31
0.0
 11
59.986786724427262
 21
41.939751193898488
 31
0.0
 11
59.84969509590298
 21
41.75345677601517
 31
0.0
 11
59.736151400274281
 21
41.547400982281239
 31
0.0
 11
59.626161781669794
 21
41.357600510245632
 31
0.0
 11
59.522859284703436
 21
41.166255258282867
 31
0.0
 11
59.388168544609009
 21
40.81977220253399
 31
0.0
 11
59.25579026296333
 21
40.472100737185919
 31
0.0
  0
SPLINE
  5
1EF
100
AcDbEntity
  8
1
  6
CONTINUOUS
 62
             3
100
AcDbSpline
210
0.0
220
0.0
230
1.0
 70
             0
 71
             3
 72
            10
 73
             6
 74
             7
 42
0.00000000001
 43
0.00000000001
 44
0.00000000001
 40
33.475235575748513
 40
33.475235575748513
 40
33.475235575748513
 40
33.475235575748513
 40
33.953927121516138
 40
38.467301704811412
 40
41.501974087581459
 40
41.501974087581459
 40
41.501974087581459
 40
41.501974087581459
 10
84.042773792100078
 20
47.244005212320822
 30
0.0
 10
84.181982793184332
 20
47.322723702766403
 30
0.0
 10
85.623108394157171
 20
48.162107877486221
 30
0.0
 10
87.751804775834472
 20
49.826020407630622
 30
0.0
 10
89.443114800258684
 20
51.690111268582967
 30
0.0
 10
90.136467372722933
 20
52.426604187820551
 30
0.0
 11
84.042773792100078
 21
47.244005212320822
 31
0.0
 11
84.250815809388826
 21
47.363414126054543
 31
0.0
 11
84.457285309008967
 21
47.485498761349227
 31
0.0
 11
86.32268037658551
 21
48.762493864478216
 31
0.0
 11
88.032961637781241
 21
50.239602775544256
 31
0.0
 11
89.098519700398086
 21
51.319814515823637
 31
0.0
 11
90.136467372722933
 21
52.426604187820551
 31
0.0
  0
SPLINE
  5
1EE
100
AcDbEntity
  8
1
  6
CONTINUOUS
 62
             3
100
AcDbSpline
210
0.0
220
0.0
230
1.0
 70
             0
 71
             3
 72
            28
 73
            24
 74
            43
 42
0.00000000001
 43
0.00000000001
 44
0.00000000001
 40
9.0807002382555844
 40
9.0807002382555844
 40
9.0807002382555844
 40
9.0807002382555844
 40
10.67535712648972
 40
12.39329028256425
 40
13.95449158520857
 40
16.15176126610649
 40
18.33601305483031
 40
19.75017647401372
 40
22.13235436862335
 40
23.830804187385809
 40
26.295872125967499
 40
28.677782563478321
 40
30.351033437771839
 40
31.409701128593479
 40
32.305785352391318
 40
33.183589305344498
 40
34.378254737910169
 40
35.367308742818572
 40
35.757394776344249
 40
36.113776025144531
 40
36.579347452821722
 40
37.016114655673533
 40
37.759872923884913
 40
37.759872923884913
 40
37.759872923884913
 40
37.759872923884913
 10
114.4334505048096
 20
71.153316263348017
 30
0.0
 10
114.8304600517837
 20
70.799973077644751
 30
0.0
 10
115.6261926585467
 20
70.030333463468338
 30
0.0
 10
116.76949995660669
 20
68.875404258394838
 30
0.0
 10
117.9052548798881
 20
67.441880837831405
 30
0.0
 10
119.023545285465
 20
65.808704465909543
 30
0.0
 10
120.0750682485896
 20
64.179413382310756
 30
0.0
 10
120.8584623844951
 20
62.343075456598612
 30
0.0
 10
121.5948008363693
 20
60.665396731200978
 30
0.0
 10
122.2936454345179
 20
58.597434479164271
 30
0.0
 10
122.9885345689177
 20
56.527498696475888
 30
0.0
 10
123.4501744169839
 20
54.399771858325948
 30
0.0
 10
123.66575999488489
 20
52.704551879449852
 30
0.0
 10
123.66583718146219
 20
51.494206291806023
 30
0.0
 10
123.65544434218771
 20
50.54986060149816
 30
0.0
 10
123.5551549164534
 20
49.563539355879158
 30
0.0
 10
123.42914794174951
 20
48.556087328510309
 30
0.0
 10
123.4103369413962
 20
47.681501575953071
 30
0.0
 10
123.6145971463077
 20
47.130292294051749
 30
0.0
 10
123.90996846300349
 20
46.827868140703693
 30
0.0
 10
124.33140592564069
 20
46.738211684929801
 30
0.0
 10
124.8460397636393
 20
46.548714745522062
 30
0.0
 10
125.24954297029041
 20
46.547454303999672
 30
0.0
 10
125.49095370330809
 20
46.496576076116384
 30
0.0
 11
114.4334505048096
 21
71.153316263348017
 31
0.0
 11
115.01970588888993
 21
70.612134894607507
 31
0.0
 11
115.59225653089705
 21
70.055421258631895
 31
0.0
 11
116.19808396618548
 21
69.445599684071055
 31
0.0
 11
116.78179304494259
 21
68.815946688302049
 31
0.0
 11
117.28358860956214
 21
68.21801678624081
 31
0.0
 11
117.760881038558
 21
67.599913708430208
 31
0.0
 11
118.40176369987242
 21
66.707941481926426
 31
0.0
 11
119.01856147384794
 21
65.798182881341162
 31
0.0
 11
119.6110689209565
 21
64.878830123071452
 31
0.0
 11
120.14790757945725
 21
63.928548358155595
 31
0.0
 11
120.45049663185019
 21
63.289943520363224
 31
0.0
 11
120.73325222514829
 21
62.641213971946044
 31
0.0
 11
121.20341159299548
 21
61.54611477024924
 31
0.0
 11
121.64853964480693
 21
60.44189124415449
 31
0.0
 11
121.93733899831182
 21
59.643544814529484
 31
0.0
 11
122.21138254499782
 21
58.839412022273947
 31
0.0
 11
122.59915936209514
 21
57.668898014651653
 31
0.0
 11
122.95302917341596
 21
56.488556811849811
 31
0.0
 11
123.23720177631965
 21
55.332059775676001
 31
0.0
 11
123.46027335990425
 21
54.161283586034251
 31
0.0
 11
123.57798956426545
 21
53.332119109468337
 31
0.0
 11
123.64848661909787
 21
52.498651859707714
 31
0.0
 11
123.66338156192492
 21
51.969650455768331
 31
0.0
 11
123.66372474407311
 21
51.440093840921428
 31
0.0
 11
123.65841550090242
 21
50.991959908700601
 31
0.0
 11
123.64174549609879
 21
50.544279212330324
 31
0.0
 11
123.60836537549642
 21
50.106512441479381
 31
0.0
 11
123.56311798642939
 21
49.670003801179107
 31
0.0
 11
123.49657146948752
 21
49.077515294050258
 31
0.0
 11
123.44280861928031
 21
48.481411713058236
 31
0.0
 11
123.42978075753207
 21
47.983462482169642
 31
0.0
 11
123.49462391888571
 21
47.493715910013883
 31
0.0
 11
123.55463264547883
 21
47.307468200158965
 31
0.0
 11
123.64424987946349
 21
47.133467127263771
 31
0.0
 11
123.75752476229792
 21
46.993389382254051
 31
0.0
 11
123.89743829238927
 21
46.882661979675412
 31
0.0
 11
124.10956767748883
 21
46.790461932369553
 31
0.0
 11
124.33572307146608
 21
46.725616741928953
 31
0.0
 11
124.54523984205956
 21
46.66061937101437
 31
0.0
 11
124.75477463716959
 21
46.602485207508977
 31
0.0
 11
125.12254214860138
 21
46.548271178661665
 31
0.0
 11
125.49095370330809
 21
46.496576076116384
 31
0.0
  0
SPLINE
  5
1ED
100
AcDbEntity
  8
1
  6
CONTINUOUS
 62
             3
100
AcDbSpline
210
0.0
220
0.0
230
1.0
 70
             0
 71
             3
 72
            14
 73
            10
 74
            15
 42
0.00000000001
 43
0.00000000001
 44
0.00000000001
 40
15.708930454573879
 40
15.708930454573879
 40
15.708930454573879
 40
15.708930454573879
 40
17.469061419096469
 40
20.83784419011652
 40
23.49510461756698
 40
27.064308922205988
 40
33.953927121516138
 40
38.467301704811412
 40
41.501974087581459
 40
41.501974087581459
 40
41.501974087581459
 40
41.501974087581459
 10
121.8476918636094
 20
82.595189847711694
 30
0.0
 10
121.3674034007736
 20
82.932279417817128
 30
0.0
 10
119.9393710149579
 20
83.873860383750682
 30
0.0
 10
117.66210583282241
 20
85.133806778700801
 30
0.0
 10
114.68744708011531
 20
86.324374660999268
 30
0.0
 10
110.4931851039196
 20
87.566915949636297
 30
0.0
 10
105.4265373706727
 20
88.048251147905461
 30
0.0
 10
100.6782780556955
 20
87.013053482422919
 30
0.0
 10
98.345661664982686
 20
86.067397566993677
 30
0.0
 10
97.401420281108358
 20
85.70467478192694
 30
0.0
 11
121.8476918636094
 21
82.595189847711694
 31
0.0
 11
121.12008537612638
 21
83.090456137155172
 31
0.0
 11
120.37877914173025
 21
83.565392790368733
 31
0.0
 11
118.92391855767914
 21
84.416343548644662
 31
0.0
 11
117.42097361140705
 21
85.177870326056663
 31
0.0
 11
116.20188994130829
 21
85.706969257852677
 31
0.0
 11
114.95908688082169
 21
86.177943675898845
 31
0.0
 11
113.26169468496587
 21
86.728137070810462
 31
0.0
 11
111.53230299674411
 21
87.176127817270356
 31
0.0
 11
108.11400681753535
 21
87.702865005437005
 31
0.0
 11
104.66205181332543
 21
87.692352195811154
 31
0.0
 11
102.42732152094646
 21
87.351183950112002
 31
0.0
 11
100.24551781187913
 21
86.762418035127283
 31
0.0
 11
98.81679686164577
 21
86.251509202741204
 31
0.0
 11
97.401420281108358
 21
85.70467478192694
 31
0.0
  0
SPLINE
  5
1EC
100
AcDbEntity
  8
1
  6
CONTINUOUS
 62
             3
100
AcDbSpline
210
0.0
220
0.0
230
1.0
 70
             0
 71
             3
 72
            31
 73
            27
 74
            49
 42
0.00000000001
 43
0.00000000001
 44
0.00000000001
 40
4.6573342050198843
 40
4.6573342050198843
 40
4.6573342050198843
 40
4.6573342050198843
 40
4.9194500457353829
 40
6.1709966486954748
 40
8.284130391211999
 40
10.67535712648972
 40
12.39329028256425
 40
13.95449158520857
 40
16.15176126610649
 40
18.33601305483031
 40
19.75017647401372
 40
22.13235436862335
 40
23.830804187385809
 40
26.295872125967499
 40
28.677782563478321
 40
30.351033437771839
 40
31.409701128593479
 40
32.305785352391318
 40
33.183589305344498
 40
34.378254737910169
 40
35.367308742818572
 40
35.757394776344249
 40
36.113776025144531
 40
36.579347452821722
 40
37.016114655673533
 40
37.759872923884913
 40
37.759872923884913
 40
37.759872923884913
 40
37.759872923884913
 10
81.607360960272885
 20
89.386768025909106
 30
0.0
 10
81.62641152743295
 20
89.471915274690446
 30
0.0
 10
81.745254711754583
 20
89.961123262070899
 30
0.0
 10
82.212052654048691
 20
91.082711206882806
 30
0.0
 10
82.919565203755738
 20
92.866571638726427
 30
0.0
 10
83.987765217441691
 20
94.652149438072414
 30
0.0
 10
85.00177590350431
 20
96.247967360567245
 30
0.0
 10
86.146628652634192
 20
97.674235507121566
 30
0.0
 10
87.490014857581599
 20
99.127903969105546
 30
0.0
 10
88.844470340149982
 20
100.51561442983299
 30
0.0
 10
90.460445845288547
 20
101.68799086953599
 30
0.0
 10
91.932210942279795
 20
102.7791864160085
 30
0.0
 10
93.792817510401335
 20
103.9206744128241
 30
0.0
 10
95.656228302128326
 20
105.058745269509
 30
0.0
 10
97.627884055949806
 20
105.9822746060903
 30
0.0
 10
99.232629026473987
 20
106.5696769364903
 30
0.0
 10
100.41261154761121
 20
106.8390794184719
 30
0.0
 10
101.33559314413129
 20
107.0390838344078
 30
0.0
 10
102.3195017535382
 20
107.1607859987661
 30
0.0
 10
103.3297340448968
 20
107.26211744809309
 30
0.0
 10
104.1865779480183
 20
107.43839171732159
 30
0.0
 10
104.6785150908154
 20
107.76018629667711
 30
0.0
 10
104.9076305379597
 20
108.1154477428457
 30
0.0
 10
104.9012604613884
 20
108.5462693266843
 30
0.0
 10
104.97148951458669
 20
109.09016725584431
 30
0.0
 10
104.8829304437912
 20
109.48383426928309
 30
0.0
 10
104.87881410648561
 20
109.7305138019891
 30
0.0
 11
81.607360960272885
 21
89.386768025909106
 31
0.0
 11
81.637177292182059
 21
89.514139316000438
 31
0.0
 11
81.669849187543889
 21
89.640711342432226
 31
0.0
 11
81.865689132958721
 21
90.233938378387933
 31
0.0
 11
82.098464611225822
 21
90.816576010649968
 31
0.0
 11
82.500845659137795
 21
91.795304055472215
 31
0.0
 11
82.933713426133593
 21
92.757630783436596
 31
0.0
 11
83.496568279773726
 21
93.811460138738099
 31
0.0
 11
84.113305699778735
 21
94.837661400390118
 31
0.0
 11
84.57302848751533
 21
95.563997543358525
 31
0.0
 11
85.057007278679848
 21
96.273182789543554
 31
0.0
 11
85.528285812002338
 21
96.895449211970742
 31
0.0
 11
86.024684198065358
 21
97.498315797452278
 31
0.0
 11
86.751683010182234
 21
98.321612685341975
 31
0.0
 11
87.501381646473192
 21
99.125386384876634
 31
0.0
 11
88.265839001105817
 21
99.907613667682071
 31
0.0
 11
89.072837378449307
 21
100.64245024608377
 31
0.0
 11
89.628098661102086
 21
101.07955570414452
 31
0.0
 11
90.197644166588077
 21
101.49957792940359
 31
0.0
 11
91.160666643253933
 21
102.20163191747596
 31
0.0
 11
92.138154670278709
 21
102.88131253005406
 31
0.0
 11
92.852220986220118
 21
103.34051987398271
 31
0.0
 11
93.575212064515171
 21
103.78662895679406
 31
0.0
 11
94.630090382606866
 21
104.42514726971713
 31
0.0
 11
95.702094526172118
 21
105.03279545294032
 31
0.0
 11
96.76636141406388
 21
105.56718805604828
 31
0.0
 11
97.858145703121522
 21
106.04518898052635
 31
0.0
 11
98.640326975364417
 21
106.34446024764181
 31
0.0
 11
99.437210390550547
 21
106.59865370500326
 31
0.0
 11
99.94963418823869
 21
106.73088908701058
 31
0.0
 11
100.46583734791514
 21
106.84906109741061
 31
0.0
 11
100.90391704457677
 21
106.94360414920837
 31
0.0
 11
101.34408287624656
 21
107.02697042292152
 31
0.0
 11
101.77830169578365
 21
107.09183948236021
 31
0.0
 11
102.21393464439291
 21
107.14485885014606
 31
0.0
 11
102.80637622073851
 21
107.21182188931445
 31
0.0
 11
103.39949760003563
 21
107.29205251161561
 31
0.0
 11
103.88786117603676
 21
107.39015541350653
 31
0.0
 11
104.35089981829296
 21
107.56235168608634
 31
0.0
 11
104.51912471131864
 21
107.66229988296924
 31
0.0
 11
104.66882150342279
 21
107.78838910705088
 31
0.0
 11
104.78018117417919
 21
107.92999418272655
 31
0.0
 11
104.8569987201994
 21
108.09103895354434
 31
0.0
 11
104.89968389091881
 21
108.31836625271131
 31
0.0
 11
104.91257896755107
 21
108.55328087113045
 31
0.0
 11
104.92932485119138
 21
108.77200789453366
 31
0.0
 11
104.93937559152934
 21
108.98922528321805
 31
0.0
 11
104.91039439134374
 21
109.35983585163734
 31
0.0
 11
104.87881410648561
 21
109.7305138019891
 31
0.0
  0
SPLINE
  5
1EB
100
AcDbEntity
  8
1
  6
CONTINUOUS
 62
             3
100
AcDbSpline
210
0.0
220
0.0
230
1.0
 70
             0
 71
             3
 72
             9
 73
             5
 74
             5
 42
0.00000000001
 43
0.00000000001
 44
0.00000000001
 40
18.143424922150569
 40
18.143424922150569
 40
18.143424922150569
 40
18.143424922150569
 40
20.03388494414229
 40
25.797578622927752
 40
25.797578622927752
 40
25.797578622927752
 40
25.797578622927752
 10
55.077104973425072
 20
93.97815315723318
 30
0.0
 10
54.725312014349271
 20
93.455214513965643
 30
0.0
 10
53.348290115440747
 20
91.30625840136625
 30
0.0
 10
52.160234386436507
 20
89.039684760179114
 30
0.0
 10
51.430284207139152
 20
87.261073700049636
 30
0.0
 11
55.077104973425072
 21
93.97815315723318
 31
0.0
 11
54.558162318090602
 21
93.187960233240304
 31
0.0
 11
54.056632136542142
 21
92.386520449713771
 31
0.0
 11
52.641524317839895
 21
89.875749445721198
 31
0.0
 11
51.430284207139152
 21
87.261073700049636
 31
0.0
  0
SPLINE
  5
1EA
100
AcDbEntity
  8
1
  6
CONTINUOUS
 62
             3
100
AcDbSpline
210
0.0
220
0.0
230
1.0
 70
             0
 71
             3
 72
            19
 73
            15
 74
            25
 42
0.00000000001
 43
0.00000000001
 44
0.00000000001
 40
26.62065017038125
 40
26.62065017038125
 40
26.62065017038125
 40
26.62065017038125
 40
28.677782563478321
 40
30.351033437771839
 40
31.409701128593479
 40
32.305785352391318
 40
33.183589305344498
 40
34.378254737910169
 40
35.367308742818572
 40
35.757394776344249
 40
36.113776025144531
 40
36.579347452821722
 40
37.016114655673533
 40
37.759872923884913
 40
37.759872923884913
 40
37.759872923884913
 40
37.759872923884913
 10
66.133113352436126
 20
96.602528189640537
 30
0.0
 10
66.266461227698969
 20
97.275083821822051
 30
0.0
 10
66.56505934726313
 20
98.484129579117848
 30
0.0
 10
67.071974480959042
 20
100.0020674154635
 30
0.0
 10
67.597054207363428
 20
101.0925845993748
 30
0.0
 10
68.016154071066026
 20
101.9389013829468
 30
0.0
 10
68.53446047139181
 20
102.78403216800641
 30
0.0
 10
69.085105885290233
 20
103.6370427032726
 30
0.0
 10
69.481522547421832
 20
104.41685545149851
 30
0.0
 10
69.536651206068839
 20
105.0021030356551
 30
0.0
 10
69.401747767680448
 20
105.4027345940288
 30
0.0
 10
69.060946212321724
 20
105.6663671315559
 30
0.0
 10
68.679496786508935
 20
106.0603892284033
 30
0.0
 10
68.31649984428617
 20
106.23659832699509
 30
0.0
 10
68.121071525201785
 20
106.3871822178625
 30
0.0
 11
66.133113352436126
 21
96.602528189640537
 31
0.0
 11
66.356366108912084
 21
97.606708543969859
 31
0.0
 11
66.625059342206299
 21
98.600440189387527
 31
0.0
 11
66.878761690205977
 21
99.398566716065744
 31
0.0
 11
67.176873925222793
 21
100.18008228628618
 31
0.0
 11
67.39297915254933
 21
100.6631587558165
 31
0.0
 11
67.622435960205721
 21
101.14042168075646
 31
0.0
 11
67.821657449121929
 21
101.5418728080743
 31
0.0
 11
68.030917978920343
 21
101.93798633426498
 31
0.0
 11
68.250932311760408
 21
102.31791747468081
 31
0.0
 11
68.481092801646966
 21
102.69156606382494
 31
0.0
 11
68.798120270498529
 21
103.19650631176552
 31
0.0
 11
69.105198575368178
 21
103.71025025383409
 31
0.0
 11
69.332988347373657
 21
104.15323443131008
 31
0.0
 11
69.48705975160911
 21
104.62261523930073
 31
0.0
 11
69.513803609885628
 21
104.81645543827423
 31
0.0
 11
69.508557508141692
 21
105.01210844850469
 31
0.0
 11
69.467277820951921
 21
105.18746226555353
 31
0.0
 11
69.389262905583166
 21
105.34793041368383
 31
0.0
 11
69.238145034899503
 21
105.52303927669801
 31
0.0
 11
69.062521339297575
 21
105.67958792246566
 31
0.0
 11
68.901954554003424
 21
105.82905444997608
 31
0.0
 11
68.738393695088831
 21
105.97234526182115
 31
0.0
 11
68.430569202196978
 21
106.18075875697889
 31
0.0
 11
68.121071525201785
 21
106.3871822178625
 31
0.0
  0
SPLINE
  5
1E9
100
AcDbEntity
  8
1
  6
CONTINUOUS
 62
             3
100
AcDbSpline
210
0.0
220
0.0
230
1.0
 70
             0
 71
             3
 72
            11
 73
             7
 74
             9
 42
0.00000000001
 43
0.00000000001
 44
0.00000000001
 40
26.335511326714329
 40
26.335511326714329
 40
26.335511326714329
 40
26.335511326714329
 40
27.064308922205988
 40
33.953927121516138
 40
38.467301704811412
 40
41.501974087581459
 40
41.501974087581459
 40
41.501974087581459
 40
41.501974087581459
 10
68.332799267090394
 20
87.800012520581959
 30
0.0
 10
68.327075262006218
 20
87.556823256786018
 30
0.0
 10
68.30037331349196
 20
85.012335762536878
 30
0.0
 10
68.833678944151799
 20
80.923036731444995
 30
0.0
 10
70.899509140510446
 20
76.524179342453394
 30
0.0
 10
72.340511465708786
 20
74.46047475230813
 30
0.0
 10
72.904253507916167
 20
73.620620884260546
 30
0.0
 11
68.332799267090394
 21
87.800012520581959
 31
0.0
 11
68.326607919548294
 21
87.43506235297869
 31
0.0
 11
68.325275652113518
 21
87.069783763575415
 31
0.0
 11
68.572387323494425
 21
83.619981355312063
 31
0.0
 11
69.350768806714569
 21
80.256913390367572
 31
0.0
 11
70.18065752410233
 21
78.154129528840116
 31
0.0
 11
71.240158847512788
 21
76.158040935305493
 31
0.0
 11
72.056178449058905
 21
74.878828912793551
 31
0.0
 11
72.904253507916167
 21
73.620620884260546
 31
0.0
  0
SPLINE
  5
1E8
100
AcDbEntity
  8
1
  6
CONTINUOUS
 62
             3
100
AcDbSpline
210
0.0
220
0.0
230
1.0
 70
             0
 71
             3
 72
            15
 73
            11
 74
            17
 42
0.00000000001
 43
0.00000000001
 44
0.00000000001
 40
0.0
 40
0.0
 40
0.0
 40
0.0
 40
1.8250310986755791
 40
2.6799415379678728
 40
3.3849697094060471
 40
4.1627659909611214
 40
5.3229379573396276
 40
7.1504159499624986
 40
9.7259340333885049
 40
10.87174027421973
 40
10.87174027421973
 40
10.87174027421973
 40
10.87174027421973
 10
68.121071525201785
 20
106.3871822178625
 30
0.0
 10
67.59048964257606
 20
106.0887300227655
 30
0.0
 10
66.837646672730486
 20
105.6071685618589
 30
0.0
 10
65.9075001358175
 20
104.9684236902946
 30
0.0
 10
65.272089841581817
 20
104.5171935949806
 30
0.0
 10
64.568323520810367
 20
103.98721913710899
 30
0.0
 10
63.563229914534887
 20
103.2348756144788
 30
0.0
 10
62.155865877549132
 20
102.02577656531869
 30
0.0
 10
60.787222550919033
 20
100.780704925634
 30
0.0
 10
59.911333497633393
 20
99.902122027041571
 30
0.0
 10
59.64561407611049
 20
99.627698784512688
 30
0.0
 11
68.121071525201785
 21
106.3871822178625
 31
0.0
 11
67.337337577268286
 21
105.91967333297237
 31
0.0
 11
66.5727417653695
 21
105.4216494744924
 31
0.0
 11
66.219075726099703
 21
105.18156354614898
 31
0.0
 11
65.86771120987764
 21
104.93811687472885
 31
0.0
 11
65.579665409635652
 21
104.73488001570709
 31
0.0
 11
65.293722399772605
 21
104.52872516939543
 31
0.0
 11
64.981060272700148
 21
104.29748469512928
 31
0.0
 11
64.669938187345423
 21
104.0641174725946
 31
0.0
 11
64.206599134603948
 21
103.71498631264924
 31
0.0
 11
63.747634148629785
 21
103.36030339789879
 31
0.0
 11
63.04112249758758
 21
102.78101318592739
 31
0.0
 11
62.349900416822599
 21
102.18301149336197
 31
0.0
 11
61.391180441797701
 21
101.32282643544318
 31
0.0
 11
60.454692356638567
 21
100.43902760390939
 31
0.0
 11
60.047171692261664
 21
100.03637662473595
 31
0.0
 11
59.64561407611049
 21
99.627698784512688
 31
0.0
  0
SPLINE
  5
1E7
100
AcDbEntity
  8
1
  6
CONTINUOUS
 62
             3
100
AcDbSpline
210
0.0
220
0.0
230
1.0
 70
             0
 71
             3
 72
            18
 73
            14
 74
            23
 42
0.00000000001
 43
0.00000000001
 44
0.00000000001
 40
0.0
 40
0.0
 40
0.0
 40
0.0
 40
2.4644354346243089
 40
3.828080162115616
 40
4.9194500457353829
 40
6.1709966486954748
 40
8.284130391211999
 40
10.67535712648972
 40
12.39329028256425
 40
13.95449158520857
 40
16.15176126610649
 40
18.33601305483031
 40
19.149790283567679
 40
19.149790283567679
 40
19.149790283567679
 40
19.149790283567679
 10
72.646300491891893
 20
72.06261077265286
 30
0.0
 10
72.096332117626133
 20
72.671455819302153
 30
0.0
 10
71.124863393566187
 20
73.514318715526585
 30
0.0
 10
70.128648895229077
 20
74.818889902907003
 30
0.0
 10
69.287817367291666
 20
75.73128544967868
 30
0.0
 10
68.568016066878897
 20
77.038879763642356
 30
0.0
 10
67.614464680320538
 20
78.704254136414619
 30
0.0
 10
66.884455557226019
 20
80.652696084985678
 30
0.0
 10
66.269020186824861
 20
82.44045776319399
 30
0.0
 10
65.867722861074583
 20
84.224803329335529
 30
0.0
 10
65.568786691117765
 20
86.181452418799054
 30
0.0
 10
65.353230538708956
 20
87.906302231482925
 30
0.0
 10
65.370459224876157
 20
88.905336089426498
 30
0.0
 10
65.379217473803237
 20
89.176601577071807
 30
0.0
 11
72.646300491891893
 21
72.06261077265286
 31
0.0
 11
71.784364166998714
 21
72.94341159242127
 31
0.0
 11
70.926851966683387
 21
73.828096196152956
 31
0.0
 11
70.488537794799754
 21
74.349594587816767
 31
0.0
 11
70.055072504296618
 21
74.876679770206238
 31
0.0
 11
69.698192713856258
 21
75.290735351982562
 31
0.0
 11
69.357358626754191
 21
75.715895813878902
 31
0.0
 11
69.015659262542542
 21
76.23888065582527
 31
0.0
 11
68.70526795557879
 21
76.784140474967927
 31
0.0
 11
68.190948037173754
 21
77.708961600901077
 31
0.0
 11
67.708459343082012
 21
78.647392149813811
 31
0.0
 11
67.235476637101982
 21
79.74450165036744
 31
0.0
 11
66.817689675164033
 21
80.866512403027798
 31
0.0
 11
66.536449681552753
 21
81.678801329543987
 31
0.0
 11
66.28374216977015
 21
82.499360953942414
 31
0.0
 11
66.091072049576354
 21
83.255798116722943
 31
0.0
 11
65.929231304669003
 21
84.019779170718124
 31
0.0
 11
65.738828223589906
 21
85.101486943244012
 31
0.0
 11
65.577842094681543
 21
86.1887696441175
 31
0.0
 11
65.442903543081272
 21
87.274157204535058
 31
0.0
 11
65.371540429980755
 21
88.36325705490745
 31
0.0
 11
65.369935465404708
 21
88.76979371033714
 31
0.0
 11
65.379217473803237
 21
89.176601577071807
 31
0.0
  0
SPLINE
  5
1E6
100
AcDbEntity
  8
1
  6
CONTINUOUS
 62
             3
100
AcDbSpline
210
0.0
220
0.0
230
1.0
 70
             0
 71
             3
 72
            14
 73
            10
 74
            15
 42
0.00000000001
 43
0.00000000001
 44
0.00000000001
 40
0.0
 40
0.0
 40
0.0
 40
0.0
 40
3.7910034251621969
 40
6.6750575547669779
 40
9.7917965100896023
 40
12.360436242243701
 40
15.07634983061787
 40
17.469061419096469
 40
18.967820505517182
 40
18.967820505517182
 40
18.967820505517182
 40
18.967820505517182
 10
79.518884652381715
 20
110.8549631849604
 30
0.0
 10
78.616860630138888
 20
109.9704930762317
 30
0.0
 10
77.004913336186064
 20
108.43373610295561
 30
0.0
 10
74.896649366928756
 20
105.9321961193168
 30
0.0
 10
73.320354506024458
 20
103.54578053656471
 30
0.0
 10
71.876382128744751
 20
101.14516332879469
 30
0.0
 10
70.750141982571776
 20
98.842269000794929
 30
0.0
 10
69.957079618963078
 20
96.786009407726084
 30
0.0
 10
69.561879136791816
 20
95.54882179160802
 30
0.0
 10
69.422339420911669
 20
95.068736884526658
 30
0.0
 11
79.518884652381715
 21
110.8549631849604
 31
0.0
 11
78.16448269076669
 21
109.52876952926268
 31
0.0
 11
76.842260293898278
 21
108.17057199252928
 31
0.0
 11
75.887705840867127
 21
107.08891876223646
 31
0.0
 11
74.990224374316668
 21
105.95975061234662
 31
0.0
 11
74.088417030625223
 21
104.68886320929306
 31
0.0
 11
73.240155911413225
 21
103.38073489103465
 31
0.0
 11
72.56960239015477
 21
102.28493242899575
 31
0.0
 11
71.933128923618369
 21
101.16949303931948
 31
0.0
 11
71.309564399348844
 21
99.962820081380727
 31
0.0
 11
70.741238908458413
 21
98.72908634958975
 31
0.0
 11
70.287698321050698
 21
97.621935943644758
 31
0.0
 11
69.876955878857345
 21
96.497924412306048
 31
0.0
 11
69.640899009229202
 21
95.786132690222544
 31
0.0
 11
69.422339420911669
 21
95.068736884526658
 31
0.0
  0
SPLINE
  5
1E5
100
AcDbEntity
  8
1
  6
CONTINUOUS
 62
             3
100
AcDbSpline
210
0.0
220
0.0
230
1.0
 70
             0
 71
             3
 72
            18
 73
            14
 74
            23
 42
0.00000000001
 43
0.00000000001
 44
0.00000000001
 40
0.0
 40
0.0
 40
0.0
 40
0.0
 40
1.8250310986755791
 40
2.6799415379678728
 40
3.3849697094060471
 40
4.1627659909611214
 40
5.3229379573396276
 40
7.1504159499624986
 40
9.7259340333885049
 40
12.19874590560358
 40
17.00953247012189
 40
20.03388494414229
 40
25.797578622927752
 40
25.797578622927752
 40
25.797578622927752
 40
25.797578622927752
 10
104.87881410648561
 20
109.7305138019891
 30
0.0
 10
104.3146623914854
 20
109.9592575218811
 30
0.0
 10
103.4687725665126
 20
110.2476051972392
 30
0.0
 10
102.3894448366682
 20
110.5765721297229
 30
0.0
 10
101.64048710386849
 20
110.7920185393393
 30
0.0
 10
100.7873452639127
 20
111.0118115355133
 30
0.0
 10
99.572473798871215
 20
111.3285468459015
 30
0.0
 10
97.749684972259956
 20
111.6750074307682
 30
0.0
 10
95.486038092144312
 20
112.03901936583701
 30
0.0
 10
92.211904645482861
 20
112.3453230044568
 30
0.0
 10
88.766825895217295
 20
112.3588116158756
 30
0.0
 10
84.24964558344719
 20
111.9492856576024
 30
0.0
 10
81.364575266927361
 20
111.3932110115714
 30
0.0
 10
79.518884652381715
 20
110.8549631849604
 30
0.0
 11
104.87881410648561
 21
109.7305138019891
 31
0.0
 11
104.0246508180466
 21
110.05177465437593
 31
0.0
 11
103.15856239521142
 21
110.33904693465865
 31
0.0
 11
102.7503484891899
 21
110.46586305055773
 31
0.0
 11
102.34094202457544
 21
110.58878437424548
 31
0.0
 11
102.00245143087785
 21
110.68727154031392
 31
0.0
 11
101.66299053120808
 21
110.78229534334605
 31
0.0
 11
101.28725780075122
 21
110.88256836019458
 31
0.0
 11
100.91082251184802
 21
110.98031131808733
 31
0.0
 11
100.3489736053084
 21
111.12488465885451
 31
0.0
 11
99.785511348101167
 21
111.26257675401293
 31
0.0
 11
98.89210121358164
 21
111.45376826606966
 31
0.0
 11
97.993594745592233
 21
111.62133949340249
 31
0.0
 11
96.723322859301916
 21
111.83458034145555
 31
0.0
 11
95.448450337986387
 21
112.0157166510643
 31
0.0
 11
94.219470883100925
 21
112.15101375763132
 31
0.0
 11
92.986544360906791
 21
112.24770267518417
 31
0.0
 11
90.581442317761571
 21
112.32828392555382
 31
0.0
 11
88.175802018927783
 21
112.26833004644708
 31
0.0
 11
86.667303892350702
 21
112.15949714011019
 31
0.0
 11
85.163621433127574
 21
111.99726546808398
 31
0.0
 11
82.318316323434871
 21
111.53820119611127
 31
0.0
 11
79.518884652381715
 21
110.8549631849604
 31
0.0
  0
SPLINE
  5
1E4
100
AcDbEntity
  8
1
  6
CONTINUOUS
 62
             3
100
AcDbSpline
210
0.0
220
0.0
230
1.0
 70
             0
 71
             3
 72
            18
 73
            14
 74
            23
 42
0.00000000001
 43
0.00000000001
 44
0.00000000001
 40
0.0
 40
0.0
 40
0.0
 40
0.0
 40
3.7910034251621969
 40
6.6750575547669779
 40
9.7917965100896023
 40
12.360436242243701
 40
15.07634983061787
 40
17.469061419096469
 40
20.83784419011652
 40
23.49510461756698
 40
27.064308922205988
 40
33.953927121516138
 40
38.281425444804682
 40
38.281425444804682
 40
38.281425444804682
 40
38.281425444804682
 10
115.47828617147231
 20
103.604960537531
 30
0.0
 10
114.2243768162667
 20
103.7587332232542
 30
0.0
 10
112.0178591347525
 20
104.060852065028
 30
0.0
 10
108.7475953364367
 20
104.1494745408862
 30
0.0
 10
105.8990167330839
 20
103.8939657100228
 30
0.0
 10
103.12183657128701
 20
103.5261484272521
 30
0.0
 10
100.6191620392639
 20
102.9708473021457
 30
0.0
 10
97.922106162111206
 20
102.1214676588083
 30
0.0
 10
95.321803466738487
 20
101.0457661514349
 30
0.0
 10
92.536310618061307
 20
99.462391221934439
 30
0.0
 10
88.949773151918635
 20
96.957896984990853
 30
0.0
 10
85.458337181678687
 20
93.342192257331291
 30
0.0
 10
83.771110378307355
 20
89.966966244604833
 30
0.0
 10
83.255174429275797
 20
88.618379986074203
 30
0.0
 11
115.47828617147231
 21
103.604960537531
 31
0.0
 11
113.59697040891724
 21
103.83700641146888
 31
0.0
 11
111.71069663505695
 21
104.02393919514913
 31
0.0
 11
110.26987111971943
 21
104.09584016005947
 31
0.0
 11
108.82748136938406
 21
104.09349459953593
 31
0.0
 11
107.27159390496904
 21
104.00617063687903
 31
0.0
 11
105.71997584550024
 21
103.85376321931467
 31
0.0
 11
104.44515970000322
 21
103.6948014130132
 31
0.0
 11
103.17623935282569
 21
103.4969513228838
 31
0.0
 11
101.84403832357724
 21
103.23212541588752
 31
0.0
 11
100.52512130336588
 21
102.90723977700672
 31
0.0
 11
99.376738329184747
 21
102.57153509961707
 31
0.0
 11
98.241857003419312
 21
102.19185674517647
 31
0.0
 11
96.669466173301331
 21
101.58496005759261
 31
0.0
 11
95.13700971723928
 21
100.88471456170082
 31
0.0
 11
93.963257279117713
 21
100.26148435677487
 31
0.0
 11
92.82015961773746
 21
99.583469544138737
 31
0.0
 11
91.331694376303702
 21
98.599434858063745
 31
0.0
 11
89.903183025868145
 21
97.526659652402856
 31
0.0
 11
87.360090501761618
 21
95.182543348115686
 31
0.0
 11
85.216051005763575
 21
92.477141620117521
 31
0.0
 11
84.131331821476323
 21
90.600468347110649
 31
0.0
 11
83.255174429275797
 21
88.618379986074203
 31
0.0
  0
SPLINE
  5
1E3
100
AcDbEntity
  8
1
  6
CONTINUOUS
 62
             3
100
AcDbSpline
210
0.0
220
0.0
230
1.0
 70
             0
 71
             3
 72
            24
 73
            20
 74
            35
 42
0.00000000001
 43
0.00000000001
 44
0.00000000001
 40
0.0
 40
0.0
 40
0.0
 40
0.0
 40
2.4644354346243089
 40
3.828080162115616
 40
4.9194500457353829
 40
6.1709966486954748
 40
8.284130391211999
 40
10.67535712648972
 40
12.39329028256425
 40
13.95449158520857
 40
16.15176126610649
 40
18.33601305483031
 40
19.75017647401372
 40
22.13235436862335
 40
23.830804187385809
 40
26.295872125967499
 40
28.677782563478321
 40
30.351033437771839
 40
31.105411279078609
 40
31.105411279078609
 40
31.105411279078609
 40
31.105411279078609
 10
95.939872681912874
 20
86.302850242501464
 30
0.0
 10
96.655832188394072
 20
86.703548992939673
 30
0.0
 10
97.69373487988986
 20
87.46310632891992
 30
0.0
 10
99.18727632452115
 20
88.144049250767026
 30
0.0
 10
100.26389882694571
 20
88.760772267536211
 30
0.0
 10
101.69887987909109
 20
89.17155953848399
 30
0.0
 10
103.5346849844784
 20
89.730622740030398
 30
0.0
 10
105.5967177372884
 20
90.008759888024755
 30
0.0
 10
107.476603751124
 20
90.210950610352242
 30
0.0
 10
109.30550910425229
 20
90.205132332339559
 30
0.0
 10
111.2796204716409
 20
90.061178165481593
 30
0.0
 10
113.2090653788367
 20
89.867445547755707
 30
0.0
 10
115.13321043619371
 20
89.334989776987342
 30
0.0
 10
116.9039719966479
 20
88.864666784377292
 30
0.0
 10
118.9564924698951
 20
88.121692117841178
 30
0.0
 10
121.0080897202279
 20
87.374394468981663
 30
0.0
 10
122.95944128580931
 20
86.408703051082085
 30
0.0
 10
124.3323705750207
 20
85.573165078038741
 30
0.0
 10
124.9722539906379
 20
85.077513946132669
 30
0.0
 10
125.1691083884353
 20
84.920870735991471
 30
0.0
 11
95.939872681912874
 21
86.302850242501464
 31
0.0
 11
96.990388862236699
 21
86.947179403066343
 31
0.0
 11
98.043706991617213
 21
87.586331137858423
 31
0.0
 11
98.649664408717797
 21
87.897611549132847
 31
0.0
 11
99.259989566422533
 21
88.202921472716199
 31
0.0
 11
99.743077134582464
 21
88.458717506919257
 31
0.0
 11
100.2334206554391
 21
88.696399068771086
 31
0.0
 11
100.81932843716812
 21
88.913156241011961
 31
0.0
 11
101.41998601776817
 21
89.094433665635407
 31
0.0
 11
102.43606689582631
 21
89.390066449143646
 31
0.0
 11
103.45833286645093
 21
89.651637702077366
 31
0.0
 11
104.63318409475127
 21
89.868631913342398
 31
0.0
 11
105.8200300402612
 21
90.026273203231241
 31
0.0
 11
106.67453497352693
 21
90.119710632411184
 31
0.0
 11
107.53075416650508
 21
90.183490545235145
 31
0.0
 11
108.31109900540314
 21
90.20300691927514
 31
0.0
 11
109.09193841302931
 21
90.190788201114614
 31
0.0
 11
110.18889418471596
 21
90.135714855559257
 31
0.0
 11
111.28473922198465
 21
90.050721563978968
 31
0.0
 11
112.37294050269416
 21
89.940755470660733
 31
0.0
 11
113.45061413254369
 21
89.767981845592118
 31
0.0
 11
114.13855668791103
 21
89.606391889239021
 31
0.0
 11
114.82204910131502
 21
89.422982856337839
 31
0.0
 11
115.97137170473582
 21
89.107785067644926
 31
0.0
 11
117.11222122195279
 21
88.767328084816697
 31
0.0
 11
117.91645704625037
 21
88.495359654301993
 31
0.0
 11
118.71601673595211
 21
88.208246931376976
 31
0.0
 11
119.8729363286495
 21
87.781619508498423
 31
0.0
 11
121.01639845960986
 21
87.322355365051635
 31
0.0
 11
122.09776297176161
 21
86.823466344549061
 31
0.0
 11
123.15219551321019
 21
86.267903716964796
 31
0.0
 11
123.87385725807648
 21
85.842962356346462
 31
0.0
 11
124.56944238830621
 21
85.378420842844449
 31
0.0
 11
124.8719436950047
 21
85.153305157092149
 31
0.0
 11
125.1691083884353
 21
84.920870735991471
 31
0.0
  0
SPLINE
  5
1E2
100
AcDbEntity
  8
1
  6
CONTINUOUS
 62
             3
100
AcDbSpline
210
0.0
220
0.0
230
1.0
 70
             0
 71
             3
 72
            11
 73
             7
 74
             9
 42
0.00000000001
 43
0.00000000001
 44
0.00000000001
 40
0.0
 40
0.0
 40
0.0
 40
0.0
 40
3.7910034251621969
 40
6.6750575547669779
 40
9.7917965100896023
 40
10.404214996953
 40
10.404214996953
 40
10.404214996953
 40
10.404214996953
 10
132.23032598101619
 20
70.970465624661287
 30
0.0
 10
131.5687506124606
 20
72.046687136089133
 30
0.0
 10
130.42921536240789
 20
73.960180142944452
 30
0.0
 10
128.45952707651489
 20
76.572230546405365
 30
0.0
 10
126.9347417024123
 20
78.167996294137382
 30
0.0
 10
126.0510316945535
 20
79.043013711362718
 30
0.0
 10
125.9050849037052
 20
79.185841144893899
 30
0.0
 11
132.23032598101619
 21
70.970465624661287
 31
0.0
 11
131.23876555864973
 21
72.586015752276907
 31
0.0
 11
130.20884303256017
 21
74.177314657518409
 31
0.0
 11
129.36671745550498
 21
75.348626924539133
 31
0.0
 11
128.46556832283198
 21
76.474870208296807
 31
0.0
 11
127.42721573277967
 21
77.636866411004974
 31
0.0
 11
126.34064077913638
 21
78.754945788111399
 31
0.0
 11
126.12341199703589
 21
78.970971460050734
 31
0.0
 11
125.9050849037052
 21
79.185841144893899
 31
0.0
  0
SPLINE
  5
1E1
100
AcDbEntity
  8
1
  6
CONTINUOUS
 62
             3
100
AcDbSpline
210
0.0
220
0.0
230
1.0
 70
             0
 71
             3
 72
            18
 73
            14
 74
            23
 42
0.00000000001
 43
0.00000000001
 44
0.00000000001
 40
0.0
 40
0.0
 40
0.0
 40
0.0
 40
1.8250310986755791
 40
2.6799415379678728
 40
3.3849697094060471
 40
4.1627659909611214
 40
5.3229379573396276
 40
7.1504159499624986
 40
9.7259340333885049
 40
12.19874590560358
 40
17.00953247012189
 40
20.03388494414229
 40
25.797578622927752
 40
25.797578622927752
 40
25.797578622927752
 40
25.797578622927752
 10
125.49095370330809
 20
46.496576076116384
 30
0.0
 10
125.8394979071076
 20
46.99568306357093
 30
0.0
 10
126.30884429814211
 20
47.756201270519462
 30
0.0
 10
126.8697363573423
 20
48.735265971651742
 30
0.0
 10
127.24643984988801
 20
49.417504434099627
 30
0.0
 10
127.6505640958233
 20
50.200347684116132
 30
0.0
 10
128.22969252378809
 20
51.314279547984739
 30
0.0
 10
128.97307529063229
 20
53.014272520100377
 30
0.0
 10
129.8316695045161
 20
55.140164771043082
 30
0.0
 10
130.85885670401339
 20
58.264049884610301
 30
0.0
 10
131.63860926901091
 20
61.619751819458408
 30
0.0
 10
132.24451816357521
 20
66.114805088445181
 30
0.0
 10
132.34437401141059
 20
69.051278918206364
 30
0.0
 10
132.23032598101619
 20
70.970465624661287
 30
0.0
 11
125.49095370330809
 21
46.496576076116384
 31
0.0
 11
125.99422908812454
 21
47.257836442634797
 31
0.0
 11
126.46702165734484
 21
48.03828612434264
 31
0.0
 11
126.68149436808916
 21
48.408046014902631
 31
0.0
 11
126.8924353064467
 21
48.779835236922509
 31
0.0
 11
127.06377443669903
 21
49.087923708544864
 31
0.0
 11
127.23195295104861
 21
49.397728829320393
 31
0.0
 11
127.41332031212943
 21
49.741728310394244
 31
0.0
 11
127.59237738207638
 21
50.086975726389113
 31
0.0
 11
127.85834911079901
 21
50.602567312977285
 31
0.0
 11
128.11797112540455
 21
51.121263021363475
 31
0.0
 11
128.50317152466144
 21
51.949729384686009
 31
0.0
 11
128.8664778899313
 21
52.78842031357631
 31
0.0
 11
129.357034431291
 21
53.979393278889802
 31
0.0
 11
129.81731509961691
 21
55.181995463583483
 31
0.0
 11
130.22269368141909
 21
56.350055399114247
 31
0.0
 11
130.59131036721686
 21
57.53055457101506
 31
0.0
 11
131.20505683041725
 21
59.857424669400373
 31
0.0
 11
131.68191144640917
 21
62.216091536551893
 31
0.0
 11
131.91147962032909
 21
63.7109860655776
 31
0.0
 11
132.0879162603056
 21
65.213068009300059
 31
0.0
 11
132.27350163861669
 21
68.089186789948727
 31
0.0
 11
132.23032598101619
 21
70.970465624661287
 31
0.0
  0
SPLINE
  5
1E0
100
AcDbEntity
  8
1
  6
CONTINUOUS
 62
             3
100
AcDbSpline
210
0.0
220
0.0
230
1.0
 70
             0
 71
             3
 72
             9
 73
             5
 74
             5
 42
0.00000000001
 43
0.00000000001
 44
0.00000000001
 40
0.0
 40
0.0
 40
0.0
 40
0.0
 40
2.4644354346243089
 40
3.5379655872544769
 40
3.5379655872544769
 40
3.5379655872544769
 40
3.5379655872544769
 10
106.5209898841011
 20
75.458523089330697
 30
0.0
 10
107.2806622330055
 20
75.148594991489105
 30
0.0
 10
108.4275819452895
 20
74.836313453791405
 30
0.0
 10
109.48731494871529
 20
74.318702162853668
 30
0.0
 10
109.81221792476239
 20
74.167860269793309
 30
0.0
 11
106.5209898841011
 21
75.458523089330697
 31
0.0
 11
107.6797328320107
 21
75.038929127335635
 31
0.0
 11
108.83617489211565
 21
74.613916441186092
 31
0.0
 11
109.32595167897776
 21
74.395646047044437
 31
0.0
 11
109.81221792476239
 21
74.167860269793309
 31
0.0
  0
SPLINE
  5
1DF
100
AcDbEntity
  8
1
  6
CONTINUOUS
 62
             3
100
AcDbSpline
210
0.0
220
0.0
230
1.0
 70
             0
 71
             3
 72
            18
 73
            14
 74
            23
 42
0.00000000001
 43
0.00000000001
 44
0.00000000001
 40
0.0
 40
0.0
 40
0.0
 40
0.0
 40
3.7910034251621969
 40
6.6750575547669779
 40
9.7917965100896023
 40
12.360436242243701
 40
15.07634983061787
 40
17.469061419096469
 40
20.83784419011652
 40
23.49510461756698
 40
27.064308922205988
 40
33.953927121516138
 40
34.514417178034712
 40
34.514417178034712
 40
34.514417178034712
 40
34.514417178034712
 10
117.16037642443941
 20
37.525918739392132
 30
0.0
 10
117.589314788758
 20
38.714172327459949
 30
0.0
 10
118.3748552557865
 20
40.798140237016213
 30
0.0
 10
119.1889579359881
 20
43.966691338054169
 30
0.0
 10
119.5737236163781
 20
46.800706192164107
 30
0.0
 10
119.83310900432789
 20
49.590103694332448
 30
0.0
 10
119.8486279121795
 20
52.153597075693952
 30
0.0
 10
119.62069538270789
 20
54.972036882573917
 30
0.0
 10
119.1505857424736
 20
57.746510664516308
 30
0.0
 10
118.2267397986252
 20
60.81449946003697
 30
0.0
 10
116.58311812796811
 20
64.86841734063934
 30
0.0
 10
114.53510723980671
 20
68.004723454655263
 30
0.0
 10
112.7841518461167
 20
69.773755393745901
 30
0.0
 10
112.6504547762011
 20
69.904849213627074
 30
0.0
 11
117.16037642443941
 21
37.525918739392132
 31
0.0
 11
117.80523656448764
 21
39.308430923311519
 31
0.0
 11
118.40721795494605
 21
41.105815417823493
 31
0.0
 11
118.79793005195987
 21
42.49451695942647
 31
0.0
 11
119.11660521397903
 21
43.901264923575752
 31
0.0
 11
119.37768817717146
 21
45.43757445056152
 31
0.0
 11
119.57436943157786
 21
46.984204046671202
 31
0.0
 11
119.70306640902569
 21
48.262430219411456
 31
0.0
 11
119.7925381745647
 21
49.543561871044972
 31
0.0
 11
119.83079462327912
 21
50.901291147255655
 31
0.0
 11
119.80754119288375
 21
52.259434019905491
 31
0.0
 11
119.73579258466067
 21
53.453725953658818
 31
0.0
 11
119.61816841186345
 21
54.644639817200236
 31
0.0
 11
119.37637776747205
 21
56.312654744088945
 31
0.0
 11
119.0346925300797
 21
57.96250859906862
 31
0.0
 11
118.68827249641106
 21
59.245514380272162
 31
0.0
 11
118.28162008997641
 21
60.510824686066037
 31
0.0
 11
117.65347188373572
 21
62.180939313674315
 31
0.0
 11
116.92546707218779
 21
63.812349842807436
 31
0.0
 11
115.2060139814885
 21
66.813296677237588
 31
0.0
 11
113.04553599442141
 21
69.505589146055343
 31
0.0
 11
112.84951099402797
 21
69.706713098462558
 31
0.0
 11
112.6504547762011
 21
69.904849213627074
 31
0.0
  0
SPLINE
  5
1DE
100
AcDbEntity
  8
1
  6
CONTINUOUS
 62
             3
100
AcDbSpline
210
0.0
220
0.0
230
1.0
 70
             0
 71
             3
 72
            18
 73
            14
 74
            23
 42
0.00000000001
 43
0.00000000001
 44
0.00000000001
 40
0.0
 40
0.0
 40
0.0
 40
0.0
 40
1.8250310986755791
 40
2.6799415379678728
 40
3.3849697094060471
 40
4.1627659909611214
 40
5.3229379573396276
 40
7.1504159499624986
 40
9.7259340333885049
 40
12.19874590560358
 40
17.00953247012189
 40
20.03388494414229
 40
25.797578622927752
 40
25.797578622927752
 40
25.797578622927752
 40
25.797578622927752
 10
93.823989190612636
 20
27.535751613423621
 30
0.0
 10
94.431520503091207
 20
27.574436898561199
 30
0.0
 10
95.318750268625479
 20
27.68166246000602
 30
0.0
 10
96.433924354204137
 20
27.853576246343881
 30
0.0
 10
97.202190648625461
 20
27.984426320069041
 30
0.0
 10
98.06620949335543
 20
28.156564044585561
 30
0.0
 10
99.298197162659761
 20
28.398308364267749
 30
0.0
 10
101.0907967622513
 20
28.877036594925841
 30
0.0
 10
103.2882109886811
 20
29.531232746105701
 30
0.0
 10
106.37100346159529
 20
30.67585596556064
 30
0.0
 10
109.4807646523237
 20
32.158466796088099
 30
0.0
 10
113.37291683006541
 20
34.487368018737591
 30
0.0
 10
115.7310036204409
 20
36.240159059413443
 30
0.0
 10
117.16037642443941
 20
37.525918739392132
 30
0.0
 11
93.823989190612636
 21
27.535751613423621
 31
0.0
 11
94.732953581473424
 21
27.61691314828423
 31
0.0
 11
95.637915058421413
 21
27.733871450376839
 31
0.0
 11
96.060726529743093
 21
27.796731453876379
 31
0.0
 11
96.482922572222719
 21
27.863617975686697
 31
0.0
 11
96.830624039095426
 21
27.921749669594803
 31
0.0
 11
97.177697024537537
 21
27.983422745760112
 31
0.0
 11
97.559727348819493
 21
28.056104201259632
 31
0.0
 11
97.941292904949648
 21
28.131369989797939
 31
0.0
 11
98.510229299883918
 21
28.244891014983899
 31
0.0
 11
99.077633612968597
 21
28.365311834856179
 31
0.0
 11
99.965523218593731
 21
28.580690364350517
 31
0.0
 11
100.8477560045627
 21
28.819561251254175
 31
0.0
 11
102.08475316439502
 21
29.178588201420354
 31
0.0
 11
103.31196571597702
 21
29.568536481970831
 31
0.0
 11
104.47794115864025
 21
29.979872202133727
 31
0.0
 11
105.63072132066048
 21
30.427705266967955
 31
0.0
 11
107.83260627994763
 21
31.398638736322649
 31
0.0
 11
109.97400028340866
 21
32.496423522577388
 31
0.0
 11
111.2858893044599
 21
33.24899139050315
 31
0.0
 11
112.570270703029
 21
34.047580444143492
 31
0.0
 11
114.93462150385017
 21
35.695714681303841
 31
0.0
 11
117.16037642443941
 21
37.525918739392132
 31
0.0
  0
SPLINE
  5
1DD
100
AcDbEntity
  8
1
  6
CONTINUOUS
 62
             3
100
AcDbSpline
210
0.0
220
0.0
230
1.0
 70
             0
 71
             3
 72
            33
 73
            29
 74
            53
 42
0.00000000001
 43
0.00000000001
 44
0.00000000001
 40
0.0
 40
0.0
 40
0.0
 40
0.0
 40
2.4644354346243089
 40
3.828080162115616
 40
4.9194500457353829
 40
6.1709966486954748
 40
8.284130391211999
 40
10.67535712648972
 40
12.39329028256425
 40
13.95449158520857
 40
16.15176126610649
 40
18.33601305483031
 40
19.75017647401372
 40
22.13235436862335
 40
23.830804187385809
 40
26.295872125967499
 40
28.677782563478321
 40
30.351033437771839
 40
31.409701128593479
 40
32.305785352391318
 40
33.183589305344498
 40
34.378254737910169
 40
35.367308742818572
 40
35.757394776344249
 40
36.113776025144531
 40
36.579347452821722
 40
37.016114655673533
 40
37.759872923884913
 40
37.759872923884913
 40
37.759872923884913
 40
37.759872923884913
 10
104.63977217702831
 20
60.424545153001553
 30
0.0
 10
104.8711085951126
 20
59.637372385947657
 30
0.0
 10
105.3806671665353
 20
58.456474674058562
 30
0.0
 10
105.71219319040389
 20
56.848855376731343
 30
0.0
 10
106.07388262872119
 20
55.661992266532081
 30
0.0
 10
106.1550572811298
 20
54.171580418150491
 30
0.0
 10
106.2915985342825
 20
52.257399513827288
 30
0.0
 10
106.10391674917101
 20
50.185174889349412
 30
0.0
 10
105.8827241363268
 20
48.30742987438235
 30
0.0
 10
105.47008200730831
 20
46.525673685555951
 30
0.0
 10
104.8904559666626
 20
44.633090227419082
 30
0.0
 10
104.27223874728389
 20
42.795130095441877
 30
0.0
 10
103.3249701990413
 20
41.03770992738616
 30
0.0
 10
102.4724076694782
 20
39.416001767899509
 30
0.0
 10
101.2913321562655
 20
37.580269684969423
 30
0.0
 10
100.10624748334681
 20
35.746399631891052
 30
0.0
 10
98.730551392547056
 20
34.058859080419012
 30
0.0
 10
97.539590452571346
 20
32.833355119743899
 30
0.0
 10
96.593352292511284
 20
32.078656642248973
 30
0.0
 10
95.848553272181377
 20
31.497992183868231
 30
0.0
 10
95.014886836334057
 20
30.96144037628795
 30
0.0
 10
94.148665060557022
 20
30.431820531217991
 30
0.0
 10
93.453157918194123
 20
29.901232265956668
 30
0.0
 10
93.149559302852651
 20
29.397861841192711
 30
0.0
 10
93.097275582415605
 20
28.978372871335988
 30
0.0
 10
93.289941302751217
 20
28.59297990930358
 30
0.0
 10
93.462655579361311
 20
28.072473563604689
 30
0.0
 10
93.713250260851353
 20
27.756216180927421
 30
0.0
 10
93.823989190612636
 20
27.535751613423621
 30
0.0
 11
104.63977217702831
 21
60.424545153001553
 31
0.0
 11
105.03418481865717
 21
59.256990880002029
 31
0.0
 11
105.42292635106391
 21
58.087856994277004
 31
0.0
 11
105.5915641021066
 21
57.427825786904862
 31
0.0
 11
105.75340914433154
 21
56.76486490580195
 31
0.0
 11
105.89529474102584
 21
56.236969379134415
 31
0.0
 11
106.01790543163956
 21
55.706030670959962
 31
0.0
 11
106.09885130218944
 21
55.086579812174826
 31
0.0
 11
106.14192483744898
 21
54.460643949349603
 31
0.0
 11
106.20404622383366
 21
53.40425385719908
 31
0.0
 11
106.23158376075527
 21
52.349413149263299
 31
0.0
 11
106.18170848145911
 21
51.15573213958092
 31
0.0
 11
106.0712993067676
 21
49.963564412792863
 31
0.0
 11
105.97224882865406
 21
49.109691918252345
 31
0.0
 11
105.84390295136727
 21
48.26074756230927
 31
0.0
 11
105.6892869467659
 21
47.495624795969157
 31
0.0
 11
105.50362146308774
 21
46.737081583128791
 31
0.0
 11
105.20583329841119
 21
45.679883755186481
 31
0.0
 11
104.87912250488417
 21
44.630426627566287
 31
0.0
 11
104.5297659257469
 21
43.593978582736796
 31
0.0
 11
104.1215191535141
 21
42.581770229207748
 31
0.0
 11
103.81089897477695
 21
41.947032978023387
 31
0.0
 11
103.47999701904143
 21
41.321489495744785
 31
0.0
 11
102.91695355780419
 21
40.271120915917052
 31
0.0
 11
102.33116964222152
 21
39.234633683803118
 31
0.0
 11
101.88706072130073
 21
38.511080399905964
 31
0.0
 11
101.42922774483672
 21
37.795455932239356
 31
0.0
 11
100.75585793383939
 21
36.762476261792678
 31
0.0
 11
100.05366423995328
 21
35.749878999963904
 31
0.0
 11
99.326657167545804
 21
34.806639804643183
 31
0.0
 11
98.550390340986525
 21
33.902268403272004
 31
0.0
 11
97.975518301980628
 21
33.293258573518024
 31
0.0
 11
97.367841561246735
 21
32.71848342623472
 31
0.0
 11
96.96353845432094
 21
32.377011110487373
 31
0.0
 11
96.54972839164617
 21
32.046569651025628
 31
0.0
 11
96.196052916094501
 21
31.771313647886643
 31
0.0
 11
95.835648475580157
 21
31.505222433788219
 31
0.0
 11
95.472576467363311
 21
31.258376945754957
 31
0.0
 11
95.103088984356631
 21
31.021594093386295
 31
0.0
 11
94.598371741812102
 21
30.704211713479786
 31
0.0
 11
94.098798606549536
 21
30.374580698771489
 31
0.0
 11
93.701363482222973
 21
30.074300023942545
 31
0.0
 11
93.358893243497192
 21
29.718251605746943
 31
0.0
 11
93.250693749444892
 21
29.555211346361961
 31
0.0
 11
93.170529664128239
 21
29.376657877000337
 31
0.0
 11
93.131638207335797
 21
29.20075896194777
 31
0.0
 11
93.132302697176968
 21
29.022332753005266
 31
0.0
 11
93.192478305786523
 21
28.798997532150256
 31
0.0
 11
93.282785876188186
 21
28.581751810267178
 31
0.0
 11
93.362600455107767
 21
28.377419804997309
 31
0.0
 11
93.447792143752665
 21
28.1773528474206
 31
0.0
 11
93.634705202032123
 21
27.856018734646057
 31
0.0
 11
93.823989190612636
 21
27.535751613423621
 31
0.0
  0
SPLINE
  5
1DC
100
AcDbEntity
  8
1
  6
CONTINUOUS
 62
             3
100
AcDbSpline
210
0.0
220
0.0
230
1.0
 70
             0
 71
             3
 72
            18
 73
            14
 74
            23
 42
0.00000000001
 43
0.00000000001
 44
0.00000000001
 40
0.0
 40
0.0
 40
0.0
 40
0.0
 40
1.8250310986755791
 40
2.6799415379678728
 40
3.3849697094060471
 40
4.1627659909611214
 40
5.3229379573396276
 40
7.1504159499624986
 40
9.7259340333885049
 40
12.19874590560358
 40
17.00953247012189
 40
20.03388494414229
 40
24.692582939604229
 40
24.692582939604229
 40
24.692582939604229
 40
24.692582939604229
 10
59.25579026296333
 20
40.472100737185919
 30
0.0
 10
59.664825214420482
 20
40.021233511260327
 30
0.0
 10
60.301836244783473
 20
39.394423392426681
 30
0.0
 10
61.131543524849043
 20
38.629731676448223
 30
0.0
 10
61.712852431641949
 20
38.110660587076218
 30
0.0
 10
62.386142062278978
 20
37.542469568555667
 30
0.0
 10
63.343277129919088
 20
36.729987940635837
 30
0.0
 10
64.83522950132901
 20
35.626959307855593
 30
0.0
 10
66.716766008636156
 20
34.316836314239197
 30
0.0
 10
69.533758145236192
 20
32.620273009229528
 30
0.0
 10
72.631814357388961
 20
31.113356540241551
 30
0.0
 10
76.534200122151745
 20
29.6516717624393
 30
0.0
 10
79.00713047752437
 20
28.964805166872111
 30
0.0
 10
80.529413879238717
 20
28.6564809582121
 30
0.0
 11
59.25579026296333
 21
40.472100737185919
 31
0.0
 11
59.885974934020041
 21
39.812047149241899
 31
0.0
 11
60.541650868668015
 21
39.177442084724298
 31
0.0
 11
60.854415438862681
 21
38.886067336415252
 31
0.0
 11
61.169944354230879
 21
38.597684242853823
 31
0.0
 11
61.432181861338258
 21
38.362084807862367
 31
0.0
 11
61.696796280823285
 21
38.12918475516134
 31
0.0
 11
61.991812942109028
 21
37.875817566661233
 31
0.0
 11
62.288560338122657
 21
37.624425053828489
 31
0.0
 11
62.732040689673205
 21
37.250391870235944
 31
0.0
 11
63.179960280523204
 21
36.88185846808868
 31
0.0
 11
63.901940109799135
 21
36.321964738115739
 31
0.0
 11
64.638760034329408
 21
35.781140933106776
 31
0.0
 11
65.690713721089168
 21
35.037867251821368
 31
0.0
 11
66.760742073964252
 21
34.321522619463671
 31
0.0
 11
67.809311087553041
 21
33.666389937240552
 31
0.0
 11
68.878187751319729
 21
33.044329463040938
 31
0.0
 11
71.010146921997119
 21
31.928193597469697
 31
0.0
 11
73.203566951760465
 21
30.938441968006337
 31
0.0
 11
74.609897629380654
 21
30.381984220667952
 31
0.0
 11
76.035058396763205
 21
29.875726538555984
 31
0.0
 11
78.263599199791642
 21
29.196313090849635
 31
0.0
 11
80.529413879238717
 21
28.6564809582121
 31
0.0
  0
SPLINE
  5
1DB
100
AcDbEntity
  8
1
  6
CONTINUOUS
 62
             3
100
AcDbSpline
210
0.0
220
0.0
230
1.0
 70
             0
 71
             3
 72
            14
 73
            10
 74
            15
 42
0.00000000001
 43
0.00000000001
 44
0.00000000001
 40
0.0
 40
0.0
 40
0.0
 40
0.0
 40
2.4644354346243089
 40
3.828080162115616
 40
4.9194500457353829
 40
6.1709966486954748
 40
8.284130391211999
 40
10.67535712648972
 40
10.87379971190756
 40
10.87379971190756
 40
10.87379971190756
 40
10.87379971190756
 10
91.712814864044134
 20
52.521808457418501
 30
0.0
 10
91.24161431007856
 20
51.850148170172872
 30
0.0
 10
90.636055874052772
 20
50.715481556486573
 30
0.0
 10
89.585871590478547
 20
49.453949836639062
 30
0.0
 10
88.883454321749866
 20
48.431172601493337
 30
0.0
 10
87.768814984764333
 20
47.438451114654342
 30
0.0
 10
86.35738016946587
 20
46.138226591560127
 30
0.0
 10
85.044445418395711
 20
45.272628640138713
 30
0.0
 10
84.314857606811628
 20
44.809175705954857
 30
0.0
 10
84.25889093406434
 20
44.773774977007818
 30
0.0
 11
91.712814864044134
 21
52.521808457418501
 31
0.0
 11
91.045896435678031
 21
51.485486054795466
 31
0.0
 11
90.374207137586467
 21
50.452612631476342
 31
0.0
 11
89.963317878220849
 21
49.909243601883418
 31
0.0
 11
89.545902923024428
 21
49.369358704201979
 31
0.0
 11
89.22164180338001
 21
48.92929060048187
 31
0.0
 11
88.882983721254163
 21
48.502394832522818
 31
0.0
 11
88.449146462793578
 21
48.052887509356935
 31
0.0
 11
87.986626009185059
 21
47.628946636352183
 31
0.0
 11
87.199439028245038
 21
46.92172973152104
 31
0.0
 11
86.391900727213681
 21
46.242517594242784
 31
0.0
 11
85.427546605795882
 21
45.537263721608518
 31
0.0
 11
84.426633350142495
 21
44.880280670603369
 31
0.0
 11
84.342798959600429
 21
44.826956381479135
 31
0.0
 11
84.25889093406434
 21
44.773774977007818
 31
0.0
  0
SPLINE
  5
1DA
100
AcDbEntity
  8
1
  6
CONTINUOUS
 62
             3
100
AcDbSpline
210
0.0
220
0.0
230
1.0
 70
             0
 71
             3
 72
            17
 73
            13
 74
            21
 42
0.00000000001
 43
0.00000000001
 44
0.00000000001
 40
0.0
 40
0.0
 40
0.0
 40
0.0
 40
3.7910034251621969
 40
6.6750575547669779
 40
9.7917965100896023
 40
12.360436242243701
 40
15.07634983061787
 40
17.469061419096469
 40
20.83784419011652
 40
23.49510461756698
 40
27.064308922205988
 40
28.128633176794661
 40
28.128633176794661
 40
28.128633176794661
 40
28.128633176794661
 10
52.363773871766433
 20
50.589972100056251
 30
0.0
 10
53.426787696052259
 20
49.907376817830048
 30
0.0
 10
55.283706980723437
 20
48.677805004714934
 30
0.0
 10
58.191661001489209
 20
47.179044627966221
 30
0.0
 10
60.869002767694923
 20
46.173298194188838
 30
0.0
 10
63.530745571904752
 20
45.299716801972828
 30
0.0
 10
66.026513540189157
 20
44.714156044006998
 30
0.0
 10
68.825008936037449
 20
44.309211970816882
 30
0.0
 10
71.634530103868926
 20
44.150156483530097
 30
0.0
 10
74.831173077150339
 20
44.368147948438391
 30
0.0
 10
77.231413887971783
 20
44.757438404854291
 30
0.0
 10
78.735544798535827
 20
45.137183385910433
 30
0.0
 10
79.079271225581579
 20
45.231687335504837
 30
0.0
 11
52.363773871766433
 21
50.589972100056251
 31
0.0
 11
53.958099872987468
 21
49.56463367403672
 31
0.0
 11
55.576466724330757
 21
48.577789537387062
 31
0.0
 11
56.843408998158942
 21
47.887858244293625
 31
0.0
 11
58.143974959100532
 21
47.26414206303312
 31
0.0
 11
59.583669573870587
 21
46.667743963958934
 31
0.0
 11
61.047756240475849
 21
46.131836456951405
 31
0.0
 11
62.265296842722428
 21
45.721934099597554
 31
0.0
 11
63.494398508230674
 21
45.349626966317487
 31
0.0
 11
64.809573816080245
 21
45.010206499977251
 31
0.0
 11
66.138839586392692
 21
44.7306616977896
 31
0.0
 11
67.319153695204477
 21
44.534856462032444
 31
0.0
 11
68.506382702554461
 21
44.384528286003615
 31
0.0
 11
70.186380492719351
 21
44.249088494656469
 31
0.0
 11
71.870901185101772
 21
44.215079948984695
 31
0.0
 11
73.198825042123346
 21
44.267318864376229
 31
0.0
 11
74.522900050094108
 21
44.382217614909635
 31
0.0
 11
76.290917542620107
 21
44.622981367323092
 31
0.0
 11
78.043421514307127
 21
44.969710583607835
 31
0.0
 11
78.562432780981382
 21
45.095351911667152
 31
0.0
 11
79.079271225581579
 21
45.231687335504837
 31
0.0
  0
SPLINE
  5
1D9
100
AcDbEntity
  8
1
  6
CONTINUOUS
 62
             3
100
AcDbSpline
210
0.0
220
0.0
230
1.0
 70
             0
 71
             3
 72
            18
 73
            14
 74
            23
 42
0.00000000001
 43
0.00000000001
 44
0.00000000001
 40
0.0
 40
0.0
 40
0.0
 40
0.0
 40
1.8250310986755791
 40
2.6799415379678728
 40
3.3849697094060471
 40
4.1627659909611214
 40
5.3229379573396276
 40
7.1504159499624986
 40
9.7259340333885049
 40
12.19874590560358
 40
17.00953247012189
 40
20.03388494414229
 40
25.797578622927752
 40
25.797578622927752
 40
25.797578622927752
 40
25.797578622927752
 10
47.816915776980842
 20
75.56428870327484
 30
0.0
 10
47.719442706160692
 20
74.963381183440831
 30
0.0
 10
47.62655270280807
 20
74.074536188431239
 30
0.0
 10
47.546006672495047
 20
72.949067429165979
 30
0.0
 10
47.50262072827941
 20
72.170946294135746
 30
0.0
 10
47.478180320322309
 20
71.290285958529765
 30
0.0
 10
47.439720558332169
 20
70.035393620468611
 30
0.0
 10
47.507555135546568
 20
68.181211182460075
 30
0.0
 10
47.656378557306411
 20
65.893318379929681
 30
0.0
 10
48.0863178224552
 20
62.633115322778487
 30
0.0
 10
48.839769539329481
 20
59.271410390976001
 30
0.0
 10
50.24419500809924
 20
54.958613319212603
 30
0.0
 10
51.428316242797742
 20
52.269615988467237
 30
0.0
 10
52.363773871766433
 20
50.589972100056251
 30
0.0
 11
47.816915776980842
 21
75.56428870327484
 31
0.0
 11
47.69377881747868
 21
74.660053806913112
 31
0.0
 11
47.606431857660034
 21
73.751755932975925
 31
0.0
 11
47.573631426124479
 21
73.325557561307974
 31
0.0
 11
47.544893505479571
 21
72.899063203780941
 31
0.0
 11
47.524196861288765
 21
72.547143819800581
 31
0.0
 11
47.507092659783218
 21
72.195049128221626
 31
0.0
 11
47.492942094869733
 21
71.806423956420957
 31
0.0
 11
47.481414489013439
 21
71.417676831862494
 31
0.0
 11
47.46548904709536
 21
70.8377440556376
 31
0.0
 11
47.456631327889021
 21
70.257769600013589
 31
0.0
 11
47.469035843638061
 21
69.344215009015642
 31
0.0
 11
47.505602475141757
 21
68.430947868081915
 31
0.0
 11
47.580370106713175
 21
67.145073797401551
 31
0.0
 11
47.687461086524465
 21
65.861858371096218
 31
0.0
 11
47.829029816855922
 21
64.633585558497856
 31
0.0
 11
48.009117053400573
 21
63.410055770082188
 31
0.0
 11
48.46574169582302
 21
61.047323641426225
 31
0.0
 11
49.059497731776389
 21
58.715338760523117
 31
0.0
 11
49.501274381744999
 21
57.268879431357441
 31
0.0
 11
49.994039392064984
 21
55.838997373917877
 31
0.0
 11
51.074733914362966
 21
53.167181414215889
 31
0.0
 11
52.363773871766433
 21
50.589972100056251
 31
0.0
  0
SPLINE
  5
1D8
100
AcDbEntity
  8
1
  6
CONTINUOUS
 62
             3
100
AcDbSpline
210
0.0
220
0.0
230
1.0
 70
             0
 71
             3
 72
            33
 73
            29
 74
            53
 42
0.00000000001
 43
0.00000000001
 44
0.00000000001
 40
0.0
 40
0.0
 40
0.0
 40
0.0
 40
2.4644354346243089
 40
3.828080162115616
 40
4.9194500457353829
 40
6.1709966486954748
 40
8.284130391211999
 40
10.67535712648972
 40
12.39329028256425
 40
13.95449158520857
 40
16.15176126610649
 40
18.33601305483031
 40
19.75017647401372
 40
22.13235436862335
 40
23.830804187385809
 40
26.295872125967499
 40
28.677782563478321
 40
30.351033437771839
 40
31.409701128593479
 40
32.305785352391318
 40
33.183589305344498
 40
34.378254737910169
 40
35.367308742818572
 40
35.757394776344249
 40
36.113776025144531
 40
36.579347452821722
 40
37.016114655673533
 40
37.759872923884913
 40
37.759872923884913
 40
37.759872923884913
 40
37.759872923884913
 10
77.474380464202994
 20
57.701234921113418
 30
0.0
 10
76.655466566080364
 20
57.650861009371027
 30
0.0
 10
75.390788976097483
 20
57.416852597018583
 30
0.0
 10
73.749704570510303
 20
57.451367570302892
 30
0.0
 10
72.512115124817484
 20
57.36284832916872
 30
0.0
 10
71.041007953729036
 20
57.615356731329051
 30
0.0
 10
69.144436273978812
 20
57.90818417515176
 30
0.0
 10
67.165929773406233
 20
58.552273744970456
 30
0.0
 10
65.384483733179039
 20
59.185758171750138
 30
0.0
 10
63.739221403970383
 20
59.984532552375953
 30
0.0
 10
62.023067892457753
 20
60.970765596808263
 30
0.0
 10
60.368755531410542
 20
61.982467424996948
 30
0.0
 10
58.866184638269132
 20
63.297048750235057
 30
0.0
 10
57.474849098566168
 20
64.489099771509046
 30
0.0
 10
55.947956677982013
 20
66.049052073398883
 30
0.0
 10
54.423771724235017
 20
67.612498676366997
 30
0.0
 10
53.084662516716477
 20
69.329216293636534
 30
0.0
 10
52.154898239703599
 20
70.763017642280516
 30
0.0
 10
51.629679427889393
 20
71.853467846188607
 30
0.0
 10
51.229306813458038
 20
72.708803197687885
 30
0.0
 10
50.891715713876522
 20
73.640961884798401
 30
0.0
 10
50.568127022679263
 20
74.603317174726953
 30
0.0
 10
50.205606611930612
 20
75.399453497288491
 30
0.0
 10
49.782413782116407
 20
75.807450718551777
 30
0.0
 10
49.385076498860712
 20
75.951768654334501
 30
0.0
 10
48.966473986979508
 20
75.849691467730551
 30
0.0
 10
48.420585279949208
 20
75.797131056833692
 30
0.0
 10
48.056494567565238
 20
75.623193195384701
 30
0.0
 10
47.816915776980842
 20
75.56428870327484
 30
0.0
 11
77.474380464202994
 21
57.701234921113418
 31
0.0
 11
76.248334145083092
 21
57.576516295206901
 31
0.0
 11
75.022009757947174
 21
57.457678088871582
 31
0.0
 11
74.341001481105636
 21
57.44013919907092
 31
0.0
 11
73.658648503481089
 21
57.429874624431136
 31
0.0
 11
73.112415904324635
 21
57.409014201530248
 31
0.0
 11
72.567505492679246
 21
57.407622594163122
 31
0.0
 11
71.945573409512988
 21
57.466546989256393
 31
0.0
 11
71.325746302319288
 21
57.563837230279177
 31
0.0
 11
70.282018806421306
 21
57.738342266728893
 31
0.0
 11
69.247497478924913
 21
57.946219292907827
 31
0.0
 11
68.094842838090088
 21
58.260463107999541
 31
0.0
 11
66.957133597929939
 21
58.633386370221345
 31
0.0
 11
66.146710274470536
 21
58.91995795105386
 31
0.0
 11
65.347610370471244
 21
59.233993820235213
 31
0.0
 11
64.63607612708546
 21
59.55498911138401
 31
0.0
 11
63.937865633140859
 21
59.904791317953197
 31
0.0
 11
62.973438062533361
 21
60.430361959712087
 31
0.0
 11
62.022993007114991
 21
60.98240761176492
 31
0.0
 11
61.090270030986346
 21
61.553636479049317
 31
0.0
 11
60.194283307260228
 21
62.176885200587719
 31
0.0
 11
59.644579736479308
 21
62.620959808903351
 31
0.0
 11
59.108352547583564
 21
63.082761881679097
 31
0.0
 11
58.209607857922038
 21
63.865417665237139
 31
0.0
 11
57.32945670874615
 21
64.667154862013561
 31
0.0
 11
56.722867948215566
 21
65.261134797598672
 31
0.0
 11
56.127063101596477
 21
65.866730370407765
 31
0.0
 11
55.269821267447291
 21
66.753076995438065
 31
0.0
 11
54.438864729718802
 21
67.6629893158306
 31
0.0
 11
53.681048803127403
 21
68.581659269798863
 31
0.0
 11
52.97208750024425
 21
69.539705035224245
 31
0.0
 11
52.506267881483083
 21
70.235681268112799
 31
0.0
 11
52.081124343095375
 21
70.956021786847671
 31
0.0
 11
51.838179356214027
 21
71.426172909403974
 31
0.0
 11
51.608104155693496
 21
71.903138032036168
 31
0.0
 11
51.418449592395149
 21
72.309196347910657
 31
0.0
 11
51.239227373310023
 21
72.719775562129783
 31
0.0
 11
51.079361939412664
 21
73.128672885619778
 31
0.0
 11
50.930734427337057
 21
73.541585687465684
 31
0.0
 11
50.733619638554458
 21
74.104272838589694
 31
0.0
 11
50.523418642260282
 21
74.664670433597934
 31
0.0
 11
50.319104265955282
 21
75.118959765807659
 31
0.0
 11
50.048189522362406
 21
75.53207178719758
 31
0.0
 11
49.913313675156076
 21
75.673838364831084
 31
0.0
 11
49.757075101199099
 21
75.791724453932318
 31
0.0
 11
49.594240502484276
 21
75.86878201157208
 31
0.0
 11
49.420139948223294
 21
75.90783774854313
 31
0.0
 11
49.189013875008278
 21
75.898867630018316
 31
0.0
 11
48.957119632030746
 21
75.859165979895167
 31
0.0
 11
48.740150242094877
 21
75.826820667768018
 31
0.0
 11
48.526142446723746
 21
75.788283998886456
 31
0.0
 11
48.171272782741468
 21
75.677560808122124
 31
0.0
 11
47.816915776980842
 21
75.56428870327484
 31
0.0
  0
SPLINE
  5
1D7
100
AcDbEntity
  8
1
  6
CONTINUOUS
 62
             3
100
AcDbSpline
210
0.0
220
0.0
230
1.0
 70
             0
 71
             3
 72
            19
 73
            15
 74
            25
 42
0.00000000001
 43
0.00000000001
 44
0.00000000001
 40
0.0
 40
0.0
 40
0.0
 40
0.0
 40
3.7910034251621969
 40
6.6750575547669779
 40
9.7917965100896023
 40
12.360436242243701
 40
15.07634983061787
 40
17.469061419096469
 40
20.83784419011652
 40
23.49510461756698
 40
27.064308922205988
 40
33.953927121516138
 40
38.467301704811412
 40
41.501974087581459
 40
41.501974087581459
 40
41.501974087581459
 40
41.501974087581459
 10
51.430284210170683
 20
87.261073706776969
 30
0.0
 10
51.559388007387902
 20
86.004384835382936
 30
0.0
 10
51.755840290752147
 20
83.785961392088524
 30
0.0
 10
52.397141919676422
 20
80.577969578735562
 30
0.0
 10
53.280112981620697
 20
77.857666851851917
 30
0.0
 10
54.25668904021633
 20
75.231963440123792
 30
0.0
 10
55.354965080716283
 20
72.91560230859568
 30
0.0
 10
56.783200395454813
 20
70.475172004587051
 30
0.0
 10
58.410553604227587
 20
68.179430430622816
 30
0.0
 10
60.57406048836755
 20
65.816109771109311
 30
0.0
 10
63.813841492131907
 20
62.876796683570767
 30
0.0
 10
68.169889848558867
 20
60.244792591177287
 30
0.0
 10
72.897079101793153
 20
59.11728095354956
 30
0.0
 10
75.408998575074619
 20
58.95720317131854
 30
0.0
 10
76.417110183970294
 20
58.8743141259773
 30
0.0
 11
51.430284210170683
 21
87.261073706776969
 31
0.0
 11
51.622688351077301
 21
85.375291393622291
 31
0.0
 11
51.86017776418808
 21
83.494713983827637
 31
0.0
 11
52.110693345748217
 21
82.074013502445695
 31
0.0
 11
52.43394201237075
 21
80.668309410877043
 31
0.0
 11
52.865294112493054
 21
79.170862703278885
 31
0.0
 11
53.359147857451951
 21
77.692060788894452
 31
0.0
 11
53.797797438553815
 21
76.484579275296269
 31
0.0
 11
54.273048354469992
 21
75.291499197276906
 31
0.0
 11
54.827677140161406
 21
74.051628537316361
 31
0.0
 11
55.437903864770703
 21
72.838073376177078
 31
0.0
 11
56.02073097683153
 21
71.79318407904718
 31
0.0
 11
56.643424854637892
 21
70.771242979500244
 31
0.0
 11
57.58499525106194
 21
69.37332248797847
 31
0.0
 11
58.608687772070176
 21
68.03510719637714
 31
0.0
 11
59.477476783206157
 21
67.029464949622309
 31
0.0
 11
60.392855508011252
 21
66.065899622422592
 31
0.0
 11
61.683433065552578
 21
64.833721629466311
 31
0.0
 11
63.047185236770375
 21
63.679740981577211
 31
0.0
 11
65.898420974577789
 21
61.722024045541907
 31
0.0
 11
69.013086303771246
 21
60.23374861492632
 31
0.0
 11
71.174536079408966
 21
59.571517447626107
 31
0.0
 11
73.3957292537699
 21
59.155328055977243
 31
0.0
 11
74.904637385378493
 21
58.995742220099956
 31
0.0
 11
76.417110183970294
 21
58.8743141259773
 31
0.0
  0
SPLINE
  5
1D6
102
{ACAD_REACTORS
330
29C
102
}
100
AcDbEntity
  8
___C_____1
  6
CONTINUOUS
 62
             2
100
AcDbSpline
210
0.0
220
0.0
230
1.0
 70
             1
 71
             3
 72
            53
 73
            49
 74
            67
 42
0.00000000001
 43
0.00000000001
 44
0.00000000001
 40
0.0
 40
0.0
 40
0.0
 40
0.0
 40
1.0
 40
1.0
 40
1.0
 40
2.0
 40
2.0
 40
2.0
 40
3.0
 40
3.0
 40
3.0
 40
4.0
 40
4.0
 40
4.0
 40
5.0
 40
5.0
 40
5.0
 40
6.0
 40
6.0
 40
6.0
 40
7.0
 40
7.0
 40
7.0
 40
8.0
 40
8.0
 40
8.0
 40
9.0
 40
9.0
 40
9.0
 40
10.0
 40
10.0
 40
10.0
 40
11.0
 40
11.0
 40
11.0
 40
12.0
 40
12.0
 40
12.0
 40
13.0
 40
13.0
 40
13.0
 40
14.0
 40
14.0
 40
14.0
 40
15.0
 40
15.0
 40
15.0
 40
16.0
 40
16.0
 40
16.0
 40
16.0
 10
83.434265896568576
 20
81.872201037060591
 30
0.0
 10
83.426435666737603
 20
81.550013055468099
 30
0.0
 10
83.755940171397569
 20
81.543317777634314
 30
0.0
 10
83.755940171397569
 20
81.543317777634314
 30
0.0
 10
83.755940171397569
 20
81.543317777634314
 30
0.0
 10
84.385028738266783
 20
81.550013055468099
 30
0.0
 10
84.524007743183006
 20
81.543317777634314
 30
0.0
 10
84.662995054193289
 20
81.535363246434827
 30
0.0
 10
85.402111721691313
 20
81.440606143201521
 30
0.0
 10
85.445960673771211
 20
80.642726210559445
 30
0.0
 10
85.495626217870225
 20
79.743890837872073
 30
0.0
 10
84.692177923437185
 20
79.691590649587951
 30
0.0
 10
84.692177923437185
 20
79.691590649587951
 30
0.0
 10
84.692177923437185
 20
79.691590649587951
 30
0.0
 10
82.734523610550809
 20
79.691590649587951
 30
0.0
 10
82.734523610550809
 20
79.691590649587951
 30
0.0
 10
82.734523610550809
 20
79.691590649587951
 30
0.0
 10
82.734523610550809
 20
80.301430723132015
 30
0.0
 10
82.734523610550809
 20
80.301430723132015
 30
0.0
 10
82.734523610550809
 20
80.301430723132015
 30
0.0
 10
84.329256494532387
 20
80.301430723132015
 30
0.0
 10
84.329256494532387
 20
80.301430723132015
 30
0.0
 10
84.329256494532387
 20
80.301430723132015
 30
0.0
 10
84.677511840601298
 20
80.298679682727979
 30
0.0
 10
84.677511840601298
 20
80.628076637543188
 30
0.0
 10
84.677511840601298
 20
80.958699817554276
 30
0.0
 10
84.326530457718604
 20
80.935598772316808
 30
0.0
 10
84.326530457718604
 20
80.935598772316808
 30
0.0
 10
84.026830360424839
 20
80.935598772316808
 30
0.0
 10
83.346584746776315
 20
80.935598772316808
 30
0.0
 10
83.346584746776315
 20
80.935598772316808
 30
0.0
 10
83.250700599539201
 20
80.950513207654922
 30
0.0
 10
82.621993117752623
 20
81.001173242323034
 30
0.0
 10
82.636393979975693
 20
81.886618286829432
 30
0.0
 10
82.651167729243085
 20
82.771914742958856
 30
0.0
 10
83.501456051193557
 20
82.782835172547706
 30
0.0
 10
83.501456051193557
 20
82.782835172547706
 30
0.0
 10
83.501456051193557
 20
82.782835172547706
 30
0.0
 10
85.484705375962307
 20
82.782835172547706
 30
0.0
 10
85.484705375962307
 20
82.782835172547706
 30
0.0
 10
85.484705375962307
 20
82.782835172547706
 30
0.0
 10
85.096586655194784
 20
82.170161276328145
 30
0.0
 10
85.096586655194784
 20
82.170161276328145
 30
0.0
 10
85.096586655194784
 20
82.170161276328145
 30
0.0
 10
83.748375170710162
 20
82.170161276328145
 30
0.0
 10
83.748375170710162
 20
82.170161276328145
 30
0.0
 10
83.748375170710162
 20
82.170161276328145
 30
0.0
 10
83.440844837898467
 20
82.194256229201201
 30
0.0
 10
83.434265896568576
 20
81.872201037060591
 30
0.0
 11
83.434265896568576
 21
81.872201037060591
 31
0.0
 11
83.514182828636407
 21
81.643740348353418
 31
0.0
 11
83.670803086109089
 21
81.556986478613169
 31
0.0
 11
83.755940171397569
 21
81.543317777634314
 31
0.0
 11
83.856406806922692
 21
81.544259301079691
 31
0.0
 11
84.087856830446711
 21
81.545828506821991
 31
0.0
 11
84.3453654173925
 21
81.546142347970445
 31
0.0
 11
84.524007743183006
 21
81.543317777634314
 31
0.0
 11
84.720531901533633
 21
81.51144639295687
 31
0.0
 11
85.020661093076001
 21
81.389244019637857
 31
0.0
 11
85.302951842318919
 21
81.118930633548345
 31
0.0
 11
85.445960673771211
 21
80.642726210559445
 31
0.0
 11
85.349134770448273
 21
80.114915106305162
 31
0.0
 11
85.087693877641328
 21
79.830095165315939
 31
0.0
 11
84.816940695315807
 21
79.713806856705588
 31
0.0
 11
84.692177923437185
 21
79.691590649587951
 31
0.0
 11
84.547166492853009
 21
79.691590649587951
 31
0.0
 11
84.18463791639256
 21
79.691590649587951
 31
0.0
 11
83.713350766993997
 21
79.691590649587951
 31
0.0
 11
83.24206361759542
 21
79.691590649587951
 31
0.0
 11
82.879535041134986
 21
79.691590649587951
 31
0.0
 11
82.734523610550809
 21
79.691590649587951
 31
0.0
 11
82.734523610550823
 21
79.786878161079215
 31
0.0
 11
82.734523610550809
 21
79.996510686359997
 31
0.0
 11
82.734523610550809
 21
80.20614321164075
 31
0.0
 11
82.734523610550809
 21
80.301430723132015
 31
0.0
 11
82.90037583048489
 21
80.301430723132015
 31
0.0
 11
83.295869585712325
 21
80.301430723132029
 31
0.0
 11
83.767910519370872
 21
80.301430723132029
 31
0.0
 11
84.163404274598307
 21
80.301430723132015
 31
0.0
 11
84.329256494532387
 21
80.301430723132015
 31
0.0
 11
84.419544917587288
 21
80.312917377650052
 31
0.0
 11
84.587223417546397
 21
80.396992013148349
 31
0.0
 11
84.677511840601298
 21
80.628076637543188
 31
0.0
 11
84.586516667261336
 21
80.854748233970909
 31
0.0
 11
84.417525631058567
 21
80.929342629229808
 31
0.0
 11
84.326530457718604
 21
80.935598772316808
 31
0.0
 11
84.046977961838067
 21
80.935598772316794
 31
0.0
 11
83.724170065762294
 21
80.935598772316808
 31
0.0
 11
83.457555937929101
 21
80.935598772316808
 31
0.0
 11
83.346584746776315
 21
80.935598772316808
 31
0.0
 11
83.193141193597938
 21
80.965971889483953
 31
0.0
 11
82.95013248482843
 21
81.084659551135005
 31
0.0
 11
82.727802215332716
 21
81.366571702005118
 31
0.0
 11
82.636393979975693
 21
81.886618286829432
 31
0.0
 11
82.777792604075671
 21
82.400136617652507
 31
0.0
 11
83.074465171559908
 21
82.66671290073711
 31
0.0
 11
83.368367661056482
 21
82.767296098297436
 31
0.0
 11
83.501456051193557
 21
82.782835172547706
 31
0.0
 11
83.648363408583833
 21
82.782835172547706
 31
0.0
 11
84.015631802059531
 21
82.782835172547706
 31
0.0
 11
84.493080713577925
 21
82.782835172547706
 31
0.0
 11
84.970529625096333
 21
82.782835172547706
 31
0.0
 11
85.33779801857203
 21
82.782835172547706
 31
0.0
 11
85.484705375962307
 21
82.782835172547706
 31
0.0
 11
85.424061825842386
 21
82.687104876263405
 31
0.0
 11
85.290646015578545
 21
82.476498224437933
 31
0.0
 11
85.157230205314704
 21
82.265891572612446
 31
0.0
 11
85.096586655194784
 21
82.170161276328145
 31
0.0
 11
84.956372660808384
 21
82.170161276328145
 31
0.0
 11
84.622016212656206
 21
82.170161276328145
 31
0.0
 11
84.222945613248754
 21
82.170161276328159
 31
0.0
 11
83.888589165096562
 21
82.170161276328145
 31
0.0
 11
83.748375170710162
 21
82.170161276328145
 31
0.0
 11
83.668401419931953
 21
82.164480145882621
 31
0.0
 11
83.518625608233378
 21
82.092585628933193
 31
0.0
 11
83.434265896568576
 21
81.872201037060591
 31
0.0
  0
SPLINE
  5
1D5
102
{ACAD_REACTORS
330
29B
102
}
100
AcDbEntity
  8
___C_____1
  6
CONTINUOUS
 62
             2
100
AcDbSpline
210
0.0
220
0.0
230
1.0
 70
             1
 71
             3
 72
            44
 73
            40
 74
            65
 42
0.00000000001
 43
0.00000000001
 44
0.00000000001
 40
0.0
 40
0.0
 40
0.0
 40
0.0
 40
1.0
 40
1.0
 40
1.0
 40
2.0
 40
2.0
 40
2.0
 40
3.0
 40
3.0
 40
3.0
 40
4.0
 40
4.0
 40
4.0
 40
5.0
 40
5.0
 40
5.0
 40
6.0
 40
6.0
 40
6.0
 40
7.0
 40
7.0
 40
7.0
 40
8.0
 40
8.0
 40
8.0
 40
9.0
 40
9.0
 40
9.0
 40
10.0
 40
10.0
 40
10.0
 40
11.0
 40
11.0
 40
11.0
 40
12.0
 40
12.0
 40
12.0
 40
13.0
 40
13.0
 40
13.0
 40
13.0
 10
90.937739937233687
 20
79.693479630583823
 30
0.0
 10
90.937739937233687
 20
79.693479630583823
 30
0.0
 10
89.982395031962838
 20
79.693479630583823
 30
0.0
 10
89.982395031962838
 20
79.693479630583823
 30
0.0
 10
89.982395031962838
 20
79.693479630583823
 30
0.0
 10
88.890415962607449
 20
81.389184060642293
 30
0.0
 10
88.890415962607449
 20
81.389184060642293
 30
0.0
 10
88.890415962607449
 20
81.389184060642293
 30
0.0
 10
89.730156329694537
 20
81.389184060642293
 30
0.0
 10
89.730156329694537
 20
81.389184060642293
 30
0.0
 10
89.730156329694537
 20
81.389184060642293
 30
0.0
 10
90.119658824152012
 20
81.394636367443297
 30
0.0
 10
90.119658824152012
 20
81.779034549453613
 30
0.0
 10
90.119658824152012
 20
82.162836250959216
 30
0.0
 10
89.796327411009798
 20
82.15748393861341
 30
0.0
 10
89.71361777568228
 20
82.15748393861341
 30
0.0
 10
89.616755886556177
 20
82.15748393861341
 30
0.0
 10
89.058702121074546
 20
82.15748393861341
 30
0.0
 10
88.890415962607449
 20
82.15748393861341
 30
0.0
 10
88.890415962607449
 20
82.15748393861341
 30
0.0
 10
88.890415962607449
 20
79.693479630583823
 30
0.0
 10
88.890415962607449
 20
79.693479630583823
 30
0.0
 10
88.890415962607449
 20
79.693479630583823
 30
0.0
 10
88.096778152199875
 20
79.693479630583823
 30
0.0
 10
88.096778152199875
 20
79.693479630583823
 30
0.0
 10
88.096778152199875
 20
79.693479630583823
 30
0.0
 10
88.096778152199875
 20
82.781343843325899
 30
0.0
 10
88.096778152199875
 20
82.781343843325899
 30
0.0
 10
88.096778152199875
 20
82.781343843325899
 30
0.0
 10
90.015555098560654
 20
82.782835172547706
 30
0.0
 10
90.015555098560654
 20
82.782835172547706
 30
0.0
 10
90.015555098560654
 20
82.782835172547706
 30
0.0
 10
90.882622322350443
 20
82.794153737318851
 30
0.0
 10
90.904331336144708
 20
81.822286548994882
 30
0.0
 10
90.927564940504183
 20
80.785441846046425
 30
0.0
 10
90.026393038766543
 20
80.813017336766123
 30
0.0
 10
90.026393038766543
 20
80.813017336766123
 30
0.0
 10
90.026393038766543
 20
80.813017336766123
 30
0.0
 10
90.937739937233687
 20
79.693479630583823
 30
0.0
 10
90.937739937233687
 20
79.693479630583823
 30
0.0
 11
90.937739937233687
 21
79.693479630583823
 31
0.0
 11
90.838384067085528
 21
79.693479630583823
 31
0.0
 11
90.601458530578356
 21
79.693479630583823
 31
0.0
 11
90.318676438618169
 21
79.693479630583823
 31
0.0
 11
90.081750902110997
 21
79.693479630583823
 31
0.0
 11
89.982395031962838
 21
79.693479630583823
 31
0.0
 11
89.901507693492064
 21
79.819087366143719
 31
0.0
 11
89.699289347315158
 21
80.133106705043431
 31
0.0
 11
89.436405497285136
 21
80.541331845613058
 31
0.0
 11
89.173521647255143
 21
80.949556986182685
 31
0.0
 11
88.971303301078208
 21
81.263576325082397
 31
0.0
 11
88.890415962607449
 21
81.389184060642293
 31
0.0
 11
89.021625394964801
 21
81.389184060642279
 31
0.0
 11
89.310286146151
 21
81.389184060642293
 31
0.0
 11
89.598946897337186
 21
81.389184060642293
 31
0.0
 11
89.730156329694537
 21
81.389184060642293
 31
0.0
 11
89.831138457887207
 21
81.404834591368854
 31
0.0
 11
90.018676695959343
 21
81.507118564053499
 31
0.0
 11
90.119658824152012
 21
81.779034549453613
 31
0.0
 11
90.03276884165858
 21
82.047729591756791
 31
0.0
 11
89.855647515060738
 21
82.144656697313962
 31
0.0
 11
89.71361777568228
 21
82.15748393861341
 31
0.0
 11
89.494542279006922
 21
82.15748393861341
 31
0.0
 11
89.15710763884347
 21
82.15748393861341
 31
0.0
 11
88.890415962607449
 21
82.15748393861341
 31
0.0
 11
88.890415962607449
 21
82.020993904057832
 31
0.0
 11
88.890415962607449
 21
81.668993288625032
 31
0.0
 11
88.890415962607449
 21
81.187686324665904
 31
0.0
 11
88.890415962607449
 21
80.663277244531344
 31
0.0
 11
88.890415962607449
 21
80.181970280572202
 31
0.0
 11
88.890415962607449
 21
79.829969665139402
 31
0.0
 11
88.890415962607449
 21
79.693479630583823
 31
0.0
 11
88.766410054731267
 21
79.693479630583838
 31
0.0
 11
88.493597057403662
 21
79.693479630583823
 31
0.0
 11
88.220784060076056
 21
79.693479630583823
 31
0.0
 11
88.096778152199875
 21
79.693479630583823
 31
0.0
 11
88.09677815219986
 21
79.826161295975098
 31
0.0
 11
88.096778152199875
 21
80.175958413824773
 31
0.0
 11
88.096778152199875
 21
80.670499166646749
 31
0.0
 11
88.096778152199875
 21
81.237411736954869
 31
0.0
 11
88.096778152199875
 21
81.804324307262988
 31
0.0
 11
88.096778152199875
 21
82.29886506008495
 31
0.0
 11
88.096778152199875
 21
82.648662177934639
 31
0.0
 11
88.096778152199875
 21
82.781343843325899
 31
0.0
 11
88.238909777856222
 21
82.781454312157138
 31
0.0
 11
88.594238841997111
 21
82.781730484235254
 31
0.0
 11
89.056166625380271
 21
82.782089507936803
 31
0.0
 11
89.518094408763403
 21
82.782448531638352
 31
0.0
 11
89.873423472904307
 21
82.782724703716468
 31
0.0
 11
90.015555098560654
 21
82.782835172547706
 31
0.0
 11
90.105903761945157
 21
82.776237365777305
 31
0.0
 11
90.32215213821749
 21
82.724619807294431
 31
0.0
 11
90.582103806556006
 21
82.580246289841426
 31
0.0
 11
90.803562346138975
 21
82.295380606160776
 31
0.0
 11
90.904331336144708
 21
81.822286548994882
 31
0.0
 11
90.821947457291429
 21
81.319174184990899
 31
0.0
 11
90.605333972550895
 21
81.019106874616625
 31
0.0
 11
90.34211859749918
 21
80.869668825021506
 31
0.0
 11
90.119929047712375
 21
80.818444243354861
 31
0.0
 11
90.026393038766543
 21
80.813017336766123
 31
0.0
 11
90.121173116207132
 21
80.69658541532317
 31
0.0
 11
90.347187147027
 21
80.418940064189954
 31
0.0
 11
90.616945828973257
 21
80.087556903159992
 31
0.0
 11
90.842959859793098
 21
79.80991155202679
 31
0.0
 11
90.937739937233687
 21
79.693479630583823
 31
0.0
  0
SPLINE
  5
1D4
100
AcDbEntity
  8
1
  6
CONTINUOUS
 62
             2
100
AcDbSpline
210
0.0
220
0.0
230
1.0
 70
             0
 71
             3
 72
             8
 73
             4
 74
             4
 42
0.00000000001
 43
0.00000000001
 44
0.00000000001
 40
0.0
 40
0.0
 40
0.0
 40
0.0
 40
5.4307223239307074
 40
5.4307223239307074
 40
5.4307223239307074
 40
5.4307223239307074
 10
20.98804634934973
 20
103.89472853127459
 30
0.0
 10
25.546878350635541
 20
102.446915953751
 30
0.0
 10
18.404646704706678
 20
101.2863496682639
 30
0.0
 10
22.307683539240731
 20
99.894728531274751
 30
0.0
 11
20.98804634934973
 21
103.89472853127459
 31
0.0
 11
22.488980547033528
 21
102.5234683791136
 31
0.0
 11
21.243946119391445
 21
101.22852772307947
 31
0.0
 11
22.307683539240731
 21
99.894728531274751
 31
0.0
  0
SPLINE
  5
1D3
100
AcDbEntity
  8
1
  6
CONTINUOUS
 62
             2
100
AcDbSpline
210
0.0
220
0.0
230
1.0
 70
             0
 71
             3
 72
             8
 73
             4
 74
             4
 42
0.00000000001
 43
0.00000000001
 44
0.00000000001
 40
0.0
 40
0.0
 40
0.0
 40
0.0
 40
5.4307223239307074
 40
5.4307223239307074
 40
5.4307223239307074
 40
5.4307223239307074
 10
23.511741307917099
 20
103.89472853127459
 30
0.0
 10
28.07057330920291
 20
102.446915953751
 30
0.0
 10
20.92834166327405
 20
101.2863496682639
 30
0.0
 10
24.8313784978081
 20
99.894728531274751
 30
0.0
 11
23.511741307917099
 21
103.89472853127459
 31
0.0
 11
25.012675505600892
 21
102.5234683791136
 31
0.0
 11
23.767641077958817
 21
101.22852772307947
 31
0.0
 11
24.8313784978081
 21
99.894728531274751
 31
0.0
  0
CIRCLE
  5
1D2
100
AcDbEntity
  8
0
  6
CONTINUOUS
 62
             3
100
AcDbCircle
 10
131.22119260087049
 20
28.644728531277
 40
2.24999999999994
  0
CIRCLE
  5
1D1
100
AcDbEntity
  8
0
  6
CONTINUOUS
 62
             3
100
AcDbCircle
 10
48.72119260087077
 20
111.1447285312755
 40
2.24999999999939
  0
CIRCLE
  5
1D0
100
AcDbEntity
  8
0
  6
CONTINUOUS
 62
             3
100
AcDbCircle
 10
131.22119260087049
 20
111.1447285312755
 40
2.24999999999939
  0
CIRCLE
  5
1CF
100
AcDbEntity
  8
0
  6
CONTINUOUS
 62
             3
100
AcDbCircle
 10
48.72119260087077
 20
28.644728531277
 40
2.24999999999994
  0
CIRCLE
  5
1CE
102
{ACAD_REACTORS
330
296
102
}
100
AcDbEntity
  8
___C_____1
  6
CONTINUOUS
 62
             2
100
AcDbCircle
 10
95.73330687677168
 20
81.20598351233407
 40
1.71757931265867
  0
CIRCLE
  5
1CD
102
{ACAD_REACTORS
330
296
102
}
100
AcDbEntity
  8
___C_____1
  6
CONTINUOUS
 62
             2
100
AcDbCircle
 10
95.73330687677168
 20
81.20634814731214
 40
0.9728613234458
  0
CIRCLE
  5
1CC
100
AcDbEntity
  8
1
  6
CONTINUOUS
 62
             2
100
AcDbCircle
 10
89.97119260086998
 20
69.89472853127622
 40
16.50000000000122
  0
ARC
  5
1CB
100
AcDbEntity
  8
0
  6
CONTINUOUS
 62
             3
100
AcDbCircle
 10
125.6087065206694
 20
112.3947285312755
 40
1.49999999999966
100
AcDbArc
 50
-12.55585779860319
 51
90.0
  0
ARC
  5
1CA
100
AcDbEntity
  8
0
  6
CONTINUOUS
 62
             3
100
AcDbCircle
 10
131.22119260087049
 20
111.1447285312755
 40
4.25000000000056
100
AcDbArc
 50
167.44414220139993
 51
-77.44414220142691
  0
ARC
  5
1C9
100
AcDbEntity
  8
0
  6
CONTINUOUS
 62
             3
100
AcDbCircle
 10
132.47119260087049
 20
105.53224245107489
 40
1.5000000000002
100
AcDbArc
 50
0.0
 51
102.55585779862503
  0
ARC
  5
1C8
100
AcDbEntity
  8
0
  6
CONTINUOUS
 62
             3
100
AcDbCircle
 10
132.47119260086919
 20
102.39088214977571
 40
1.5000000000003
100
AcDbArc
 50
-142.59791555012097
 51
0.0
  0
ARC
  5
1C7
100
AcDbEntity
  8
0
  6
CONTINUOUS
 62
             3
100
AcDbCircle
 10
89.97119260086998
 20
69.89472853127622
 40
51.99999999999947
100
AcDbArc
 50
37.40208444990018
 51
52.59791555010034
  0
ARC
  5
1C6
100
AcDbEntity
  8
0
  6
CONTINUOUS
 62
             3
100
AcDbCircle
 10
122.46734621946931
 20
112.3947285312755
 40
1.4999999999999
100
AcDbArc
 50
90.0
 51
-127.40208444989128
  0
ARC
  5
1C5
100
AcDbEntity
  8
0
  6
CONTINUOUS
 62
             3
100
AcDbCircle
 10
122.46734621946931
 20
112.3947285312755
 40
1.4999999999999
100
AcDbArc
 50
90.0
 51
-127.40208444989128
  0
ARC
  5
1C4
100
AcDbEntity
  8
0
  6
CONTINUOUS
 62
             3
100
AcDbCircle
 10
89.97119260086998
 20
69.89472853127622
 40
51.99999999999947
100
AcDbArc
 50
37.40208444990018
 51
52.59791555010034
  0
ARC
  5
1C3
100
AcDbEntity
  8
0
  6
CONTINUOUS
 62
             3
100
AcDbCircle
 10
132.47119260086919
 20
102.39088214977571
 40
1.5000000000003
100
AcDbArc
 50
-142.59791555012097
 51
0.0
  0
ARC
  5
1C2
100
AcDbEntity
  8
0
  6
CONTINUOUS
 62
             3
100
AcDbCircle
 10
132.47119260087049
 20
105.53224245107489
 40
1.5000000000002
100
AcDbArc
 50
0.0
 51
102.55585779862503
  0
ARC
  5
1C1
100
AcDbEntity
  8
0
  6
CONTINUOUS
 62
             3
100
AcDbCircle
 10
131.22119260087049
 20
111.1447285312755
 40
4.25000000000056
100
AcDbArc
 50
167.44414220139993
 51
-77.44414220142691
  0
ARC
  5
1C0
100
AcDbEntity
  8
0
  6
CONTINUOUS
 62
             3
100
AcDbCircle
 10
125.6087065206694
 20
112.3947285312755
 40
1.49999999999966
100
AcDbArc
 50
-12.55585779860319
 51
90.0
  0
ARC
  5
1BF
100
AcDbEntity
  8
0
  6
CONTINUOUS
 62
             3
100
AcDbCircle
 10
132.47119260087049
 20
34.25721461147742
 40
1.50000000000005
100
AcDbArc
 50
-102.55585779862709
 51
0.0
  0
ARC
  5
1BE
100
AcDbEntity
  8
0
  6
CONTINUOUS
 62
             3
100
AcDbCircle
 10
131.22119260087049
 20
28.644728531277
 40
4.25000000000043
100
AcDbArc
 50
77.44414220141194
 51
-167.44414220140931
  0
ARC
  5
1BD
100
AcDbEntity
  8
0
  6
CONTINUOUS
 62
             3
100
AcDbCircle
 10
125.60870652067069
 20
27.39472853127743
 40
1.49999999999999
100
AcDbArc
 50
-90.0
 51
12.55585779860902
  0
ARC
  5
1BC
100
AcDbEntity
  8
0
  6
CONTINUOUS
 62
             3
100
AcDbCircle
 10
122.4673462193692
 20
27.39472853127743
 40
1.49999999999986
100
AcDbArc
 50
127.40208444989182
 51
-90.0
  0
ARC
  5
1BB
100
AcDbEntity
  8
0
  6
CONTINUOUS
 62
             3
100
AcDbCircle
 10
89.97119260086998
 20
69.89472853127622
 40
51.9999999999994
100
AcDbArc
 50
-52.59791555009903
 51
-37.40208444989933
  0
ARC
  5
1BA
100
AcDbEntity
  8
0
  6
CONTINUOUS
 62
             3
100
AcDbCircle
 10
132.47119260087049
 20
37.39857491267711
 40
1.5000000000002
100
AcDbArc
 50
0.0
 51
142.59791555009679
  0
ARC
  5
1B9
100
AcDbEntity
  8
0
  6
CONTINUOUS
 62
             3
100
AcDbCircle
 10
54.33367868107217
 20
27.39472853127703
 40
1.50000000000126
100
AcDbArc
 50
167.44414220141056
 51
-90.0
  0
ARC
  5
1B8
100
AcDbEntity
  8
0
  6
CONTINUOUS
 62
             3
100
AcDbCircle
 10
48.72119260087077
 20
28.644728531277
 40
4.2500000000008
100
AcDbArc
 50
-12.55585779859502
 51
102.55585779859103
  0
ARC
  5
1B7
100
AcDbEntity
  8
0
  6
CONTINUOUS
 62
             3
100
AcDbCircle
 10
47.47119260087079
 20
34.25721461147678
 40
1.4999999999999
100
AcDbArc
 50
180.0
 51
-77.44414220137443
  0
ARC
  5
1B6
100
AcDbEntity
  8
0
  6
CONTINUOUS
 62
             3
100
AcDbCircle
 10
47.47119260087209
 20
37.39857491277699
 40
1.49999999999909
100
AcDbArc
 50
37.4020844499186
 51
180.0
  0
ARC
  5
1B5
100
AcDbEntity
  8
0
  6
CONTINUOUS
 62
             3
100
AcDbCircle
 10
89.97119260086998
 20
69.89472853127622
 40
51.99999999999824
100
AcDbArc
 50
-142.59791555009923
 51
-127.40208444989868
  0
ARC
  5
1B4
100
AcDbEntity
  8
0
  6
CONTINUOUS
 62
             3
100
AcDbCircle
 10
57.47503898227201
 20
27.39472853127703
 40
1.49999999999999
100
AcDbArc
 50
-90.0
 51
52.59791555010777
  0
ARC
  5
1B3
100
AcDbEntity
  8
0
  6
CONTINUOUS
 62
             3
100
AcDbCircle
 10
132.47119260087049
 20
37.39857491267711
 40
1.5000000000002
100
AcDbArc
 50
0.0
 51
142.59791555009679
  0
ARC
  5
1B2
100
AcDbEntity
  8
0
  6
CONTINUOUS
 62
             3
100
AcDbCircle
 10
89.97119260086998
 20
69.89472853127622
 40
51.9999999999994
100
AcDbArc
 50
-52.59791555009903
 51
-37.40208444989933
  0
ARC
  5
1B1
100
AcDbEntity
  8
0
  6
CONTINUOUS
 62
             3
100
AcDbCircle
 10
122.4673462193692
 20
27.39472853127743
 40
1.49999999999986
100
AcDbArc
 50
127.40208444989182
 51
-90.0
  0
ARC
  5
1B0
100
AcDbEntity
  8
0
  6
CONTINUOUS
 62
             3
100
AcDbCircle
 10
125.60870652067069
 20
27.39472853127743
 40
1.49999999999999
100
AcDbArc
 50
-90.0
 51
12.55585779860902
  0
ARC
  5
1AF
100
AcDbEntity
  8
0
  6
CONTINUOUS
 62
             3
100
AcDbCircle
 10
131.22119260087049
 20
28.644728531277
 40
4.25000000000043
100
AcDbArc
 50
77.44414220141194
 51
-167.44414220140931
  0
ARC
  5
1AE
100
AcDbEntity
  8
0
  6
CONTINUOUS
 62
             3
100
AcDbCircle
 10
132.47119260087049
 20
34.25721461147742
 40
1.50000000000005
100
AcDbArc
 50
-102.55585779862709
 51
0.0
  0
ARC
  5
1AD
100
AcDbEntity
  8
0
  6
CONTINUOUS
 62
             3
100
AcDbCircle
 10
57.47503898227201
 20
112.3947285312755
 40
1.4999999999992
100
AcDbArc
 50
-52.59791555008822
 51
90.0000000000494
  0
ARC
  5
1AC
100
AcDbEntity
  8
0
  6
CONTINUOUS
 62
             3
100
AcDbCircle
 10
89.97119260086998
 20
69.89472853127622
 40
51.99999999999821
100
AcDbArc
 50
127.40208444989842
 51
134.45431765999842
  0
ARC
  5
1AB
100
AcDbEntity
  8
0
  6
CONTINUOUS
 62
             3
100
AcDbCircle
 10
53.20332360487221
 20
107.3697043084756
 40
0.49999999999948
100
AcDbArc
 50
-134.99999999998388
 51
-45.54568233995142
  0
ARC
  5
1AA
100
AcDbEntity
  8
0
  6
CONTINUOUS
 62
             3
100
AcDbCircle
 10
52.4148432954708
 20
108.15818461797539
 40
0.49999999999993
100
AcDbArc
 50
141.04232841908203
 51
-135.0000000000006
  0
ARC
  5
1A9
100
AcDbEntity
  8
0
  6
CONTINUOUS
 62
             3
100
AcDbCircle
 10
48.72119260087077
 20
111.1447285312755
 40
4.2500000000006
100
AcDbArc
 50
-38.95767158088497
 51
12.55585779860699
  0
ARC
  5
1A8
100
AcDbEntity
  8
0
  6
CONTINUOUS
 62
             3
100
AcDbCircle
 10
54.33367868107217
 20
112.3947285312755
 40
1.4999999999999
100
AcDbArc
 50
90.0
 51
-167.44414220141044
  0
ARC
  5
1A7
100
AcDbEntity
  8
0
  6
CONTINUOUS
 62
             3
100
AcDbCircle
 10
57.47503898227201
 20
112.3947285312755
 40
1.4999999999992
100
AcDbArc
 50
-52.59791555008822
 51
90.0000000000494
  0
ARC
  5
1A6
100
AcDbEntity
  8
0
  6
CONTINUOUS
 62
             3
100
AcDbCircle
 10
73.36265318857046
 20
86.334035651476
 40
0.50000000000051
100
AcDbArc
 50
-25.00000000013061
 51
65.00000000000668
  0
ARC
  5
1A5
100
AcDbEntity
  8
1
  6
CONTINUOUS
 62
             3
100
AcDbCircle
 10
89.97119260086998
 20
69.89472853127622
 40
17.45999999999971
100
AcDbArc
 50
141.95186100731354
 51
-136.44531807521372
  0
ARC
  5
1A4
100
AcDbEntity
  8
1
  6
CONTINUOUS
 62
             3
100
AcDbCircle
 10
89.97119260086998
 20
69.89472853127622
 40
17.45999999999969
100
AcDbArc
 50
-117.49513199630094
 51
-102.5872802413342
  0
ARC
  5
1A3
100
AcDbEntity
  8
1
  6
CONTINUOUS
 62
             3
100
AcDbCircle
 10
89.97119260086998
 20
69.89472853127622
 40
17.45999999999988
100
AcDbArc
 50
89.99999999999577
 51
98.14430865602405
  0
ARC
  5
1A2
100
AcDbEntity
  8
1
  6
CONTINUOUS
 62
             3
100
AcDbCircle
 10
89.97119260086998
 20
69.89472853127622
 40
17.45999999999999
100
AcDbArc
 50
2.50486800420464
 51
17.41271975970817
  0
ARC
  5
1A1
100
AcDbEntity
  8
1
  6
CONTINUOUS
 62
             3
100
AcDbCircle
 10
89.97119260086998
 20
69.89472853127622
 40
17.45999999999982
100
AcDbArc
 50
-102.5872802413342
 51
-16.44531807491291
  0
ARC
  5
1A0
100
AcDbEntity
  8
1
  6
CONTINUOUS
 62
             3
100
AcDbCircle
 10
89.97119260086998
 20
69.89472853127622
 40
17.46000000000164
100
AcDbArc
 50
17.41271975970817
 51
89.99999999999577
  0
ARC
  5
19F
100
AcDbEntity
  8
0
  6
CONTINUOUS
 62
             3
100
AcDbCircle
 10
89.97119260086998
 20
69.89472853127622
 40
42.99999999999905
100
AcDbArc
 50
145.52197218290092
 51
147.54279424970071
  0
ARC
  5
19E
100
AcDbEntity
  8
0
  6
CONTINUOUS
 62
             3
100
AcDbCircle
 10
89.97119260086998
 20
69.89472853127622
 40
42.99999999999876
100
AcDbArc
 50
133.68387232230077
 51
135.81437209930107
  0
ARC
  5
19D
100
AcDbEntity
  8
0
  6
CONTINUOUS
 62
             3
100
AcDbCircle
 10
89.97119260086998
 20
69.89472853127622
 40
42.99999999999948
100
AcDbArc
 50
-104.70694060580011
 51
-102.59733660789942
  0
ARC
  5
19C
100
AcDbEntity
  8
0
  6
CONTINUOUS
 62
             3
100
AcDbCircle
 10
89.97119260086998
 20
69.89472853127622
 40
42.99999999999927
100
AcDbArc
 50
-95.56108666229963
 51
-93.53421623780062
  0
ARC
  5
19B
100
AcDbEntity
  8
0
  6
CONTINUOUS
 62
             3
100
AcDbCircle
 10
89.97119260086998
 20
69.89472853127622
 40
43.00000000000129
100
AcDbArc
 50
15.29305939409888
 51
17.40266339169956
  0
ARC
  5
19A
100
AcDbEntity
  8
0
  6
CONTINUOUS
 62
             3
100
AcDbCircle
 10
89.97119260086998
 20
69.89472853127622
 40
43.00000000009936
100
AcDbArc
 50
24.43891333769965
 51
26.46578376219886
  0
ARC
  5
199
100
AcDbEntity
  8
0
  6
CONTINUOUS
 62
             3
100
AcDbCircle
 10
78.18240210347028
 20
84.83901263877564
 40
0.9999999999998
100
AcDbArc
 50
154.99999999988808
 51
-169.99999999999815
  0
ARC
  5
198
100
AcDbEntity
  8
0
  6
CONTINUOUS
 62
             3
100
AcDbCircle
 10
44.47119260087098
 20
100.844728531275
 40
0.5
100
AcDbArc
 50
90.0
 51
180.0
  0
ARC
  5
197
100
AcDbEntity
  8
0
  6
CONTINUOUS
 62
             3
100
AcDbCircle
 10
47.97119260087065
 20
27.89472853127705
 40
3.99999999999986
100
AcDbArc
 50
180.0
 51
-90.0
  0
ARC
  5
196
100
AcDbEntity
  8
0
  6
CONTINUOUS
 62
             3
100
AcDbCircle
 10
131.97119260087061
 20
27.89472853127705
 40
3.99999999999994
100
AcDbArc
 50
-90.0
 51
0.0
  0
ARC
  5
195
100
AcDbEntity
  8
0
  6
CONTINUOUS
 62
             3
100
AcDbCircle
 10
131.97119260087061
 20
111.89472853127501
 40
4.0000000000002
100
AcDbArc
 50
0.00000000000712
 51
90.0
  0
ARC
  5
194
100
AcDbEntity
  8
0
  6
CONTINUOUS
 62
             3
100
AcDbCircle
 10
47.97119260087065
 20
111.8947285312755
 40
3.9999999999998
100
AcDbArc
 50
90.0
 51
180.0
  0
ARC
  5
193
100
AcDbEntity
  8
0
  6
CONTINUOUS
 62
             3
100
AcDbCircle
 10
44.47119260087098
 20
102.9447285312752
 40
0.50000000000018
100
AcDbArc
 50
180.0
 51
-90.0
  0
ARC
  5
192
100
AcDbEntity
  8
0
  6
CONTINUOUS
 62
             3
100
AcDbCircle
 10
89.97119260086998
 20
69.89472853127622
 40
49.99999999999878
100
AcDbArc
 50
148.55749593410059
 51
152.87324688270098
  0
ARC
  5
191
100
AcDbEntity
  8
0
  6
CONTINUOUS
 62
             3
100
AcDbCircle
 10
89.97119260086998
 20
69.89472853127622
 40
49.99999999999946
100
AcDbArc
 50
-152.87324688270013
 51
-117.12675311729934
  0
ARC
  5
190
100
AcDbEntity
  8
0
  6
CONTINUOUS
 62
             3
100
AcDbCircle
 10
89.97119260086998
 20
69.89472853127622
 40
42.99999999999922
100
AcDbArc
 50
147.54279424970071
 51
-104.70694060580011
  0
ARC
  5
18F
100
AcDbEntity
  8
0
  6
CONTINUOUS
 62
             3
100
AcDbCircle
 10
89.97119260086998
 20
69.89472853127622
 40
47.50584683709894
100
AcDbArc
 50
146.42807906800113
 51
148.25355950630032
  0
ARC
  5
18E
100
AcDbEntity
  8
0
  6
CONTINUOUS
 62
             3
100
AcDbCircle
 10
89.97119260086998
 20
69.89472853127622
 40
42.9999999999993
100
AcDbArc
 50
-93.53421623780062
 51
15.29305939409888
  0
ARC
  5
18D
100
AcDbEntity
  8
0
  6
CONTINUOUS
 62
             3
100
AcDbCircle
 10
89.97119260086998
 20
69.89472853127622
 40
49.99999999999974
100
AcDbArc
 50
-62.87324688269932
 51
-27.12675311729869
  0
ARC
  5
18C
100
AcDbEntity
  8
0
  6
CONTINUOUS
 62
             3
100
AcDbCircle
 10
89.97119260086998
 20
69.89472853127622
 40
43.00000000000062
100
AcDbArc
 50
26.46578376229852
 51
133.68387232230077
  0
ARC
  5
18B
100
AcDbEntity
  8
0
  6
CONTINUOUS
 62
             3
100
AcDbCircle
 10
89.97119260086998
 20
69.89472853127622
 40
47.50584683719939
100
AcDbArc
 50
25.45050258169948
 51
27.28043752699919
  0
ARC
  5
18A
100
AcDbEntity
  8
0
  6
CONTINUOUS
 62
             3
100
AcDbCircle
 10
89.97119260086998
 20
69.89472853127622
 40
50.00000000000082
100
AcDbArc
 50
27.12675311729886
 51
62.87324688269909
  0
ARC
  5
189
100
AcDbEntity
  8
0
  6
CONTINUOUS
 62
             3
100
AcDbCircle
 10
89.97119260086998
 20
69.89472853127622
 40
49.99999999999874
100
AcDbArc
 50
117.12675311729957
 51
136.78270946405382
  0
ARC
  5
188
100
AcDbEntity
  8
1
  6
CONTINUOUS
 62
             2
100
AcDbCircle
 10
89.52935507398856
 20
33.80565686789534
 40
28.34308409697962
100
AcDbArc
 50
-115.51968032525889
 51
-61.51076697188812
  0
LINE
  5
187
100
AcDbEntity
  8
0
  6
CONTINUOUS
 62
             3
100
AcDbLine
 10
133.97119260086939
 20
102.39088214977571
 11
133.97119260087069
 21
105.53224245107489
  0
LINE
  5
186
100
AcDbEntity
  8
0
  6
CONTINUOUS
 62
             3
100
AcDbLine
 10
125.6087065206694
 20
113.8947285312754
 11
122.46734621946931
 21
113.8947285312754
  0
LINE
  5
185
100
AcDbEntity
  8
0
  6
CONTINUOUS
 62
             3
100
AcDbLine
 10
125.6087065206694
 20
113.8947285312754
 11
122.46734621946931
 21
113.8947285312754
  0
LINE
  5
184
100
AcDbEntity
  8
0
  6
CONTINUOUS
 62
             3
100
AcDbLine
 10
133.97119260086939
 20
102.39088214977571
 11
133.97119260087069
 21
105.53224245107489
  0
LINE
  5
183
100
AcDbEntity
  8
0
  6
CONTINUOUS
 62
             3
100
AcDbLine
 10
122.4673462193692
 20
25.89472853127744
 11
125.60870652067069
 21
25.89472853127744
  0
LINE
  5
182
100
AcDbEntity
  8
0
  6
CONTINUOUS
 62
             3
100
AcDbLine
 10
133.97119260087069
 20
34.25721461147742
 11
133.97119260087069
 21
37.39857491267711
  0
LINE
  5
181
100
AcDbEntity
  8
0
  6
CONTINUOUS
 62
             3
100
AcDbLine
 10
45.97119260087219
 20
37.39857491277699
 11
45.97119260087089
 21
34.25721461147678
  0
LINE
  5
180
100
AcDbEntity
  8
0
  6
CONTINUOUS
 62
             3
100
AcDbLine
 10
54.33367868107217
 20
25.89472853127704
 11
57.47503898227201
 21
25.89472853127704
  0
LINE
  5
17F
100
AcDbEntity
  8
0
  6
CONTINUOUS
 62
             3
100
AcDbLine
 10
133.97119260087069
 20
34.25721461147742
 11
133.97119260087069
 21
37.39857491267711
  0
LINE
  5
17E
100
AcDbEntity
  8
0
  6
CONTINUOUS
 62
             3
100
AcDbLine
 10
122.4673462193692
 20
25.89472853127744
 11
125.60870652067069
 21
25.89472853127744
  0
LINE
  5
17D
100
AcDbEntity
  8
0
  6
CONTINUOUS
 62
             3
100
AcDbLine
 10
57.47503898227072
 20
113.8947285312754
 11
54.33367868107217
 21
113.8947285312754
  0
LINE
  5
17C
100
AcDbEntity
  8
0
  6
CONTINUOUS
 62
             3
100
AcDbLine
 10
52.06128990487215
 20
107.80463122737579
 11
52.84977021437199
 21
107.01615091787551
  0
LINE
  5
17B
100
AcDbEntity
  8
0
  6
CONTINUOUS
 62
             3
100
AcDbLine
 10
52.06128990487215
 20
107.80463122737579
 11
52.84977021437199
 21
107.01615091787551
  0
LINE
  5
17A
100
AcDbEntity
  8
1
  6
DOT_CENTER
 62
             1
100
AcDbLine
 10
171.7938747498421
 20
69.89472853127622
 11
206.79387474984159
 21
69.89472853127622
  0
LINE
  5
179
100
AcDbEntity
  8
0
  6
CONTINUOUS
 62
             3
100
AcDbLine
 10
180.7938747498423
 20
23.93278775417655
 11
197.7931280085416
 21
23.93278775417655
  0
LINE
  5
178
100
AcDbEntity
  8
0
  6
CONTINUOUS
 62
             3
100
AcDbLine
 10
197.7931280085416
 20
23.93278775417655
 11
197.7881106039419
 21
24.00033650027681
  0
LINE
  5
172
100
AcDbEntity
  8
0
  6
CONTINUOUS
 62
             3
100
AcDbLine
 10
180.79462149104211
 20
115.85666930847501
 11
180.7938747498423
 21
115.89472853127531
  0
LINE
  5
171
100
AcDbEntity
  8
0
  6
CONTINUOUS
 62
             3
100
AcDbLine
 10
197.79387474984139
 20
115.89472853127531
 11
197.79278250144191
 21
115.84870308207439
  0
LINE
  5
165
100
AcDbEntity
  8
0
  6
CONTINUOUS
 62
             3
100
AcDbLine
 10
180.7938747498423
 20
114.4424557460754
 11
197.79387474984139
 21
114.4424557460754
  0
LINE
  5
164
100
AcDbEntity
  8
0
  6
CONTINUOUS
 62
             3
100
AcDbLine
 10
180.79462149104211
 20
115.85666930847501
 11
197.79387474984139
 21
115.85666930847501
  0
LINE
  5
163
100
AcDbEntity
  8
0
  6
CONTINUOUS
 62
             3
100
AcDbLine
 10
196.79387474984171
 20
38.29479273667654
 11
181.79387474984199
 21
38.29479273667654
  0
LINE
  5
162
100
AcDbEntity
  8
0
  6
CONTINUOUS
 62
             3
100
AcDbLine
 10
180.7938747498423
 20
110.19981505897449
 11
197.79387474984139
 21
110.19981505897449
  0
LINE
  5
161
100
AcDbEntity
  8
0
  6
CONTINUOUS
 62
             3
100
AcDbLine
 10
181.79387474984199
 20
98.47998228697503
 11
196.79387474984171
 21
98.47998228697503
  0
LINE
  5
160
100
AcDbEntity
  8
0
  6
CONTINUOUS
 62
             3
100
AcDbLine
 10
180.7938747498423
 20
108.7856014965749
 11
197.79387474984139
 21
108.7856014965749
  0
LINE
  5
15F
100
AcDbEntity
  8
0
  6
CONTINUOUS
 62
             3
100
AcDbLine
 10
176.7938747498421
 20
23.89472853127711
 11
176.7938747498421
 21
27.89472853127705
  0
LINE
  5
15E
100
AcDbEntity
  8
0
  6
CONTINUOUS
 62
             3
100
AcDbLine
 10
180.7938747498423
 20
27.89472853127705
 11
180.7938747498423
 21
23.89472853127711
  0
LINE
  5
15D
100
AcDbEntity
  8
0
  6
CONTINUOUS
 62
             3
100
AcDbLine
 10
180.7938747498423
 20
23.89472853127711
 11
176.7938747498421
 21
23.89472853127711
  0
LINE
  5
15C
100
AcDbEntity
  8
0
  6
CONTINUOUS
 62
             3
100
AcDbLine
 10
201.79387474984159
 20
27.89472853127705
 11
201.79387474984159
 21
23.89472853127711
  0
LINE
  5
15B
100
AcDbEntity
  8
0
  6
CONTINUOUS
 62
             3
100
AcDbLine
 10
197.79387474984139
 20
23.89472853127711
 11
197.79387474984139
 21
27.89472853127705
  0
LINE
  5
15A
100
AcDbEntity
  8
0
  6
CONTINUOUS
 62
             3
100
AcDbLine
 10
201.79387474984159
 20
23.89472853127711
 11
197.79387474984139
 21
23.89472853127711
  0
LINE
  5
154
100
AcDbEntity
  8
0
  6
CONTINUOUS
 62
             3
100
AcDbLine
 10
181.79387474984199
 20
62.01178879297576
 11
181.79387474984199
 21
38.29479273667654
  0
LINE
  5
14E
100
AcDbEntity
  8
0
  6
CONTINUOUS
 62
             3
100
AcDbLine
 10
196.79387474984171
 20
38.29479273667654
 11
196.79387474984171
 21
62.01178879297576
  0
LINE
  5
123
100
AcDbEntity
  8
0
  6
CONTINUOUS
 62
             3
100
AcDbLine
 10
181.79387474984199
 20
98.47998228697503
 11
181.79387474984199
 21
77.77766826967607
  0
LINE
  5
11D
100
AcDbEntity
  8
0
  6
CONTINUOUS
 62
             3
100
AcDbLine
 10
196.79387474984171
 20
77.77766826967607
 11
196.79387474984171
 21
98.47998228697503
  0
LINE
  5
114
100
AcDbEntity
  8
0
  6
CONTINUOUS
 62
             3
100
AcDbLine
 10
180.7938747498423
 20
111.8947285312755
 11
180.7938747498423
 21
77.95016148057573
  0
LINE
  5
113
100
AcDbEntity
  8
0
  6
CONTINUOUS
 62
             3
100
AcDbLine
 10
176.7938747498421
 20
27.89472853127705
 11
176.7938747498421
 21
111.8947285312755
  0
LINE
  5
112
100
AcDbEntity
  8
0
  6
CONTINUOUS
 62
             3
100
AcDbLine
 10
176.7938747498421
 20
27.89472853127705
 11
180.7938747498423
 21
27.89472853127705
  0
LINE
  5
111
100
AcDbEntity
  8
0
  6
CONTINUOUS
 62
             3
100
AcDbLine
 10
180.7938747498423
 20
61.83929558207576
 11
180.7938747498423
 21
27.89472853127705
  0
LINE
  5
110
100
AcDbEntity
  8
0
  6
CONTINUOUS
 62
             3
100
AcDbLine
 10
180.7938747498423
 20
77.95016148057573
 11
180.7938747498423
 21
61.83929558207576
  0
LINE
  5
10F
100
AcDbEntity
  8
0
  6
CONTINUOUS
 62
             3
100
AcDbLine
 10
201.79387474984159
 20
27.89472853127705
 11
201.79387474984159
 21
111.8947285312755
  0
LINE
  5
10E
100
AcDbEntity
  8
0
  6
CONTINUOUS
 62
             3
100
AcDbLine
 10
197.79387474984139
 20
77.95016148057573
 11
197.79387474984139
 21
111.8947285312755
  0
LINE
  5
10D
100
AcDbEntity
  8
0
  6
CONTINUOUS
 62
             3
100
AcDbLine
 10
197.79387474984139
 20
27.89472853127705
 11
197.79387474984139
 21
61.83929558207576
  0
LINE
  5
10C
100
AcDbEntity
  8
0
  6
CONTINUOUS
 62
             3
100
AcDbLine
 10
197.79387474984139
 20
27.89472853127705
 11
201.79387474984159
 21
27.89472853127705
  0
LINE
  5
10B
100
AcDbEntity
  8
0
  6
CONTINUOUS
 62
             3
100
AcDbLine
 10
197.79387474984139
 20
61.83929558207576
 11
197.79387474984139
 21
77.95016148057573
  0
LINE
  5
10A
100
AcDbEntity
  8
0
  6
CONTINUOUS
 62
             3
100
AcDbLine
 10
180.7938747498423
 20
115.89472853127531
 11
180.7938747498423
 21
111.8947285312755
  0
LINE
  5
109
100
AcDbEntity
  8
0
  6
CONTINUOUS
 62
             3
100
AcDbLine
 10
176.7938747498421
 20
111.8947285312755
 11
176.7938747498421
 21
115.89472853127531
  0
LINE
  5
108
100
AcDbEntity
  8
0
  6
CONTINUOUS
 62
             3
100
AcDbLine
 10
180.7938747498423
 20
111.8947285312755
 11
176.7938747498421
 21
111.8947285312755
  0
LINE
  5
107
100
AcDbEntity
  8
0
  6
CONTINUOUS
 62
             3
100
AcDbLine
 10
176.7938747498421
 20
115.89472853127531
 11
180.7938747498423
 21
115.89472853127531
  0
LINE
  5
106
100
AcDbEntity
  8
0
  6
CONTINUOUS
 62
             3
100
AcDbLine
 10
201.79387474984159
 20
115.89472853127531
 11
201.79387474984159
 21
111.8947285312755
  0
LINE
  5
105
100
AcDbEntity
  8
0
  6
CONTINUOUS
 62
             3
100
AcDbLine
 10
197.79387474984139
 20
111.8947285312755
 11
197.79387474984139
 21
115.89472853127531
  0
LINE
  5
104
100
AcDbEntity
  8
0
  6
CONTINUOUS
 62
             3
100
AcDbLine
 10
201.79387474984159
 20
111.8947285312755
 11
197.79387474984139
 21
111.8947285312755
  0
LINE
  5
103
100
AcDbEntity
  8
0
  6
CONTINUOUS
 62
             3
100
AcDbLine
 10
197.79387474984139
 20
115.89472853127531
 11
201.79387474984159
 21
115.89472853127531
  0
LINE
  5
FA
100
AcDbEntity
  8
0
  6
CONTINUOUS
 62
             3
100
AcDbLine
 10
180.82633588544221
 20
23.99847268877606
 11
180.82599914504181
 21
24.00455463037664
  0
LINE
  5
EF
100
AcDbEntity
  8
0
  6
CONTINUOUS
 62
             3
100
AcDbLine
 10
181.5171694253423
 20
24.19472853127634
 11
197.06895212064191
 21
24.19472853127634
  0
LINE
  5
EE
100
AcDbEntity
  8
0
  6
CONTINUOUS
 62
             3
100
AcDbLine
 10
197.79387474974141
 20
32.64472853127694
 11
180.7938747498423
 21
32.64472853127694
  0
LINE
  5
ED
100
AcDbEntity
  8
0
  6
CONTINUOUS
 62
             3
100
AcDbLine
 10
180.7938747498423
 20
24.64472853127706
 11
197.79387474974141
 21
24.64472853127706
  0
LINE
  5
EC
100
AcDbEntity
  8
1
  6
CONTINUOUS
 62
             3
100
AcDbLine
 10
47.79069029249222
 20
101.29773095296559
 11
46.71134845337782
 21
101.8010363183121
  0
LINE
  5
EB
100
AcDbEntity
  8
1
  6
CONTINUOUS
 62
             3
100
AcDbLine
 10
48.21330855421367
 20
102.2040387400116
 11
45.48493244906668
 21
103.4763014121681
  0
LINE
  5
EA
100
AcDbEntity
  8
1
  6
CONTINUOUS
 62
             3
100
AcDbLine
 10
48.46687951118092
 20
102.7478234122695
 11
46.68250173174073
 21
103.57989243586709
  0
LINE
  5
E9
100
AcDbEntity
  8
1
  6
CONTINUOUS
 62
             3
100
AcDbLine
 10
52.92075945756218
 20
97.80216249546859
 11
77.72938289652441
 21
86.23371139760437
  0
LINE
  5
E8
100
AcDbEntity
  8
1
  6
CONTINUOUS
 62
             3
100
AcDbLine
 10
54.64906995882647
 20
95.89286015409702
 11
49.85984846678643
 21
98.12611081243452
  0
LINE
  5
E7
100
AcDbEntity
  8
0
  6
CONTINUOUS
 62
             3
100
AcDbLine
 10
49.20147152619651
 20
96.7513160056852
 11
49.47336386227073
 21
96.6245305271751
  0
LINE
  5
E6
100
AcDbEntity
  8
1
  6
CONTINUOUS
 62
             3
100
AcDbLine
 10
45.66735921509793
 20
96.74423276269637
 11
49.68223270145926
 21
105.3541567396625
  0
LINE
  5
E5
100
AcDbEntity
  8
1
  6
CONTINUOUS
 62
             3
100
AcDbLine
 10
49.79313709266077
 20
98.02014690757005
 11
48.56754413359666
 21
95.39185432518127
  0
LINE
  5
E4
100
AcDbEntity
  8
1
  6
CONTINUOUS
 62
             3
100
AcDbLine
 10
52.27021569104922
 20
97.41675514674886
 11
50.45760011705231
 21
98.26199167021252
  0
LINE
  5
E3
100
AcDbEntity
  8
1
  6
CONTINUOUS
 62
             3
100
AcDbLine
 10
53.6531297603706
 20
99.19932314738306
 11
52.93467871544497
 21
97.65859990940498
  0
LINE
  5
E2
100
AcDbEntity
  8
1
  6
CONTINUOUS
 62
             3
100
AcDbLine
 10
51.59866942377215
 20
100.70902269520241
 11
53.41128499772228
 21
99.8637861717603
  0
LINE
  5
E1
100
AcDbEntity
  8
1
  6
CONTINUOUS
 62
             3
100
AcDbLine
 10
52.5824176201964
 20
104.0017783019811
 11
51.35682466112934
 21
101.37348571959279
  0
LINE
  5
E0
100
AcDbEntity
  8
1
  6
CONTINUOUS
 62
             2
100
AcDbLine
 10
9.93675043058448
 20
100.14472853127469
 11
4.82130898568311
 21
100.14472853127469
  0
LINE
  5
DF
100
AcDbEntity
  8
1
  6
CONTINUOUS
 62
             2
100
AcDbLine
 10
4.82130898568311
 20
100.39472853127479
 11
9.93675043058448
 21
100.39472853127479
  0
LINE
  5
DE
100
AcDbEntity
  8
1
  6
CONTINUOUS
 62
             2
100
AcDbLine
 10
9.93675043058448
 20
100.64472853127469
 11
4.82130898568311
 21
100.64472853127469
  0
LINE
  5
DD
100
AcDbEntity
  8
1
  6
CONTINUOUS
 62
             2
100
AcDbLine
 10
4.82130898568311
 20
101.14472853127469
 11
9.93675043058448
 21
101.14472853127469
  0
LINE
  5
DC
100
AcDbEntity
  8
1
  6
CONTINUOUS
 62
             2
100
AcDbLine
 10
9.93675043058448
 20
101.39472853127469
 11
4.82130898568311
 21
101.39472853127469
  0
LINE
  5
DB
100
AcDbEntity
  8
1
  6
CONTINUOUS
 62
             2
100
AcDbLine
 10
4.82130898568311
 20
101.64472853127479
 11
9.93675043058448
 21
101.64472853127479
  0
LINE
  5
DA
100
AcDbEntity
  8
1
  6
CONTINUOUS
 62
             2
100
AcDbLine
 10
9.93675043058448
 20
102.14472853127479
 11
4.82130898568311
 21
102.14472853127479
  0
LINE
  5
D9
100
AcDbEntity
  8
1
  6
CONTINUOUS
 62
             2
100
AcDbLine
 10
4.82130898568311
 20
102.39472853127469
 11
9.93675043058448
 21
102.39472853127469
  0
LINE
  5
D8
100
AcDbEntity
  8
1
  6
CONTINUOUS
 62
             2
100
AcDbLine
 10
9.93675043058448
 20
102.64472853127459
 11
4.82130898568311
 21
102.64472853127459
  0
LINE
  5
D7
100
AcDbEntity
  8
1
  6
CONTINUOUS
 62
             2
100
AcDbLine
 10
4.82130898568311
 20
103.14472853127469
 11
9.93675043058448
 21
103.14472853127469
  0
LINE
  5
D6
100
AcDbEntity
  8
1
  6
CONTINUOUS
 62
             2
100
AcDbLine
 10
9.93675043058448
 20
103.39472853127479
 11
4.82130898568311
 21
103.39472853127479
  0
LINE
  5
D5
100
AcDbEntity
  8
1
  6
CONTINUOUS
 62
             2
100
AcDbLine
 10
4.82130898568311
 20
103.64472853127469
 11
9.93675043058448
 21
103.64472853127469
  0
LINE
  5
D4
100
AcDbEntity
  8
1
  6
CONTINUOUS
 62
             3
100
AcDbLine
 10
46.71134845337782
 20
101.8010363183121
 11
45.3309460479994
 21
102.4447285312752
  0
LINE
  5
D3
100
AcDbEntity
  8
1
  6
CONTINUOUS
 62
             3
100
AcDbLine
 10
73.71620657916327
 20
86.68758904206865
 11
77.24993268968589
 21
83.15386293154684
  0
LINE
  5
D2
100
AcDbEntity
  8
1
  6
CONTINUOUS
 62
             3
100
AcDbLine
 10
77.20813394427013
 20
84.60559145437547
 11
73.71005388928016
 21
88.10795529432591
  0
LINE
  5
D1
100
AcDbEntity
  8
1
  6
CONTINUOUS
 62
             3
100
AcDbLine
 10
55.91692474413924
 20
98.61178351516496
 11
56.17049570120069
 21
99.15556818737836
  0
LINE
  5
D0
100
AcDbEntity
  8
1
  6
CONTINUOUS
 62
             3
100
AcDbLine
 10
78.43148010600162
 20
88.11307392998079
 11
53.61909988179498
 21
99.68327684557474
  0
LINE
  5
CF
100
AcDbEntity
  8
1
  6
CONTINUOUS
 62
             3
100
AcDbLine
 10
78.1520011582673
 20
87.14001918464082
 11
53.40979857212224
 21
98.67749773017488
  0
LINE
  5
CE
100
AcDbEntity
  8
1
  6
CONTINUOUS
 62
             3
100
AcDbLine
 10
46.48965379073522
 20
100.801036318312
 11
47.36807203077208
 21
100.3914231659197
  0
LINE
  5
CD
100
AcDbEntity
  8
1
  6
CONTINUOUS
 62
             3
100
AcDbLine
 10
45.47119260087071
 20
100.89472853127479
 11
46.06703552899526
 21
100.89472853127479
  0
LINE
  5
CC
100
AcDbEntity
  8
1
  6
CONTINUOUS
 62
             3
100
AcDbLine
 10
43.97369888231791
 20
100.89472853127479
 11
23.61846829835378
 21
100.89472853127479
  0
LINE
  5
CB
100
AcDbEntity
  8
1
  6
CONTINUOUS
 62
             3
100
AcDbLine
 10
9.93675043058448
 20
101.89472853127469
 11
21.91752740500265
 21
101.89472853127469
  0
LINE
  5
CA
100
AcDbEntity
  8
1
  6
CONTINUOUS
 62
             3
100
AcDbLine
 10
43.97369888231791
 20
102.89472853127469
 11
25.08661053355082
 21
102.89472853127469
  0
LINE
  5
C9
100
AcDbEntity
  8
1
  6
CONTINUOUS
 62
             3
100
AcDbLine
 10
9.93675043058448
 20
99.89472853127475
 11
22.30768353924073
 21
99.89472853127475
  0
LINE
  5
C8
100
AcDbEntity
  8
1
  6
CONTINUOUS
 62
             3
100
AcDbLine
 10
9.93675043058448
 20
103.89472853127459
 11
9.93675043058448
 21
99.89472853127475
  0
LINE
  5
C7
100
AcDbEntity
  8
1
  6
CONTINUOUS
 62
             3
100
AcDbLine
 10
43.97119260087079
 20
103.89472853127459
 11
23.5117413079171
 21
103.89472853127459
  0
LINE
  5
C6
100
AcDbEntity
  8
1
  6
CONTINUOUS
 62
             3
100
AcDbLine
 10
45.47119260087071
 20
102.4447285312752
 11
44.47119260087098
 21
102.4447285312752
  0
LINE
  5
C5
100
AcDbEntity
  8
1
  6
CONTINUOUS
 62
             3
100
AcDbLine
 10
72.21450063885173
 20
87.42111693756851
 11
73.57396231944044
 21
86.78718954499367
  0
LINE
  5
C4
100
AcDbEntity
  8
0
  6
CONTINUOUS
 62
             3
100
AcDbLine
 10
73.81580708207187
 20
86.12272652057581
 11
73.71287435687188
 21
85.90198657897562
  0
LINE
  5
BF
100
AcDbEntity
  8
0
  6
CONTINUOUS
 62
             3
100
AcDbLine
 10
73.50095883017163
 20
85.44753226547502
 11
72.59465104317042
 21
85.87015052717551
  0
LINE
  5
BE
100
AcDbEntity
  8
0
  6
CONTINUOUS
 62
             3
100
AcDbLine
 10
73.71287435687188
 20
85.90198657897562
 11
73.50095883017163
 21
85.44753226547502
  0
LINE
  5
BD
100
AcDbEntity
  8
1
  6
CONTINUOUS
 62
             3
100
AcDbLine
 10
54.54149879157923
 20
95.66217304150821
 11
54.64906995882647
 21
95.89286015409702
  0
LINE
  5
BC
100
AcDbEntity
  8
1
  6
DOT_CENTER
 62
             1
100
AcDbLine
 10
128.17563114092189
 20
28.644728531277
 11
134.46915798769331
 21
28.644728531277
  0
LINE
  5
BB
100
AcDbEntity
  8
1
  6
DOT_CENTER
 62
             1
100
AcDbLine
 10
131.22119260087049
 20
25.14691833065976
 11
131.22119260087049
 21
32.10996931006552
  0
LINE
  5
BA
100
AcDbEntity
  8
1
  6
DOT_CENTER
 62
             1
100
AcDbLine
 10
127.7279858381207
 20
111.14472853127501
 11
134.66701595556739
 21
111.14472853127501
  0
LINE
  5
B9
100
AcDbEntity
  8
1
  6
DOT_CENTER
 62
             1
100
AcDbLine
 10
131.22119260087049
 20
107.8259401812996
 11
131.22119260087049
 21
114.4422247118876
  0
LINE
  5
B8
100
AcDbEntity
  8
1
  6
DOT_CENTER
 62
             1
100
AcDbLine
 10
45.17310228009956
 20
111.14472853127501
 11
51.58676673134643
 21
111.14472853127501
  0
LINE
  5
B7
100
AcDbEntity
  8
1
  6
DOT_CENTER
 62
             1
100
AcDbLine
 10
48.72119260087077
 20
107.0714785606468
 11
48.72119260087077
 21
114.99424052983269
  0
LINE
  5
B6
100
AcDbEntity
  8
1
  6
DOT_CENTER
 62
             1
100
AcDbLine
 10
45.19287339669783
 20
28.644728531277
 11
51.70837091024941
 21
28.644728531277
  0
LINE
  5
B5
100
AcDbEntity
  8
1
  6
DOT_CENTER
 62
             1
100
AcDbLine
 10
48.72119260087077
 20
25.13478290044037
 11
48.72119260087077
 21
31.99320133575753
  0
LINE
  5
B4
100
AcDbEntity
  8
1
  6
DOT_CENTER
 62
             1
100
AcDbLine
 10
38.97119260087078
 20
69.89472853127622
 11
140.97119260087081
 21
69.89472853127622
  0
LINE
  5
B3
100
AcDbEntity
  8
0
  6
CONTINUOUS
 62
             3
100
AcDbLine
 10
52.22038256367074
 20
102.51553114287481
 11
51.94849022755918
 21
102.64231662139851
  0
LINE
  5
B2
100
AcDbEntity
  8
0
  6
CONTINUOUS
 62
             3
100
AcDbLine
 10
49.57293710247085
 20
94.89045689427491
 11
53.68811424487073
 21
92.97151827807552
  0
LINE
  5
B1
100
AcDbEntity
  8
0
  6
CONTINUOUS
 62
             3
100
AcDbLine
 10
60.2720006688707
 20
100.990676797775
 11
53.53309191043624
 21
104.13308155933029
  0
LINE
  5
B0
100
AcDbEntity
  8
0
  6
CONTINUOUS
 62
             3
100
AcDbLine
 10
79.05456269547007
 20
28.30353725827668
 11
79.2653061516701
 21
25.89472853127704
  0
LINE
  5
AF
100
AcDbEntity
  8
0
  6
CONTINUOUS
 62
             3
100
AcDbLine
 10
87.41511816646988
 20
25.89472853127704
 11
87.32047476866998
 21
26.97650751767661
  0
LINE
  5
AE
100
AcDbEntity
  8
0
  6
CONTINUOUS
 62
             3
100
AcDbLine
 10
131.44853576967091
 20
81.23624534597541
 11
133.97119260087069
 21
83.00262867547568
  0
LINE
  5
AD
100
AcDbEntity
  8
0
  6
CONTINUOUS
 62
             3
100
AcDbLine
 10
132.19314354157089
 20
91.66884946577555
 11
128.46482119997069
 21
89.05825005727529
  0
LINE
  5
AC
100
AcDbEntity
  8
0
  6
CONTINUOUS
 62
             3
100
AcDbLine
 10
45.97119260087089
 20
90.29693429457551
 11
45.97119260087089
 21
49.49252276807673
  0
LINE
  5
AB
100
AcDbEntity
  8
0
  6
CONTINUOUS
 62
             3
100
AcDbLine
 10
49.6957180003723
 20
97.10137051517499
 11
50.11753102364632
 21
98.00595146280021
  0
LINE
  5
AA
100
AcDbEntity
  8
0
  6
CONTINUOUS
 62
             3
100
AcDbLine
 10
69.56898683767049
 20
25.89472853127704
 11
79.2653061516701
 21
25.89472853127704
  0
LINE
  5
A9
100
AcDbEntity
  8
0
  6
CONTINUOUS
 62
             3
100
AcDbLine
 10
110.37339836407109
 20
113.89472853127489
 11
69.56898683767049
 21
113.8947285312754
  0
LINE
  5
A8
100
AcDbEntity
  8
0
  6
CONTINUOUS
 62
             3
100
AcDbLine
 10
85.76949622677012
 20
25.89472853127704
 11
110.37339836407109
 21
25.89472853127704
  0
LINE
  5
A7
100
AcDbEntity
  8
0
  6
CONTINUOUS
 62
             3
100
AcDbLine
 10
133.97119260087069
 20
49.49252276807632
 11
133.97119260087069
 21
83.00262867547568
  0
LINE
  5
A0
100
AcDbEntity
  8
0
  6
CONTINUOUS
 62
             3
100
AcDbLine
 10
85.90938841017007
 20
25.89472853127704
 11
85.8041936292699
 21
27.09711037827663
  0
LINE
  5
9A
100
AcDbEntity
  8
0
  6
CONTINUOUS
 62
             3
100
AcDbLine
 10
132.86692303457031
 20
90.30947306267549
 11
129.11851662867039
 21
87.68481064097551
  0
LINE
  5
99
100
AcDbEntity
  8
0
  6
CONTINUOUS
 62
             3
100
AcDbLine
 10
131.00292894417089
 20
82.75538997057551
 11
107.87345198832411
 21
66.55995585154645
  0
LINE
  5
98
100
AcDbEntity
  8
0
  6
CONTINUOUS
 62
             3
100
AcDbLine
 10
134.47119260087061
 20
47.09670230097677
 11
134.47119260068089
 21
83.3527324444425
  0
LINE
  5
97
100
AcDbEntity
  8
0
  6
CONTINUOUS
 62
             3
100
AcDbLine
 10
84.44860805157009
 20
25.3947285312771
 11
112.7692188311709
 21
25.3947285312771
  0
LINE
  5
96
100
AcDbEntity
  8
0
  6
CONTINUOUS
 62
             3
100
AcDbLine
 10
59.13651772177067
 20
99.86509431327521
 11
85.80483495179573
 21
87.42945375871487
  0
LINE
  5
95
100
AcDbEntity
  8
0
  6
CONTINUOUS
 62
             3
100
AcDbLine
 10
112.7692188311709
 20
114.39472853127489
 11
67.17316637047033
 21
114.39472853127489
  0
LINE
  5
94
100
AcDbEntity
  8
0
  6
CONTINUOUS
 62
             3
100
AcDbLine
 10
134.47119260077051
 20
89.60309833887533
 11
134.47119260087061
 21
92.69275476167579
  0
LINE
  5
93
100
AcDbEntity
  8
0
  6
CONTINUOUS
 62
             3
100
AcDbLine
 10
51.63895676596368
 20
101.2686594961079
 11
52.85430995627061
 21
103.8749928234753
  0
LINE
  5
92
100
AcDbEntity
  8
0
  6
CONTINUOUS
 62
             3
100
AcDbLine
 10
77.9466228491717
 20
89.06578556247546
 11
56.19523596030913
 21
99.20862384424576
  0
LINE
  5
88
100
AcDbEntity
  8
0
  6
CONTINUOUS
 62
             3
100
AcDbLine
 10
78.25541223487018
 20
87.36178495407562
 11
77.27609431637032
 21
85.26163090047622
  0
LINE
  5
87
100
AcDbEntity
  8
0
  6
CONTINUOUS
 62
             3
100
AcDbLine
 10
77.19759435047025
 20
84.66536446107561
 11
77.20813394427013
 21
84.60559145437547
  0
LINE
  5
86
100
AcDbEntity
  8
0
  6
CONTINUOUS
 62
             3
100
AcDbLine
 10
80.59298394543316
 20
27.92987177690345
 11
78.1320650505746
 21
56.05830345658017
  0
LINE
  5
85
100
AcDbEntity
  8
0
  6
CONTINUOUS
 62
             3
100
AcDbLine
 10
67.17316637047033
 20
25.3947285312771
 11
79.30905048343031
 21
25.3947285312771
  0
LINE
  5
84
100
AcDbEntity
  8
0
  6
CONTINUOUS
 62
             3
100
AcDbLine
 10
45.47119260087071
 20
92.69275476167579
 11
45.47119260087071
 21
47.09670230097677
  0
LINE
  5
83
100
AcDbEntity
  8
0
  6
CONTINUOUS
 62
             3
100
AcDbLine
 10
45.66735921495955
 20
96.74423276276264
 11
47.31298966077087
 21
95.97686268337533
  0
LINE
  5
82
100
AcDbEntity
  8
0
  6
CONTINUOUS
 62
             3
100
AcDbLine
 10
46.94545376894637
 20
99.4851153789227
 11
45.66735921495955
 21
96.74423276276264
  0
LINE
  5
81
100
AcDbEntity
  8
0
  6
CONTINUOUS
 62
             3
100
AcDbLine
 10
45.47119260087071
 20
101.344728531275
 11
45.47119260087071
 21
100.4911097821237
  0
LINE
  5
80
100
AcDbEntity
  8
0
  6
CONTINUOUS
 62
             3
100
AcDbLine
 10
44.47119260087098
 20
101.344728531275
 11
45.47119260087071
 21
101.344728531275
  0
LINE
  5
7F
100
AcDbEntity
  8
0
  6
CONTINUOUS
 62
             3
100
AcDbLine
 10
43.97119260087079
 20
27.89472853127705
 11
43.97119260087079
 21
100.844728531275
  0
LINE
  5
7E
100
AcDbEntity
  8
0
  6
CONTINUOUS
 62
             3
100
AcDbLine
 10
131.97119260087061
 20
23.89472853127711
 11
47.97119260087065
 21
23.89472853127711
  0
LINE
  5
7D
100
AcDbEntity
  8
0
  6
CONTINUOUS
 62
             3
100
AcDbLine
 10
135.97119260087081
 20
111.8947285312755
 11
135.97119260087081
 21
27.89472853127705
  0
LINE
  5
7C
100
AcDbEntity
  8
0
  6
CONTINUOUS
 62
             3
100
AcDbLine
 10
47.97119260087065
 20
115.89472853127531
 11
131.97119260087061
 21
115.89472853127531
  0
LINE
  5
7B
100
AcDbEntity
  8
0
  6
CONTINUOUS
 62
             3
100
AcDbLine
 10
43.97119260087079
 20
102.9447285312752
 11
43.97119260087079
 21
111.8947285312755
  0
LINE
  5
7A
100
AcDbEntity
  8
0
  6
CONTINUOUS
 62
             3
100
AcDbLine
 10
45.47119260087071
 20
103.3598923714262
 11
45.47119260087071
 21
102.4447285312752
  0
LINE
  5
79
100
AcDbEntity
  8
0
  6
CONTINUOUS
 62
             3
100
AcDbLine
 10
49.68223270145926
 20
105.3541567396625
 11
48.46687951118092
 21
102.7478234122695
  0
LINE
  5
78
100
AcDbEntity
  8
0
  6
CONTINUOUS
 62
             3
100
AcDbLine
 10
52.85430995627061
 20
103.8749928234753
 11
49.68223270145926
 21
105.3541567396625
  0
LINE
  5
77
100
AcDbEntity
  8
0
  6
CONTINUOUS
 62
             3
100
AcDbLine
 10
70.40188506475187
 20
88.26635346106856
 11
72.21450063885173
 21
87.42111693756851
  0
LINE
  5
76
100
AcDbEntity
  8
0
  6
CONTINUOUS
 62
             3
100
AcDbLine
 10
49.6957180003723
 20
97.10137051517499
 11
73.71287435687188
 21
85.90198657897562
  0
LINE
  5
75
100
AcDbEntity
  8
0
  6
CONTINUOUS
 62
             3
100
AcDbLine
 10
49.50057617947061
 20
96.68288752967541
 11
49.6957180003723
 21
97.10137051517499
  0
LINE
  5
74
100
AcDbEntity
  8
0
  6
CONTINUOUS
 62
             3
100
AcDbLine
 10
54.52442909227058
 20
94.23660513857539
 11
50.38968479297081
 21
96.16466806987516
  0
LINE
  5
73
100
AcDbEntity
  8
0
  6
CONTINUOUS
 62
             3
100
AcDbLine
 10
49.50057617947061
 20
96.68288752967541
 11
48.83943646967087
 21
95.26506884667523
  0
LINE
  5
72
100
AcDbEntity
  8
0
  6
CONTINUOUS
 62
             3
100
AcDbLine
 10
48.83943646967087
 20
95.26506884667523
 11
47.31298966077087
 21
95.97686268337533
  0
LINE
  5
71
100
AcDbEntity
  8
0
  6
CONTINUOUS
 62
             3
100
AcDbLine
 10
45.47119260087071
 20
92.69275476167579
 11
45.97119260087089
 21
90.29693429457551
  0
LINE
  5
70
100
AcDbEntity
  8
0
  6
CONTINUOUS
 62
             3
100
AcDbLine
 10
45.47119260087071
 20
47.09670230097677
 11
45.97119260087089
 21
49.49252276807673
  0
LINE
  5
6F
100
AcDbEntity
  8
0
  6
CONTINUOUS
 62
             3
100
AcDbLine
 10
67.17316637047033
 20
25.3947285312771
 11
69.56898683767049
 21
25.89472853127704
  0
LINE
  5
6E
100
AcDbEntity
  8
0
  6
CONTINUOUS
 62
             3
100
AcDbLine
 10
49.50057617947061
 20
96.68288752967541
 11
50.38968479297081
 21
96.16466806987516
  0
LINE
  5
6D
100
AcDbEntity
  8
0
  6
CONTINUOUS
 62
             3
100
AcDbLine
 10
112.7692188311709
 20
25.3947285312771
 11
110.37339836407109
 21
25.89472853127704
  0
LINE
  5
6C
100
AcDbEntity
  8
0
  6
CONTINUOUS
 62
             3
100
AcDbLine
 10
134.47119260087061
 20
47.09670230097677
 11
133.97119260087069
 21
49.49252276807632
  0
LINE
  5
69
100
AcDbEntity
  8
0
  6
CONTINUOUS
 62
             3
100
AcDbLine
 10
134.47119260087061
 20
92.69275476167579
 11
134.08484484597179
 21
90.85718879797531
  0
LINE
  5
68
100
AcDbEntity
  8
0
  6
CONTINUOUS
 62
             3
100
AcDbLine
 10
112.7692188311709
 20
114.39472853127489
 11
110.37339836407109
 21
113.89472853127489
  0
LINE
  5
67
100
AcDbEntity
  8
0
  6
CONTINUOUS
 62
             3
100
AcDbLine
 10
67.17316637047033
 20
114.39472853127489
 11
69.56898683767049
 21
113.8947285312754
  0
LINE
  5
66
100
AcDbEntity
  8
0
  6
CONTINUOUS
 62
             3
100
AcDbLine
 10
85.80526757676996
 20
27.09860907067663
 11
83.73795194089713
 21
50.72813491438345
  0
LINE
  5
65
100
AcDbEntity
  8
0
  6
CONTINUOUS
 62
             3
100
AcDbLine
 10
129.11668174907041
 20
87.68499136067609
 11
109.6865699069867
 21
74.07988058061916
  0
LINE
  5
64
100
AcDbEntity
  8
0
  6
CONTINUOUS
 62
             3
100
AcDbLine
 10
54.52530890217065
 20
94.23533121637522
 11
71.79921992357018
 21
86.1844023648753
  0
LINE
  5
63
100
AcDbEntity
  8
1
  6
CONTINUOUS
 62
             3
100
AcDbLine
 10
56.17049570120069
 20
99.15556818737836
 11
51.36706442990929
 21
101.39544497460381
  0
LINE
  5
62
100
AcDbEntity
  8
0
  6
CONTINUOUS
 62
             3
100
AcDbLine
 10
54.54149879157923
 20
95.66217304150821
 11
70.40188506475187
 21
88.26635346106856
  0
LINE
  5
61
100
AcDbEntity
  8
1
  6
CONTINUOUS
 62
             3
100
AcDbLine
 10
56.17049570120069
 20
99.15556818737836
 11
56.19523596030913
 21
99.20862384424576
  0
LINE
  5
60
100
AcDbEntity
  8
1
  6
CONTINUOUS
 62
             3
100
AcDbLine
 10
46.94545376894637
 20
99.4851153789227
 11
46.25988347000077
 21
99.80480205952821
  0
LINE
  5
5F
100
AcDbEntity
  8
1
  6
CONTINUOUS
 62
             3
100
AcDbLine
 10
46.25988347000077
 20
99.80480205952821
 11
45.75988347000092
 21
100.03795588860579
  0
LINE
  5
5E
100
AcDbEntity
  8
1
  6
CONTINUOUS
 62
             3
100
AcDbLine
 10
46.68250173174073
 20
103.57989243586709
 11
46.18250173174087
 21
103.8130462649447
  0
LINE
  5
5D
100
AcDbEntity
  8
1
  6
CONTINUOUS
 62
             3
100
AcDbLine
 10
79.2653061516701
 20
25.89472853127704
 11
79.30905048343031
 21
25.3947285312771
  0
LINE
  5
5C
100
AcDbEntity
  8
1
  6
CONTINUOUS
 62
             3
100
AcDbLine
 10
133.97119260087069
 20
83.00262867547568
 11
134.47119260068089
 21
83.3527324444425
  0
LINE
  5
5B
100
AcDbEntity
  8
1
  6
CONTINUOUS
 62
             3
100
AcDbLine
 10
24.44122236357002
 20
101.89472853127469
 11
46.28873019163787
 21
101.89472853127469
  0
LINE
  5
5A
100
AcDbEntity
  8
1
  6
CONTINUOUS
 62
             3
100
AcDbLine
 10
24.8313784978081
 20
99.89472853127475
 11
43.97119260087079
 21
99.89472853127475
  0
LINE
  5
59
100
AcDbEntity
  8
1
  6
CONTINUOUS
 62
             3
100
AcDbLine
 10
21.09477333978641
 20
100.89472853127479
 11
9.93675043058448
 21
100.89472853127479
  0
LINE
  5
58
100
AcDbEntity
  8
1
  6
CONTINUOUS
 62
             3
100
AcDbLine
 10
22.56291557498345
 20
102.89472853127469
 11
9.93675043058448
 21
102.89472853127469
  0
LINE
  5
57
100
AcDbEntity
  8
1
  6
CONTINUOUS
 62
             3
100
AcDbLine
 10
20.98804634934973
 20
103.89472853127459
 11
9.93675043058448
 21
103.89472853127459
  0
LINE
  5
56
100
AcDbEntity
  8
1
  6
CONTINUOUS
 62
             2
100
AcDbLine
 10
82.49463046718408
 20
83.6923633294716
 11
82.49463046718408
 21
84.60347117966852
  0
LINE
  5
55
100
AcDbEntity
  8
1
  6
CONTINUOUS
 62
             2
100
AcDbLine
 10
83.01025546718414
 20
83.6923633294716
 11
82.49463046718408
 21
83.6923633294716
  0
LINE
  5
54
100
AcDbEntity
  8
1
  6
CONTINUOUS
 62
             2
100
AcDbLine
 10
83.01025546718414
 20
84.85450699770875
 11
83.01025546718414
 21
83.6923633294716
  0
LINE
  5
53
100
AcDbEntity
  8
1
  6
CONTINUOUS
 62
             2
100
AcDbLine
 10
83.01025546718414
 20
84.85450699770875
 11
83.01025546718414
 21
83.6923633294716
  0
LINE
  5
52
100
AcDbEntity
  8
1
  6
CONTINUOUS
 62
             2
100
AcDbLine
 10
83.01025546718414
 20
83.6923633294716
 11
82.49463046718408
 21
83.6923633294716
  0
LINE
  5
51
100
AcDbEntity
  8
1
  6
CONTINUOUS
 62
             2
100
AcDbLine
 10
82.49463046718408
 20
83.6923633294716
 11
82.49463046718408
 21
84.57177298899322
  0
LINE
  5
31
100
AcDbEntity
  8
1
  6
PHANTOM
 62
             2
100
AcDbLine
 10
82.75244260086943
 20
57.00409064958624
 11
82.75244260086943
 21
58.55096564958635
  0
LINE
  5
30
100
AcDbEntity
  8
1
  6
PHANTOM
 62
             2
100
AcDbLine
 10
97.18994260087054
 20
58.55096564958635
 11
97.18994260087054
 21
57.00409064958624
  0
LINE
  5
2F
100
AcDbEntity
  8
1
  6
PHANTOM
 62
             2
100
AcDbLine
 10
82.75244260086943
 20
58.55096564958635
 11
97.18994260087054
 21
58.55096564958635
  0
LINE
  5
2E
100
AcDbEntity
  8
1
  6
PHANTOM
 62
             2
100
AcDbLine
 10
86.3618176008697
 20
56.4884656495862
 11
86.3618176008697
 21
54.42596564958603
  0
LINE
  5
2D
100
AcDbEntity
  8
1
  6
PHANTOM
 62
             2
100
AcDbLine
 10
86.3618176008697
 20
56.4884656495862
 11
93.58056760087025
 21
56.4884656495862
  0
LINE
  5
2C
100
AcDbEntity
  8
1
  6
PHANTOM
 62
             2
100
AcDbLine
 10
93.58056760087025
 20
54.42596564958603
 11
93.58056760087025
 21
56.4884656495862
  0
LINE
  5
2B
100
AcDbEntity
  8
1
  6
PHANTOM
 62
             2
100
AcDbLine
 10
86.3618176008697
 20
54.42596564958603
 11
93.58056760087025
 21
54.42596564958603
  0
LINE
  5
2A
100
AcDbEntity
  8
1
  6
PHANTOM
 62
             2
100
AcDbLine
 10
82.75244260086943
 20
57.00409064958624
 11
97.18994260087054
 21
57.00409064958624
  0
LINE
  5
29
100
AcDbEntity
  8
1
  6
DOT_CENTER
 62
             1
100
AcDbLine
 10
89.97119260087128
 20
18.89472853127711
 11
89.97119260087128
 21
120.89472853127531
  0
SOLID
  5
23B
100
AcDbEntity
  8
1
 62
             2
100
AcDbTrace
 10
78.2813819974841
 20
8.32079595322018
 11
77.92232115865026
 21
7.47205456743479
 12
74.87843614220746
 22
9.2600941819728
 13
74.87843614220746
 23
9.2600941819728
  0
SOLID
  5
23D
100
AcDbEntity
  8
1
 62
             2
100
AcDbTrace
 10
180.42032904484839
 20
9.35551227283299
 11
180.42032904484839
 21
8.43394478972122
 12
176.92032904484839
 22
8.89472853127711
 13
176.92032904484839
 23
8.89472853127711
  0
INSERT
  5
28F
100
AcDbEntity
  8
0
100
AcDbBlockReference
  2
*D6
 10
0.0
 20
0.0
  0
ENDSEC
  0
SECTION
  2
OBJECTS
  0
DICTIONARY
  5
19
100
AcDbDictionary
  3
ACAD_GROUP
350
1A
  3
ACAD_MLINESTYLE
350
1B
  0
DICTIONARY
  5
1A
102
{ACAD_REACTORS
330
19
102
}
100
AcDbDictionary
  0
DICTIONARY
  5
1B
102
{ACAD_REACTORS
330
19
102
}
100
AcDbDictionary
  3
STANDARD
350
1C
  0
MLINESTYLE
  5
1C
102
{ACAD_REACTORS
330
1B
102
}
100
AcDbMlineStyle
  2
STANDARD
 70
             0
  3

 62
             0
 51
90.0
 52
90.0
 71
             2
 49
0.5
 62
           256
  6
BYLAYER
 49
-0.5
 62
           256
  6
BYLAYER
  0
ENDSEC
  0
EOF
