  0
SECTION
  2
HEADER
  9
$ACADVER
  1
AC1009
  9
$INSBASE
 10
0
 20
0
  9
$EXTMIN
 10
2.23683424918188
 20
113.902681754348
  9
$EXTMAX
 10
351.1448340240275
 20
326.1801273463389
  9
$LIMMIN
 10
2.23683424918188
 20
113.902681754348
  9
$LIMMAX
 10
351.1448340240275
 20
326.1801273463389
  9
$VIEWCTR
 10
10
 20
10
  9
$VIEWSIZE
 40
10
  9
$SNAPMODE
 70
0
  9
$SNAPUNIT
 10
1
 20
1
  9
$SNAPBASE
 10
0
 20
0
  9
$SNAPANG
 50
0
  9
$SNAPSTYLE
 70
0
  9
$SNAPISOPAIR
 70
0
  9
$GRIDMODE
 70
0
  9
$GRIDUNIT
 10
0
 20
0
  9
$ORTHOMODE
 70
0
  9
$REGENMODE
 70
1
  9
$FILLMODE
 70
1
  9
$QTEXTMODE
 70
0
  9
$DRAGMODE
 70
2
  9
$LTSCALE
 40
1
  9
$OSMODE
 70
0
  9
$ATTMODE
 70
1
  9
$TEXTSIZE
 40
3.5
  9
$TRACEWID
 40
0.5
  9
$TEXTSTYLE
  7
STANDARD
  9
$CLAYER
  8
0
  9
$CELTYPE
  6
BYLAYER
  9
$CECOLOR
 62
256
  9
$DIMSCALE
 40
1
  9
$DIMASZ
 40
0.18
  9
$DIMEXO
 40
0.0625
  9
$DIMDLI
 40
0.38
  9
$DIMRND
 40
0
  9
$DIMDLE
 40
0
  9
$DIMEXE
 40
0.18
  9
$DIMTP
 40
0
  9
$DIMTM
 40
0
  9
$DIMTXT
 40
0.18
  9
$DIMCEN
 40
0.09
  9
$DIMTSZ
 40
0
  9
$DIMTOL
 70
0
  9
$DIMLIM
 70
0
  9
$DIMTIH
 70
1
  9
$DIMTOH
 70
1
  9
$DIMSE1
 70
0
  9
$DIMSE2
 70
0
  9
$DIMTAD
 70
0
  9
$DIMZIN
 70
0
  9
$DIMBLK
  1

  9
$DIMASO
 70
1
  9
$DIMSHO
 70
1
  9
$DIMPOST
  1

  9
$DIMAPOST
  1

  9
$DIMALT
 70
0
  9
$DIMALTD
 70
2
  9
$DIMALTF
 40
25.4
  9
$DIMLFAC
 40
1
  9
$DIMTOFL
 70
0
  9
$DIMTVP
 40
0
  9
$DIMTIX
 70
0
  9
$DIMSOXD
 70
0
  9
$DIMSAH
 70
0
  9
$DIMBLK1
  1

  9
$DIMBLK2
  1

  9
$DIMSTYLE
  2
*UNNAMED
  9
$DIMCLRD
 70
0
  9
$DIMCLRE
 70
0
  9
$DIMCLRT
 70
0
  9
$DIMTFAC
 40
1
  9
$DIMGAP
 40
0.09
  9
$LUNITS
 70
2
  9
$LUPREC
 70
4
  9
$AXISMODE
 70
0
  9
$AXISUNIT
 10
0
 20
0
  9
$SKETCHINC
 40
0.1
  9
$FILLETRAD
 40
2
  9
$AUNITS
 70
0
  9
$AUPREC
 70
0
  9
$MENU
  1
ACAD
  9
$ELEVATION
 40
0
  9
$THICKNESS
 40
0
  9
$VIEWDIR
 10
0
 20
0
 30
1
  9
$LIMCHECK
 70
0
  9
$BLIPMODE
 70
1
  9
$CHAMFERA
 40
0
  9
$CHAMFERB
 40
0
  9
$FASTZOOM
 70
1
  9
$SKPOLY
 70
0
  9
$ANGBASE
 50
0
  9
$ANGDIR
 70
0
  9
$PDMODE
 70
0
  9
$PDSIZE
 40
0
  9
$PLINEWID
 40
0
  9
$COORDS
 70
2
  0
ENDSEC
  0
SECTION
  2
TABLES
  0
TABLE
  2
DIMSTYLE
 70
6
  0
DIMSTYLE
  2
DMST_1
 70
0
  3

  4

  5

  6

  7

 40
1
 41
3.2
 42
1
 43
7
 44
1.5
 45
0
 46
0
 47
0
 48
0
140
3.2
141
0
142
0
143
25.4
144
1
145
0
146
1
147
0.09
 71
0
 72
0
 73
0
 74
0
 75
0
 76
0
 77
1
 78
9
170
0
171
2
172
0
173
0
174
0
175
0
176
2
177
2
178
2
  0
DIMSTYLE
  2
DMST_2
 70
0
  3

  4

  5

  6

  7

 40
1
 41
3.2
 42
1
 43
7
 44
1.5
 45
0
 46
0
 47
0
 48
0
140
3.2
141
0
142
0
143
25.4
144
1
145
0
146
0.6
147
0.09
 71
1
 72
0
 73
0
 74
0
 75
0
 76
0
 77
1
 78
9
170
0
171
2
172
0
173
0
174
0
175
0
176
2
177
2
178
2
  0
DIMSTYLE
  2
DMST_3
 70
0
  3

  4

  5

  6
DOT
  7

 40
1
 41
1.6
 42
1
 43
7
 44
1.5
 45
0
 46
0
 47
0
 48
0
140
3.2
141
0
142
0
143
25.4
144
1
145
0
146
1
147
0.09
 71
0
 72
0
 73
1
 74
1
 75
0
 76
0
 77
1
 78
9
170
0
171
2
172
0
173
1
174
0
175
0
176
2
177
2
178
2
  0
DIMSTYLE
  2
DMST_4
 70
0
  3

  4

  5

  6

  7

 40
1
 41
3.2
 42
1
 43
7
 44
1.5
 45
0
 46
0
 47
0.4
 48
0.4
140
3.2
141
0
142
0
143
25.4
144
1
145
0
146
0.6
147
0.09
 71
1
 72
0
 73
0
 74
0
 75
0
 76
0
 77
1
 78
9
170
0
171
2
172
0
173
0
174
0
175
0
176
2
177
2
178
2
  0
DIMSTYLE
  2
DMST_5
 70
0
  3

  4

  5

  6

  7

 40
1
 41
0
 42
1
 43
7
 44
1.5
 45
0
 46
0
 47
0
 48
0
140
3.2
141
0
142
0
143
25.4
144
1
145
0
146
0.6
147
0.09
 71
1
 72
0
 73
0
 74
0
 75
0
 76
0
 77
1
 78
9
170
0
171
2
172
1
173
0
174
0
175
0
176
2
177
2
178
2
  0
DIMSTYLE
  2
DMST_6
 70
0
  3
)
  4

  5

  6

  7

 40
1
 41
3.2
 42
1
 43
7
 44
1.5
 45
0
 46
0
 47
0
 48
0
140
3.2
141
0
142
0
143
25.4
144
1
145
0
146
1
147
0.09
 71
0
 72
0
 73
0
 74
0
 75
0
 76
0
 77
1
 78
9
170
0
171
2
172
0
173
0
174
1
175
0
176
2
177
2
178
2
  0
ENDTAB
  0
TABLE
  2
LTYPE
 70
9
  0
LTYPE
  2
CONTINUOUS
 70
64
  3
Solid line
 72
65
 73
0
 40
0
  0
LTYPE
  2
BORDER
 70
64
  3
__ __ . __ __ .
 72
65
 73
6
 40
16.06813156857842
 49
4.590894733879548
 49
-2.295447366939774
 49
4.590894733879548
 49
-2.295447366939774
 49
0
 49
-2.295447366939774
  0
LTYPE
  2
CENTER
 70
64
  3
____ _ ____ _
 72
65
 73
4
 40
18.36357893551819
 49
11.47723683469887
 49
-2.295447366939774
 49
2.295447366939774
 49
-2.295447366939774
  0
LTYPE
  2
DASHDOT
 70
64
  3
__ . __ . __ .
 72
65
 73
4
 40
9.181789467759096
 49
4.590894733879548
 49
-2.295447366939774
 49
0
 49
-2.295447366939774
  0
LTYPE
  2
DASHED
 70
64
  3
__ __ __ __ __
 72
65
 73
2
 40
6.886342100819322
 49
4.590894733879548
 49
-2.295447366939774
  0
LTYPE
  2
DIVIDE
 70
64
  3
__ . . __ . . 
 72
65
 73
6
 40
11.47723683469887
 49
4.590894733879548
 49
-2.295447366939774
 49
0
 49
-2.295447366939774
 49
0
 49
-2.295447366939774
  0
LTYPE
  2
DOT
 70
64
  3
..............
 72
65
 73
4
 40
4.590894733879548
 49
0
 49
-2.295447366939774
 49
0
 49
-2.295447366939774
  0
LTYPE
  2
HIDDEN
 70
64
  3
_ _ _ _ _ _ _
 72
65
 73
2
 40
3.443171050409661
 49
2.295447366939774
 49
-1.147723683469887
  0
LTYPE
  2
PHANTOM
 70
64
  3
_____ _ _ _____ _ _ 
 72
65
 73
6
 40
22.95447366939774
 49
11.47723683469887
 49
-2.295447366939774
 49
2.295447366939774
 49
-2.295447366939774
 49
2.295447366939774
 49
-2.295447366939774
  0
ENDTAB
  0
TABLE
  2
LAYER
 70
3
  0
LAYER
  2
1
 70
0
 62
7
  6
CONTINUOUS
  0
LAYER
  2
0
 70
0
 62
7
  6
CONTINUOUS
  0
ENDTAB
  0
TABLE
  2
STYLE
 70
4
  0
STYLE
  2
STANDARD
 70
0
 40
0
 41
1
 50
0
 71
0
 42
3.5
  3
txt
  4

  0
STYLE
  2
SIMPLEX
 70
0
 40
0
 41
1
 50
0
 71
0
 42
3.5
  3
simplex
  4

  0
STYLE
  2
COMPLEX
 70
0
 40
0
 41
1
 50
0
 71
0
 42
3.5
  3
complex
  4

  0
STYLE
  2
ITALIC
 70
0
 40
0
 41
1
 50
0
 71
0
 42
3.5
  3
italic
  4

  0
ENDTAB
  0
TABLE
  2
VIEW
 70
0
  0
ENDTAB
  0
ENDSEC
  0
SECTION
  2
BLOCKS
  0
BLOCK
  8
1
  2
*D0
 70
1
 10
0
 20
0
 30
0
  0
LINE
  8
1
 62
2
 10
349.6448340240275
 20
203.2301273463388
 30
0
 11
349.6448340240275
 21
288.7301273463389
 31
0
  0
LINE
  8
1
 62
2
 10
332.6448340240275
 20
203.2301273463388
 30
0
 11
351.1448340240275
 21
203.2301273463388
 31
0
  0
LINE
  8
1
 62
2
 10
332.6448340240275
 20
288.7301273463389
 30
0
 11
351.1448340240275
 21
288.7301273463389
 31
0
  0
SOLID
  8
1
 62
2
 10
349.6448340240275
 20
288.7301273463389
 30
0
 11
350.0608340240275
 21
285.5301273463389
 31
0
 12
349.2288340240275
 22
285.5301273463389
 32
0
 13
349.2288340240275
 23
285.5301273463389
 33
0
  0
SOLID
  8
1
 62
2
 10
349.6448340240275
 20
203.2301273463388
 30
0
 11
349.2288340240275
 21
206.4301273463388
 31
0
 12
350.0608340240275
 22
206.4301273463388
 32
0
 13
350.0608340240275
 23
206.4301273463388
 33
0
  0
TEXT
  8
1
 62
2
 10
347.2181673573609
 20
243.6436567581035
 30
0
 40
3.2
  1
85.5
 50
90
 41
0.9
  0
TEXT
  8
1
 62
2
 10
347.2181673573609
 20
239.5965979345741
 30
0
 40
3.2
  1
âË
 50
90
 41
0.9
  0
ENDBLK
  8
0
  0
BLOCK
  8
0
  2
G8M2
 70
0
 10
-230.3056039568895
 20
406.2520033892408
 30
0
  0
POINT
  8
1
 62
4
  6
DIVIDE
 10
331.6448340240275
 20
203.2301273463388
 30
0
  0
POINT
  8
1
 62
4
  6
DIVIDE
 10
331.6448340240274
 20
288.7301273463389
 30
0
  0
DIMENSION
  8
1
  6
CONTINUOUS
 62
2
  2
*D0
  3
DMST_1
 10
349.6448340240275
 20
203.2301273463388
 30
0
 11
346.0448340240275
 21
245.9801273463388
 31
0
 12
0
 22
0
 32
0
 70
1
  1
âË<>
 13
331.6448340240274
 23
288.7301273463389
 33
0
 14
331.6448340240275
 24
203.2301273463388
 34
0
 53
0
  0
ENDBLK
  8
0
  0
BLOCK
  8
1
  2
*D1
 70
1
 10
0
 20
0
 30
0
  0
LINE
  8
1
 62
2
 10
201.6448340240277
 20
204.4801273463388
 30
0
 11
201.6448340240277
 21
287.4801273463388
 31
0
  0
LINE
  8
1
 62
2
 10
229.6448340240277
 20
204.4801273463388
 30
0
 11
200.1448340240277
 21
204.4801273463388
 31
0
  0
LINE
  8
1
 62
2
 10
229.6448340240277
 20
287.4801273463388
 30
0
 11
200.1448340240277
 21
287.4801273463388
 31
0
  0
SOLID
  8
1
 62
2
 10
201.6448340240277
 20
287.4801273463388
 30
0
 11
202.0608340240277
 21
284.2801273463388
 31
0
 12
201.2288340240277
 22
284.2801273463388
 32
0
 13
201.2288340240277
 23
284.2801273463388
 33
0
  0
SOLID
  8
1
 62
2
 10
201.6448340240277
 20
204.4801273463388
 30
0
 11
201.2288340240277
 21
207.6801273463388
 31
0
 12
202.0608340240277
 22
207.6801273463388
 32
0
 13
202.0608340240277
 23
207.6801273463388
 33
0
  0
TEXT
  8
1
 62
2
 10
198.7915006906943
 20
237.6756567581033
 30
0
 40
3.2
  1
83h7
 50
90
 41
0.9
  0
TEXT
  8
1
 62
2
 10
196.7115006906944
 20
249.8356567581033
 30
0
 40
1.92
  1
 0
 50
90
 41
0.9
  0
TEXT
  8
1
 62
2
 10
199.5915006906943
 20
249.8356567581033
 30
0
 40
1.92
  1
-0.035
 50
90
 41
0.9
  0
TEXT
  8
1
 62
2
 10
198.7915006906943
 20
233.6285979345739
 30
0
 40
3.2
  1
âË
 50
90
 41
0.9
  0
ENDBLK
  8
0
  0
BLOCK
  8
1
  2
*D2
 70
1
 10
0
 20
0
 30
0
  0
LINE
  8
1
 62
2
 10
229.6448340240276
 20
305.9801273463389
 30
0
 11
231.6448340240276
 21
305.9801273463389
 31
0
  0
LINE
  8
1
 62
2
 10
229.6448340240276
 20
305.9801273463389
 30
0
 11
223.2448340240276
 21
305.9801273463389
 31
0
  0
LINE
  8
1
 62
2
 10
229.6448340240276
 20
287.4801273463389
 30
0
 11
229.6448340240276
 21
307.4801273463389
 31
0
  0
LINE
  8
1
 62
2
 10
231.6448340240276
 20
291.9801273463389
 30
0
 11
231.6448340240276
 21
307.4801273463389
 31
0
  0
CIRCLE
  8
1
 62
2
 10
231.6448340240276
 20
305.9801273463389
 30
0
 40
0.8
  0
SOLID
  8
1
 62
2
 10
229.6448340240276
 20
305.9801273463389
 30
0
 11
226.4448340240276
 21
305.5641273463389
 31
0
 12
226.4448340240276
 22
306.3961273463389
 32
0
 13
226.4448340240276
 23
306.3961273463389
 33
0
  0
TEXT
  8
1
 62
2
 10
225.332499900452
 20
307.9801273463389
 30
0
 40
3.2
  1
2
 41
0.9
  0
ENDBLK
  8
0
  0
BLOCK
  8
0
  2
H_H9_______
 70
0
 10
517.4281902030903
 20
504.1795858186938
 30
0
  0
POINT
  8
1
 62
4
  6
DIVIDE
 10
231.6448340240277
 20
290.9801273463388
 30
0
  0
LINE
  8
1
 62
3
 10
230.6448340240277
 20
287.4801273463388
 30
0
 11
229.6448340240277
 21
286.4801273463388
 31
0
  0
LINE
  8
1
 62
3
 10
230.6448340240277
 20
287.4801273463388
 30
0
 11
231.6448340240274
 21
287.4801273463388
 31
0
  0
LINE
  8
1
 62
3
 10
229.6448340240274
 20
245.9801273463388
 30
0
 11
229.6448340240277
 21
286.4801273463388
 31
0
  0
LINE
  8
1
 62
3
 10
229.6448340240277
 20
205.4801273463388
 30
0
 11
230.6448340240277
 21
204.4801273463388
 31
0
  0
LINE
  8
1
 62
3
 10
231.6448340240274
 20
204.4801273463388
 30
0
 11
230.6448340240277
 21
204.4801273463388
 31
0
  0
LINE
  8
1
 62
3
 10
229.6448340240277
 20
205.4801273463388
 30
0
 11
229.6448340240274
 21
245.9801273463388
 31
0
  0
DIMENSION
  8
1
  6
CONTINUOUS
 62
2
  2
*D1
  3
DMST_2
 10
201.6448340240277
 20
204.4801273463388
 30
0
 11
197.218167357361
 21
245.9801273463386
 31
0
 12
0
 22
0
 32
0
 70
1
  1
83h7
 13
230.6448340240277
 23
287.4801273463388
 33
0
 14
230.6448340240277
 24
204.4801273463388
 34
0
 53
0
  0
DIMENSION
  8
1
  6
CONTINUOUS
 62
2
  2
*D2
  3
DMST_3
 10
229.6448340240276
 20
305.9801273463389
 30
0
 11
226.292499900452
 21
309.5801273463389
 31
0
 12
0
 22
0
 32
0
 70
0
 13
231.6448340240277
 23
290.9801273463388
 33
0
 14
229.6448340240277
 24
286.4801273463388
 34
0
 53
0
  0
ENDBLK
  8
0
  0
BLOCK
  8
1
  2
*D3
 70
1
 10
0
 20
0
 30
0
  0
LINE
  8
1
 62
2
 10
213.6448340240277
 20
320.9801273463389
 30
0
 11
231.6448340240277
 21
320.9801273463389
 31
0
  0
LINE
  8
1
 62
2
 10
231.6448340240277
 20
291.9801273463389
 30
0
 11
231.6448340240277
 21
322.4801273463389
 31
0
  0
LINE
  8
1
 62
2
 10
213.6448340240277
 20
251.2961273463389
 30
0
 11
213.6448340240277
 21
322.4801273463389
 31
0
  0
SOLID
  8
1
 62
2
 10
231.6448340240277
 20
320.9801273463389
 30
0
 11
228.4448340240277
 21
320.5641273463389
 31
0
 12
228.4448340240277
 22
321.3961273463389
 32
0
 13
228.4448340240277
 23
321.3961273463389
 33
0
  0
SOLID
  8
1
 62
2
 10
213.6448340240277
 20
320.9801273463389
 30
0
 11
216.8448340240276
 21
321.3961273463389
 31
0
 12
216.8448340240276
 22
320.5641273463389
 32
0
 13
216.8448340240276
 23
320.5641273463389
 33
0
  0
TEXT
  8
1
 62
2
 10
220.9539030783722
 20
322.9801273463389
 30
0
 40
3.2
  1
18
 41
0.9
  0
ENDBLK
  8
0
  0
BLOCK
  8
0
  2
G9M3__1
 70
0
 10
525.8590569585776
 20
260.5743998472301
 30
0
  0
POINT
  8
1
 62
4
  6
DIVIDE
 10
231.6448340240277
 20
290.980127346339
 30
0
  0
LINE
  8
1
 62
2
 10
218.2803570957419
 20
250.7961273463388
 30
0
 11
221.7556733694296
 21
241.1641273463385
 31
0
  0
LINE
  8
1
 62
2
 10
217.080357095742
 20
250.7961273463388
 30
0
 11
220.5556733694295
 21
241.1641273463385
 31
0
  0
LINE
  8
1
 62
2
 10
215.8803570957421
 20
250.7961273463388
 30
0
 11
219.3556733694297
 21
241.1641273463385
 31
0
  0
LINE
  8
1
 62
2
  6
CENTER
 10
225.6448340240277
 20
250.1961273463389
 30
0
 11
212.1448340240277
 21
250.1961273463389
 31
0
  0
LINE
  8
1
 62
3
 10
214.1448340240277
 20
250.7961273463388
 30
0
 11
213.6448340240277
 21
250.2961273463388
 31
0
  0
LINE
  8
1
 62
3
 10
224.1448340240277
 20
250.8301273463389
 30
0
 11
224.1448340240267
 21
250.7961273463388
 31
0
  0
LINE
  8
1
 62
3
 10
229.6448340240277
 20
250.8301273463389
 30
0
 11
224.1448340240277
 21
250.8301273463389
 31
0
  0
LINE
  8
1
 62
3
 10
213.6448340240277
 20
245.9801273463388
 30
0
 11
213.6448340240277
 21
250.2961273463388
 31
0
  0
LINE
  8
1
 62
3
 10
214.1448340240277
 20
250.7961273463388
 30
0
 11
224.1448340240267
 21
250.7961273463388
 31
0
  0
LINE
  8
1
 62
1
 10
231.6448340240277
 20
245.9801273463388
 30
0
 11
208.6448340240277
 21
245.9801273463388
 31
0
  0
LINE
  8
1
 62
2
 10
206.11358249028
 20
163.882665132169
 30
0
 11
156.3846477741083
 21
163.882665132169
 31
0
  0
LINE
  8
1
 62
2
 10
206.11358249028
 20
170.882665132169
 30
0
 11
156.3846477741083
 21
170.882665132169
 31
0
  0
LINE
  8
1
 62
2
 10
206.11358249028
 20
177.882665132169
 30
0
 11
156.3846477741083
 21
177.882665132169
 31
0
  0
LINE
  8
1
 62
2
 10
206.11358249028
 20
184.882665132169
 30
0
 11
156.3846477741083
 21
184.882665132169
 31
0
  0
LINE
  8
1
 62
2
 10
206.11358249028
 20
191.882665132169
 30
0
 11
156.3846477741083
 21
191.882665132169
 31
0
  0
LINE
  8
1
 62
2
  6
CENTER
 10
212.1448340240277
 20
241.7641273463387
 30
0
 11
225.6448340240277
 21
241.7641273463387
 31
0
  0
LINE
  8
1
 62
3
 10
213.6448340240277
 20
241.6641273463388
 30
0
 11
214.1448340240277
 21
241.1641273463388
 31
0
  0
LINE
  8
1
 62
3
 10
224.1448340240267
 20
241.1641273463385
 30
0
 11
224.1448340240277
 21
241.1301273463387
 31
0
  0
LINE
  8
1
 62
3
 10
224.1448340240277
 20
241.1301273463387
 30
0
 11
229.6448340240277
 21
241.1301273463387
 31
0
  0
LINE
  8
1
 62
3
 10
213.6448340240277
 20
241.6641273463388
 30
0
 11
213.6448340240277
 21
245.9801273463388
 31
0
  0
LINE
  8
1
 62
3
 10
224.1448340240267
 20
241.1641273463385
 30
0
 11
214.1448340240277
 21
241.1641273463388
 31
0
  0
CIRCLE
  8
1
 62
3
 10
73.44406918480041
 20
245.9801273463388
 30
0
 40
4.816000000000003
  0
CIRCLE
  8
1
 62
2
  6
CENTER
 10
73.44406918480041
 20
245.9801273463388
 30
0
 40
4.216000000000093
  0
CIRCLE
  8
1
 62
3
 10
73.44406918480041
 20
245.9801273463388
 30
0
 40
5.5
  0
LINE
  8
1
 62
2
 10
156.3846477741082
 20
198.882665132169
 30
0
 11
206.11358249028
 21
198.882665132169
 31
0
  0
LINE
  8
1
 62
2
 10
206.11358249028
 20
198.882665132169
 30
0
 11
217.7001900098045
 21
241.1641273463385
 31
0
  0
SOLID
  8
1
 62
2
 10
217.260766154205
 20
237.9665673003708
 30
0
 11
216.4481497212381
 21
238.1892527795297
 31
0
 12
217.7001900098045
 22
241.1641273463385
 32
0
 13
217.7001900098045
 23
241.1641273463385
 33
0
  0
TEXT
  8
1
 62
2
 10
151.009115132194
 20
200.1636540108002
 30
0
 40
4
  1
âéâWâàü[âïü@üFü@0.6
 41
0.7200000000000001
  0
TEXT
  8
1
 62
2
 10
151.009115132194
 20
193.1636540108002
 30
0
 40
4
  1
êü@ù═ü@èpü@üFü@20%%d
 41
0.7200000000000001
  0
TEXT
  8
1
 62
2
 10
151.009115132194
 20
186.1636540108002
 30
0
 40
4
  1
Äòü@ü@ü@Éöü@üFü@12
 41
0.7200000000000001
  0
TEXT
  8
1
 62
2
 10
151.009115132194
 20
179.1636540108002
 30
0
 40
4
  1
èOü@ü@ü@îaü@üFü@âË9.6
 41
0.7200000000000001
  0
TEXT
  8
1
 62
2
 10
151.009115132194
 20
172.1636540108002
 30
0
 40
4
  1
é╦éÂéÛò¹î³ : ëE
 41
0.7200000000000001
  0
TEXT
  8
1
 62
2
 10
151.009115132194
 20
165.1636540108002
 30
0
 40
4
  1
   âwâèâJâïÄdùl
 41
0.7200000000000001
  0
DIMENSION
  8
1
  6
CONTINUOUS
 62
2
  2
*D3
  3
DMST_1
 10
231.6448340240277
 20
320.9801273463389
 30
0
 11
222.8739030783722
 21
324.5801273463389
 31
0
 12
0
 22
0
 32
0
 70
0
 13
213.6448340240277
 23
250.2961273463388
 33
0
 14
231.6448340240277
 24
290.980127346339
 34
0
 53
0
  0
INSERT
  8
0
  2
H_H9_______
 10
517.4281902030903
 20
504.1795858186938
 30
0
  0
ENDBLK
  8
0
  0
BLOCK
  8
0
  2
G9M3__2
 70
0
 10
50.65021369188361
 20
332.8934075472662
 30
0
  0
LINE
  8
1
 62
3
 10
240.0343266036903
 20
201.0045820470561
 30
0
 11
239.7231857744716
 21
201.0000753115185
 31
0
  0
LINE
  8
1
 62
3
 10
246.9517665986817
 20
201.1047780667635
 30
0
 11
246.6486088899259
 21
201.1003869631496
 31
0
  0
LINE
  8
1
 62
3
 10
238.8448340240276
 20
207.8571654067553
 30
0
 11
238.8448340240276
 21
201.1930343887677
 31
0
  0
LINE
  8
1
 62
3
 10
238.8448340240276
 20
206.9332858742441
 30
0
 11
245.8448340240275
 21
206.9332858742441
 31
0
  0
LINE
  8
1
 62
3
 10
238.8448340240276
 20
207.8571654067553
 30
0
 11
245.8448340240275
 21
207.8571654067553
 31
0
  0
LINE
  8
1
 62
3
 10
249.3448340240275
 20
202.0296887169898
 30
0
 11
249.3448340240275
 21
205.8943150120142
 31
0
  0
LINE
  8
1
 62
3
 10
246.8448340240275
 20
204.557107970371
 30
0
 11
246.8448340240275
 21
202.030351632545
 31
0
  0
LINE
  8
1
 62
3
 10
240.8448340240275
 20
205.557107970371
 30
0
 11
245.8448340240275
 21
205.557107970371
 31
0
  0
LINE
  8
1
 62
3
 10
239.8448340240276
 20
202.0302736467199
 30
0
 11
239.8448340240276
 21
204.557107970371
 31
0
  0
LINE
  8
1
 62
3
 10
243.3448340240275
 20
205.557107970371
 30
0
 11
243.3448340240275
 21
191.1930343887677
 31
0
  0
LINE
  8
1
 62
3
 10
245.3448340240275
 20
205.557107970371
 30
0
 11
245.3448340240275
 21
190.6930343887677
 31
0
  0
LINE
  8
1
 62
3
 10
241.3448340240275
 20
205.557107970371
 30
0
 11
241.3448340240275
 21
191.6930343887677
 31
0
  0
LINE
  8
1
 62
3
 10
247.3448340240275
 20
191.1930343887677
 30
0
 11
246.3448340240275
 21
205.4231333741553
 31
0
  0
LINE
  8
1
 62
3
 10
239.3448340240276
 20
191.1930343887677
 30
0
 11
240.3448340240275
 21
205.4231333741553
 31
0
  0
LINE
  8
1
 62
3
 10
240.0475698244088
 20
201.1930343887677
 30
0
 11
238.8448340240276
 21
201.1930343887677
 31
0
  0
LINE
  8
1
 62
3
 10
110.1097427361674
 20
147.0088572660729
 30
0
 11
111.9575018011901
 21
147.774224130803
 31
0
  0
LINE
  8
1
 62
2
 10
110.5716825024231
 20
147.2001989822554
 30
0
 11
114.3985168260739
 21
137.9614036571426
 31
0
  0
LINE
  8
1
 62
2
 10
111.0336222686787
 20
147.391540698438
 30
0
 11
114.8604565923296
 21
138.1527453733249
 31
0
  0
LINE
  8
1
 62
2
 10
111.4955620349344
 20
147.5828824146205
 30
0
 11
115.3223963585851
 21
138.3440870895076
 31
0
  0
LINE
  8
1
 62
3
 10
111.9575018011901
 20
147.774224130803
 30
0
 11
113.8052608662126
 21
148.5395909955332
 31
0
  0
LINE
  8
1
 62
2
 10
112.4194415674456
 20
147.9655658469856
 30
0
 11
116.2462758910966
 21
138.7267705218727
 31
0
  0
LINE
  8
1
 62
2
 10
112.8813813337013
 20
148.156907563168
 30
0
 11
116.7082156573521
 21
138.9181122380553
 31
0
  0
LINE
  8
1
 62
2
 10
113.3433210999569
 20
148.3482492793507
 30
0
 11
117.1701554236078
 21
139.1094539542378
 31
0
  0
LINE
  8
1
 62
3
 10
113.8052608662126
 20
148.5395909955332
 30
0
 11
115.6530199312352
 21
149.3049578602634
 31
0
  0
LINE
  8
1
 62
3
 10
115.6530199312352
 20
149.3049578602634
 30
0
 11
117.5007789962578
 21
150.0703247249936
 31
0
  0
LINE
  8
1
 62
2
 10
115.1910801649794
 20
149.1136161440808
 30
0
 11
119.0179144886304
 21
139.874820818968
 31
0
  0
LINE
  8
1
 62
2
 10
114.7291403987238
 20
148.9222744278983
 30
0
 11
118.5559747223747
 21
139.6834791027854
 31
0
  0
LINE
  8
1
 62
2
 10
114.2672006324682
 20
148.7309327117158
 30
0
 11
118.0940349561191
 21
139.4921373866027
 31
0
  0
LINE
  8
1
 62
2
 10
117.0388392300021
 20
149.878983008811
 30
0
 11
120.8656735536529
 21
140.6401876836981
 31
0
  0
LINE
  8
1
 62
2
 10
116.5768994637464
 20
149.6876412926285
 30
0
 11
120.4037337873974
 21
140.4488459675156
 31
0
  0
LINE
  8
1
 62
2
 10
116.1149596974909
 20
149.4962995764458
 30
0
 11
119.9417940211417
 21
140.2575042513331
 31
0
  0
LINE
  8
1
 62
40
  6
DASHED
 10
94.72553268529288
 20
205.054633255313
 30
0
 11
96.41324829275931
 21
200.9801273463388
 31
0
  0
LINE
  8
1
 62
40
  6
DASHED
 10
92.94364611264621
 20
204.1302361261016
 30
0
 11
94.24846389217458
 21
200.9801273463388
 31
0
  0
LINE
  8
1
 62
40
  6
DASHED
 10
91.11777255265667
 20
203.3120329783012
 30
0
 11
92.08367949158969
 21
200.9801273463388
 31
0
  0
LINE
  8
1
 62
40
  6
DASHED
 10
89.24812798260109
 20
202.5995023966414
 30
0
 11
89.91889509100503
 21
200.9801273463388
 31
0
  0
LINE
  8
1
 62
40
  6
DASHED
 10
87.33449642520259
 20
201.9931657963923
 30
0
 11
87.75411069042019
 21
200.9801273463388
 31
0
  0
LINE
  8
1
 62
3
 10
87.75411069042019
 20
200.9801273463388
 30
0
 11
96.52019799087981
 21
179.8169204966224
 31
0
  0
LINE
  8
1
 62
3
 10
89.91889509100503
 20
200.9801273463388
 30
0
 11
98.13834699648328
 21
181.1366150808594
 31
0
  0
LINE
  8
1
 62
3
 10
92.08367949158969
 20
200.9801273463388
 30
0
 11
100.2157161209249
 21
181.3476542260828
 31
0
  0
LINE
  8
1
 62
3
 10
94.24846389217458
 20
200.9801273463388
 30
0
 11
102.2930852453666
 21
181.5586933713062
 31
0
  0
LINE
  8
1
 62
3
 10
96.41324829275931
 20
200.9801273463388
 30
0
 11
103.9112342509702
 21
182.8783879555431
 31
0
  0
LINE
  8
1
 62
3
 10
104.2173809968622
 20
182.1392843295341
 30
0
 11
117.5007789962578
 21
150.0703247249936
 31
0
  0
LINE
  8
1
 62
3
 10
102.5992319912587
 20
180.8195897452972
 30
0
 11
115.6530199312352
 21
149.3049578602634
 31
0
  0
LINE
  8
1
 62
3
 10
100.521862866817
 20
180.6085506000738
 30
0
 11
113.8052608662126
 21
148.5395909955332
 31
0
  0
LINE
  8
1
 62
3
 10
98.44449374237541
 20
180.3975114548502
 30
0
 11
111.9575018011901
 21
147.774224130803
 31
0
  0
LINE
  8
1
 62
3
 10
96.82634473677189
 20
179.0778168706133
 30
0
 11
110.1097427361674
 21
147.0088572660729
 31
0
  0
ARC
  8
1
 62
3
 10
246.333553518013
 20
202.5975395598418
 30
0
 40
0.808979884795652
 50
289.0160656200737
 51
289.1345326267434
  0
ARC
  8
1
 62
3
 10
245.9553422240629
 20
203.687623349877
 30
0
 40
1.96281109089514
 50
289.1345326267232
 51
289.5104187601715
  0
ARC
  8
1
 62
3
 10
246.3689208904833
 20
202.5203878117275
 30
0
 40
0.7244710266004805
 50
289.5104187601768
 51
290.3713844206655
  0
ARC
  8
1
 62
3
 10
246.0042248618602
 20
203.5025269799047
 30
0
 40
1.772135352117526
 50
290.3713844206632
 51
290.723385572331
  0
ARC
  8
1
 62
3
 10
246.3983156035134
 20
202.4608820787932
 30
0
 40
0.6584335910216996
 50
290.723385572335
 51
291.6707842786626
  0
ARC
  8
1
 62
3
 10
246.1166450501119
 20
203.1697408455498
 30
0
 40
1.421204232735786
 50
291.670784278655
 51
292.1096757021699
  0
ARC
  8
1
 62
3
 10
246.4246840593354
 20
202.4114996053568
 30
0
 40
0.6027802536561659
 50
292.1096757021868
 51
293.144382399723
  0
ARC
  8
1
 62
3
 10
246.1960929137792
 20
202.9462757844217
 30
0
 40
1.184363844829313
 50
293.1443823997066
 51
293.6709359301735
  0
ARC
  8
1
 62
3
 10
246.4485823259591
 20
202.3702951788962
 30
0
 40
0.5554723110936467
 50
293.6709359301744
 51
294.7935692675932
  0
ARC
  8
1
 62
3
 10
246.2560647614794
 20
202.7870642048526
 30
0
 40
1.01455774282704
 50
294.793569267596
 51
295.4081965837509
  0
ARC
  8
1
 62
3
 10
246.4703652487765
 20
202.3359150054825
 30
0
 40
0.5150977354710908
 50
295.4081965837549
 51
296.6189039610755
  0
ARC
  8
1
 62
3
 10
246.3033391629123
 20
202.6691837036683
 30
0
 40
0.8878788221018917
 50
296.6189039610625
 51
297.3214276787763
  0
ARC
  8
1
 62
3
 10
246.5037994444997
 20
202.281155149698
 30
0
 40
0.45112891289698
 50
297.3214276787845
 51
298.4352369924574
  0
ARC
  8
1
 62
3
 10
246.3489289785305
 20
202.5671615291532
 30
0
 40
0.7763742208086808
 50
298.4352369924533
 51
299.0825137325098
  0
ARC
  8
1
 62
3
 10
246.5331603585389
 20
202.2359252173509
 30
0
 40
0.397350876361008
 50
299.0825137325054
 51
300.3472345630822
  0
ARC
  8
1
 62
3
 10
246.416252522306
 20
202.435610908349
 30
0
 40
0.6287419249391364
 50
300.3472345630623
 51
301.1464579902316
  0
ARC
  8
1
 62
3
 10
246.5580981055331
 20
202.200901298348
 30
0
 40
0.3544997500136636
 50
301.1464579902683
 51
302.5639360737061
  0
ARC
  8
1
 62
3
 10
246.46492770689
 20
202.3467900214694
 30
0
 40
0.5276015776102606
 50
302.5639360736991
 51
303.5163920430229
  0
ARC
  8
1
 62
3
 10
246.5795563745235
 20
202.1737126023472
 30
0
 40
0.3200069619445639
 50
303.5163920430109
 51
305.0871226020419
  0
ARC
  8
1
 62
3
 10
246.5019352284579
 20
202.2842091031537
 30
0
 40
0.455042212923685
 50
305.0871226020724
 51
306.1922675069338
  0
ARC
  8
1
 62
3
 10
246.5980514898695
 20
202.1528456912479
 30
0
 40
0.2922703428254581
 50
306.1922675069384
 51
307.9144061169276
  0
ARC
  8
1
 62
3
 10
246.5307682219286
 20
202.2392300367543
 30
0
 40
0.4017659742149609
 50
307.9144061168997
 51
309.1688245354518
  0
ARC
  8
1
 62
3
 10
246.6250116777611
 20
202.1235476865525
 30
0
 40
0.2525539267272703
 50
309.1688245354284
 51
310.7138881609644
  0
ARC
  8
1
 62
3
 10
246.5780532998696
 20
202.1781150774113
 30
0
 40
0.3245448247585796
 50
310.7138881609916
 51
311.9168582339591
  0
ARC
  8
1
 62
3
 10
246.6565800661094
 20
202.0906473542934
 30
0
 40
0.2069988524604355
 50
311.9168582339601
 51
313.8026940330882
  0
ARC
  8
1
 62
3
 10
246.625810519025
 20
202.1227305214444
 30
0
 40
0.251452138528005
 50
313.8026940331147
 51
315.3541619178254
  0
ARC
  8
1
 62
3
 10
246.6809680884552
 20
202.0682506615613
 30
0
 40
0.1739252877062534
 50
315.3541619177869
 51
317.595480841485
  0
ARC
  8
1
 62
3
 10
246.6589689159678
 20
202.0883418486803
 30
0
 40
0.2037182296554759
 50
317.5954808414596
 51
319.5077004441603
  0
ARC
  8
1
 62
3
 10
246.7001664681773
 20
202.0531653897167
 30
0
 40
0.149546082076702
 50
319.5077004441982
 51
322.112186747432
  0
ARC
  8
1
 62
3
 10
246.6829107264024
 20
202.0665927245851
 30
0
 40
0.1714105268643712
 50
322.112186747439
 51
324.3858632370981
  0
ARC
  8
1
 62
3
 10
246.7149693605868
 20
202.043629030461
 30
0
 40
0.1319759319813614
 50
324.3858632371209
 51
327.3446171535777
  0
ARC
  8
1
 62
3
 10
246.6998685619562
 20
202.0533069733789
 30
0
 40
0.149911837266688
 50
327.3446171535793
 51
329.9585619739289
  0
ARC
  8
1
 62
3
 10
246.722669904951
 20
202.0401206151876
 30
0
 40
0.1235721090085105
 50
329.9585619738959
 51
335.0690620404939
  0
ARC
  8
1
 62
3
 10
246.7155814154463
 20
202.0434156359141
 30
0
 40
0.1313890038555839
 50
335.0690620404534
 51
337.4771854477644
  0
ARC
  8
1
 62
3
 10
246.7362707510666
 20
202.034836179181
 30
0
 40
0.1089913324084759
 50
337.4771854476979
 51
340.3782861745646
  0
ARC
  8
1
 62
3
 10
246.7276349081816
 20
202.037914952776
 30
0
 40
0.1181595726530831
 50
340.3782861746807
 51
343.0492275569534
  0
ARC
  8
1
 62
3
 10
246.7464494169017
 20
202.0321804516439
 30
0
 40
0.09849055535153846
 50
343.049227556915
 51
346.2449610162266
  0
ARC
  8
1
 62
3
 10
246.7403641232004
 20
202.0336700807791
 30
0
 40
0.1047555209851957
 50
346.2449610162628
 51
349.2399455117255
  0
ARC
  8
1
 62
3
 10
246.7566150658322
 20
202.0305817882472
 30
0
 40
0.08821373489089661
 50
349.2399455117961
 51
352.7853116111598
  0
ARC
  8
1
 62
3
 10
246.7521621156999
 20
202.0311454864873
 30
0
 40
0.09270222245210076
 50
352.7853116110805
 51
356.1498106270513
  0
ARC
  8
1
 62
3
 10
246.7655318724129
 20
202.0302457043691
 30
0
 40
0.07930222236182237
 50
356.1498106269967
 51
0.07653302814725656
  0
ARC
  8
1
 62
3
 10
240.7343258239922
 20
203.687623349877
 30
0
 40
1.962811090895154
 50
250.4895812398253
 51
250.8654673732822
  0
ARC
  8
1
 62
3
 10
240.3207471575719
 20
202.5203878117275
 30
0
 40
0.7244710266003785
 50
249.6286155793345
 51
250.4895812398062
  0
ARC
  8
1
 62
3
 10
240.6854431861951
 20
203.5025269799047
 30
0
 40
1.772135352117721
 50
249.276614427669
 51
249.6286155793343
  0
ARC
  8
1
 62
3
 10
240.2913524445418
 20
202.4608820787932
 30
0
 40
0.6584335910215512
 50
248.3292157213305
 51
249.2766144276742
  0
ARC
  8
1
 62
3
 10
240.5730229979436
 20
203.1697408455498
 30
0
 40
1.421204232736078
 50
247.8903242978184
 51
248.3292157213291
  0
ARC
  8
1
 62
3
 10
240.2649839887196
 20
202.4114996053568
 30
0
 40
0.6027802536558866
 50
246.8556176003242
 51
247.8903242978332
  0
ARC
  8
1
 62
3
 10
240.4935751342762
 20
202.9462757844217
 30
0
 40
1.184363844829438
 50
246.3290640698164
 51
246.8556176002984
  0
ARC
  8
1
 62
3
 10
240.2410857220962
 20
202.3702951788962
 30
0
 40
0.555472311093636
 50
245.2064307324068
 51
246.3290640698148
  0
ARC
  8
1
 62
3
 10
240.4336032865756
 20
202.7870642048526
 30
0
 40
1.014557742826963
 50
244.5918034162666
 51
245.2064307324201
  0
ARC
  8
1
 62
3
 10
240.2193027992785
 20
202.3359150054825
 30
0
 40
0.5150977354709129
 50
243.3810960389838
 51
244.5918034162793
  0
ARC
  8
1
 62
3
 10
240.3863288851427
 20
202.6691837036683
 30
0
 40
0.8878788221016924
 50
242.6785723212302
 51
243.3810960389719
  0
ARC
  8
1
 62
3
 10
240.1858686035553
 20
202.281155149698
 30
0
 40
0.4511289128968254
 50
241.5647630075775
 51
242.6785723212283
  0
ARC
  8
1
 62
3
 10
240.3407390695245
 20
202.5671615291532
 30
0
 40
0.7763742208084339
 50
240.917486267503
 51
241.5647630075669
  0
ARC
  8
1
 62
3
 10
240.1565076895164
 20
202.2359252173509
 30
0
 40
0.3973508763611596
 50
239.6527654369036
 51
240.9174862674802
  0
ARC
  8
1
 62
3
 10
240.2734155257497
 20
202.435610908349
 30
0
 40
0.6287419249394173
 50
238.8535420097285
 51
239.6527654368975
  0
ARC
  8
1
 62
3
 10
240.1315699425219
 20
202.200901298348
 30
0
 40
0.3544997500136003
 50
237.43606392629
 51
238.8535420097553
  0
ARC
  8
1
 62
3
 10
240.224740341165
 20
202.3467900214694
 30
0
 40
0.5276015776101889
 50
236.4836079570054
 51
237.4360639263009
  0
ARC
  8
1
 62
3
 10
240.1101116735318
 20
202.1737126023472
 30
0
 40
0.3200069619445963
 50
234.9128773979289
 51
236.4836079569891
  0
ARC
  8
1
 62
3
 10
240.1877328195972
 20
202.2842091031537
 30
0
 40
0.4550422129236837
 50
233.8077324930662
 51
234.9128773979276
  0
ARC
  8
1
 62
3
 10
240.0916165581856
 20
202.1528456912479
 30
0
 40
0.2922703428253759
 50
232.0855938831075
 51
233.8077324930616
  0
ARC
  8
1
 62
3
 10
240.1588998261267
 20
202.2392300367543
 30
0
 40
0.4017659742150184
 50
230.8311754645325
 51
232.0855938831003
  0
ARC
  8
1
 62
3
 10
240.0646563702941
 20
202.1235476865525
 30
0
 40
0.2525539267273914
 50
229.2861118390356
 51
230.8311754645665
  0
ARC
  8
1
 62
3
 10
240.1116147481854
 20
202.1781150774113
 30
0
 40
0.3245448247585532
 50
228.0831417660408
 51
229.2861118390388
  0
ARC
  8
1
 62
3
 10
240.0330879819459
 20
202.0906473542934
 30
0
 40
0.2069988524604933
 50
226.197305966855
 51
228.0831417659756
  0
ARC
  8
1
 62
3
 10
240.0638575290301
 20
202.1227305214444
 30
0
 40
0.2514521385279869
 50
224.645838082161
 51
226.1973059668713
  0
ARC
  8
1
 62
3
 10
240.0086999596001
 20
202.0682506615613
 30
0
 40
0.1739252877064056
 50
222.404519158515
 51
224.6458380821473
  0
ARC
  8
1
 62
3
 10
240.0306991320875
 20
202.0883418486803
 30
0
 40
0.203718229655491
 50
220.4922995557826
 51
222.4045191585404
  0
ARC
  8
1
 62
3
 10
239.989501579878
 20
202.0531653897167
 30
0
 40
0.1495460820769465
 50
217.8878132525213
 51
220.492299555724
  0
ARC
  8
1
 62
3
 10
240.0067573216529
 20
202.0665927245851
 30
0
 40
0.1714105268646254
 50
215.6141367628576
 51
217.8878132525143
  0
ARC
  8
1
 62
3
 10
239.9746986874683
 20
202.043629030461
 30
0
 40
0.1319759319812092
 50
212.6553828464689
 51
215.614136762879
  0
ARC
  8
1
 62
3
 10
239.9897994860988
 20
202.0533069733789
 30
0
 40
0.1499118372664457
 50
210.0414380261309
 51
212.6553828464794
  0
ARC
  8
1
 62
3
 10
239.966998143104
 20
202.0401206151876
 30
0
 40
0.1235721090085008
 50
204.9309379595616
 51
210.0414380261766
  0
ARC
  8
1
 62
3
 10
239.9740866326089
 20
202.0434156359141
 30
0
 40
0.1313890038553901
 50
202.5228145522356
 51
204.9309379595623
  0
ARC
  8
1
 62
3
 10
239.9533972969887
 20
202.034836179181
 30
0
 40
0.1089913324084248
 50
199.6217138254405
 51
202.5228145522849
  0
ARC
  8
1
 62
3
 10
239.9620331398737
 20
202.037914952776
 30
0
 40
0.1181595726532807
 50
196.9507724430305
 51
199.6217138253193
  0
ARC
  8
1
 62
3
 10
239.9432186311535
 20
202.0321804516439
 30
0
 40
0.09849055535152899
 50
193.7550389837695
 51
196.950772443085
  0
ARC
  8
1
 62
3
 10
239.9493039248547
 20
202.0336700807791
 30
0
 40
0.1047555209851194
 50
190.7600544882658
 51
193.7550389837483
  0
ARC
  8
1
 62
3
 10
239.9330529822229
 20
202.0305817882472
 30
0
 40
0.08821373489094002
 50
187.2146883888402
 51
190.7600544881936
  0
ARC
  8
1
 62
3
 10
239.9375059323554
 20
202.0311454864873
 30
0
 40
0.09270222245232808
 50
183.8501893729487
 51
187.2146883889041
  0
ARC
  8
1
 62
3
 10
239.9241361756422
 20
202.0302457043691
 30
0
 40
0.07930222236156567
 50
179.9234669718527
 51
183.8501893730129
  0
ARC
  8
1
 62
3
 10
245.8650350522798
 20
215.0670839052435
 30
0
 40
13.87382541039828
 50
273.2044060082344
 51
273.8905839493001
  0
ARC
  8
1
 62
3
 10
245.9701837950967
 20
213.5209620717308
 30
0
 40
12.32413222070528
 50
273.8905839493
 51
274.7142462890453
  0
ARC
  8
1
 62
3
 10
245.9062859839046
 20
214.2958069354622
 30
0
 40
13.10160729627095
 50
274.7142462890451
 51
275.2158360774251
  0
ARC
  8
1
 62
3
 10
246.0747590100265
 20
212.4502516080861
 30
0
 40
11.24837832311724
 50
275.2158360774244
 51
275.7826712144981
  0
ARC
  8
1
 62
3
 10
246.0081220056052
 20
213.1082600736187
 30
0
 40
11.90975237089263
 50
275.7826712144993
 51
276.3180276536997
  0
ARC
  8
1
 62
3
 10
246.1815074512754
 20
211.5422719598901
 30
0
 40
10.33419491871583
 50
276.3180276536985
 51
276.9350060482105
  0
ARC
  8
1
 62
3
 10
246.1145914921476
 20
212.0924171977952
 30
0
 40
10.88839481800829
 50
276.9350060482109
 51
277.5205906495732
  0
ARC
  8
1
 62
3
 10
246.2930798720998
 20
210.7404180768883
 30
0
 40
9.52466474034949
 50
277.5205906495736
 51
278.160178805626
  0
ARC
  8
1
 62
3
 10
246.2039556719477
 20
211.3619568296219
 30
0
 40
10.15256086567785
 50
278.1601788056263
 51
278.4461919104145
  0
ARC
  8
1
 62
3
 10
246.4496111999529
 20
209.707610937083
 30
0
 40
8.48007559800007
 50
278.4461919104138
 51
278.788614588979
  0
ARC
  8
1
 62
3
 10
246.3108935596231
 20
210.6048516495637
 30
0
 40
9.387976187200998
 50
278.7886145889805
 51
279.0979193417974
  0
ARC
  8
1
 62
3
 10
246.5400044913038
 20
209.1741316189742
 30
0
 40
7.93902773230497
 50
279.0979193417966
 51
279.463670198294
  0
ARC
  8
1
 62
3
 10
246.4102045631635
 20
209.9528182136883
 30
0
 40
8.728458434857604
 50
279.4636701982932
 51
279.796335792502
  0
ARC
  8
1
 62
3
 10
246.6257510241929
 20
208.7044613177446
 30
0
 40
7.461629631698928
 50
279.7963357925028
 51
280.1854754428399
  0
ARC
  8
1
 62
3
 10
246.5032474078013
 20
209.3862994901879
 30
0
 40
8.154385309719551
 50
280.18547544284
 51
280.5415521942272
  0
ARC
  8
1
 62
3
 10
246.6811922474881
 20
208.430065797457
 30
0
 40
7.181735711413618
 50
280.5415521942256
 51
281.3501608826787
  0
ARC
  8
1
 62
3
 10
246.6833490838176
 20
208.4193208512788
 30
0
 40
7.170776431723364
 50
281.3501608826812
 51
281.7046242022118
  0
ARC
  8
1
 62
3
 10
246.8389520817925
 20
207.6682476627154
 30
0
 40
6.403754119428837
 50
281.7046242022111
 51
282.101548900333
  0
ARC
  8
1
 62
3
 10
246.8222067742876
 20
207.7463472425588
 30
0
 40
6.483628706721381
 50
282.1015489003329
 51
282.4935848826304
  0
ARC
  8
1
 62
3
 10
246.9594193296048
 20
207.1270932907785
 30
0
 40
5.849355309729158
 50
282.493584882631
 51
282.9281318466833
  0
ARC
  8
1
 62
3
 10
246.9446405092693
 20
207.1914757301964
 30
0
 40
5.91541219457772
 50
282.9281318466835
 51
283.3578289088225
  0
ARC
  8
1
 62
3
 10
247.0677171066715
 20
206.6731623286119
 30
0
 40
5.382686532449276
 50
283.3578289088222
 51
283.8300622882615
  0
ARC
  8
1
 62
3
 10
247.0543397934226
 20
206.7275018965252
 30
0
 40
5.438648494090808
 50
283.8300622882608
 51
284.2974548067281
  0
ARC
  8
1
 62
3
 10
247.1662681476699
 20
206.2883079566996
 30
0
 40
4.985416463819238
 50
284.2974548067298
 51
284.8073734495072
  0
ARC
  8
1
 62
3
 10
247.1538394067875
 20
206.335324352855
 30
0
 40
5.034047884807881
 50
284.8073734495063
 51
285.3124187494427
  0
ARC
  8
1
 62
3
 10
247.2567704773552
 20
205.959391888358
 30
0
 40
4.644278692655558
 50
285.3124187494449
 51
285.8599322413409
  0
ARC
  8
1
 62
3
 10
247.2663322223103
 20
205.9257358108239
 30
0
 40
4.609290715841159
 50
285.8599322413388
 51
286.3198992033645
  0
ARC
  8
1
 62
3
 10
247.4476407990081
 20
205.3065072576695
 30
0
 40
3.964064553146275
 50
286.3198992033645
 51
286.8547730265947
  0
ARC
  8
1
 62
3
 10
247.4718719033208
 20
205.2265263778426
 30
0
 40
3.880493699650072
 50
286.8547730265968
 51
287.4011610098761
  0
ARC
  8
1
 62
3
 10
247.6123888293096
 20
204.7781681602647
 30
0
 40
3.410631913846123
 50
287.401161009873
 51
288.0227797714512
  0
ARC
  8
1
 62
3
 10
247.6321847648967
 20
204.7173248555084
 30
0
 40
3.346649206811736
 50
288.0227797714557
 51
288.6562170814721
  0
ARC
  8
1
 62
3
 10
247.7462989936951
 20
204.3793386497687
 30
0
 40
2.989918590681544
 50
288.6562170814665
 51
289.3651498943734
  0
ARC
  8
1
 62
3
 10
247.7629271070782
 20
204.3320287339991
 30
0
 40
2.939771583943387
 50
289.3651498943783
 51
290.0861044475546
  0
ARC
  8
1
 62
3
 10
247.85881230974
 20
204.0698130716464
 30
0
 40
2.660574474945734
 50
290.0861044475494
 51
290.8826725819384
  0
ARC
  8
1
 62
3
 10
247.8729022626742
 20
204.0328816229048
 30
0
 40
2.621046526860469
 50
290.8826725819486
 51
291.6912701946664
  0
ARC
  8
1
 62
3
 10
247.9555017966746
 20
203.8252260687624
 30
0
 40
2.397566075403685
 50
291.6912701946603
 51
292.5753520466363
  0
ARC
  8
1
 62
3
 10
247.9778757801777
 20
203.7714107846592
 30
0
 40
2.339285032680435
 50
292.5753520466353
 51
293.2854960837092
  0
ARC
  8
1
 62
3
 10
248.0952617013486
 20
203.4986536868964
 30
0
 40
2.042340780557196
 50
293.2854960837153
 51
294.0989661857271
  0
ARC
  8
1
 62
3
 10
248.1212804669448
 20
203.4404851921025
 30
0
 40
1.978618335926243
 50
294.0989661857181
 51
294.9386481595946
  0
ARC
  8
1
 62
3
 10
248.2131592448729
 20
203.2428984112681
 30
0
 40
1.760714123497862
 50
294.938648159597
 51
295.8822409639796
  0
ARC
  8
1
 62
3
 10
248.2342499369495
 20
203.199429560869
 30
0
 40
1.712398926641284
 50
295.8822409639851
 51
296.8524743757778
  0
ARC
  8
1
 62
3
 10
248.309134360201
 20
203.0515203537673
 30
0
 40
1.54661349184323
 50
296.8524743757707
 51
297.9268215184731
  0
ARC
  8
1
 62
3
 10
248.3264231589283
 20
203.0189044251674
 30
0
 40
1.509698706731136
 50
297.9268215184779
 51
299.0277110679287
  0
ARC
  8
1
 62
3
 10
248.3891420432566
 20
202.9058855086486
 30
0
 40
1.380443401453255
 50
299.0277110679251
 51
300.2322350394959
  0
ARC
  8
1
 62
3
 10
248.403103981207
 20
202.8819275116531
 30
0
 40
1.352713970673593
 50
300.2322350394969
 51
301.4623573953879
  0
ARC
  8
1
 62
3
 10
248.4565217536335
 20
202.7946289414559
 30
0
 40
1.250368971921961
 50
301.4623573953841
 51
302.7946198601059
  0
ARC
  8
1
 62
3
 10
248.5062443071935
 20
202.7174587279233
 30
0
 40
1.158567151737385
 50
302.7946198600987
 51
303.8458382136045
  0
ARC
  8
1
 62
3
 10
248.6622598510643
 20
202.4848083406157
 30
0
 40
0.8784474404644361
 50
303.8458382136202
 51
305.2325894767557
  0
ARC
  8
1
 62
3
 10
248.7104795705361
 20
202.4165350078079
 30
0
 40
0.7948628167670595
 50
305.2325894767465
 51
306.7645524218176
  0
ARC
  8
1
 62
3
 10
248.7975778102281
 20
202.2999580927087
 30
0
 40
0.6493420949042388
 50
306.7645524218183
 51
308.6385320058479
  0
ARC
  8
1
 62
3
 10
248.8279258862567
 20
202.261994106238
 30
0
 40
0.6007389058383075
 50
308.6385320058571
 51
310.6628559429083
  0
ARC
  8
1
 62
3
 10
248.8848066550224
 20
202.1957773289712
 30
0
 40
0.5134458164955438
 50
310.6628559429027
 51
313.0311000424078
  0
ARC
  8
1
 62
3
 10
248.9049667959954
 20
202.1741817378472
 30
0
 40
0.4839026135542019
 50
313.0311000424235
 51
315.5461790532285
  0
ARC
  8
1
 62
3
 10
248.9445598241347
 20
202.1353364551862
 30
0
 40
0.4284358319433792
 50
315.5461790532231
 51
318.3938617663495
  0
ARC
  8
1
 62
3
 10
248.9566553460434
 20
202.1245952308262
 30
0
 40
0.4122594432547695
 50
318.3938617663496
 51
321.3668466822276
  0
ARC
  8
1
 62
3
 10
248.9845931906424
 20
202.1022662625339
 30
0
 40
0.3764948520251651
 50
321.3668466822195
 51
327.0625837875736
  0
ARC
  8
1
 62
3
 10
249.0180536625228
 20
202.0805887035225
 30
0
 40
0.3366260704642415
 50
327.0625837875893
 51
329.7759327104131
  0
ARC
  8
1
 62
3
 10
249.0208478891475
 20
202.0789608530956
 30
0
 40
0.3333922492815756
 50
329.7759327104131
 51
332.5170766341478
  0
ARC
  8
1
 62
3
 10
249.0566773792733
 20
202.0603227715733
 30
0
 40
0.2930049933025611
 50
332.5170766341469
 51
335.6287349576898
  0
ARC
  8
1
 62
3
 10
249.0656154489085
 20
202.0562736871514
 30
0
 40
0.2831925433810385
 50
335.6287349576629
 51
338.8329793052828
  0
ARC
  8
1
 62
3
 10
249.0986924718106
 20
202.0434658540187
 30
0
 40
0.2477224146300927
 50
338.8329793052803
 51
342.4725156030991
  0
ARC
  8
1
 62
3
 10
249.1099834557654
 20
202.0398998648996
 30
0
 40
0.2358816968701693
 50
342.4725156030884
 51
346.2665485612532
  0
ARC
  8
1
 62
3
 10
249.1376609478265
 20
202.0331356977445
 30
0
 40
0.2073896361500378
 50
346.2665485612521
 51
350.5501583944094
  0
ARC
  8
1
 62
3
 10
249.1477512875855
 20
202.0314562333781
 30
0
 40
0.1971604838384609
 50
350.550158394443
 51
355.0279158498159
  0
ARC
  8
1
 62
3
 10
249.168333930601
 20
202.0296655901258
 30
0
 40
0.1765000966988139
 50
355.0279158498053
 51
0.01103286266818719
  0
ARC
  8
1
 62
3
 10
240.356114530042
 20
202.5975395598418
 30
0
 40
0.8089798847956041
 50
250.8654673732775
 51
250.9839343799473
  0
POLYLINE
  8
1
 62
3
 66
1
  0
VERTEX
  8
1
 10
245.8448340240275
 20
206.9332858742441
 30
0
 42
-0.0004346688380851981
  0
VERTEX
  8
1
 10
245.9300518279021
 20
206.9316370490418
 30
0
 42
-0.001304275322450964
  0
VERTEX
  8
1
 10
246.0152546010056
 20
206.929692071535
 30
0
 42
-0.002174530757548019
  0
VERTEX
  8
1
 10
246.100427312567
 20
206.9271547894194
 30
0
 42
-0.003045341843508102
  0
VERTEX
  8
1
 10
246.1855549318151
 20
206.9237290503903
 30
0
 42
-0.003915824180587143
  0
VERTEX
  8
1
 10
246.270622427979
 20
206.9191187021434
 30
0
 42
-0.005392635291436415
  0
VERTEX
  8
1
 10
246.3783666780458
 20
206.9112250273446
 30
0
 42
-0.005148092434103749
  0
VERTEX
  8
1
 10
246.485948621402
 20
206.9010593246167
 30
0
 42
-0.004906709999766686
  0
VERTEX
  8
1
 10
246.5933267641229
 20
206.888729948569
 30
0
 42
-0.004668950229573983
  0
VERTEX
  8
1
 10
246.7004596122841
 20
206.8743452538109
 30
0
 42
-0.01315887802563713
  0
VERTEX
  8
1
 10
247.0156632366397
 20
206.8205264668113
 30
0
 42
-0.003180000872797744
  0
VERTEX
  8
1
 10
247.0847810194715
 20
206.8063358138493
 30
0
 42
-0.003282266258985121
  0
VERTEX
  8
1
 10
247.153711906356
 20
206.7912525501608
 30
0
 42
-0.008800558082201669
  0
VERTEX
  8
1
 10
247.331446752013
 20
206.7478411649729
 30
0
 42
-0.009191133860408615
  0
VERTEX
  8
1
 10
247.5075211755623
 20
206.6980353877439
 30
0
 42
-0.009317105107652992
  0
VERTEX
  8
1
 10
247.6763734144911
 20
206.6434243317328
 30
0
 42
-0.004772070116499582
  0
VERTEX
  8
1
 10
247.7573860321262
 20
206.6146567226363
 30
0
 42
-0.004941009018394758
  0
VERTEX
  8
1
 10
247.8378192352999
 20
206.5843229525821
 30
0
 42
-0.005112037162350639
  0
VERTEX
  8
1
 10
247.9176203823788
 20
206.5523806636791
 30
0
 42
-0.009119417806304781
  0
VERTEX
  8
1
 10
248.0525304019571
 20
206.4938794478
 30
0
 42
-0.008101883441600658
  0
VERTEX
  8
1
 10
248.1628876654536
 20
206.4414113545581
 30
0
 42
-0.008617465794751507
  0
VERTEX
  8
1
 10
248.2714182437331
 20
206.385265372948
 30
0
 42
-0.008922487201103864
  0
VERTEX
  8
1
 10
248.3749596459848
 20
206.3269874114702
 30
0
 42
-0.00953132093819802
  0
VERTEX
  8
1
 10
248.4762665216477
 20
206.2649092930783
 30
0
 42
-0.0096835828680764
  0
VERTEX
  8
1
 10
248.5704989048279
 20
206.2020349308776
 30
0
 42
-0.004912912970731058
  0
VERTEX
  8
1
 10
248.6144153118838
 20
206.1708233411146
 30
0
 42
-0.005106599353366289
  0
VERTEX
  8
1
 10
248.6576964598147
 20
206.1387388490837
 30
0
 42
-0.01073601318232723
  0
VERTEX
  8
1
 10
248.7421836331138
 20
206.0718680195571
 30
0
 42
-0.01117529728370428
  0
VERTEX
  8
1
 10
248.8209349121349
 20
206.0036840309505
 30
0
 42
-0.01204546921842501
  0
VERTEX
  8
1
 10
248.8964124210284
 20
205.9318996268472
 30
0
 42
-0.01249729814351564
  0
VERTEX
  8
1
 10
248.9657770428835
 20
205.8590787225527
 30
0
 42
-0.01305745601237102
  0
VERTEX
  8
1
 10
249.0289683790917
 20
205.7855116962237
 30
0
 42
-0.01411401331190021
  0
VERTEX
  8
1
 10
249.0880530259124
 20
205.7085891842369
 30
0
 42
-0.01426559455714347
  0
VERTEX
  8
1
 10
249.1393670303209
 20
205.6332399337087
 30
0
 42
-0.007576318370735763
  0
VERTEX
  8
1
 10
249.1633359016235
 20
205.5944737018179
 30
0
 42
-0.007858327189744954
  0
VERTEX
  8
1
 10
249.1860882521449
 20
205.5550014034023
 30
0
 42
-0.01885541674855343
  0
VERTEX
  8
1
 10
249.2332706981588
 20
205.4620144798598
 30
0
 42
-0.0240445581738928
  0
VERTEX
  8
1
 10
249.2821423338092
 20
205.3408858528629
 30
0
 42
-0.008918723780359392
  0
VERTEX
  8
1
 10
249.2953680261124
 20
205.3005289537793
 30
0
 42
-0.00972210255430807
  0
VERTEX
  8
1
 10
249.3070730955933
 20
205.2597340972616
 30
0
 42
-0.01055924335904601
  0
VERTEX
  8
1
 10
249.3171023098612
 20
205.2185490108305
 30
0
 42
-0.02249132133107708
  0
VERTEX
  8
1
 10
249.3314959186751
 20
205.136043891924
 30
0
 42
-0.008132422280206716
  0
VERTEX
  8
1
 10
249.3361655577255
 20
205.0948399228961
 30
0
 42
-0.005793220961407224
  0
VERTEX
  8
1
 10
249.339690814451
 20
205.053466124659
 30
0
 42
-0.003466714762131638
  0
VERTEX
  8
1
 10
249.3424531496267
 20
205.0119791069493
 30
0
 42
-0.001153743987771111
  0
VERTEX
  8
1
 10
249.3448340240275
 20
204.9704354795031
 30
0
  0
SEQEND
  8
1
  0
POLYLINE
  8
1
 62
3
 66
1
  0
VERTEX
  8
1
 10
245.8448340240275
 20
207.8571654067553
 30
0
 42
-0.0004346688380851981
  0
VERTEX
  8
1
 10
245.9300518279021
 20
207.855516581553
 30
0
 42
-0.001304275322117674
  0
VERTEX
  8
1
 10
246.0152546010056
 20
207.8535716040462
 30
0
 42
-0.002174530757548019
  0
VERTEX
  8
1
 10
246.100427312567
 20
207.8510343219306
 30
0
 42
-0.003045341843841394
  0
VERTEX
  8
1
 10
246.1855549318151
 20
207.8476085829015
 30
0
 42
-0.003915824180920215
  0
VERTEX
  8
1
 10
246.270622427979
 20
207.8429982346546
 30
0
 42
-0.005392635291984659
  0
VERTEX
  8
1
 10
246.3783666780458
 20
207.8351045598558
 30
0
 42
-0.005148092433862824
  0
VERTEX
  8
1
 10
246.485948621402
 20
207.8249388571279
 30
0
 42
-0.00490670999976602
  0
VERTEX
  8
1
 10
246.5933267641229
 20
207.8126094810802
 30
0
 42
-0.004668950229873528
  0
VERTEX
  8
1
 10
246.700459612284
 20
207.7982247863221
 30
0
 42
-0.01315887802598203
  0
VERTEX
  8
1
 10
247.0156632366397
 20
207.7444059993227
 30
0
 42
-0.003180000873980588
  0
VERTEX
  8
1
 10
247.0847810194715
 20
207.7302153463607
 30
0
 42
-0.003282266259378367
  0
VERTEX
  8
1
 10
247.153711906356
 20
207.7151320826722
 30
0
 42
-0.008800558082604933
  0
VERTEX
  8
1
 10
247.331446752013
 20
207.6717206974843
 30
0
 42
-0.009191133860317124
  0
VERTEX
  8
1
 10
247.5075211755623
 20
207.6219149202553
 30
0
 42
-0.009317105107785563
  0
VERTEX
  8
1
 10
247.676373414491
 20
207.5673038642441
 30
0
 42
-0.004772070117038497
  0
VERTEX
  8
1
 10
247.7573860321262
 20
207.5385362551475
 30
0
 42
-0.004941009018817985
  0
VERTEX
  8
1
 10
247.8378192352999
 20
207.5082024850934
 30
0
 42
-0.005112037161859241
  0
VERTEX
  8
1
 10
247.9176203823788
 20
207.4762601961904
 30
0
 42
-0.009119417805509573
  0
VERTEX
  8
1
 10
248.0525304019571
 20
207.4177589803113
 30
0
 42
-0.008101883442124052
  0
VERTEX
  8
1
 10
248.1628876654536
 20
207.3652908870694
 30
0
 42
-0.00861746579530466
  0
VERTEX
  8
1
 10
248.2714182437331
 20
207.3091449054593
 30
0
 42
-0.008922487200930434
  0
VERTEX
  8
1
 10
248.3749596459848
 20
207.2508669439815
 30
0
 42
-0.009531320937322641
  0
VERTEX
  8
1
 10
248.4762665216477
 20
207.1887888255896
 30
0
 42
-0.009683582867930281
  0
VERTEX
  8
1
 10
248.5704989048279
 20
207.1259144633889
 30
0
 42
-0.004912912969263085
  0
VERTEX
  8
1
 10
248.6144153118838
 20
207.0947028736259
 30
0
 42
-0.005106599352518723
  0
VERTEX
  8
1
 10
248.6576964598147
 20
207.0626183815951
 30
0
 42
-0.0107360131825946
  0
VERTEX
  8
1
 10
248.7421836331138
 20
206.9957475520685
 30
0
 42
-0.01117529728453305
  0
VERTEX
  8
1
 10
248.8209349121349
 20
206.9275635634618
 30
0
 42
-0.01204546921870527
  0
VERTEX
  8
1
 10
248.8964124210284
 20
206.8557791593585
 30
0
 42
-0.01249729814312211
  0
VERTEX
  8
1
 10
248.9657770428835
 20
206.782958255064
 30
0
 42
-0.01305745601145204
  0
VERTEX
  8
1
 10
249.0289683790917
 20
206.7093912287349
 30
0
 42
-0.01411401331114033
  0
VERTEX
  8
1
 10
249.0880530259124
 20
206.6324687167481
 30
0
 42
-0.01426559455820073
  0
VERTEX
  8
1
 10
249.1393670303209
 20
206.5571194662199
 30
0
 42
-0.007576318370014853
  0
VERTEX
  8
1
 10
249.1633359016235
 20
206.5183532343292
 30
0
 42
-0.007858327189661238
  0
VERTEX
  8
1
 10
249.1860882521449
 20
206.4788809359136
 30
0
 42
-0.01885541674894537
  0
VERTEX
  8
1
 10
249.2332706981589
 20
206.3858940123711
 30
0
 42
-0.02404455817267429
  0
VERTEX
  8
1
 10
249.2821423338092
 20
206.2647653853741
 30
0
 42
-0.008918723780156648
  0
VERTEX
  8
1
 10
249.2953680261124
 20
206.2244084862905
 30
0
 42
-0.009722102554223018
  0
VERTEX
  8
1
 10
249.3070730955933
 20
206.1836136297728
 30
0
 42
-0.01055924336036255
  0
VERTEX
  8
1
 10
249.3171023098612
 20
206.1424285433417
 30
0
 42
-0.02249132133163836
  0
VERTEX
  8
1
 10
249.3314959186751
 20
206.0599234244352
 30
0
 42
-0.008132422280349943
  0
VERTEX
  8
1
 10
249.3361655577255
 20
206.0187194554072
 30
0
 42
-0.005793220961477281
  0
VERTEX
  8
1
 10
249.339690814451
 20
205.9773456571702
 30
0
 42
-0.003466714762217682
  0
VERTEX
  8
1
 10
249.3424531496267
 20
205.9358586394604
 30
0
 42
-0.001153743987849271
  0
VERTEX
  8
1
 10
249.3448340240275
 20
205.8943150120142
 30
0
  0
SEQEND
  8
1
  0
POLYLINE
  8
1
 62
2
 66
1
  0
VERTEX
  8
1
 10
239.3448340240276
 20
191.1930343887677
 30
0
 42
-0.003298448047741554
  0
VERTEX
  8
1
 10
239.7448340240276
 20
191.3410343887677
 30
0
 42
-0.01008437812731375
  0
VERTEX
  8
1
 10
240.1448340240275
 20
191.4770343887677
 30
0
 42
-0.01738728140019631
  0
VERTEX
  8
1
 10
240.5448340240276
 20
191.5890343887677
 30
0
 42
-0.02533597904389014
  0
VERTEX
  8
1
 10
240.9448340240275
 20
191.6650343887677
 30
0
 42
-0.0335856168083551
  0
VERTEX
  8
1
 10
241.3448340240275
 20
191.6930343887677
 30
0
 42
-0.0335856168082324
  0
VERTEX
  8
1
 10
241.7448340240275
 20
191.6650343887677
 30
0
 42
-0.02533597904399813
  0
VERTEX
  8
1
 10
242.1448340240275
 20
191.5890343887677
 30
0
 42
-0.01738728140018099
  0
VERTEX
  8
1
 10
242.5448340240275
 20
191.4770343887677
 30
0
 42
-0.0100843781273153
  0
VERTEX
  8
1
 10
242.9448340240275
 20
191.3410343887677
 30
0
 42
-0.003298448047695812
  0
VERTEX
  8
1
 10
243.3448340240275
 20
191.1930343887677
 30
0
 42
0.003298448047640411
  0
VERTEX
  8
1
 10
243.7448340240275
 20
191.0450343887677
 30
0
 42
0.01002260566455334
  0
VERTEX
  8
1
 10
244.1448340240275
 20
190.9090343887677
 30
0
 42
0.01734437066685055
  0
VERTEX
  8
1
 10
244.5448340240275
 20
190.7970343887677
 30
0
 42
0.02528613368018856
  0
VERTEX
  8
1
 10
244.9448340240275
 20
190.7210343887677
 30
0
 42
0.03366994074357707
  0
VERTEX
  8
1
 10
245.3448340240275
 20
190.6930343887677
 30
0
 42
0.03624463442785819
  0
VERTEX
  8
1
 10
245.7448340240275
 20
190.7210343887677
 30
0
 42
0.02271310129319747
  0
VERTEX
  8
1
 10
246.1448340240275
 20
190.7970343887677
 30
0
 42
0.01991681447134678
  0
VERTEX
  8
1
 10
246.5448340240275
 20
190.9090343887677
 30
0
 42
0.007450858153939467
  0
VERTEX
  8
1
 10
246.9448340240275
 20
191.0450343887677
 30
0
 42
0.005870053312821179
  0
VERTEX
  8
1
 10
247.3448340240275
 20
191.1930343887677
 30
0
  0
SEQEND
  8
1
  0
POLYLINE
  8
1
 62
2
 66
1
  0
VERTEX
  8
1
 10
96.52019799087981
 20
179.8169204966224
 30
0
 42
-0.003758981882300765
  0
VERTEX
  8
1
 10
96.82178522629627
 20
180.1340748745424
 30
0
 42
-0.0115736970665678
  0
VERTEX
  8
1
 10
97.12888310313879
 20
180.4379253871944
 30
0
 42
-0.02021845519224867
  0
VERTEX
  8
1
 10
97.44700226283342
 20
180.7151681693099
 30
0
 42
-0.02994481564911385
  0
VERTEX
  8
1
 10
97.78165334680624
 20
180.952499355621
 30
0
 42
-0.04021669246248612
  0
VERTEX
  8
1
 10
98.13834699648328
 20
181.1366150808594
 30
0
 42
-0.04021669246248857
  0
VERTEX
  8
1
 10
98.52075697281526
 20
181.2586461015131
 30
0
 42
-0.0299448156491403
  0
VERTEX
  8
1
 10
98.92520951485146
 20
181.327461661094
 30
0
 42
-0.02021845519225378
  0
VERTEX
  8
1
 10
99.34619398116584
 20
181.3563656248706
 30
0
 42
-0.01157369706644344
  0
VERTEX
  8
1
 10
99.77819973033235
 20
181.3586618581108
 30
0
 42
-0.003758981882295436
  0
VERTEX
  8
1
 10
100.2157161209249
 20
181.3476542260828
 30
0
 42
0.003758981882295269
  0
VERTEX
  8
1
 10
100.6532325115175
 20
181.3366465940548
 30
0
 42
0.01147618288698635
  0
VERTEX
  8
1
 10
101.085238260684
 20
181.338942827295
 30
0
 42
0.02014465338959189
  0
VERTEX
  8
1
 10
101.5062227269984
 20
181.3678467910715
 30
0
 42
0.02985723172925048
  0
VERTEX
  8
1
 10
101.9106752690346
 20
181.4366623506526
 30
0
 42
0.04035591223317313
  0
VERTEX
  8
1
 10
102.2930852453666
 20
181.5586933713062
 30
0
 42
0.04349663865814391
  0
VERTEX
  8
1
 10
102.6497788950437
 20
181.7428090965446
 30
0
 42
0.02671950751869839
  0
VERTEX
  8
1
 10
102.9844299790165
 20
181.9801402828556
 30
0
 42
0.02328134681446078
  0
VERTEX
  8
1
 10
103.3025491387112
 20
182.2573830649712
 30
0
 42
0.00834065976473573
  0
VERTEX
  8
1
 10
103.6096470155537
 20
182.5612335776231
 30
0
 42
0.006894286155223031
  0
VERTEX
  8
1
 10
103.9112342509702
 20
182.8783879555431
 30
0
  0
SEQEND
  8
1
  0
POLYLINE
  8
1
 62
2
 66
1
  0
VERTEX
  8
1
 10
96.82634473677189
 20
179.0778168706133
 30
0
 42
-0.003758981882346062
  0
VERTEX
  8
1
 10
97.12793197218838
 20
179.3949712485333
 30
0
 42
-0.01157369706659378
  0
VERTEX
  8
1
 10
97.43502984903091
 20
179.6988217611852
 30
0
 42
-0.02021845519212361
  0
VERTEX
  8
1
 10
97.75314900872556
 20
179.9760645433007
 30
0
 42
-0.02994481564907763
  0
VERTEX
  8
1
 10
98.08780009269839
 20
180.2133957296118
 30
0
 42
-0.04021669246238004
  0
VERTEX
  8
1
 10
98.44449374237541
 20
180.3975114548502
 30
0
 42
-0.04021669246242208
  0
VERTEX
  8
1
 10
98.8269037187074
 20
180.5195424755039
 30
0
 42
-0.0299448156490714
  0
VERTEX
  8
1
 10
99.2313562607436
 20
180.588358035085
 30
0
 42
-0.0202184551921285
  0
VERTEX
  8
1
 10
99.65234072705796
 20
180.6172619988615
 30
0
 42
-0.01157369706657713
  0
VERTEX
  8
1
 10
100.0843464762245
 20
180.6195582321017
 30
0
 42
-0.003758981882425556
  0
VERTEX
  8
1
 10
100.521862866817
 20
180.6085506000738
 30
0
 42
0.003758981882229488
  0
VERTEX
  8
1
 10
100.9593792574096
 20
180.5975429680459
 30
0
 42
0.0114761828870201
  0
VERTEX
  8
1
 10
101.3913850065761
 20
180.599839201286
 30
0
 42
0.02014465338955757
  0
VERTEX
  8
1
 10
101.8123694728905
 20
180.6287431650626
 30
0
 42
0.02985723172921642
  0
VERTEX
  8
1
 10
102.2168220149267
 20
180.6975587246436
 30
0
 42
0.04035591223330869
  0
VERTEX
  8
1
 10
102.5992319912587
 20
180.8195897452972
 30
0
 42
0.04349663865801504
  0
VERTEX
  8
1
 10
102.9559256409358
 20
181.0037054705356
 30
0
 42
0.0267195075187445
  0
VERTEX
  8
1
 10
103.2905767249086
 20
181.2410366568466
 30
0
 42
0.02328134681450888
  0
VERTEX
  8
1
 10
103.6086958846032
 20
181.5182794389622
 30
0
 42
0.008340659764630028
  0
VERTEX
  8
1
 10
103.9157937614457
 20
181.822129951614
 30
0
 42
0.006894286155363814
  0
VERTEX
  8
1
 10
104.2173809968622
 20
182.1392843295341
 30
0
  0
SEQEND
  8
1
  0
ARC
  8
1
 62
3
 10
245.8448340240275
 20
204.557107970371
 30
0
 40
1
 50
0
 51
90
  0
ARC
  8
1
 62
3
 10
240.8448340240275
 20
204.557107970371
 30
0
 40
1
 50
90
 51
180
  0
LINE
  8
1
 62
2
 10
115.116762447927
 20
187.127839266568
 30
0
 11
108.6448010022733
 21
171.4505469061487
 31
0
  0
SOLID
  8
1
 62
2
 10
109.476468323978
 20
174.5691704869047
 30
0
 11
110.255289124394
 21
174.2476546232285
 31
0
 12
108.6448010022733
 22
171.4505469061487
 32
0
 13
108.6448010022733
 23
171.4505469061487
 33
0
  0
ENDBLK
  8
0
  0
BLOCK
  8
0
  2
MOJINOMUKI
 70
0
 10
269.688037979717
 20
292.7101543279068
 30
0
  0
LINE
  8
1
 62
2
 10
269.688037979717
 20
294.2101543279068
 30
0
 11
269.688037979717
 21
296.7101543279068
 31
0
  0
LINE
  8
1
 62
2
 10
267.188037979717
 20
295.7101543279068
 30
0
 11
269.688037979717
 21
294.2101543279068
 31
0
  0
LINE
  8
1
 62
2
 10
272.188037979717
 20
295.7101543279068
 30
0
 11
267.188037979717
 21
295.7101543279068
 31
0
  0
LINE
  8
1
 62
2
 10
266.688037979717
 20
298.7101543279068
 30
0
 11
272.688037979717
 21
298.7101543279068
 31
0
  0
LINE
  8
1
 62
2
 10
272.688037979717
 20
292.7101543279068
 30
0
 11
266.688037979717
 21
292.7101543279068
 31
0
  0
LINE
  8
1
 62
2
 10
272.688037979717
 20
318.7101543279068
 30
0
 11
272.688037979717
 21
292.7101543279068
 31
0
  0
LINE
  8
1
 62
2
 10
266.688037979717
 20
318.7101543279068
 30
0
 11
272.688037979717
 21
318.7101543279068
 31
0
  0
LINE
  8
1
 62
2
 10
266.688037979717
 20
292.7101543279068
 30
0
 11
266.688037979717
 21
318.7101543279068
 31
0
  0
TEXT
  8
1
 62
2
 10
271.688037979717
 20
290.7568998900372
 30
0
 40
4
  1
òÂÄÜé╠î³é½
 50
90
 41
0.9
 72
1
 73
2
 11
269.688037979717
 21
308.7568998900372
 31
0
  0
ENDBLK
  8
0
  0
BLOCK
  8
1
  2
*D4
 70
1
 10
0
 20
0
 30
0
  0
LINE
  8
1
 62
2
 10
231.6448340240276
 20
320.9801273463388
 30
0
 11
334.6448340240275
 21
320.9801273463388
 31
0
  0
LINE
  8
1
 62
2
 10
334.6448340240275
 20
287.7301273463389
 30
0
 11
334.6448340240275
 21
322.4801273463388
 31
0
  0
LINE
  8
1
 62
2
 10
231.6448340240276
 20
291.9801273463388
 30
0
 11
231.6448340240276
 21
322.4801273463388
 31
0
  0
SOLID
  8
1
 62
2
 10
334.6448340240275
 20
320.9801273463388
 30
0
 11
331.4448340240275
 21
320.5641273463388
 31
0
 12
331.4448340240275
 22
321.3961273463388
 32
0
 13
331.4448340240275
 23
321.3961273463388
 33
0
  0
SOLID
  8
1
 62
2
 10
231.6448340240276
 20
320.9801273463388
 30
0
 11
234.8448340240276
 21
321.3961273463388
 31
0
 12
234.8448340240276
 22
320.5641273463388
 32
0
 13
234.8448340240276
 23
320.5641273463388
 33
0
  0
TEXT
  8
1
 62
2
 10
278.7229585985693
 20
322.9801273463388
 30
0
 40
3.2
  1
103
 41
0.9
  0
ENDBLK
  8
0
  0
BLOCK
  8
1
  2
*D5
 70
1
 10
0
 20
0
 30
0
  0
LINE
  8
1
 62
2
 10
36.67406918480049
 20
305.9801273463388
 30
0
 11
110.2140691848005
 21
305.9801273463388
 31
0
  0
LINE
  8
1
 62
2
 10
36.67406918480049
 20
289.2501273463389
 30
0
 11
36.67406918480049
 21
307.4801273463388
 31
0
  0
LINE
  8
1
 62
2
 10
110.2140691848005
 20
289.2501273463389
 30
0
 11
110.2140691848005
 21
307.4801273463388
 31
0
  0
SOLID
  8
1
 62
2
 10
110.2140691848005
 20
305.9801273463388
 30
0
 11
107.0140691848005
 21
305.5641273463388
 31
0
 12
107.0140691848005
 22
306.3961273463388
 32
0
 13
107.0140691848005
 23
306.3961273463388
 33
0
  0
SOLID
  8
1
 62
2
 10
36.67406918480049
 20
305.9801273463388
 30
0
 11
39.87406918480049
 21
306.3961273463388
 31
0
 12
39.87406918480049
 22
305.5641273463388
 32
0
 13
39.87406918480049
 23
305.5641273463388
 33
0
  0
TEXT
  8
1
 62
2
 10
65.38006918480053
 20
307.9801273463388
 30
0
 40
3.2
  1
73.5
 41
0.9
  0
TEXT
  8
1
 62
2
 10
75.70006918480053
 20
308.6201273463388
 30
0
 40
1.92
  1
%%p0.4
 41
0.9
  0
ENDBLK
  8
0
  0
BLOCK
  8
1
  2
*D6
 70
1
 10
0
 20
0
 30
0
  0
LINE
  8
1
 62
2
 10
28.44406918480053
 20
320.9801273463388
 30
0
 11
118.4440691848005
 21
320.9801273463388
 31
0
  0
LINE
  8
1
 62
2
 10
28.44406918480053
 20
282.9801273463388
 30
0
 11
28.44406918480053
 21
322.4801273463388
 31
0
  0
LINE
  8
1
 62
2
 10
118.4440691848005
 20
282.9801273463388
 30
0
 11
118.4440691848005
 21
322.4801273463388
 31
0
  0
SOLID
  8
1
 62
2
 10
118.4440691848005
 20
320.9801273463388
 30
0
 11
115.2440691848005
 21
320.5641273463388
 31
0
 12
115.2440691848005
 22
321.3961273463388
 32
0
 13
115.2440691848005
 23
321.3961273463388
 33
0
  0
SOLID
  8
1
 62
2
 10
28.44406918480053
 20
320.9801273463388
 30
0
 11
31.64406918480053
 21
321.3961273463388
 31
0
 12
31.64406918480053
 22
320.5641273463388
 32
0
 13
31.64406918480053
 23
320.5641273463388
 33
0
  0
TEXT
  8
1
 62
2
 10
71.04406918480052
 20
322.9801273463388
 30
0
 40
3.2
  1
90
 41
0.9
  0
ENDBLK
  8
0
  0
BLOCK
  8
1
  2
*D7
 70
1
 10
0
 20
0
 30
0
  0
LINE
  8
1
 62
2
 10
231.6448340240277
 20
305.9801273463388
 30
0
 11
238.1448340240277
 21
305.9801273463388
 31
0
  0
LINE
  8
1
 62
2
 10
238.1448340240277
 20
305.9801273463388
 30
0
 11
244.5448340240277
 21
305.9801273463388
 31
0
  0
LINE
  8
1
 62
2
 10
231.6448340240277
 20
291.9801273463388
 30
0
 11
231.6448340240277
 21
307.4801273463388
 31
0
  0
LINE
  8
1
 62
2
 10
238.1448340240277
 20
291.9801273463388
 30
0
 11
238.1448340240277
 21
307.4801273463388
 31
0
  0
CIRCLE
  8
1
 62
2
 10
231.6448340240277
 20
305.9801273463388
 30
0
 40
0.8
  0
SOLID
  8
1
 62
2
 10
238.1448340240277
 20
305.9801273463388
 30
0
 11
241.3448340240277
 21
306.3961273463388
 31
0
 12
241.3448340240277
 22
305.5641273463388
 32
0
 13
241.3448340240277
 23
305.5641273463388
 33
0
  0
TEXT
  8
1
 62
2
 10
232.9501114530891
 20
307.9801273463388
 30
0
 40
3.2
  1
6.5
 41
0.9
  0
ENDBLK
  8
0
  0
BLOCK
  8
1
  2
*D8
 70
1
 10
0
 20
0
 30
0
  0
LINE
  8
1
 62
2
 10
115.116762447927
 20
187.127839266568
 30
0
 11
152.8570192079819
 21
187.127839266568
 31
0
  0
TEXT
  8
1
 62
2
 10
139.1610192079819
 20
189.927839266568
 30
0
 40
3.2
  1
300
 50
360
 41
0.9
  0
TEXT
  8
1
 62
2
 10
148.4410192079819
 20
192.007839266568
 30
0
 40
1.92
  1
+40
 50
360
 41
0.9
  0
TEXT
  8
1
 62
2
 10
148.4410192079819
 20
189.127839266568
 30
0
 40
1.92
  1
 0
 50
360
 41
0.9
  0
TEXT
  8
1
 62
2
 10
116.1021956785701
 20
189.927839266568
 30
0
 40
3.2
  1
âèü|âhÉ³ÆÀé%%d
 50
360
 41
0.9
  0
ENDBLK
  8
0
  0
BLOCK
  8
1
  2
*D9
 70
1
 10
0
 20
0
 30
0
  0
LINE
  8
1
 62
2
 10
111.9316126264323
 20
285.5092113476168
 30
0
 11
124.674859117484
 21
305.9801273463388
 31
0
  0
LINE
  8
1
 62
2
 10
124.674859117484
 20
305.9801273463388
 30
0
 11
149.154859117484
 21
305.9801273463388
 31
0
  0
SOLID
  8
1
 62
2
 10
111.9316126264323
 20
285.5092113476168
 30
0
 11
113.2695695706447
 21
288.44569346325
 31
0
 12
113.9758950749718
 22
288.0060023421923
 32
0
 13
113.9758950749718
 23
288.0060023421923
 33
0
  0
TEXT
  8
1
 62
2
 10
138.9593035619285
 20
307.9801273463388
 30
0
 40
3.2
  1
6.5
 41
0.9
  0
TEXT
  8
1
 62
2
 10
129.874859117484
 20
307.9801273463388
 30
0
 40
3.2
  1
4-âË
 41
0.9
  0
TEXT
  8
1
 62
2
 10
146.3993035619285
 20
307.9801273463388
 30
0
 40
3.2
  1
îè
 41
0.9
  0
ENDBLK
  8
0
  0
BLOCK
  8
1
  2
*D10
 70
1
 10
0
 20
0
 30
0
  0
LINE
  8
1
 62
2
 10
73.44406918480061
 20
178.8648391153636
 30
0
 11
73.44406918480061
 21
177.3648391153636
 31
0
  0
LINE
  8
1
 62
2
 10
99.12797804920253
 20
183.9736862311452
 30
0
 11
99.70200319775016
 21
182.5878669323782
 31
0
  0
LINE
  8
1
 62
2
 10
73.4440691848006
 20
193.1038039542889
 30
0
 11
73.44406918480061
 21
178.8648391153636
 31
0
  0
LINE
  8
1
 62
2
 10
92.88445873524708
 20
199.0468752358347
 30
0
 11
99.12797804920253
 21
183.9736862311452
 31
0
  0
ARC
  8
1
 62
2
 10
73.44406918480054
 20
245.9801273463389
 30
0
 40
67.11528823097532
 50
270
 51
292.5000000000001
  0
SOLID
  8
1
 62
2
 10
73.44406918480061
 20
178.8648391153636
 30
0
 11
76.63324358308752
 21
179.3570003260571
 31
0
 12
76.65307623144844
 22
178.5252367382156
 32
0
 13
76.65307623144844
 23
178.5252367382156
 33
0
  0
SOLID
  8
1
 62
2
 10
99.12797804920253
 20
183.9736862311452
 30
0
 11
96.29320232244643
 21
182.431900714611
 31
0
 12
95.99322315563109
 22
183.2079396952536
 32
0
 13
95.99322315563109
 23
183.2079396952536
 33
0
  0
TEXT
  8
1
 62
2
 10
78.0853768275735
 20
180.7996899071185
 30
0
 40
3.2
  1
22.5%%d
 50
8.883576246049689
 41
0.9
  0
ENDBLK
  8
0
  0
BLOCK
  8
0
  2
G9M3__3
 70
0
 10
-17.17203803964651
 20
397.7798987673467
 30
0
  0
POINT
  8
1
 62
4
  6
DIVIDE
 10
334.6448340240275
 20
286.7301273463389
 30
0
  0
POINT
  8
1
 62
4
  6
DIVIDE
 10
231.6448340240277
 20
290.9801273463388
 30
0
  0
POINT
  8
1
 62
4
  6
DIVIDE
 10
36.67406918480049
 20
288.2501273463389
 30
0
  0
POINT
  8
1
 62
4
  6
DIVIDE
 10
28.44406918480053
 20
281.9801273463388
 30
0
  0
POINT
  8
1
 62
4
  6
DIVIDE
 10
110.2140691848005
 20
288.2501273463389
 30
0
  0
POINT
  8
1
 62
4
  6
DIVIDE
 10
118.4440691848005
 20
281.9801273463388
 30
0
  0
POINT
  8
1
 62
4
  6
DIVIDE
 10
238.1448340240277
 20
290.9801273463388
 30
0
  0
LINE
  8
1
 62
4
  6
DIVIDE
 10
73.44406918480053
 20
245.9801273463388
 30
0
 11
73.44406918480053
 21
194.1038039542889
 31
0
  0
LINE
  8
1
 62
3
 10
246.9517665986817
 20
201.1047780667635
 30
0
 11
324.6448340240277
 21
202.2301273463388
 31
0
  0
LINE
  8
1
 62
3
 10
238.8448340240276
 20
200.9873527798649
 30
0
 11
239.7231857744716
 21
201.0000753115182
 31
0
  0
LINE
  8
1
 62
3
 10
238.8448340240276
 20
290.9729019128126
 30
0
 11
238.8448340240276
 21
200.9873527798649
 31
0
  0
LINE
  8
1
 62
3
 10
299.0195712296264
 20
290.1012977992539
 30
0
 11
299.0195712296264
 21
283.166031263519
 31
0
  0
LINE
  8
1
 62
3
 10
299.0195712296264
 20
283.166031263519
 30
0
 11
259.0195712296264
 21
283.7454133457916
 31
0
  0
LINE
  8
1
 62
3
 10
259.0195712296264
 20
283.7454133457916
 30
0
 11
259.0195712296264
 21
290.680679881526
 31
0
  0
LINE
  8
1
 62
3
 10
324.6448340240274
 20
289.7301273463389
 30
0
 11
238.8448340240276
 21
290.9729019128126
 31
0
  0
LINE
  8
1
 62
1
 10
89.66717897436592
 20
206.8140756685023
 30
0
 11
92.50177530288192
 21
199.9707547683461
 31
0
  0
LINE
  8
1
 62
40
  6
DASHED
 10
97.35305856020233
 20
207.8571654067554
 30
0
 11
97.73574199256728
 21
206.9332858742441
 31
0
  0
LINE
  8
1
 62
40
  6
DASHED
 10
83.49486557253289
 20
202.116913921279
 30
0
 11
83.87754900489801
 21
201.1930343887677
 31
0
  0
ARC
  8
1
 62
40
  6
DASHED
 10
73.44406918480053
 20
245.9801273463388
 30
0
 40
44.99999999999996
 50
273.0287793655093
 51
311.9712206344907
  0
ARC
  8
1
 62
40
  6
DASHED
 10
77.72385241987871
 20
235.6478166161961
 30
0
 40
34.99999999999993
 50
280.1263748838113
 51
304.8736251161885
  0
CIRCLE
  8
1
 62
4
  6
DIVIDE
 10
115.116762447927
 20
187.127839266568
 30
0
 40
1
  0
CIRCLE
  8
1
 62
4
  6
DIVIDE
 10
110.2140691848005
 20
282.7501273463389
 30
0
 40
3.25
  0
LINE
  8
1
 62
2
 10
308.7452552126256
 20
305.9801273463389
 30
0
 11
280.5359371757505
 21
305.9801273463389
 31
0
  0
LINE
  8
1
 62
2
 10
280.5359371757505
 20
305.9801273463389
 30
0
 11
275.7384183743281
 21
290.4385148697286
 31
0
  0
SOLID
  8
1
 62
2
 10
276.2797302495105
 20
293.620411320939
 30
0
 11
277.0848208957611
 21
293.3718890058929
 31
0
 12
275.7384183743281
 22
290.4385148697286
 32
0
 13
275.7384183743281
 23
290.4385148697286
 33
0
  0
TEXT
  8
1
 62
2
 10
280.7702907876775
 20
307.3735655496697
 30
0
 40
4
  1
âlü|âÇâvâîü|âg
 41
0.9
  0
DIMENSION
  8
1
  6
CONTINUOUS
 62
2
  2
*D4
  3
DMST_1
 10
231.6448340240276
 20
320.9801273463388
 30
0
 11
282.0829585985693
 21
324.5801273463388
 31
0
 12
0
 22
0
 32
0
 70
0
 13
334.6448340240275
 23
286.7301273463389
 33
0
 14
231.6448340240277
 24
290.9801273463388
 34
0
 53
0
  0
DIMENSION
  8
1
  6
CONTINUOUS
 62
2
  2
*D5
  3
DMST_4
 10
110.2140691848005
 20
305.9801273463388
 30
0
 11
73.44406918480053
 21
309.5801273463388
 31
0
 12
0
 22
0
 32
0
 70
0
  1
73.5
 13
36.67406918480049
 23
288.2501273463389
 33
0
 14
110.2140691848005
 24
288.2501273463389
 34
0
 53
0
  0
DIMENSION
  8
1
  6
CONTINUOUS
 62
2
  2
*D6
  3
DMST_1
 10
28.44406918480053
 20
320.9801273463388
 30
0
 11
73.44406918480053
 21
324.5801273463388
 31
0
 12
0
 22
0
 32
0
 70
0
 13
118.4440691848005
 23
281.9801273463388
 33
0
 14
28.44406918480053
 24
281.9801273463388
 34
0
 53
0
  0
DIMENSION
  8
1
  6
CONTINUOUS
 62
2
  2
*D7
  3
DMST_3
 10
238.1448340240277
 20
305.9801273463388
 30
0
 11
235.8701114530891
 21
309.5801273463388
 31
0
 12
0
 22
0
 32
0
 70
0
 13
231.6448340240277
 23
290.9801273463388
 33
0
 14
238.1448340240277
 24
290.9801273463388
 34
0
 53
0
  0
DIMENSION
  8
1
  6
CONTINUOUS
 62
2
  2
*D8
  3
DMST_5
 10
115.116762447927
 20
187.127839266568
 30
0
 11
134.479607443276
 21
191.527839266568
 31
0
 12
0
 22
0
 32
0
 70
4
  1
300
 15
116.116762447927
 25
187.127839266568
 35
0
 40
0
 53
0
  0
DIMENSION
  8
1
  6
CONTINUOUS
 62
2
  2
*D10
  3
DMST_1
 10
73.44406918480053
 20
245.9801273463388
 30
0
 11
83.25255620168451
 21
183.2267575443634
 31
0
 12
0
 22
0
 32
0
 70
2
 13
89.66717897436592
 23
206.8140756685023
 33
0
 14
92.50177530288192
 24
199.9707547683461
 34
0
 15
73.44406918480053
 25
194.1038039542889
 35
0
 16
86.53761237798682
 26
180.1544405593782
 36
0
 53
0
  0
INSERT
  8
0
  2
G8M2
 10
-230.3056039568895
 20
406.2520033892408
 30
0
  0
INSERT
  8
0
  2
G9M3__1
 10
525.8590569585776
 20
260.5743998472301
 30
0
  0
INSERT
  8
0
  2
G9M3__2
 10
50.65021369188361
 20
332.8934075472662
 30
0
  0
INSERT
  8
0
  2
MOJINOMUKI
 10
269.688037979717
 20
292.7101543279068
 30
0
  0
INSERT
  8
1
  2
*D9
 10
0
 20
0
 30
0
  0
ENDBLK
  8
0
  0
BLOCK
  8
0
  2
G9M3__4
 70
0
 10
18.25625258645857
 20
890.0400093896408
 30
0
  0
LINE
  8
1
 62
1
 10
339.6448340240275
 20
245.9801273463388
 30
0
 11
238.8448340240276
 21
245.9801273463388
 31
0
  0
LINE
  8
1
 62
3
 10
331.6448340240274
 20
203.2301273463388
 30
0
 11
324.6448340240274
 21
203.1717940130055
 31
0
  0
LINE
  8
1
 62
3
 10
334.6448340240274
 20
205.2301273463388
 30
0
 11
331.6448340240274
 21
203.2301273463388
 31
0
  0
LINE
  8
1
 62
3
 10
334.6448340240274
 20
205.2301273463388
 30
0
 11
334.6448340240274
 21
245.9801273463388
 31
0
  0
LINE
  8
1
 62
3
 10
331.6448340240274
 20
203.2301273463388
 30
0
 11
331.6448340240274
 21
245.9801273463388
 31
0
  0
LINE
  8
1
 62
3
 10
324.6448340240274
 20
245.9801273463388
 30
0
 11
324.6448340240274
 21
202.2301273463388
 31
0
  0
LINE
  8
1
 62
3
 10
324.6448340240274
 20
288.7884606796721
 30
0
 11
331.6448340240274
 21
288.7301273463389
 31
0
  0
LINE
  8
1
 62
3
 10
331.6448340240274
 20
288.7301273463389
 30
0
 11
334.6448340240274
 21
286.7301273463389
 31
0
  0
LINE
  8
1
 62
3
 10
334.6448340240274
 20
245.9801273463388
 30
0
 11
334.6448340240274
 21
286.7301273463389
 31
0
  0
LINE
  8
1
 62
3
 10
331.6448340240274
 20
245.9801273463388
 30
0
 11
331.6448340240274
 21
288.7301273463389
 31
0
  0
LINE
  8
1
 62
3
 10
324.6448340240274
 20
289.7301273463389
 30
0
 11
324.6448340240274
 21
245.9801273463388
 31
0
  0
INSERT
  8
0
  2
G9M3__3
 10
-17.17203803964651
 20
397.7798987673467
 30
0
  0
ENDBLK
  8
0
  0
BLOCK
  8
0
  2
G9M3__5
 70
0
 10
69.27475309822955
 20
884.7489892599917
 30
0
  0
INSERT
  8
0
  2
G9M3__4
 10
18.25625258645857
 20
890.0400093896408
 30
0
  0
ENDBLK
  8
0
  0
BLOCK
  8
0
  2
Z
 70
0
 10
-13.55025767146759
 20
93.48115088779218
 30
0
  0
LINE
  8
1
 62
3
 10
238.1448340240276
 20
215.487352779865
 30
0
 11
262.8702732285369
 21
215.8374313810862
 31
0
  0
LINE
  8
1
 62
3
 10
238.1448340240276
 20
226.7417529356416
 30
0
 11
262.8702732285369
 21
227.0918315368627
 31
0
  0
LINE
  8
1
 62
3
 10
254.7500684531104
 20
220.8866145927594
 30
0
 11
262.8702732285369
 21
227.0918315368627
 31
0
  0
LINE
  8
1
 62
3
 10
262.8702732285369
 20
264.8684231558149
 30
0
 11
254.7500684531104
 21
271.0736400999182
 31
0
  0
LINE
  8
1
 62
3
 10
262.8702732285369
 20
264.8684231558149
 30
0
 11
238.1448340240276
 21
265.2185017570361
 31
0
  0
LINE
  8
1
 62
3
 10
262.8702732285369
 20
276.1228233115914
 30
0
 11
238.1448340240276
 21
276.4729019128126
 31
0
  0
ARC
  8
1
 62
3
 10
256.4584340629718
 20
218.6510314200303
 30
0
 40
2.813600038944147
 50
127.38597766211
 51
253.4376811403179
  0
ARC
  8
1
 62
3
 10
259.3254172326908
 20
203.0556859330623
 30
0
 40
13.26420071958221
 50
74.49931624128361
 51
103.7233919025213
  0
ARC
  8
1
 62
3
 10
256.4584340629718
 20
273.3092232726472
 30
0
 40
2.813600038944178
 50
106.5623188596816
 51
232.6140223378893
  0
ARC
  8
1
 62
3
 10
259.3254172326908
 20
288.9045687596153
 30
0
 40
13.26420071958221
 50
256.2766080974788
 51
285.5006837587164
  0
ARC
  8
1
 62
3
 10
255.9414527628189
 20
216.9126771878468
 30
0
 40
0.9999999999999977
 50
253.4376811403166
 51
283.7233919025202
  0
ARC
  8
1
 62
3
 10
255.9414527628189
 20
275.0475775048307
 30
0
 40
1.000000000000086
 50
76.27660809747937
 51
106.5623188596821
  0
ENDBLK
  8
0
  0
BLOCK
  8
0
  2
____M4_______
 70
0
 10
34.4440691848005
 20
219.9801273463388
 30
0
  0
LINE
  8
1
 62
3
 10
36.3206403315269
 20
218.8318761842345
 30
0
 11
35.36140184454909
 21
219.7911146712123
 31
0
  0
LINE
  8
1
 62
3
 10
36.3206403315269
 20
221.1283785084431
 30
0
 11
35.36140184454909
 21
220.1691400214653
 31
0
  0
LINE
  8
1
 62
3
 10
33.2958180226962
 20
218.1035561996124
 30
0
 11
34.25505650967399
 21
219.0627946865901
 31
0
  0
LINE
  8
1
 62
3
 10
35.5923203469048
 20
218.1035561996124
 30
0
 11
34.63308185992699
 21
219.0627946865901
 31
0
  0
LINE
  8
1
 62
3
 10
32.56749803807399
 20
221.1283785084431
 30
0
 11
33.5267365250518
 21
220.1691400214654
 31
0
  0
LINE
  8
1
 62
3
 10
32.56749803807399
 20
218.8318761842345
 30
0
 11
33.5267365250518
 21
219.7911146712123
 31
0
  0
LINE
  8
1
 62
3
 10
35.5923203469048
 20
221.8566984930652
 30
0
 11
34.63308185992699
 21
220.8974600060874
 31
0
  0
LINE
  8
1
 62
3
 10
33.2958180226962
 20
221.8566984930652
 30
0
 11
34.25505650967399
 21
220.8974600060874
 31
0
  0
LINE
  8
1
 62
3
 10
35.36140184454909
 20
272.1691400214653
 30
0
 11
36.3206403315269
 21
273.1283785084431
 31
0
  0
LINE
  8
1
 62
3
 10
35.36140184454909
 20
271.7911146712123
 30
0
 11
36.3206403315269
 21
270.8318761842345
 31
0
  0
LINE
  8
1
 62
3
 10
34.25505650967399
 20
272.8974600060874
 30
0
 11
33.2958180226962
 21
273.8566984930652
 31
0
  0
LINE
  8
1
 62
3
 10
34.63308185992699
 20
272.8974600060874
 30
0
 11
35.5923203469048
 21
273.8566984930652
 31
0
  0
LINE
  8
1
 62
3
 10
33.5267365250518
 20
271.7911146712123
 30
0
 11
32.56749803807399
 21
270.8318761842345
 31
0
  0
LINE
  8
1
 62
3
 10
33.5267365250518
 20
272.1691400214653
 30
0
 11
32.56749803807399
 21
273.1283785084431
 31
0
  0
LINE
  8
1
 62
3
 10
34.63308185992699
 20
271.0627946865902
 30
0
 11
35.5923203469048
 21
270.1035561996123
 31
0
  0
LINE
  8
1
 62
3
 10
34.25505650967399
 20
271.0627946865902
 30
0
 11
33.2958180226962
 21
270.1035561996123
 31
0
  0
LINE
  8
1
 62
3
 10
111.5267365250519
 20
219.7911146712123
 30
0
 11
110.5674980380741
 21
218.8318761842345
 31
0
  0
LINE
  8
1
 62
3
 10
111.5267365250519
 20
220.1691400214653
 30
0
 11
110.5674980380741
 21
221.1283785084431
 31
0
  0
LINE
  8
1
 62
3
 10
112.633081859927
 20
219.0627946865901
 30
0
 11
113.5923203469048
 21
218.1035561996124
 31
0
  0
LINE
  8
1
 62
3
 10
112.2550565096741
 20
219.0627946865901
 30
0
 11
111.2958180226962
 21
218.1035561996124
 31
0
  0
LINE
  8
1
 62
3
 10
113.3614018445492
 20
220.1691400214654
 30
0
 11
114.320640331527
 21
221.1283785084431
 31
0
  0
LINE
  8
1
 62
3
 10
113.3614018445492
 20
219.7911146712123
 30
0
 11
114.320640331527
 21
218.8318761842345
 31
0
  0
LINE
  8
1
 62
3
 10
112.2550565096741
 20
220.8974600060874
 30
0
 11
111.2958180226962
 21
221.8566984930652
 31
0
  0
LINE
  8
1
 62
3
 10
112.633081859927
 20
220.8974600060874
 30
0
 11
113.5923203469048
 21
221.8566984930652
 31
0
  0
LINE
  8
1
 62
3
 10
110.5674980380741
 20
273.1283785084431
 30
0
 11
111.5267365250519
 21
272.1691400214653
 31
0
  0
LINE
  8
1
 62
3
 10
110.5674980380741
 20
270.8318761842345
 30
0
 11
111.5267365250519
 21
271.7911146712123
 31
0
  0
LINE
  8
1
 62
3
 10
113.5923203469048
 20
273.8566984930652
 30
0
 11
112.633081859927
 21
272.8974600060874
 31
0
  0
LINE
  8
1
 62
3
 10
111.2958180226962
 20
273.8566984930652
 30
0
 11
112.2550565096741
 21
272.8974600060874
 31
0
  0
LINE
  8
1
 62
3
 10
114.320640331527
 20
270.8318761842345
 30
0
 11
113.3614018445492
 21
271.7911146712123
 31
0
  0
LINE
  8
1
 62
3
 10
114.320640331527
 20
273.1283785084431
 30
0
 11
113.3614018445492
 21
272.1691400214653
 31
0
  0
LINE
  8
1
 62
3
 10
111.2958180226962
 20
270.1035561996123
 30
0
 11
112.2550565096741
 21
271.0627946865902
 31
0
  0
LINE
  8
1
 62
3
 10
113.5923203469048
 20
270.1035561996123
 30
0
 11
112.633081859927
 21
271.0627946865902
 31
0
  0
ARC
  8
1
 62
3
 10
34.4440691848005
 20
219.9801273463388
 30
0
 40
0.9149999999999195
 50
350.8377712759677
 51
9.162228724032241
  0
ARC
  8
1
 62
3
 10
34.4440691848005
 20
219.9801273463388
 30
0
 40
2.199999999999986
 50
301.4619589546534
 51
328.5380410453462
  0
ARC
  8
1
 62
3
 10
34.4440691848005
 20
219.9801273463388
 30
0
 40
0.9150000000000199
 50
260.8377712759678
 51
279.1622287240312
  0
ARC
  8
1
 62
3
 10
34.4440691848005
 20
219.9801273463388
 30
0
 40
2.200000000000077
 50
211.4619589546524
 51
238.5380410453467
  0
ARC
  8
1
 62
3
 10
34.4440691848005
 20
219.9801273463388
 30
0
 40
0.9150000000000317
 50
170.8377712759689
 51
189.1622287240311
  0
ARC
  8
1
 62
3
 10
34.4440691848005
 20
219.9801273463388
 30
0
 40
2.199999999999982
 50
121.4619589546533
 51
148.5380410453482
  0
ARC
  8
1
 62
3
 10
34.4440691848005
 20
219.9801273463388
 30
0
 40
0.9149999999999335
 50
80.8377712759679
 51
99.16222872403212
  0
ARC
  8
1
 62
3
 10
34.4440691848005
 20
219.9801273463388
 30
0
 40
2.199999999999978
 50
31.46195895465314
 51
58.53804104534655
  0
ARC
  8
1
 62
3
 10
34.4440691848005
 20
271.9801273463388
 30
0
 40
0.9149999999999239
 50
350.837771275966
 51
9.162228724033998
  0
ARC
  8
1
 62
3
 10
34.4440691848005
 20
271.9801273463388
 30
0
 40
2.199999999999993
 50
31.46195895465376
 51
58.53804104534655
  0
ARC
  8
1
 62
3
 10
34.4440691848005
 20
271.9801273463388
 30
0
 40
0.9150000000000457
 50
80.83777127596903
 51
99.16222872403185
  0
ARC
  8
1
 62
3
 10
34.4440691848005
 20
271.9801273463388
 30
0
 40
2.199999999999982
 50
121.4619589546533
 51
148.5380410453476
  0
ARC
  8
1
 62
3
 10
34.4440691848005
 20
271.9801273463388
 30
0
 40
0.9150000000000361
 50
170.8377712759671
 51
189.1622287240329
  0
ARC
  8
1
 62
3
 10
34.4440691848005
 20
271.9801273463388
 30
0
 40
2.200000000000077
 50
211.4619589546524
 51
238.5380410453483
  0
ARC
  8
1
 62
3
 10
34.4440691848005
 20
271.9801273463388
 30
0
 40
0.9150000000000481
 50
260.8377712759681
 51
279.162228724031
  0
ARC
  8
1
 62
3
 10
34.4440691848005
 20
271.9801273463388
 30
0
 40
2.200000000000082
 50
301.4619589546519
 51
328.5380410453462
  0
ARC
  8
1
 62
3
 10
112.4440691848006
 20
219.9801273463388
 30
0
 40
0.9150000000001158
 50
170.8377712759697
 51
189.1622287240303
  0
ARC
  8
1
 62
3
 10
112.4440691848006
 20
219.9801273463388
 30
0
 40
2.200000000000065
 50
211.4619589546526
 51
238.5380410453443
  0
ARC
  8
1
 62
3
 10
112.4440691848006
 20
219.9801273463388
 30
0
 40
0.9150000000000335
 50
260.8377712759626
 51
279.162228724026
  0
ARC
  8
1
 62
3
 10
112.4440691848006
 20
219.9801273463388
 30
0
 40
2.199999999999934
 50
301.4619589546512
 51
328.5380410453462
  0
ARC
  8
1
 62
3
 10
112.4440691848006
 20
219.9801273463388
 30
0
 40
0.9149999999999335
 50
350.8377712759679
 51
9.162228724032099
  0
ARC
  8
1
 62
3
 10
112.4440691848006
 20
219.9801273463388
 30
0
 40
2.199999999999978
 50
31.46195895465314
 51
58.53804104534876
  0
ARC
  8
1
 62
3
 10
112.4440691848006
 20
219.9801273463388
 30
0
 40
0.915000000000004
 50
80.83777127597402
 51
99.16222872403824
  0
ARC
  8
1
 62
3
 10
112.4440691848006
 20
219.9801273463388
 30
0
 40
2.200000000000037
 50
121.4619589546557
 51
148.538041045348
  0
ARC
  8
1
 62
3
 10
112.4440691848006
 20
271.9801273463388
 30
0
 40
0.9150000000001204
 50
170.837771275968
 51
189.162228724032
  0
ARC
  8
1
 62
3
 10
112.4440691848006
 20
271.9801273463388
 30
0
 40
2.200000000000037
 50
121.4619589546557
 51
148.5380410453474
  0
ARC
  8
1
 62
3
 10
112.4440691848006
 20
271.9801273463388
 30
0
 40
0.9150000000000322
 50
80.83777127597432
 51
99.16222872403712
  0
ARC
  8
1
 62
3
 10
112.4440691848006
 20
271.9801273463388
 30
0
 40
2.199999999999993
 50
31.46195895465376
 51
58.53804104534876
  0
ARC
  8
1
 62
3
 10
112.4440691848006
 20
271.9801273463388
 30
0
 40
0.9149999999999379
 50
350.8377712759661
 51
9.162228724033856
  0
ARC
  8
1
 62
3
 10
112.4440691848006
 20
271.9801273463388
 30
0
 40
2.20000000000003
 50
301.4619589546497
 51
328.5380410453462
  0
ARC
  8
1
 62
3
 10
112.4440691848006
 20
271.9801273463388
 30
0
 40
0.9150000000000615
 50
260.8377712759628
 51
279.1622287240257
  0
ARC
  8
1
 62
3
 10
112.4440691848006
 20
271.9801273463388
 30
0
 40
2.200000000000065
 50
211.4619589546526
 51
238.5380410453459
  0
CIRCLE
  8
1
 62
3
 10
34.4440691848005
 20
219.9801273463388
 30
0
 40
3.5
  0
CIRCLE
  8
1
 62
3
 10
34.4440691848005
 20
271.9801273463388
 30
0
 40
3.5
  0
CIRCLE
  8
1
 62
3
 10
112.4440691848006
 20
219.9801273463388
 30
0
 40
3.5
  0
CIRCLE
  8
1
 62
3
 10
112.4440691848006
 20
271.9801273463388
 30
0
 40
3.5
  0
ARC
  8
1
 62
3
 10
35.3967571836084
 20
219.8264700102716
 30
0
 40
0.05000000000001583
 50
170.837771275943
 51
224.9999999999885
  0
ARC
  8
1
 62
3
 10
35.3967571836084
 20
220.133784682406
 30
0
 40
0.04999999999996222
 50
135.0000000000115
 51
189.162228724057
  0
ARC
  8
1
 62
3
 10
34.2904118487333
 20
219.0274393475308
 30
0
 40
0.05000000000002761
 50
80.8377712759617
 51
134.9999999999885
  0
ARC
  8
1
 62
3
 10
34.5977265208676
 20
219.0274393475308
 30
0
 40
0.05000000000003758
 50
44.99999999994818
 51
99.16222872394988
  0
ARC
  8
1
 62
3
 10
33.49138118599249
 20
220.133784682406
 30
0
 40
0.05000000000000882
 50
350.8377712759417
 51
45.00000000007485
  0
ARC
  8
1
 62
3
 10
33.49138118599249
 20
219.8264700102716
 30
0
 40
0.04999999999996724
 50
315.0000000000172
 51
9.162228724058281
  0
ARC
  8
1
 62
3
 10
34.5977265208676
 20
220.9328153451468
 30
0
 40
0.05000000000007127
 50
260.8377712760604
 51
315.0000000000057
  0
ARC
  8
1
 62
3
 10
34.2904118487333
 20
220.9328153451468
 30
0
 40
0.05000000000002251
 50
225.0000000000576
 51
279.1622287240435
  0
ARC
  8
1
 62
3
 10
35.3967571836084
 20
272.133784682406
 30
0
 40
0.04999999999998232
 50
134.9999999999885
 51
189.1622287239927
  0
ARC
  8
1
 62
3
 10
35.3967571836084
 20
271.8264700102716
 30
0
 40
0.05000000000001583
 50
170.837771275943
 51
224.9999999999654
  0
ARC
  8
1
 62
3
 10
34.2904118487333
 20
272.9328153451468
 30
0
 40
0.05000000000006271
 50
225.0000000001036
 51
279.1622287240435
  0
ARC
  8
1
 62
3
 10
34.5977265208676
 20
272.9328153451468
 30
0
 40
0.0499999999999871
 50
260.8377712760449
 51
314.9999999999597
  0
ARC
  8
1
 62
3
 10
33.49138118599249
 20
271.8264700102716
 30
0
 40
0.04999999999994715
 50
315.0000000000403
 51
9.162228724058281
  0
ARC
  8
1
 62
3
 10
33.49138118599249
 20
272.133784682406
 30
0
 40
0.04999999999999977
 50
350.837771276006
 51
45.00000000000576
  0
ARC
  8
1
 62
3
 10
34.5977265208676
 20
271.0274393475308
 30
0
 40
0.05000000000011798
 50
45.0000000000403
 51
99.16222872395508
  0
ARC
  8
1
 62
3
 10
34.2904118487333
 20
271.0274393475308
 30
0
 40
0.04999999999999954
 50
80.8377712759565
 51
134.9999999998964
  0
ARC
  8
1
 62
3
 10
111.4913811859926
 20
219.8264700102716
 30
0
 40
0.04999999999996222
 50
315.0000000000115
 51
9.162228724075135
  0
ARC
  8
1
 62
3
 10
111.4913811859926
 20
220.133784682406
 30
0
 40
0.04999999999991762
 50
350.8377712759249
 51
44.99999999998848
  0
ARC
  8
1
 62
3
 10
112.5977265208677
 20
219.0274393475308
 30
0
 40
0.04999999999998232
 50
45.00000000001152
 51
99.16222872403831
  0
ARC
  8
1
 62
3
 10
112.2904118487333
 20
219.0274393475308
 30
0
 40
0.05000000000002986
 50
80.83777127594561
 51
134.9999999998964
  0
ARC
  8
1
 62
3
 10
113.3967571836085
 20
220.133784682406
 30
0
 40
0.05000000000003256
 50
134.9999999999079
 51
189.1622287240596
  0
ARC
  8
1
 62
3
 10
113.3967571836085
 20
219.8264700102716
 30
0
 40
0.0500000000000018
 50
170.8377712759404
 51
225
  0
ARC
  8
1
 62
3
 10
112.2904118487333
 20
220.9328153451468
 30
0
 40
0.04999999999994213
 50
225.0000000001497
 51
279.162228724044
  0
ARC
  8
1
 62
3
 10
112.5977265208677
 20
220.9328153451468
 30
0
 40
0.04999999999999954
 50
260.8377712759565
 51
314.9999999999424
  0
ARC
  8
1
 62
3
 10
111.4913811859926
 20
272.133784682406
 30
0
 40
0.04999999999990858
 50
350.8377712759892
 51
45.00000000001152
  0
ARC
  8
1
 62
3
 10
111.4913811859926
 20
271.8264700102716
 30
0
 40
0.04999999999994213
 50
315.0000000000346
 51
9.162228724075135
  0
ARC
  8
1
 62
3
 10
112.5977265208677
 20
272.9328153451468
 30
0
 40
0.04999999999999954
 50
260.8377712759565
 51
314.9999999998963
  0
ARC
  8
1
 62
3
 10
112.2904118487333
 20
272.9328153451468
 30
0
 40
0.04999999999998231
 50
225.0000000001957
 51
279.1622287240596
  0
ARC
  8
1
 62
3
 10
113.3967571836085
 20
271.8264700102716
 30
0
 40
0.0500000000000018
 50
170.8377712759404
 51
224.999999999977
  0
ARC
  8
1
 62
3
 10
113.3967571836085
 20
272.133784682406
 30
0
 40
0.04999999999997226
 50
134.999999999977
 51
189.1622287239953
  0
ARC
  8
1
 62
3
 10
112.2904118487333
 20
271.0274393475308
 30
0
 40
0.0500000000000018
 50
80.83777127594043
 51
134.9999999998043
  0
ARC
  8
1
 62
3
 10
112.5977265208677
 20
271.0274393475308
 30
0
 40
0.05000000000006271
 50
45.00000000010363
 51
99.1622287240435
  0
ENDBLK
  8
0
  0
BLOCK
  8
1
  2
*D11
 70
1
 10
0
 20
0
 30
0
  0
LINE
  8
1
 62
2
 10
133.4440691848005
 20
209.2101273463388
 30
0
 11
133.4440691848005
 21
282.7501273463389
 31
0
  0
LINE
  8
1
 62
2
 10
116.7140691848005
 20
209.2101273463388
 30
0
 11
134.9440691848005
 21
209.2101273463388
 31
0
  0
LINE
  8
1
 62
2
 10
116.7140691848005
 20
282.7501273463389
 30
0
 11
134.9440691848005
 21
282.7501273463389
 31
0
  0
SOLID
  8
1
 62
2
 10
133.4440691848005
 20
282.7501273463389
 30
0
 11
133.8600691848005
 21
279.5501273463389
 31
0
 12
133.0280691848005
 22
279.5501273463389
 32
0
 13
133.0280691848005
 23
279.5501273463389
 33
0
  0
SOLID
  8
1
 62
2
 10
133.4440691848005
 20
209.2101273463388
 30
0
 11
133.0280691848005
 21
212.4101273463388
 31
0
 12
133.8600691848005
 22
212.4101273463388
 32
0
 13
133.8600691848005
 23
212.4101273463388
 33
0
  0
TEXT
  8
1
 62
2
 10
131.4440691848005
 20
237.9161273463388
 30
0
 40
3.2
  1
73.5
 50
90
 41
0.9
  0
TEXT
  8
1
 62
2
 10
130.8040691848005
 20
248.2361273463388
 30
0
 40
1.92
  1
%%p0.4
 50
90
 41
0.9
  0
ENDBLK
  8
0
  0
BLOCK
  8
1
  2
*D12
 70
1
 10
0
 20
0
 30
0
  0
LINE
  8
1
 62
2
 10
143.4440691848005
 20
200.9801273463388
 30
0
 11
143.4440691848005
 21
290.9801273463388
 31
0
  0
LINE
  8
1
 62
2
 10
110.4440691848005
 20
200.9801273463388
 30
0
 11
144.9440691848005
 21
200.9801273463388
 31
0
  0
LINE
  8
1
 62
2
 10
110.4440691848005
 20
290.9801273463388
 30
0
 11
144.9440691848005
 21
290.9801273463388
 31
0
  0
SOLID
  8
1
 62
2
 10
143.4440691848005
 20
290.9801273463388
 30
0
 11
143.8600691848005
 21
287.7801273463388
 31
0
 12
143.0280691848005
 22
287.7801273463388
 32
0
 13
143.0280691848005
 23
287.7801273463388
 33
0
  0
SOLID
  8
1
 62
2
 10
143.4440691848005
 20
200.9801273463388
 30
0
 11
143.0280691848005
 21
204.1801273463388
 31
0
 12
143.8600691848005
 22
204.1801273463388
 32
0
 13
143.8600691848005
 23
204.1801273463388
 33
0
  0
TEXT
  8
1
 62
2
 10
141.4440691848005
 20
243.5801273463388
 30
0
 40
3.2
  1
90
 50
90
 41
0.9
  0
ENDBLK
  8
0
  0
BLOCK
  8
1
  2
*D13
 70
1
 10
0
 20
0
 30
0
  0
LINE
  8
1
 62
2
 10
121.9155391332982
 20
264.808738581156
 30
0
 11
24.97259923630279
 21
227.1515161115217
 31
0
  0
SOLID
  8
1
 62
2
 10
24.97259923630279
 20
227.1515161115217
 30
0
 11
27.80483003556257
 21
228.6979716394061
 31
0
 12
28.10608781531965
 22
227.9224281202301
 32
0
 13
28.10608781531965
 23
227.9224281202301
 33
0
  0
SOLID
  8
1
 62
2
 10
121.9155391332982
 20
264.808738581156
 30
0
 11
119.0833083340384
 21
263.2622830532716
 31
0
 12
118.7820505542813
 22
264.0378265724476
 32
0
 13
118.7820505542813
 23
264.0378265724476
 33
0
  0
TEXT
  8
1
 62
2
 10
48.02181314466386
 20
238.2505128723027
 30
0
 40
3.2
  1
104
 50
21.22852439283648
 41
0.9
  0
TEXT
  8
1
 62
2
 10
43.28238052747741
 20
236.4094931071206
 30
0
 40
3.2
  1
(âË
 50
21.22852439283648
 41
0.9
  0
TEXT
  8
1
 62
2
 10
55.7772483364235
 20
241.2630906698734
 30
0
 40
3.2
  1
)
 50
21.22852439283648
 41
0.9
  0
ENDBLK
  8
0
  0
ENDSEC
  0
SECTION
  2
ENTITIES
  0
LINE
  8
1
 62
1
 10
73.44406918480047
 20
245.9801273463388
 30
0
 11
123.4440691848005
 21
245.9801273463388
 31
0
  0
LINE
  8
1
 62
1
 10
73.44406918480048
 20
295.9801273463388
 30
0
 11
73.44406918480047
 21
245.9801273463388
 31
0
  0
LINE
  8
1
 62
3
 10
118.4440691848005
 20
281.9801273463388
 30
0
 11
118.4440691848005
 21
245.9801273463388
 31
0
  0
LINE
  8
1
 62
3
 10
109.4440691848005
 20
290.9801273463388
 30
0
 11
73.44406918480048
 21
290.9801273463388
 31
0
  0
LINE
  8
1
 62
1
 10
104.7140691848005
 20
282.7501273463389
 30
0
 11
115.7140691848005
 21
282.7501273463389
 31
0
  0
LINE
  8
1
 62
1
 10
110.2140691848005
 20
288.2501273463389
 30
0
 11
110.2140691848005
 21
277.2501273463389
 31
0
  0
LINE
  8
1
 62
1
 10
119.4440691848005
 20
271.9801273463388
 30
0
 11
105.4440691848005
 21
271.9801273463388
 31
0
  0
LINE
  8
1
 62
1
 10
112.4440691848005
 20
264.9801273463388
 30
0
 11
112.4440691848005
 21
278.9801273463388
 31
0
  0
LINE
  8
1
 62
1
 10
73.44406918480047
 20
245.9801273463388
 30
0
 11
73.44406918480048
 21
195.9801273463388
 31
0
  0
LINE
  8
1
 62
3
 10
118.4440691848005
 20
245.9801273463388
 30
0
 11
118.4440691848005
 21
209.9801273463388
 31
0
  0
LINE
  8
1
 62
3
 10
73.44406918480048
 20
200.9801273463388
 30
0
 11
109.4440691848005
 21
200.9801273463388
 31
0
  0
LINE
  8
1
 62
1
 10
115.7140691848005
 20
209.2101273463388
 30
0
 11
104.7140691848005
 21
209.2101273463388
 31
0
  0
LINE
  8
1
 62
1
 10
110.2140691848005
 20
214.7101273463388
 30
0
 11
110.2140691848005
 21
203.7101273463388
 31
0
  0
LINE
  8
1
 62
1
 10
105.4440691848005
 20
219.9801273463388
 30
0
 11
119.4440691848005
 21
219.9801273463388
 31
0
  0
LINE
  8
1
 62
1
 10
112.4440691848005
 20
212.9801273463388
 30
0
 11
112.4440691848005
 21
226.9801273463388
 31
0
  0
LINE
  8
1
 62
1
 10
23.4440691848005
 20
245.9801273463388
 30
0
 11
73.44406918480047
 21
245.9801273463388
 31
0
  0
LINE
  8
1
 62
3
 10
28.4440691848005
 20
245.9801273463388
 30
0
 11
28.4440691848005
 21
281.9801273463388
 31
0
  0
LINE
  8
1
 62
3
 10
73.44406918480048
 20
290.9801273463388
 30
0
 11
37.4440691848005
 21
290.9801273463388
 31
0
  0
LINE
  8
1
 62
1
 10
31.1740691848005
 20
282.7501273463389
 30
0
 11
42.17406918480049
 21
282.7501273463389
 31
0
  0
LINE
  8
1
 62
1
 10
36.6740691848005
 20
277.2501273463389
 30
0
 11
36.6740691848005
 21
288.2501273463389
 31
0
  0
LINE
  8
1
 62
1
 10
41.44406918480047
 20
271.9801273463388
 30
0
 11
27.4440691848005
 21
271.9801273463388
 31
0
  0
LINE
  8
1
 62
1
 10
34.4440691848005
 20
278.9801273463388
 30
0
 11
34.4440691848005
 21
264.9801273463388
 31
0
  0
LINE
  8
1
 62
3
 10
28.4440691848005
 20
209.9801273463388
 30
0
 11
28.4440691848005
 21
245.9801273463388
 31
0
  0
LINE
  8
1
 62
3
 10
37.4440691848005
 20
200.9801273463388
 30
0
 11
73.44406918480048
 21
200.9801273463388
 31
0
  0
LINE
  8
1
 62
1
 10
42.17406918480049
 20
209.2101273463388
 30
0
 11
31.1740691848005
 21
209.2101273463388
 31
0
  0
LINE
  8
1
 62
1
 10
36.6740691848005
 20
203.7101273463388
 30
0
 11
36.6740691848005
 21
214.7101273463388
 31
0
  0
LINE
  8
1
 62
1
 10
27.4440691848005
 20
219.9801273463388
 30
0
 11
41.44406918480047
 21
219.9801273463388
 31
0
  0
LINE
  8
1
 62
1
 10
34.4440691848005
 20
226.9801273463388
 30
0
 11
34.4440691848005
 21
212.9801273463388
 31
0
  0
LINE
  8
1
 62
3
 10
238.8448340240276
 20
200.9801273463388
 30
0
 11
231.6448340240276
 21
200.9801273463388
 31
0
  0
LINE
  8
1
 62
3
 10
238.1448340240276
 20
245.9801273463388
 30
0
 11
238.1448340240276
 21
200.9801273463388
 31
0
  0
LINE
  8
1
 62
3
 10
238.8448340240276
 20
245.9801273463388
 30
0
 11
238.8448340240276
 21
200.9801273463388
 31
0
  0
LINE
  8
1
 62
3
 10
231.6448340240276
 20
245.9801273463388
 30
0
 11
231.6448340240276
 21
200.9801273463388
 31
0
  0
LINE
  8
1
 62
3
 10
231.6448340240276
 20
290.9801273463388
 30
0
 11
238.8448340240276
 21
290.9801273463388
 31
0
  0
LINE
  8
1
 62
3
 10
238.1448340240276
 20
290.9801273463388
 30
0
 11
238.1448340240276
 21
245.9801273463388
 31
0
  0
LINE
  8
1
 62
3
 10
238.8448340240276
 20
290.9801273463388
 30
0
 11
238.8448340240276
 21
245.9801273463388
 31
0
  0
LINE
  8
1
 62
3
 10
231.6448340240276
 20
290.9801273463388
 30
0
 11
231.6448340240276
 21
245.9801273463388
 31
0
  0
LINE
  8
1
 62
1
 10
238.8448340240276
 20
245.9801273463388
 30
0
 11
231.6448340240276
 21
245.9801273463388
 31
0
  0
ARC
  8
1
 62
2
 10
73.44406918480047
 20
245.9801273463388
 30
0
 40
52.00000000000008
 50
18.58142329693161
 51
53.21590253118705
  0
ARC
  8
1
 62
2
 10
73.44406918480047
 20
245.9801273463388
 30
0
 40
52.00000000000001
 50
198.5814232969317
 51
233.2159025311872
  0
ARC
  8
1
 62
3
 10
73.44406918480047
 20
245.9801273463388
 30
0
 40
37.00000000000003
 50
0
 51
90
  0
ARC
  8
1
 62
3
 10
73.44406918480047
 20
245.9801273463388
 30
0
 40
37
 50
270
 51
0
  0
ARC
  8
1
 62
3
 10
73.44406918480047
 20
245.9801273463388
 30
0
 40
37
 50
90
 51
180
  0
ARC
  8
1
 62
3
 10
73.44406918480047
 20
245.9801273463388
 30
0
 40
36.99999999999997
 50
180
 51
270
  0
CIRCLE
  8
1
 62
4
  6
DIVIDE
 10
73.44406918480047
 20
245.9801273463388
 30
0
 40
52.00000000000003
  0
CIRCLE
  8
1
 62
3
 10
73.44406918480047
 20
245.9801273463388
 30
0
 40
41.50000000000003
  0
CIRCLE
  8
1
 62
3
 10
110.2140691848005
 20
282.7501273463389
 30
0
 40
3.25
  0
CIRCLE
  8
1
 62
3
 10
110.2140691848005
 20
209.2101273463388
 30
0
 40
3.25
  0
CIRCLE
  8
1
 62
3
 10
36.6740691848005
 20
282.7501273463389
 30
0
 40
3.25
  0
CIRCLE
  8
1
 62
3
 10
36.6740691848005
 20
209.2101273463388
 30
0
 40
3.25
  0
CIRCLE
  8
1
 62
3
 10
34.4440691848005
 20
219.9801273463388
 30
0
 40
4.200000000000006
  0
CIRCLE
  8
1
 62
3
 10
34.4440691848005
 20
271.9801273463388
 30
0
 40
4.200000000000006
  0
CIRCLE
  8
1
 62
3
 10
112.4440691848005
 20
271.9801273463388
 30
0
 40
4.200000000000003
  0
CIRCLE
  8
1
 62
3
 10
112.4440691848005
 20
219.9801273463388
 30
0
 40
4.200000000000003
  0
ARC
  8
1
 62
3
 10
109.4440691848005
 20
281.9801273463388
 30
0
 40
9
 50
0
 51
90
  0
ARC
  8
1
 62
3
 10
109.4440691848005
 20
209.9801273463388
 30
0
 40
9
 50
270
 51
0
  0
ARC
  8
1
 62
3
 10
37.4440691848005
 20
281.9801273463388
 30
0
 40
9
 50
90
 51
180
  0
ARC
  8
1
 62
3
 10
37.4440691848005
 20
209.9801273463388
 30
0
 40
8.999999999999996
 50
180
 51
270
  0
TEXT
  8
1
 62
2
 10
2.23683424918188
 20
113.902681754348
 30
0
 40
8
  1
IH9PF40N
 41
0.9
  0
DIMENSION
  8
1
  6
CONTINUOUS
 62
2
  2
*D11
  3
DMST_4
 10
133.4440691848005
 20
209.2101273463388
 30
0
 11
129.8440691848005
 21
245.9801273463388
 31
0
 12
0
 22
0
 32
0
 70
0
  1
73.5
 13
115.7140691848005
 23
282.7501273463389
 33
0
 14
115.7140691848005
 24
209.2101273463388
 34
0
 50
90
 53
0
  0
DIMENSION
  8
1
  6
CONTINUOUS
 62
2
  2
*D12
  3
DMST_1
 10
143.4440691848005
 20
200.9801273463388
 30
0
 11
139.8440691848005
 21
245.9801273463388
 31
0
 12
0
 22
0
 32
0
 70
0
 13
109.4440691848005
 23
290.9801273463388
 33
0
 14
109.4440691848005
 24
200.9801273463388
 34
0
 50
90
 53
0
  0
DIMENSION
  8
1
  6
CONTINUOUS
 62
2
  2
*D13
  3
DMST_6
 10
121.9155391332982
 20
264.808738581156
 30
0
 11
49.17418702448761
 21
240.4146230156884
 31
0
 12
0
 22
0
 32
0
 70
3
  1
(âË<>
 15
24.9725992363027
 25
227.1515161115216
 35
0
 40
0
 53
0
  0
INSERT
  8
0
  2
G9M3__5
 10
69.27475309822955
 20
884.7489892599917
 30
0
  0
INSERT
  8
0
  2
Z
 10
-13.55025767146759
 20
93.48115088779218
 30
0
  0
INSERT
  8
0
  2
____M4_______
 10
34.4440691848005
 20
219.9801273463388
 30
0
  0
ENDSEC
  0
EOF
