  0
SECTION
  2
HEADER
  9
$ACADVER
  1
AC1009
  9
$INSBASE
 10
0
 20
0
  9
$EXTMIN
 10
503.690864268036
 20
-766.819172679485
  9
$EXTMAX
 10
863.3227444033737
 20
-560.059602566895
  9
$LIMMIN
 10
503.690864268036
 20
-766.819172679485
  9
$LIMMAX
 10
863.3227444033737
 20
-560.059602566895
  9
$VIEWCTR
 10
10
 20
10
  9
$VIEWSIZE
 40
10
  9
$SNAPMODE
 70
0
  9
$SNAPUNIT
 10
1
 20
1
  9
$SNAPBASE
 10
0
 20
0
  9
$SNAPANG
 50
0
  9
$SNAPSTYLE
 70
0
  9
$SNAPISOPAIR
 70
0
  9
$GRIDMODE
 70
0
  9
$GRIDUNIT
 10
0
 20
0
  9
$ORTHOMODE
 70
0
  9
$REGENMODE
 70
1
  9
$FILLMODE
 70
1
  9
$QTEXTMODE
 70
0
  9
$DRAGMODE
 70
2
  9
$LTSCALE
 40
1
  9
$OSMODE
 70
0
  9
$ATTMODE
 70
1
  9
$TEXTSIZE
 40
3.5
  9
$TRACEWID
 40
0.5
  9
$TEXTSTYLE
  7
STANDARD
  9
$CLAYER
  8
0
  9
$CELTYPE
  6
BYLAYER
  9
$CECOLOR
 62
256
  9
$DIMSCALE
 40
1
  9
$DIMASZ
 40
0.18
  9
$DIMEXO
 40
0.0625
  9
$DIMDLI
 40
0.38
  9
$DIMRND
 40
0
  9
$DIMDLE
 40
0
  9
$DIMEXE
 40
0.18
  9
$DIMTP
 40
0
  9
$DIMTM
 40
0
  9
$DIMTXT
 40
0.18
  9
$DIMCEN
 40
0.09
  9
$DIMTSZ
 40
0
  9
$DIMTOL
 70
0
  9
$DIMLIM
 70
0
  9
$DIMTIH
 70
1
  9
$DIMTOH
 70
1
  9
$DIMSE1
 70
0
  9
$DIMSE2
 70
0
  9
$DIMTAD
 70
0
  9
$DIMZIN
 70
0
  9
$DIMBLK
  1

  9
$DIMASO
 70
1
  9
$DIMSHO
 70
1
  9
$DIMPOST
  1

  9
$DIMAPOST
  1

  9
$DIMALT
 70
0
  9
$DIMALTD
 70
2
  9
$DIMALTF
 40
25.4
  9
$DIMLFAC
 40
1
  9
$DIMTOFL
 70
0
  9
$DIMTVP
 40
0
  9
$DIMTIX
 70
0
  9
$DIMSOXD
 70
0
  9
$DIMSAH
 70
0
  9
$DIMBLK1
  1

  9
$DIMBLK2
  1

  9
$DIMSTYLE
  2
*UNNAMED
  9
$DIMCLRD
 70
0
  9
$DIMCLRE
 70
0
  9
$DIMCLRT
 70
0
  9
$DIMTFAC
 40
1
  9
$DIMGAP
 40
0.09
  9
$LUNITS
 70
2
  9
$LUPREC
 70
4
  9
$AXISMODE
 70
0
  9
$AXISUNIT
 10
0
 20
0
  9
$SKETCHINC
 40
0.1
  9
$FILLETRAD
 40
2
  9
$AUNITS
 70
0
  9
$AUPREC
 70
0
  9
$MENU
  1
ACAD
  9
$ELEVATION
 40
0
  9
$THICKNESS
 40
0
  9
$VIEWDIR
 10
0
 20
0
 30
1
  9
$LIMCHECK
 70
0
  9
$BLIPMODE
 70
1
  9
$CHAMFERA
 40
0
  9
$CHAMFERB
 40
0
  9
$FASTZOOM
 70
1
  9
$SKPOLY
 70
0
  9
$ANGBASE
 50
0
  9
$ANGDIR
 70
0
  9
$PDMODE
 70
0
  9
$PDSIZE
 40
0
  9
$PLINEWID
 40
0
  9
$COORDS
 70
2
  0
ENDSEC
  0
SECTION
  2
TABLES
  0
TABLE
  2
DIMSTYLE
 70
8
  0
DIMSTYLE
  2
DMST_1
 70
0
  3

  4

  5

  6

  7

 40
1
 41
3.2
 42
1
 43
7
 44
2
 45
0
 46
0
 47
0
 48
0
140
3.2
141
0
142
0
143
25.4
144
1
145
0
146
1
147
0.09
 71
0
 72
0
 73
1
 74
1
 75
0
 76
0
 77
1
 78
9
170
0
171
2
172
0
173
0
174
0
175
0
176
2
177
2
178
2
  0
DIMSTYLE
  2
DMST_2
 70
0
  3

  4

  5

  6

  7

 40
1
 41
3.2
 42
1
 43
7
 44
2
 45
0
 46
0
 47
0
 48
0
140
3.2
141
0
142
0
143
25.4
144
1
145
0
146
0.6
147
0.09
 71
1
 72
0
 73
0
 74
0
 75
0
 76
0
 77
1
 78
9
170
0
171
2
172
0
173
0
174
0
175
0
176
2
177
2
178
2
  0
DIMSTYLE
  2
DMST_3
 70
0
  3

  4

  5

  6

  7

 40
1
 41
3.2
 42
1
 43
7
 44
2
 45
0
 46
0
 47
0
 48
0
140
3.2
141
0
142
0
143
25.4
144
1
145
0
146
1
147
0.09
 71
0
 72
0
 73
0
 74
0
 75
0
 76
0
 77
1
 78
9
170
0
171
2
172
0
173
0
174
0
175
0
176
2
177
2
178
2
  0
DIMSTYLE
  2
DMST_4
 70
0
  3

  4

  5

  6

  7

 40
1
 41
3.2
 42
1
 43
7
 44
1.5
 45
0
 46
0
 47
0.3
 48
0.3
140
3.2
141
0
142
0
143
25.4
144
1
145
0
146
0.6
147
0.09
 71
1
 72
0
 73
0
 74
0
 75
0
 76
0
 77
1
 78
9
170
0
171
2
172
0
173
0
174
0
175
0
176
2
177
2
178
2
  0
DIMSTYLE
  2
DMST_5
 70
0
  3

  4

  5

  6

  7

 40
1
 41
3.2
 42
1
 43
7
 44
1.5
 45
0
 46
0
 47
0
 48
0
140
3.2
141
0
142
0
143
25.4
144
1
145
0
146
0.6
147
0.09
 71
1
 72
0
 73
0
 74
0
 75
0
 76
0
 77
1
 78
9
170
0
171
2
172
0
173
0
174
0
175
0
176
2
177
2
178
2
  0
DIMSTYLE
  2
DMST_6
 70
0
  3

  4

  5

  6

  7

 40
1
 41
3.2
 42
1
 43
7
 44
1.5
 45
0
 46
0
 47
0
 48
0
140
3.2
141
0
142
0
143
25.4
144
1
145
0
146
1
147
0.09
 71
0
 72
0
 73
0
 74
0
 75
0
 76
0
 77
1
 78
9
170
0
171
2
172
0
173
0
174
0
175
0
176
2
177
2
178
2
  0
DIMSTYLE
  2
DMST_7
 70
0
  3

  4

  5

  6

  7

 40
1
 41
3.2
 42
1
 43
7
 44
2
 45
0
 46
0
 47
0.3
 48
0.3
140
3.2
141
0
142
0
143
25.4
144
1
145
0
146
0.6
147
0.09
 71
1
 72
0
 73
0
 74
0
 75
0
 76
0
 77
1
 78
9
170
0
171
2
172
0
173
0
174
0
175
0
176
2
177
2
178
2
  0
DIMSTYLE
  2
DMST_8
 70
0
  3
)
  4

  5

  6

  7

 40
1
 41
3.2
 42
1
 43
7
 44
2
 45
0
 46
0
 47
0
 48
0
140
3.2
141
0
142
0
143
25.4
144
1
145
0
146
1
147
0.09
 71
0
 72
0
 73
0
 74
0
 75
0
 76
0
 77
1
 78
9
170
0
171
2
172
0
173
0
174
1
175
0
176
2
177
2
178
2
  0
ENDTAB
  0
TABLE
  2
LTYPE
 70
9
  0
LTYPE
  2
CONTINUOUS
 70
64
  3
Solid line
 72
65
 73
0
 40
0
  0
LTYPE
  2
BORDER
 70
64
  3
__ __ . __ __ .
 72
65
 73
6
 40
16.56199447991687
 49
4.73199842283339
 49
-2.365999211416695
 49
4.73199842283339
 49
-2.365999211416695
 49
0
 49
-2.365999211416695
  0
LTYPE
  2
CENTER
 70
64
  3
____ _ ____ _
 72
65
 73
4
 40
18.92799369133356
 49
11.82999605708348
 49
-2.365999211416695
 49
2.365999211416695
 49
-2.365999211416695
  0
LTYPE
  2
DASHDOT
 70
64
  3
__ . __ . __ .
 72
65
 73
4
 40
9.463996845666781
 49
4.73199842283339
 49
-2.365999211416695
 49
0
 49
-2.365999211416695
  0
LTYPE
  2
DASHED
 70
64
  3
__ __ __ __ __
 72
65
 73
2
 40
7.097997634250086
 49
4.73199842283339
 49
-2.365999211416695
  0
LTYPE
  2
DIVIDE
 70
64
  3
__ . . __ . . 
 72
65
 73
6
 40
11.82999605708348
 49
4.73199842283339
 49
-2.365999211416695
 49
0
 49
-2.365999211416695
 49
0
 49
-2.365999211416695
  0
LTYPE
  2
DOT
 70
64
  3
..............
 72
65
 73
4
 40
4.73199842283339
 49
0
 49
-2.365999211416695
 49
0
 49
-2.365999211416695
  0
LTYPE
  2
HIDDEN
 70
64
  3
_ _ _ _ _ _ _
 72
65
 73
2
 40
3.548998817125043
 49
2.365999211416695
 49
-1.182999605708348
  0
LTYPE
  2
PHANTOM
 70
64
  3
_____ _ _ _____ _ _ 
 72
65
 73
6
 40
23.65999211416695
 49
11.82999605708348
 49
-2.365999211416695
 49
2.365999211416695
 49
-2.365999211416695
 49
2.365999211416695
 49
-2.365999211416695
  0
ENDTAB
  0
TABLE
  2
LAYER
 70
3
  0
LAYER
  2
1
 70
0
 62
7
  6
CONTINUOUS
  0
LAYER
  2
0
 70
0
 62
7
  6
CONTINUOUS
  0
ENDTAB
  0
TABLE
  2
STYLE
 70
4
  0
STYLE
  2
STANDARD
 70
0
 40
0
 41
1
 50
0
 71
0
 42
3.5
  3
txt
  4

  0
STYLE
  2
SIMPLEX
 70
0
 40
0
 41
1
 50
0
 71
0
 42
3.5
  3
simplex
  4

  0
STYLE
  2
COMPLEX
 70
0
 40
0
 41
1
 50
0
 71
0
 42
3.5
  3
complex
  4

  0
STYLE
  2
ITALIC
 70
0
 40
0
 41
1
 50
0
 71
0
 42
3.5
  3
italic
  4

  0
ENDTAB
  0
TABLE
  2
VIEW
 70
0
  0
ENDTAB
  0
ENDSEC
  0
SECTION
  2
BLOCKS
  0
BLOCK
  8
0
  2
G8G__1
 70
0
 10
726.38056316886
 20
532.659857095945
 30
0
  0
CIRCLE
  8
1
 62
3
 10
553.9974149333382
 20
-620.3596025668949
 30
0
 40
10
  0
ENDBLK
  8
0
  0
BLOCK
  8
0
  2
BB__2
 70
0
 10
678.327639291377
 20
-167.7092111257679
 30
0
  0
LINE
  8
1
 62
3
 10
845.1227444033736
 20
-632.3611025668951
 30
0
 11
839.6227444033736
 21
-632.3611025668951
 31
0
  0
LINE
  8
1
 62
3
 10
839.1227444033736
 20
-635.359602566895
 30
0
 11
839.1227444033736
 21
-632.8611025668951
 31
0
  0
LINE
  8
1
 62
3
 10
839.1227444033736
 20
-632.8611025668951
 30
0
 11
839.6227444033736
 21
-632.3611025668951
 31
0
  0
LINE
  8
1
 62
2
  6
CENTER
 10
847.1227444033736
 20
-632.959602566894
 30
0
 11
837.1227444033736
 21
-632.959602566894
 31
0
  0
LINE
  8
1
 62
3
 10
839.6227444033736
 20
-638.358102566894
 30
0
 11
845.1227444033736
 21
-638.358102566894
 31
0
  0
LINE
  8
1
 62
3
 10
839.1227444033736
 20
-637.858102566894
 30
0
 11
839.1227444033736
 21
-635.359602566895
 31
0
  0
LINE
  8
1
 62
3
 10
839.6227444033736
 20
-638.358102566894
 30
0
 11
839.1227444033736
 21
-637.858102566894
 31
0
  0
LINE
  8
1
 62
2
  6
CENTER
 10
837.1227444033736
 20
-637.7596025668951
 30
0
 11
847.1227444033736
 21
-637.7596025668951
 31
0
  0
LINE
  8
1
 62
3
 10
845.1227444033736
 20
-638.359602566895
 30
0
 11
849.1227444033736
 21
-638.359602566895
 31
0
  0
LINE
  8
1
 62
2
 10
840.1738671750927
 20
-632.3611025668951
 30
0
 11
842.5889032953407
 21
-638.358102566894
 31
0
  0
LINE
  8
1
 62
2
 10
841.1738671750927
 20
-632.3611025668951
 30
0
 11
843.5889032953407
 21
-638.358102566894
 31
0
  0
LINE
  8
1
 62
2
 10
842.1738671750927
 20
-632.3611025668951
 30
0
 11
844.5889032953407
 21
-638.358102566894
 31
0
  0
LINE
  8
1
 62
3
 10
849.1227444033736
 20
-632.359602566895
 30
0
 11
845.1227444033736
 21
-632.359602566895
 31
0
  0
LINE
  8
1
 62
1
 10
849.1227444033736
 20
-635.359602566895
 30
0
 11
834.1227444033736
 21
-635.359602566895
 31
0
  0
LINE
  8
1
 62
2
 10
783.4325322698189
 20
-714.2386126074382
 30
0
 11
829.554927002139
 21
-714.2386126074382
 31
0
  0
LINE
  8
1
 62
2
 10
783.4325322698189
 20
-707.2386126074382
 30
0
 11
829.554927002139
 21
-707.2386126074382
 31
0
  0
LINE
  8
1
 62
2
 10
783.4325322698189
 20
-700.2386126074382
 30
0
 11
829.554927002139
 21
-700.2386126074382
 31
0
  0
LINE
  8
1
 62
2
 10
783.4325322698189
 20
-693.2386126074382
 30
0
 11
829.554927002139
 21
-693.2386126074382
 31
0
  0
LINE
  8
1
 62
2
 10
783.4325322698189
 20
-686.2386126074382
 30
0
 11
829.554927002139
 21
-686.2386126074382
 31
0
  0
LINE
  8
1
 62
2
 10
783.4325322698189
 20
-721.2386126074382
 30
0
 11
829.554927002139
 21
-721.2386126074382
 31
0
  0
LINE
  8
1
 62
2
 10
783.4325322698189
 20
-679.2386126074382
 30
0
 11
829.554927002139
 21
-679.2386126074382
 31
0
  0
LINE
  8
1
 62
2
 10
829.554927002139
 20
-679.2386126074382
 30
0
 11
843.2445952041187
 21
-638.358102566894
 31
0
  0
SOLID
  8
1
 62
2
 10
842.6279542807432
 20
-641.5262625287737
 30
0
 11
841.8289856746178
 21
-641.2587116809294
 31
0
 12
843.2445952041187
 22
-638.358102566894
 32
0
 13
843.2445952041187
 23
-638.358102566894
 33
0
  0
TEXT
  8
1
 62
2
 10
789.70475140142
 20
-678.1157604463222
 30
0
 40
4
  1
  âwâèâJâïÄdùl
 41
0.7200000000000001
  0
TEXT
  8
1
 62
2
 10
789.70475140142
 20
-685.1157604463222
 30
0
 40
4
  1
âéâWâàü[âï : 0.4
 41
0.7200000000000001
  0
TEXT
  8
1
 62
2
 10
789.70475140142
 20
-692.1157604463222
 30
0
 40
4
  1
êü@ù═ü@èp : 20%%d
 41
0.7200000000000001
  0
TEXT
  8
1
 62
2
 10
789.70475140142
 20
-699.1157604463222
 30
0
 40
4
  1
Äòü@ü@ü@Éö : 11
 41
0.7200000000000001
  0
TEXT
  8
1
 62
2
 10
789.70475140142
 20
-706.1157604463222
 30
0
 40
4
  1
èOü@ü@ü@îa : âË6
 41
0.7200000000000001
  0
TEXT
  8
1
 62
2
 10
789.70475140142
 20
-713.1157604463222
 30
0
 40
4
  1
é╦éÂéÛò¹î³ : ëE
 41
0.7200000000000001
  0
TEXT
  8
1
 62
2
 10
789.70475140142
 20
-720.1157604463222
 30
0
 40
4
  1
èÜìçæèÄÞâsâjâIâôÄdùl
 41
0.7200000000000001
  0
ENDBLK
  8
0
  0
BLOCK
  8
0
  2
MOJINOMUKI
 70
0
 10
735.2937605145398
 20
-593.0286524931753
 30
0
  0
LINE
  8
1
 62
2
 10
732.2937605145398
 20
-593.0286524931753
 30
0
 11
732.2937605145398
 21
-567.0286524931753
 31
0
  0
LINE
  8
1
 62
2
 10
732.2937605145398
 20
-567.0286524931753
 30
0
 11
738.2937605145398
 21
-567.0286524931753
 31
0
  0
LINE
  8
1
 62
2
 10
738.2937605145398
 20
-567.0286524931753
 30
0
 11
738.2937605145398
 21
-593.0286524931753
 31
0
  0
LINE
  8
1
 62
2
 10
738.2937605145398
 20
-593.0286524931753
 30
0
 11
732.2937605145398
 21
-593.0286524931753
 31
0
  0
LINE
  8
1
 62
2
 10
732.2937605145398
 20
-587.0286524931753
 30
0
 11
738.2937605145398
 21
-587.0286524931753
 31
0
  0
LINE
  8
1
 62
2
 10
737.7937605145398
 20
-590.0286524931753
 30
0
 11
732.7937605145398
 21
-590.0286524931753
 31
0
  0
LINE
  8
1
 62
2
 10
732.7937605145398
 20
-590.0286524931753
 30
0
 11
735.2937605145398
 21
-591.5286524931753
 31
0
  0
LINE
  8
1
 62
2
 10
735.2937605145398
 20
-591.5286524931753
 30
0
 11
735.2937605145398
 21
-589.0286524931753
 31
0
  0
TEXT
  8
1
 62
2
 10
737.2937605145398
 20
-594.9819069310452
 30
0
 40
4
  1
òÂÄÜé╠î³é½
 50
90
 41
0.9
 72
1
 73
2
 11
735.2937605145398
 21
-576.9819069310452
 31
0
  0
ENDBLK
  8
0
  0
BLOCK
  8
0
  2
A
 70
0
 10
498.5236821398093
 20
-776.4753482767742
 30
0
  0
LINE
  8
1
 62
2
 10
781.3836390549779
 20
-580.2596025668952
 30
0
 11
755.6687055945511
 21
-580.2596025668952
 31
0
  0
LINE
  8
1
 62
2
 10
755.6687055945511
 20
-580.2596025668952
 30
0
 11
740.346991335573
 21
-594.4097963489103
 31
0
  0
SOLID
  8
1
 62
2
 10
742.4119930201172
 20
-591.9292214931019
 30
0
 11
742.9836498094902
 21
-592.5482067957705
 31
0
 12
740.346991335573
 22
-594.4097963489103
 32
0
 13
740.346991335573
 23
-594.4097963489103
 33
0
  0
TEXT
  8
1
 62
2
 10
756.1687055945511
 20
-579.2953544234931
 30
0
 40
4
  1
âlü[âÇâvâîü[âg
 41
0.8100000000000001
  0
INSERT
  8
0
  2
MOJINOMUKI
 10
735.2937605145398
 20
-593.0286524931753
 30
0
  0
ENDBLK
  8
0
  0
BLOCK
  8
0
  2
G7G
 70
0
 10
484.374103266296
 20
-781.9898493302353
 30
0
  0
INSERT
  8
0
  2
A
 10
498.5236821398093
 20
-776.4753482767742
 30
0
  0
ENDBLK
  8
0
  0
BLOCK
  8
1
  2
*D0
 70
1
 10
0
 20
0
 30
0
  0
LINE
  8
1
 62
2
 10
723.4974149333382
 20
-580.2596025668953
 30
0
 11
729.8974149333382
 21
-580.2596025668953
 31
0
  0
LINE
  8
1
 62
2
 10
718.4974149333382
 20
-580.2596025668953
 30
0
 11
712.0974149333382
 21
-580.2596025668953
 31
0
  0
LINE
  8
1
 62
2
 10
718.4974149333382
 20
-580.2596025668953
 30
0
 11
723.4974149333382
 21
-580.2596025668953
 31
0
  0
LINE
  8
1
 62
2
 10
723.4974149333382
 20
-594.6096025668951
 30
0
 11
723.4974149333382
 21
-578.2596025668953
 31
0
  0
LINE
  8
1
 62
2
 10
718.4974149333382
 20
-602.8596025668951
 30
0
 11
718.4974149333382
 21
-578.2596025668953
 31
0
  0
SOLID
  8
1
 62
2
 10
718.4974149333382
 20
-580.2596025668953
 30
0
 11
715.2974149333381
 21
-580.6756025668953
 31
0
 12
715.2974149333381
 22
-579.8436025668952
 32
0
 13
715.2974149333381
 23
-579.8436025668952
 33
0
  0
SOLID
  8
1
 62
2
 10
723.4974149333382
 20
-580.2596025668953
 30
0
 11
726.6974149333382
 21
-579.8436025668952
 31
0
 12
726.6974149333382
 22
-580.6756025668953
 32
0
 13
726.6974149333382
 23
-580.6756025668953
 33
0
  0
TEXT
  8
1
 62
2
 10
719.6523052530081
 20
-578.2596025668953
 30
0
 40
3.2
  1
5
 41
0.9
  0
ENDBLK
  8
0
  0
BLOCK
  8
1
  2
*D1
 70
1
 10
0
 20
0
 30
0
  0
LINE
  8
1
 62
2
 10
723.4974149333381
 20
-565.2596025668953
 30
0
 11
753.4974149333381
 21
-565.2596025668953
 31
0
  0
LINE
  8
1
 62
2
 10
723.4974149333381
 20
-594.6096025668953
 30
0
 11
723.4974149333381
 21
-563.2596025668953
 31
0
  0
LINE
  8
1
 62
2
 10
753.4974149333381
 20
-595.3596025668953
 30
0
 11
753.4974149333381
 21
-563.2596025668953
 31
0
  0
SOLID
  8
1
 62
2
 10
753.4974149333381
 20
-565.2596025668953
 30
0
 11
750.297414933338
 21
-565.6756025668953
 31
0
 12
750.297414933338
 22
-564.8436025668952
 32
0
 13
750.297414933338
 23
-564.8436025668952
 33
0
  0
SOLID
  8
1
 62
2
 10
723.4974149333381
 20
-565.2596025668953
 30
0
 11
726.6974149333381
 21
-564.8436025668952
 31
0
 12
726.6974149333381
 22
-565.6756025668953
 32
0
 13
726.6974149333381
 23
-565.6756025668953
 33
0
  0
TEXT
  8
1
 62
2
 10
735.944324445822
 20
-563.2596025668953
 30
0
 40
3.2
  1
30
 41
0.9
  0
ENDBLK
  8
0
  0
BLOCK
  8
1
  2
*D2
 70
1
 10
0
 20
0
 30
0
  0
LINE
  8
1
 62
2
 10
768.4974149333382
 20
-671.8596025668951
 30
0
 11
768.4974149333382
 21
-598.8596025668951
 31
0
  0
LINE
  8
1
 62
2
 10
757.4974149333382
 20
-598.8596025668951
 30
0
 11
770.4974149333382
 21
-598.8596025668951
 31
0
  0
LINE
  8
1
 62
2
 10
757.4974149333382
 20
-671.8596025668951
 30
0
 11
770.4974149333382
 21
-671.8596025668951
 31
0
  0
SOLID
  8
1
 62
2
 10
768.4974149333382
 20
-598.8596025668951
 30
0
 11
768.9134149333382
 21
-602.0596025668951
 31
0
 12
768.0814149333381
 22
-602.0596025668951
 32
0
 13
768.0814149333381
 23
-602.0596025668951
 33
0
  0
SOLID
  8
1
 62
2
 10
768.4974149333382
 20
-671.8596025668951
 30
0
 11
768.0814149333381
 21
-668.659602566895
 31
0
 12
768.9134149333382
 22
-668.659602566895
 32
0
 13
768.9134149333382
 23
-668.659602566895
 33
0
  0
TEXT
  8
1
 62
2
 10
765.6440816000049
 20
-642.9600731551303
 30
0
 40
3.2
  1
73H7
 50
90
 41
0.9
  0
TEXT
  8
1
 62
2
 10
763.5640816000049
 20
-630.4800731551303
 30
0
 40
1.92
  1
+0.03
 50
90
 41
0.9
  0
TEXT
  8
1
 62
2
 10
766.4440816000049
 20
-630.4800731551303
 30
0
 40
1.92
  1
 0
 50
90
 41
0.9
  0
TEXT
  8
1
 62
2
 10
765.6440816000049
 20
-647.0071319786597
 30
0
 40
3.2
  1
âË
 50
90
 41
0.9
  0
ENDBLK
  8
0
  0
BLOCK
  8
1
  2
*D3
 70
1
 10
0
 20
0
 30
0
  0
LINE
  8
1
 62
2
 10
708.4974149333382
 20
-637.3596025668951
 30
0
 11
708.4974149333382
 21
-603.3596025668951
 31
0
  0
LINE
  8
1
 62
2
 10
717.9974149333382
 20
-603.3596025668951
 30
0
 11
706.4974149333382
 21
-603.3596025668951
 31
0
  0
LINE
  8
1
 62
2
 10
717.9974149333382
 20
-637.3596025668951
 30
0
 11
706.4974149333382
 21
-637.3596025668951
 31
0
  0
SOLID
  8
1
 62
2
 10
708.4974149333382
 20
-637.3596025668951
 30
0
 11
708.0814149333381
 21
-634.159602566895
 31
0
 12
708.9134149333382
 22
-634.159602566895
 32
0
 13
708.9134149333382
 23
-634.159602566895
 33
0
  0
SOLID
  8
1
 62
2
 10
708.4974149333382
 20
-603.3596025668951
 30
0
 11
708.9134149333382
 21
-606.5596025668951
 31
0
 12
708.0814149333381
 22
-606.5596025668951
 32
0
 13
708.0814149333381
 23
-606.5596025668951
 33
0
  0
TEXT
  8
1
 62
2
 10
706.4974149333382
 20
-632.9373803446729
 30
0
 40
3.2
  1
34
 50
90
 41
0.9
  0
TEXT
  8
1
 62
2
 10
706.4974149333382
 20
-636.5818247891173
 30
0
 40
3.2
  1
âË
 50
90
 41
0.9
  0
ENDBLK
  8
0
  0
BLOCK
  8
0
  2
BB__3
 70
0
 10
678.327639291377
 20
-137.7092111257679
 30
0
  0
LINE
  8
1
 62
3
 10
753.4974149333382
 20
-596.3596025668951
 30
0
 11
752.4974149333382
 21
-596.3596025668951
 31
0
  0
LINE
  8
1
 62
3
 10
752.4974149333382
 20
-595.2596025668952
 30
0
 11
724.1974149333382
 21
-595.6096025668951
 31
0
  0
LINE
  8
1
 62
3
 10
724.1974149333382
 20
-595.6096025668951
 30
0
 11
723.4974149333382
 21
-595.6096025668951
 31
0
  0
LINE
  8
1
 62
3
 10
752.4974149333382
 20
-595.2596025668952
 30
0
 11
752.4974149333382
 21
-635.3596025668951
 31
0
  0
LINE
  8
1
 62
3
 10
723.4974149333382
 20
-595.6096025668951
 30
0
 11
723.4974149333382
 21
-608.6096025668951
 31
0
  0
LINE
  8
1
 62
3
 10
724.1974149333382
 20
-635.3596025668951
 30
0
 11
724.1974149333382
 21
-602.1096025668951
 31
0
  0
LINE
  8
1
 62
3
 10
753.4974149333382
 20
-635.3596025668951
 30
0
 11
753.4974149333382
 21
-596.3596025668951
 31
0
  0
LINE
  8
1
 62
3
 10
723.4974149333382
 20
-608.6096025668951
 30
0
 11
724.1974149333382
 21
-608.6096025668951
 31
0
  0
LINE
  8
1
 62
1
 10
720.4974149333382
 20
-602.1296025668953
 30
0
 11
727.1974149333382
 21
-602.1296025668953
 31
0
  0
LINE
  8
1
 62
1
 10
758.4974149333382
 20
-635.3596025668951
 30
0
 11
713.4974149333381
 21
-635.3596025668951
 31
0
  0
LINE
  8
1
 62
3
 10
752.4974149333382
 20
-674.3596025668951
 30
0
 11
753.4974149333382
 21
-674.3596025668951
 31
0
  0
LINE
  8
1
 62
3
 10
724.1974149333382
 20
-675.1096025668951
 30
0
 11
752.4974149333382
 21
-675.4596025668952
 31
0
  0
LINE
  8
1
 62
3
 10
723.4974149333382
 20
-675.1096025668951
 30
0
 11
724.1974149333382
 21
-675.1096025668951
 31
0
  0
LINE
  8
1
 62
3
 10
752.4974149333382
 20
-635.3596025668951
 30
0
 11
752.4974149333382
 21
-675.4596025668952
 31
0
  0
LINE
  8
1
 62
3
 10
723.4974149333382
 20
-662.1096025668951
 30
0
 11
723.4974149333382
 21
-675.1096025668951
 31
0
  0
LINE
  8
1
 62
3
 10
753.4974149333382
 20
-674.3596025668951
 30
0
 11
753.4974149333382
 21
-635.3596025668951
 31
0
  0
LINE
  8
1
 62
3
 10
724.1974149333382
 20
-662.1096025668951
 30
0
 11
723.4974149333382
 21
-662.1096025668951
 31
0
  0
LINE
  8
1
 62
1
 10
727.1974149333382
 20
-668.5896025668951
 30
0
 11
720.4974149333382
 21
-668.5896025668951
 31
0
  0
LINE
  8
1
 62
1
 10
729.1974149333382
 20
-620.3596025668951
 30
0
 11
718.4974149333382
 21
-620.3596025668951
 31
0
  0
LINE
  8
1
 62
3
 10
718.9974149333382
 20
-603.3596025668951
 30
0
 11
723.4974149333382
 21
-603.3596025668951
 31
0
  0
LINE
  8
1
 62
3
 10
718.4974149333382
 20
-636.8596025668951
 30
0
 11
718.4974149333382
 21
-603.8596025668951
 31
0
  0
LINE
  8
1
 62
3
 10
723.6974149333382
 20
-637.3596025668951
 30
0
 11
718.9974149333382
 21
-637.3596025668951
 31
0
  0
LINE
  8
1
 62
3
 10
724.1974149333382
 20
-635.3596025668951
 30
0
 11
724.1974149333382
 21
-668.6096025668951
 31
0
  0
LINE
  8
1
 62
2
 10
756.4974149333382
 20
-598.8596025668951
 30
0
 11
749.4974149333382
 21
-598.8596025668951
 31
0
  0
LINE
  8
1
 62
2
 10
749.4974149333382
 20
-671.8596025668951
 30
0
 11
756.4974149333382
 21
-671.8596025668951
 31
0
  0
LINE
  8
1
 62
3
 10
746.3245834793286
 20
-594.3358685308781
 30
0
 11
728.325959914971
 21
-594.5584663488112
 31
0
  0
ARC
  8
1
 62
3
 10
718.9974149333382
 20
-603.8596025668951
 30
0
 40
0.5
 50
90
 51
180
  0
ARC
  8
1
 62
3
 10
718.9974149333382
 20
-636.8596025668951
 30
0
 40
0.5
 50
180
 51
270
  0
ARC
  8
1
 62
3
 10
723.6974149333382
 20
-637.8596025668951
 30
0
 40
0.5
 50
0
 51
90
  0
DIMENSION
  8
1
  6
CONTINUOUS
 62
2
  2
*D0
  3
DMST_1
 10
718.4974149333382
 20
-580.2596025668953
 30
0
 11
720.6123052530081
 21
-576.6596025668953
 31
0
 12
0
 22
0
 32
0
 70
0
 13
723.4974149333382
 23
-595.6096025668951
 33
0
 14
718.4974149333382
 24
-603.8596025668951
 34
0
 53
0
  0
DIMENSION
  8
1
  6
CONTINUOUS
 62
2
  2
*D1
  3
DMST_1
 10
723.4974149333381
 20
-565.2596025668953
 30
0
 11
738.3443244458219
 21
-561.6596025668953
 31
0
 12
0
 22
0
 32
0
 70
0
 13
753.4974149333382
 23
-596.3596025668951
 33
0
 14
723.4974149333382
 24
-595.6096025668951
 34
0
 53
0
  0
DIMENSION
  8
1
  6
CONTINUOUS
 62
2
  2
*D2
  3
DMST_2
 10
768.4974149333382
 20
-598.8596025668951
 30
0
 11
764.0707482666716
 21
-635.359602566895
 31
0
 12
0
 22
0
 32
0
 70
0
  1
73H7
 13
756.4974149333382
 23
-671.8596025668951
 33
0
 14
756.4974149333382
 24
-598.8596025668951
 34
0
 50
90
 53
0
  0
DIMENSION
  8
1
  6
CONTINUOUS
 62
2
  2
*D3
  3
DMST_3
 10
708.4974149333382
 20
-637.3596025668951
 30
0
 11
704.8974149333382
 21
-632.3596025668951
 31
0
 12
0
 22
0
 32
0
 70
0
  1
âË<>
 13
718.9974149333382
 23
-603.3596025668951
 33
0
 14
718.9974149333382
 24
-637.3596025668951
 34
0
 50
90
 53
0
  0
INSERT
  8
0
  2
G7G
 10
484.374103266296
 20
-781.9898493302353
 30
0
  0
ENDBLK
  8
0
  0
BLOCK
  8
1
  2
*D4
 70
1
 10
0
 20
0
 30
0
  0
LINE
  8
1
 62
2
 10
688.4974149333381
 20
-596.2596025668954
 30
0
 11
702.4974149333381
 21
-596.2596025668954
 31
0
  0
LINE
  8
1
 62
2
 10
688.4974149333381
 20
-616.3596025668954
 30
0
 11
688.4974149333381
 21
-594.2596025668954
 31
0
  0
LINE
  8
1
 62
2
 10
702.4974149333381
 20
-616.3596025668954
 30
0
 11
702.4974149333381
 21
-594.2596025668954
 31
0
  0
SOLID
  8
1
 62
2
 10
702.4974149333381
 20
-596.2596025668954
 30
0
 11
699.297414933338
 21
-596.6756025668955
 31
0
 12
699.297414933338
 22
-595.8436025668954
 32
0
 13
699.297414933338
 23
-595.8436025668954
 33
0
  0
SOLID
  8
1
 62
2
 10
688.4974149333381
 20
-596.2596025668954
 30
0
 11
691.6974149333381
 21
-595.8436025668954
 31
0
 12
691.6974149333381
 22
-596.6756025668955
 32
0
 13
691.6974149333381
 23
-596.6756025668955
 33
0
  0
TEXT
  8
1
 62
2
 10
693.7042297412839
 20
-594.2596025668954
 30
0
 40
3.2
  1
14
 41
0.9
  0
ENDBLK
  8
0
  0
BLOCK
  8
1
  2
*D5
 70
1
 10
0
 20
0
 30
0
  0
LINE
  8
1
 62
2
 10
688.4974149333382
 20
-565.2596025668951
 30
0
 11
723.4974149333382
 21
-565.2596025668951
 31
0
  0
LINE
  8
1
 62
2
 10
723.4974149333382
 20
-594.6096025668949
 30
0
 11
723.4974149333382
 21
-563.2596025668951
 31
0
  0
LINE
  8
1
 62
2
 10
688.4974149333382
 20
-616.3596025668952
 30
0
 11
688.4974149333382
 21
-563.2596025668951
 31
0
  0
SOLID
  8
1
 62
2
 10
723.4974149333382
 20
-565.2596025668951
 30
0
 11
720.2974149333381
 21
-565.6756025668951
 31
0
 12
720.2974149333381
 22
-564.843602566895
 32
0
 13
720.2974149333381
 23
-564.843602566895
 33
0
  0
SOLID
  8
1
 62
2
 10
688.4974149333382
 20
-565.2596025668951
 30
0
 11
691.6974149333382
 21
-564.843602566895
 31
0
 12
691.6974149333382
 22
-565.6756025668951
 32
0
 13
691.6974149333382
 23
-565.6756025668951
 33
0
  0
TEXT
  8
1
 62
2
 10
703.7498723039211
 20
-563.2596025668951
 30
0
 40
3.2
  1
35
 41
0.9
  0
ENDBLK
  8
0
  0
BLOCK
  8
1
  2
*D6
 70
1
 10
0
 20
0
 30
0
  0
LINE
  8
1
 62
2
 10
668.4974149333381
 20
-624.3596025668954
 30
0
 11
668.4974149333381
 21
-616.3596025668954
 31
0
  0
LINE
  8
1
 62
2
 10
668.4974149333381
 20
-624.3596025668954
 30
0
 11
668.4974149333381
 21
-630.7596025668954
 31
0
  0
LINE
  8
1
 62
2
 10
668.4974149333381
 20
-616.3596025668954
 30
0
 11
668.4974149333381
 21
-609.9596025668955
 31
0
  0
LINE
  8
1
 62
2
 10
687.6974149333381
 20
-624.3596025668954
 30
0
 11
666.4974149333381
 21
-624.3596025668954
 31
0
  0
LINE
  8
1
 62
2
 10
704.4974149333381
 20
-616.3596025668954
 30
0
 11
666.4974149333381
 21
-616.3596025668954
 31
0
  0
SOLID
  8
1
 62
2
 10
668.4974149333381
 20
-616.3596025668954
 30
0
 11
668.081414933338
 21
-613.1596025668954
 31
0
 12
668.9134149333381
 22
-613.1596025668954
 32
0
 13
668.9134149333381
 23
-613.1596025668954
 33
0
  0
SOLID
  8
1
 62
2
 10
668.4974149333381
 20
-624.3596025668954
 30
0
 11
668.9134149333381
 21
-627.5596025668955
 31
0
 12
668.081414933338
 22
-627.5596025668955
 32
0
 13
668.081414933338
 23
-627.5596025668955
 33
0
  0
TEXT
  8
1
 62
2
 10
665.6974149333381
 20
-623.5671344558432
 30
0
 40
3.2
  1
8
 50
90
 41
0.9
  0
TEXT
  8
1
 62
2
 10
663.6174149333381
 20
-618.5111344558431
 30
0
 40
1.92
  1
0
 50
90
 41
0.9
  0
TEXT
  8
1
 62
2
 10
666.4974149333381
 20
-620.0471344558432
 30
0
 40
1.92
  1
-0.02
 50
90
 41
0.9
  0
TEXT
  8
1
 62
2
 10
665.6974149333381
 20
-627.2115789002876
 30
0
 40
3.2
  1
âË
 50
90
 41
0.9
  0
ENDBLK
  8
0
  0
BLOCK
  8
1
  2
*D7
 70
1
 10
0
 20
0
 30
0
  0
LINE
  8
1
 62
2
 10
678.4974149333383
 20
-623.7596025668954
 30
0
 11
678.4974149333383
 21
-617.3596025668954
 31
0
  0
LINE
  8
1
 62
2
 10
678.4974149333383
 20
-617.3596025668954
 30
0
 11
678.4974149333383
 21
-616.3596025668954
 31
0
  0
LINE
  8
1
 62
2
 10
678.4974149333383
 20
-616.3596025668954
 30
0
 11
678.4974149333383
 21
-609.9596025668955
 31
0
  0
LINE
  8
1
 62
2
 10
687.4974149333383
 20
-617.3596025668954
 30
0
 11
676.4974149333383
 21
-617.3596025668954
 31
0
  0
LINE
  8
1
 62
2
 10
704.4974149333383
 20
-616.3596025668954
 30
0
 11
676.4974149333383
 21
-616.3596025668954
 31
0
  0
SOLID
  8
1
 62
2
 10
678.4974149333383
 20
-616.3596025668954
 30
0
 11
678.0814149333382
 21
-613.1596025668954
 31
0
 12
678.9134149333383
 22
-613.1596025668954
 32
0
 13
678.9134149333383
 23
-613.1596025668954
 33
0
  0
SOLID
  8
1
 62
2
 10
678.4974149333383
 20
-617.3596025668954
 30
0
 11
678.9134149333383
 21
-620.5596025668955
 31
0
 12
678.0814149333382
 22
-620.5596025668955
 32
0
 13
678.0814149333382
 23
-620.5596025668955
 33
0
  0
TEXT
  8
1
 62
2
 10
676.4974149333383
 20
-613.1235037161604
 30
0
 40
3.2
  1
1
 50
90
 41
0.9
  0
ENDBLK
  8
0
  0
BLOCK
  8
1
  2
*D8
 70
1
 10
0
 20
0
 30
0
  0
LINE
  8
1
 62
2
 10
520.7674149333382
 20
-580.2596025668951
 30
0
 11
587.227414933338
 21
-580.2596025668951
 31
0
  0
LINE
  8
1
 62
2
 10
520.7674149333382
 20
-595.1296025668952
 30
0
 11
520.7674149333382
 21
-578.7596025668951
 31
0
  0
LINE
  8
1
 62
2
 10
587.227414933338
 20
-595.1296025668952
 30
0
 11
587.227414933338
 21
-578.7596025668951
 31
0
  0
SOLID
  8
1
 62
2
 10
587.227414933338
 20
-580.2596025668951
 30
0
 11
584.0274149333379
 21
-580.6756025668951
 31
0
 12
584.0274149333379
 22
-579.843602566895
 32
0
 13
584.0274149333379
 23
-579.843602566895
 33
0
  0
SOLID
  8
1
 62
2
 10
520.7674149333382
 20
-580.2596025668951
 30
0
 11
523.9674149333382
 21
-579.843602566895
 31
0
 12
523.9674149333382
 22
-580.6756025668951
 32
0
 13
523.9674149333382
 23
-580.6756025668951
 33
0
  0
TEXT
  8
1
 62
2
 10
545.9334149333382
 20
-578.2596025668951
 30
0
 40
3.2
  1
66.5
 41
0.9
  0
TEXT
  8
1
 62
2
 10
556.2534149333381
 20
-577.6196025668951
 30
0
 40
1.92
  1
%%p0.3
 41
0.9
  0
ENDBLK
  8
0
  0
BLOCK
  8
0
  2
BB__4
 70
0
 10
524.5102304076499
 20
-466.6183562181059
 30
0
  0
POINT
  8
1
 62
4
  6
DIVIDE
 10
723.4974149333382
 20
-595.6096025668949
 30
0
  0
POINT
  8
1
 62
4
  6
DIVIDE
 10
587.227414933338
 20
-596.1296025668952
 30
0
  0
POINT
  8
1
 62
4
  6
DIVIDE
 10
520.7674149333382
 20
-596.1296025668952
 30
0
  0
LINE
  8
1
 62
3
 10
551.3516636222735
 20
-617.3596025668949
 30
0
 11
556.6431662444027
 21
-617.3596025668949
 31
0
  0
LINE
  8
1
 62
3
 10
688.4974149333382
 20
-617.3596025668952
 30
0
 11
688.4974149333382
 21
-620.3596025668952
 31
0
  0
LINE
  8
1
 62
3
 10
702.4974149333382
 20
-617.3596025668952
 30
0
 11
688.4974149333382
 21
-617.3596025668952
 31
0
  0
LINE
  8
1
 62
3
 10
688.4974149333382
 20
-624.1596025668954
 30
0
 11
688.6974149333382
 21
-624.3596025668952
 31
0
  0
LINE
  8
1
 62
3
 10
688.4974149333382
 20
-620.3596025668952
 30
0
 11
688.4974149333382
 21
-624.1596025668954
 31
0
  0
LINE
  8
1
 62
3
 10
688.6974149333382
 20
-624.3596025668952
 30
0
 11
718.4974149333382
 21
-624.3596025668952
 31
0
  0
LINE
  8
1
 62
1
 10
718.4974149333382
 20
-620.3596025668952
 30
0
 11
683.4974149333382
 21
-620.3596025668952
 31
0
  0
LINE
  8
1
 62
3
 10
718.4974149333382
 20
-616.3596025668952
 30
0
 11
705.4974149333382
 21
-616.3596025668952
 31
0
  0
ARC
  8
1
 62
3
 10
702.4974149333382
 20
-612.3596025668952
 30
0
 40
5
 50
270
 51
306.869897645844
  0
CIRCLE
  8
1
 62
3
 10
553.9974149333382
 20
-620.3596025668949
 30
0
 40
4
  0
DIMENSION
  8
1
  6
CONTINUOUS
 62
2
  2
*D4
  3
DMST_3
 10
702.4974149333381
 20
-596.2596025668954
 30
0
 11
695.6242297412839
 21
-592.6596025668954
 31
0
 12
0
 22
0
 32
0
 70
0
 13
688.4974149333382
 23
-617.3596025668952
 33
0
 14
702.4974149333382
 24
-617.3596025668952
 34
0
 53
0
  0
DIMENSION
  8
1
  6
CONTINUOUS
 62
2
  2
*D5
  3
DMST_3
 10
723.4974149333382
 20
-565.2596025668951
 30
0
 11
706.149872303921
 21
-561.659602566895
 31
0
 12
0
 22
0
 32
0
 70
0
 13
688.4974149333382
 23
-617.3596025668952
 33
0
 14
723.4974149333382
 24
-595.6096025668949
 34
0
 53
0
  0
DIMENSION
  8
1
  6
CONTINUOUS
 62
2
  2
*D6
  3
DMST_2
 10
668.4974149333381
 20
-616.3596025668954
 30
0
 11
664.0974149333381
 21
-620.2453566780654
 31
0
 12
0
 22
0
 32
0
 70
0
  1
âË<>
 13
688.6974149333382
 23
-624.3596025668952
 33
0
 14
705.4974149333382
 24
-616.3596025668952
 34
0
 50
90
 53
0
  0
DIMENSION
  8
1
  6
CONTINUOUS
 62
2
  2
*D7
  3
DMST_3
 10
678.4974149333383
 20
-616.3596025668954
 30
0
 11
674.8974149333383
 21
-612.6435037161604
 31
0
 12
0
 22
0
 32
0
 70
0
 13
688.4974149333382
 23
-617.3596025668952
 33
0
 14
705.4974149333382
 24
-616.3596025668952
 34
0
 50
90
 53
0
  0
DIMENSION
  8
1
  6
CONTINUOUS
 62
2
  2
*D8
  3
DMST_4
 10
587.227414933338
 20
-580.2596025668951
 30
0
 11
553.9974149333382
 21
-576.659602566895
 31
0
 12
0
 22
0
 32
0
 70
1
  1
66.5
 13
520.7674149333382
 23
-596.1296025668952
 33
0
 14
587.227414933338
 24
-596.1296025668952
 34
0
 53
0
  0
INSERT
  8
0
  2
G8G__1
 10
726.38056316886
 20
532.659857095945
 30
0
  0
INSERT
  8
0
  2
BB__2
 10
678.327639291377
 20
-167.7092111257679
 30
0
  0
INSERT
  8
0
  2
BB__3
 10
678.327639291377
 20
-137.7092111257679
 30
0
  0
ENDBLK
  8
0
  0
BLOCK
  8
1
  2
*D9
 70
1
 10
0
 20
0
 30
0
  0
LINE
  8
1
 62
2
 10
829.1227444033736
 20
-671.859602566895
 30
0
 11
829.1227444033736
 21
-598.859602566895
 31
0
  0
LINE
  8
1
 62
2
 10
848.6227444033739
 20
-598.859602566895
 30
0
 11
827.6227444033736
 21
-598.859602566895
 31
0
  0
LINE
  8
1
 62
2
 10
848.6227444033739
 20
-671.859602566895
 30
0
 11
827.6227444033736
 21
-671.859602566895
 31
0
  0
SOLID
  8
1
 62
2
 10
829.1227444033736
 20
-598.859602566895
 30
0
 11
829.5387444033737
 21
-602.059602566895
 31
0
 12
828.7067444033736
 22
-602.059602566895
 32
0
 13
828.7067444033736
 23
-602.059602566895
 33
0
  0
SOLID
  8
1
 62
2
 10
829.1227444033736
 20
-671.859602566895
 30
0
 11
828.7067444033736
 21
-668.6596025668949
 31
0
 12
829.5387444033737
 22
-668.6596025668949
 32
0
 13
829.5387444033737
 23
-668.6596025668949
 33
0
  0
TEXT
  8
1
 62
2
 10
826.2694110700404
 20
-642.8000731551302
 30
0
 40
3.2
  1
73h7
 50
90
 41
0.9
  0
TEXT
  8
1
 62
2
 10
824.1894110700404
 20
-630.6400731551303
 30
0
 40
1.92
  1
 0
 50
90
 41
0.9
  0
TEXT
  8
1
 62
2
 10
827.0694110700404
 20
-630.6400731551303
 30
0
 40
1.92
  1
-0.03
 50
90
 41
0.9
  0
TEXT
  8
1
 62
2
 10
826.2694110700404
 20
-646.8471319786597
 30
0
 40
3.2
  1
âË
 50
90
 41
0.9
  0
ENDBLK
  8
0
  0
BLOCK
  8
1
  2
*D10
 70
1
 10
0
 20
0
 30
0
  0
LINE
  8
1
 62
2
 10
839.1227444033736
 20
-570.375227566895
 30
0
 11
851.1227444033739
 21
-570.375227566895
 31
0
  0
LINE
  8
1
 62
2
 10
851.1227444033739
 20
-594.375227566895
 30
0
 11
851.1227444033739
 21
-568.875227566895
 31
0
  0
LINE
  8
1
 62
2
 10
839.1227444033736
 20
-631.8611025668951
 30
0
 11
839.1227444033736
 21
-568.875227566895
 31
0
  0
SOLID
  8
1
 62
2
 10
839.1227444033736
 20
-570.375227566895
 30
0
 11
842.3227444033737
 21
-569.9592275668949
 31
0
 12
842.3227444033737
 22
-570.791227566895
 32
0
 13
842.3227444033737
 23
-570.791227566895
 33
0
  0
SOLID
  8
1
 62
2
 10
851.1227444033739
 20
-570.375227566895
 30
0
 11
847.9227444033738
 21
-570.791227566895
 31
0
 12
847.9227444033738
 22
-569.9592275668949
 32
0
 13
847.9227444033738
 23
-569.9592275668949
 33
0
  0
TEXT
  8
1
 62
2
 10
843.471531487919
 20
-568.375227566895
 30
0
 40
3.2
  1
12
 41
0.9
  0
ENDBLK
  8
0
  0
BLOCK
  8
1
  2
*D11
 70
1
 10
0
 20
0
 30
0
  0
LINE
  8
1
 62
2
 10
849.1227444033736
 20
-580.3596025668951
 30
0
 11
842.7227444033737
 21
-580.3596025668951
 31
0
  0
LINE
  8
1
 62
2
 10
849.1227444033736
 20
-580.3596025668951
 30
0
 11
851.1227444033736
 21
-580.3596025668951
 31
0
  0
LINE
  8
1
 62
2
 10
857.5227444033736
 20
-580.3596025668951
 30
0
 11
851.1227444033736
 21
-580.3596025668951
 31
0
  0
LINE
  8
1
 62
2
 10
851.1227444033736
 20
-594.375227566895
 30
0
 11
851.1227444033736
 21
-578.3596025668951
 31
0
  0
LINE
  8
1
 62
2
 10
849.1227444033736
 20
-598.359602566895
 30
0
 11
849.1227444033736
 21
-578.3596025668951
 31
0
  0
SOLID
  8
1
 62
2
 10
849.1227444033736
 20
-580.3596025668951
 30
0
 11
845.9227444033736
 21
-580.7756025668951
 31
0
 12
845.9227444033736
 22
-579.943602566895
 32
0
 13
845.9227444033736
 23
-579.943602566895
 33
0
  0
SOLID
  8
1
 62
2
 10
851.1227444033736
 20
-580.3596025668951
 30
0
 11
854.3227444033737
 21
-579.943602566895
 31
0
 12
854.3227444033737
 22
-580.7756025668951
 32
0
 13
854.3227444033737
 23
-580.7756025668951
 33
0
  0
TEXT
  8
1
 62
2
 10
846.4591027582167
 20
-578.3596025668951
 30
0
 40
3.2
  1
2
 41
0.9
  0
ENDBLK
  8
0
  0
BLOCK
  8
0
  2
G8G__5
 70
0
 10
30.97700402341997
 20
-775.418198781406
 30
0
  0
POINT
  8
1
 62
4
  6
DIVIDE
 10
839.1227444033736
 20
-632.8611025668951
 30
0
  0
POINT
  8
1
 62
4
  6
DIVIDE
 10
849.6227444033739
 20
-671.859602566895
 30
0
  0
POINT
  8
1
 62
4
  6
DIVIDE
 10
849.6227444033739
 20
-598.859602566895
 30
0
  0
POINT
  8
1
 62
4
  6
DIVIDE
 10
851.1227444033739
 20
-595.375227566895
 30
0
  0
LINE
  8
1
 62
1
 10
863.3227444033737
 20
-635.359602566895
 30
0
 11
849.1227444033739
 21
-635.359602566895
 31
0
  0
LINE
  8
1
 62
3
 10
851.1227444033739
 20
-675.343977566895
 30
0
 11
858.3227444033737
 21
-675.343977566895
 31
0
  0
LINE
  8
1
 62
3
 10
849.6227444033739
 20
-598.859602566895
 30
0
 11
851.1227444033739
 21
-598.859602566895
 31
0
  0
LINE
  8
1
 62
3
 10
849.1227444033739
 20
-635.359602566895
 30
0
 11
849.1227444033739
 21
-599.359602566895
 31
0
  0
LINE
  8
1
 62
3
 10
849.1227444033739
 20
-671.359602566895
 30
0
 11
849.6227444033739
 21
-671.859602566895
 31
0
  0
LINE
  8
1
 62
3
 10
851.1227444033739
 20
-671.859602566895
 30
0
 11
849.6227444033739
 21
-671.859602566895
 31
0
  0
LINE
  8
1
 62
3
 10
849.1227444033739
 20
-671.359602566895
 30
0
 11
849.1227444033739
 21
-635.359602566895
 31
0
  0
LINE
  8
1
 62
3
 10
849.6227444033739
 20
-598.859602566895
 30
0
 11
849.1227444033739
 21
-599.359602566895
 31
0
  0
LINE
  8
1
 62
3
 10
858.3227444033737
 20
-595.375227566895
 30
0
 11
851.1227444033739
 21
-595.375227566895
 31
0
  0
LINE
  8
1
 62
3
 10
851.1227444033739
 20
-635.359602566895
 30
0
 11
851.1227444033739
 21
-595.375227566895
 31
0
  0
LINE
  8
1
 62
3
 10
851.1227444033739
 20
-675.343977566895
 30
0
 11
851.1227444033739
 21
-635.359602566895
 31
0
  0
DIMENSION
  8
1
  6
CONTINUOUS
 62
2
  2
*D9
  3
DMST_5
 10
829.1227444033736
 20
-598.859602566895
 30
0
 11
824.696077736707
 21
-635.359602566895
 31
0
 12
0
 22
0
 32
0
 70
0
  1
73h7
 13
849.6227444033739
 23
-671.859602566895
 33
0
 14
849.6227444033739
 24
-598.859602566895
 34
0
 50
90
 53
0
  0
DIMENSION
  8
1
  6
CONTINUOUS
 62
2
  2
*D10
  3
DMST_6
 10
851.1227444033739
 20
-570.375227566895
 30
0
 11
845.391531487919
 21
-566.775227566895
 31
0
 12
0
 22
0
 32
0
 70
0
 13
839.1227444033736
 23
-632.8611025668951
 33
0
 14
851.1227444033739
 24
-595.375227566895
 34
0
 53
0
  0
DIMENSION
  8
1
  6
CONTINUOUS
 62
2
  2
*D11
  3
DMST_3
 10
849.1227444033736
 20
-580.3596025668951
 30
0
 11
847.4191027582167
 21
-576.7596025668951
 31
0
 12
0
 22
0
 32
0
 70
0
 13
851.1227444033739
 23
-595.375227566895
 33
0
 14
849.1227444033739
 24
-599.359602566895
 34
0
 53
0
  0
ENDBLK
  8
0
  0
BLOCK
  8
0
  2
____M4_______
 70
0
 10
581.4974149333382
 20
-619.3596025668951
 30
0
  0
LINE
  8
1
 62
3
 10
580.3491637712339
 20
-617.483031420169
 30
0
 11
581.3084022582116
 21
-618.4422699071461
 31
0
  0
LINE
  8
1
 62
3
 10
582.6456660954423
 20
-617.483031420169
 30
0
 11
581.6864276084646
 21
-618.4422699071461
 31
0
  0
LINE
  8
1
 62
3
 10
579.6208437866117
 20
-620.5078537289991
 30
0
 11
580.5800822735894
 21
-619.548615242022
 31
0
  0
LINE
  8
1
 62
3
 10
579.6208437866117
 20
-618.2113514047911
 30
0
 11
580.5800822735894
 21
-619.1705898917691
 31
0
  0
LINE
  8
1
 62
3
 10
582.6456660954423
 20
-621.2361737136221
 30
0
 11
581.6864276084646
 21
-620.2769352266441
 31
0
  0
LINE
  8
1
 62
3
 10
580.3491637712339
 20
-621.2361737136221
 30
0
 11
581.3084022582116
 21
-620.2769352266441
 31
0
  0
LINE
  8
1
 62
3
 10
583.3739860800645
 20
-618.2113514047911
 30
0
 11
582.4147475930868
 21
-619.1705898917691
 31
0
  0
LINE
  8
1
 62
3
 10
583.3739860800645
 20
-620.5078537289991
 30
0
 11
582.4147475930868
 21
-619.548615242022
 31
0
  0
LINE
  8
1
 62
3
 10
552.8491637712339
 20
-665.4830314201686
 30
0
 11
553.8084022582116
 21
-666.4422699071465
 31
0
  0
LINE
  8
1
 62
3
 10
555.1456660954423
 20
-665.4830314201686
 30
0
 11
554.1864276084646
 21
-666.4422699071465
 31
0
  0
LINE
  8
1
 62
3
 10
552.1208437866117
 20
-668.5078537289994
 30
0
 11
553.0800822735894
 21
-667.5486152420217
 31
0
  0
LINE
  8
1
 62
3
 10
552.1208437866117
 20
-666.211351404791
 30
0
 11
553.0800822735894
 21
-667.1705898917685
 31
0
  0
LINE
  8
1
 62
3
 10
555.1456660954423
 20
-669.2361737136216
 30
0
 11
554.1864276084646
 21
-668.2769352266437
 31
0
  0
LINE
  8
1
 62
3
 10
552.8491637712339
 20
-669.2361737136216
 30
0
 11
553.8084022582116
 21
-668.2769352266437
 31
0
  0
LINE
  8
1
 62
3
 10
555.8739860800645
 20
-666.211351404791
 30
0
 11
554.9147475930868
 21
-667.1705898917687
 31
0
  0
LINE
  8
1
 62
3
 10
555.8739860800645
 20
-668.5078537289994
 30
0
 11
554.9147475930868
 21
-667.5486152420217
 31
0
  0
LINE
  8
1
 62
3
 10
526.6864276084646
 20
-618.4422699071461
 30
0
 11
527.6456660954423
 21
-617.483031420169
 31
0
  0
LINE
  8
1
 62
3
 10
526.3084022582116
 20
-618.4422699071461
 30
0
 11
525.3491637712339
 21
-617.483031420169
 31
0
  0
LINE
  8
1
 62
3
 10
527.4147475930868
 20
-619.548615242022
 30
0
 11
528.3739860800645
 21
-620.5078537289991
 31
0
  0
LINE
  8
1
 62
3
 10
527.4147475930868
 20
-619.1705898917691
 30
0
 11
528.3739860800645
 21
-618.2113514047911
 31
0
  0
LINE
  8
1
 62
3
 10
526.3084022582116
 20
-620.2769352266441
 30
0
 11
525.3491637712339
 21
-621.2361737136221
 31
0
  0
LINE
  8
1
 62
3
 10
526.6864276084646
 20
-620.2769352266441
 30
0
 11
527.6456660954423
 21
-621.2361737136221
 31
0
  0
LINE
  8
1
 62
3
 10
525.5800822735894
 20
-619.1705898917691
 30
0
 11
524.6208437866117
 21
-618.2113514047911
 31
0
  0
LINE
  8
1
 62
3
 10
525.5800822735894
 20
-619.548615242022
 30
0
 11
524.6208437866117
 21
-620.5078537289991
 31
0
  0
ARC
  8
1
 62
3
 10
581.4974149333382
 20
-619.3596025668951
 30
0
 40
2.199999999999718
 50
31.46195895464773
 51
58.53804104534666
  0
ARC
  8
1
 62
3
 10
581.4974149333382
 20
-619.3596025668951
 30
0
 40
0.9150000000001444
 50
80.83777127597544
 51
99.16222872403861
  0
ARC
  8
1
 62
3
 10
581.4974149333382
 20
-619.3596025668951
 30
0
 40
2.199999999999702
 50
121.4619589546584
 51
148.5380410453554
  0
ARC
  8
1
 62
3
 10
581.4974149333382
 20
-619.3596025668951
 30
0
 40
0.9150000000002168
 50
170.8377712759473
 51
189.1622287240456
  0
ARC
  8
1
 62
3
 10
581.4974149333382
 20
-619.3596025668951
 30
0
 40
2.199999999999912
 50
211.4619589546446
 51
238.538041045354
  0
ARC
  8
1
 62
3
 10
581.4974149333382
 20
-619.3596025668951
 30
0
 40
0.9150000000001804
 50
260.8377712759614
 51
279.1622287240245
  0
ARC
  8
1
 62
3
 10
581.4974149333382
 20
-619.3596025668951
 30
0
 40
2.200000000000359
 50
301.461958954641
 51
328.5380410453523
  0
ARC
  8
1
 62
3
 10
581.4974149333382
 20
-619.3596025668951
 30
0
 40
0.9149999999999742
 50
350.8377712759521
 51
9.162228724054939
  0
ARC
  8
1
 62
3
 10
553.9974149333382
 20
-667.3596025668953
 30
0
 40
2.199999999999896
 50
31.46195895465532
 51
58.53804104535593
  0
ARC
  8
1
 62
3
 10
553.9974149333382
 20
-667.3596025668953
 30
0
 40
0.9150000000001444
 50
80.83777127597544
 51
99.16222872403861
  0
ARC
  8
1
 62
3
 10
553.9974149333382
 20
-667.3596025668953
 30
0
 40
2.200000000000284
 50
121.4619589546491
 51
148.5380410453478
  0
ARC
  8
1
 62
3
 10
553.9974149333382
 20
-667.3596025668953
 30
0
 40
0.9150000000001804
 50
170.8377712759614
 51
189.1622287240105
  0
ARC
  8
1
 62
3
 10
553.9974149333382
 20
-667.3596025668953
 30
0
 40
2.199999999999971
 50
211.4619589546472
 51
238.5380410453447
  0
ARC
  8
1
 62
3
 10
553.9974149333382
 20
-667.3596025668953
 30
0
 40
0.9149999999997317
 50
260.8377712759569
 51
279.1622287240291
  0
ARC
  8
1
 62
3
 10
553.9974149333382
 20
-667.3596025668953
 30
0
 40
2.199999999999777
 50
301.4619589546502
 51
328.5380410453497
  0
ARC
  8
1
 62
3
 10
553.9974149333382
 20
-667.3596025668953
 30
0
 40
0.9149999999998838
 50
350.8377712759873
 51
9.162228724040883
  0
ARC
  8
1
 62
3
 10
526.4974149333382
 20
-619.3596025668951
 30
0
 40
2.199999999999702
 50
121.4619589546584
 51
148.5380410453554
  0
ARC
  8
1
 62
3
 10
526.4974149333382
 20
-619.3596025668951
 30
0
 40
0.9150000000001444
 50
80.83777127597544
 51
99.16222872403861
  0
ARC
  8
1
 62
3
 10
526.4974149333382
 20
-619.3596025668951
 30
0
 40
2.199999999999718
 50
31.46195895464773
 51
58.53804104534666
  0
ARC
  8
1
 62
3
 10
526.4974149333382
 20
-619.3596025668951
 30
0
 40
0.9149999999999742
 50
350.8377712759521
 51
9.162228724054939
  0
ARC
  8
1
 62
3
 10
526.4974149333382
 20
-619.3596025668951
 30
0
 40
2.200000000000359
 50
301.461958954641
 51
328.5380410453523
  0
ARC
  8
1
 62
3
 10
526.4974149333382
 20
-619.3596025668951
 30
0
 40
0.9150000000001804
 50
260.8377712759614
 51
279.1622287240245
  0
ARC
  8
1
 62
3
 10
526.4974149333382
 20
-619.3596025668951
 30
0
 40
2.199999999999912
 50
211.4619589546446
 51
238.538041045354
  0
ARC
  8
1
 62
3
 10
526.4974149333382
 20
-619.3596025668951
 30
0
 40
0.9150000000002168
 50
170.8377712759473
 51
189.1622287240456
  0
CIRCLE
  8
1
 62
3
 10
581.4974149333382
 20
-619.3596025668951
 30
0
 40
3.599999999999909
  0
CIRCLE
  8
1
 62
3
 10
553.9974149333382
 20
-667.3596025668953
 30
0
 40
3.599999999999909
  0
CIRCLE
  8
1
 62
3
 10
526.4974149333382
 20
-619.3596025668951
 30
0
 40
3.600000000000136
  0
ARC
  8
1
 62
3
 10
581.343757597271
 20
-618.4069145680871
 30
0
 40
0.0499999999997512
 50
224.9999999996315
 51
279.1622287239621
  0
ARC
  8
1
 62
3
 10
581.6510722694052
 20
-618.4069145680871
 30
0
 40
0.04999999999981535
 50
260.8377712760379
 51
315.0000000003685
  0
ARC
  8
1
 62
3
 10
580.5447269345302
 20
-619.5132599029621
 30
0
 40
0.05000000000031392
 50
314.9999999993552
 51
9.162228723576238
  0
ARC
  8
1
 62
3
 10
580.5447269345302
 20
-619.2059452308281
 30
0
 40
0.04999999999974294
 50
350.8377712765524
 51
44.99999999990789
  0
ARC
  8
1
 62
3
 10
581.6510722694052
 20
-620.3122905657031
 30
0
 40
0.0499999999997512
 50
44.99999999963153
 51
99.16222872396209
  0
ARC
  8
1
 62
3
 10
581.343757597271
 20
-620.3122905657031
 30
0
 40
0.04999999999981535
 50
80.83777127603793
 51
135.0000000003685
  0
ARC
  8
1
 62
3
 10
582.4501029321461
 20
-619.2059452308281
 30
0
 40
0.04999999999983159
 50
135.0000000002764
 51
189.1622287234061
  0
ARC
  8
1
 62
3
 10
582.4501029321461
 20
-619.5132599029621
 30
0
 40
0.04999999999998551
 50
170.8377712764652
 51
225.0000000004606
  0
ARC
  8
1
 62
3
 10
553.843757597271
 20
-666.4069145680871
 30
0
 40
0.05000000000007276
 50
225
 51
279.1622287239206
  0
ARC
  8
1
 62
3
 10
554.1510722694052
 20
-666.4069145680871
 30
0
 40
0.05000000000003983
 50
260.8377712760794
 51
315
  0
ARC
  8
1
 62
3
 10
553.04472693453
 20
-667.5132599029623
 30
0
 40
0.05000000000007276
 50
315
 51
9.162228724177817
  0
ARC
  8
1
 62
3
 10
553.04472693453
 20
-667.2059452308281
 30
0
 40
0.05000000000003983
 50
350.8377712760794
 51
45.00000000018423
  0
ARC
  8
1
 62
3
 10
554.1510722694052
 20
-668.3122905657033
 30
0
 40
0.05000000000023353
 50
45.00000000018423
 51
99.16222872387911
  0
ARC
  8
1
 62
3
 10
553.843757597271
 20
-668.3122905657033
 30
0
 40
0.05000000000026429
 50
80.8377712761209
 51
134.9999999998158
  0
ARC
  8
1
 62
3
 10
554.9501029321461
 20
-667.2059452308281
 30
0
 40
0.05000000000007276
 50
135
 51
189.1622287239206
  0
ARC
  8
1
 62
3
 10
554.9501029321461
 20
-667.5132599029623
 30
0
 40
0.05000000000007603
 50
170.8377712758222
 51
225
  0
ARC
  8
1
 62
3
 10
526.6510722694052
 20
-618.4069145680871
 30
0
 40
0.04999999999981535
 50
260.8377712760379
 51
315.0000000003685
  0
ARC
  8
1
 62
3
 10
526.343757597271
 20
-618.4069145680871
 30
0
 40
0.0499999999997512
 50
224.9999999996315
 51
279.1622287239621
  0
ARC
  8
1
 62
3
 10
527.4501029321461
 20
-619.5132599029621
 30
0
 40
0.04999999999998551
 50
170.8377712764652
 51
225.0000000004606
  0
ARC
  8
1
 62
3
 10
527.4501029321461
 20
-619.2059452308281
 30
0
 40
0.04999999999983159
 50
135.0000000002764
 51
189.1622287234061
  0
ARC
  8
1
 62
3
 10
526.343757597271
 20
-620.3122905657031
 30
0
 40
0.04999999999981535
 50
80.83777127603793
 51
135.0000000003685
  0
ARC
  8
1
 62
3
 10
526.6510722694052
 20
-620.3122905657031
 30
0
 40
0.0499999999997512
 50
44.99999999963153
 51
99.16222872396209
  0
ARC
  8
1
 62
3
 10
525.54472693453
 20
-619.2059452308281
 30
0
 40
0.0499999999999674
 50
350.8377712765939
 51
44.99999999972365
  0
ARC
  8
1
 62
3
 10
525.54472693453
 20
-619.5132599029621
 30
0
 40
0.0500000000004747
 50
314.9999999995394
 51
9.162228723534751
  0
ENDBLK
  8
0
  0
BLOCK
  8
1
  2
*D12
 70
1
 10
0
 20
0
 30
0
  0
LINE
  8
1
 62
2
 10
535.0056881693123
 20
-635.359602566895
 30
0
 11
535.0056881693123
 21
-620.359602566895
 31
0
  0
LINE
  8
1
 62
2
 10
572.9974149333382
 20
-620.359602566895
 30
0
 11
533.0056881693123
 21
-620.359602566895
 31
0
  0
LINE
  8
1
 62
2
 10
598.0974149333382
 20
-635.359602566895
 30
0
 11
533.0056881693123
 21
-635.359602566895
 31
0
  0
SOLID
  8
1
 62
2
 10
535.0056881693123
 20
-620.359602566895
 30
0
 11
535.4216881693123
 21
-623.559602566895
 31
0
 12
534.5896881693122
 22
-623.559602566895
 32
0
 13
534.5896881693122
 23
-623.559602566895
 33
0
  0
SOLID
  8
1
 62
2
 10
535.0056881693123
 20
-635.359602566895
 30
0
 11
534.5896881693122
 21
-632.1596025668949
 31
0
 12
535.4216881693123
 22
-632.1596025668949
 32
0
 13
535.4216881693123
 23
-632.1596025668949
 33
0
  0
TEXT
  8
1
 62
2
 10
533.0056881693123
 20
-630.07316512975
 30
0
 40
3.2
  1
15
 50
90
 41
0.9
  0
ENDBLK
  8
0
  0
BLOCK
  8
1
  2
*D13
 70
1
 10
0
 20
0
 30
0
  0
LINE
  8
1
 62
2
 10
619.0974149333382
 20
-675.4596025668951
 30
0
 11
619.0974149333382
 21
-595.2596025668951
 31
0
  0
LINE
  8
1
 62
2
 10
588.5974149333382
 20
-595.2596025668952
 30
0
 11
621.0974149333382
 21
-595.2596025668951
 31
0
  0
LINE
  8
1
 62
2
 10
588.5974149333382
 20
-675.4596025668951
 30
0
 11
621.0974149333382
 21
-675.4596025668951
 31
0
  0
SOLID
  8
1
 62
2
 10
619.0974149333382
 20
-595.2596025668951
 30
0
 11
619.5134149333383
 21
-598.4596025668951
 31
0
 12
618.6814149333381
 22
-598.4596025668951
 32
0
 13
618.6814149333381
 23
-598.4596025668951
 33
0
  0
SOLID
  8
1
 62
2
 10
619.0974149333382
 20
-675.4596025668951
 30
0
 11
618.6814149333381
 21
-672.2596025668951
 31
0
 12
619.5134149333383
 22
-672.2596025668951
 32
0
 13
619.5134149333383
 23
-672.2596025668951
 33
0
  0
TEXT
  8
1
 62
2
 10
617.0974149333382
 20
-638.3102457304086
 30
0
 40
3.2
  1
80
 50
90
 41
0.9
  0
ENDBLK
  8
0
  0
BLOCK
  8
1
  2
*D14
 70
1
 10
0
 20
0
 30
0
  0
LINE
  8
1
 62
2
 10
609.0974149333382
 20
-668.5896025668951
 30
0
 11
609.0974149333382
 21
-602.1296025668951
 31
0
  0
LINE
  8
1
 62
2
 10
594.2274149333382
 20
-602.1296025668951
 30
0
 11
611.0974149333382
 21
-602.1296025668951
 31
0
  0
LINE
  8
1
 62
2
 10
594.2274149333382
 20
-668.5896025668951
 30
0
 11
611.0974149333382
 21
-668.5896025668951
 31
0
  0
SOLID
  8
1
 62
2
 10
609.0974149333382
 20
-602.1296025668951
 30
0
 11
609.5134149333383
 21
-605.3296025668951
 31
0
 12
608.6814149333381
 22
-605.3296025668951
 32
0
 13
608.6814149333381
 23
-605.3296025668951
 33
0
  0
SOLID
  8
1
 62
2
 10
609.0974149333382
 20
-668.5896025668951
 30
0
 11
608.6814149333381
 21
-665.3896025668951
 31
0
 12
609.5134149333383
 22
-665.3896025668951
 32
0
 13
609.5134149333383
 23
-665.3896025668951
 33
0
  0
TEXT
  8
1
 62
2
 10
607.0974149333382
 20
-643.468349169496
 30
0
 40
3.2
  1
66.5
 50
90
 41
0.9
  0
TEXT
  8
1
 62
2
 10
606.4574149333382
 20
-633.1483491694961
 30
0
 40
1.92
  1
%%p0.3
 50
90
 41
0.9
  0
ENDBLK
  8
0
  0
BLOCK
  8
1
  2
*D15
 70
1
 10
0
 20
0
 30
0
  0
LINE
  8
1
 62
2
 10
513.897414933338
 20
-565.2596025668952
 30
0
 11
594.0974149333381
 21
-565.2596025668952
 31
0
  0
LINE
  8
1
 62
2
 10
594.0974149333381
 20
-600.7596025668952
 30
0
 11
594.0974149333381
 21
-563.2596025668952
 31
0
  0
LINE
  8
1
 62
2
 10
513.897414933338
 20
-600.7596025668952
 30
0
 11
513.897414933338
 21
-563.2596025668952
 31
0
  0
SOLID
  8
1
 62
2
 10
594.0974149333381
 20
-565.2596025668952
 30
0
 11
590.897414933338
 21
-565.6756025668952
 31
0
 12
590.897414933338
 22
-564.8436025668951
 32
0
 13
590.897414933338
 23
-564.8436025668951
 33
0
  0
SOLID
  8
1
 62
2
 10
513.897414933338
 20
-565.2596025668952
 30
0
 11
517.0974149333381
 21
-564.8436025668951
 31
0
 12
517.0974149333381
 22
-565.6756025668952
 32
0
 13
517.0974149333381
 23
-565.6756025668952
 33
0
  0
TEXT
  8
1
 62
2
 10
551.9983896709583
 20
-563.2596025668952
 30
0
 40
3.2
  1
80
 41
0.9
  0
ENDBLK
  8
0
  0
BLOCK
  8
1
  2
*D16
 70
1
 10
0
 20
0
 30
0
  0
LINE
  8
1
 62
2
 10
603.4699885329048
 20
-585.2596025668951
 30
0
 11
624.5773447934881
 21
-585.2596025668951
 31
0
  0
LINE
  8
1
 62
2
 10
589.1347704438642
 20
-600.1485687568692
 30
0
 11
603.4699885329048
 21
-585.2596025668951
 31
0
  0
SOLID
  8
1
 62
2
 10
589.1347704438642
 20
-600.1485687568692
 30
0
 11
591.0545622870325
 21
-597.5548349079741
 31
0
 12
591.6539150615567
 22
-598.1318966478859
 32
0
 13
591.6539150615567
 23
-598.1318966478859
 33
0
  0
TEXT
  8
1
 62
2
 10
614.3817892379326
 20
-583.7165780867122
 30
0
 40
3.2
  1
5.5
 41
0.9
  0
TEXT
  8
1
 62
2
 10
605.2973447934882
 20
-583.7165780867122
 30
0
 40
3.2
  1
4-âË
 41
0.9
  0
TEXT
  8
1
 62
2
 10
621.8217892379325
 20
-583.7165780867122
 30
0
 40
3.2
  1
îè
 41
0.9
  0
ENDBLK
  8
0
  0
BLOCK
  8
1
  2
*D17
 70
1
 10
0
 20
0
 30
0
  0
LINE
  8
1
 62
2
 10
597.1262818719588
 20
-616.6807151109796
 30
0
 11
510.8685479947175
 21
-654.0384900228105
 31
0
  0
SOLID
  8
1
 62
2
 10
510.8685479947175
 20
-654.0384900228105
 30
0
 11
513.639653463269
 21
-652.3849996290787
 31
0
 12
513.9703095135525
 22
-653.148472337439
 32
0
 13
513.9703095135525
 23
-653.148472337439
 33
0
  0
SOLID
  8
1
 62
2
 10
597.1262818719588
 20
-616.6807151109796
 30
0
 11
594.3551764034072
 21
-618.3342055047113
 31
0
 12
594.0245203531238
 22
-617.5707327963511
 32
0
 13
594.0245203531238
 23
-617.5707327963511
 33
0
  0
TEXT
  8
1
 62
2
 10
525.7985607507297
 20
-645.3928646110509
 30
0
 40
3.2
  1
94
 50
23.41718487597902
 41
0.9
  0
TEXT
  8
1
 62
2
 10
521.1328941996393
 20
-647.4135404738942
 30
0
 40
3.2
  1
(âË
 50
23.41718487597902
 41
0.9
  0
TEXT
  8
1
 62
2
 10
531.6714277381164
 20
-642.8493565319476
 30
0
 40
3.2
  1
)
 50
23.41718487597902
 41
0.9
  0
ENDBLK
  8
0
  0
ENDSEC
  0
SECTION
  2
ENTITIES
  0
LINE
  8
1
 62
3
 10
577.9974149333382
 20
-594.2596025668951
 30
0
 11
529.9974149333382
 21
-594.2596025668951
 31
0
  0
LINE
  8
1
 62
1
 10
526.4974149333382
 20
-626.3596025668951
 30
0
 11
526.4974149333382
 21
-612.3596025668951
 31
0
  0
LINE
  8
1
 62
1
 10
533.4974149333382
 20
-619.3596025668951
 30
0
 11
519.4974149333382
 21
-619.3596025668951
 31
0
  0
LINE
  8
1
 62
1
 10
560.9974149333382
 20
-667.3596025668953
 30
0
 11
546.9974149333382
 21
-667.3596025668953
 31
0
  0
LINE
  8
1
 62
1
 10
581.4974149333382
 20
-612.3596025668951
 30
0
 11
581.4974149333382
 21
-626.3596025668951
 31
0
  0
LINE
  8
1
 62
1
 10
588.4974149333382
 20
-619.3596025668951
 30
0
 11
574.4974149333382
 21
-619.3596025668951
 31
0
  0
LINE
  8
1
 62
1
 10
573.9974149333382
 20
-620.3596025668951
 30
0
 11
533.9974149333382
 21
-620.3596025668951
 31
0
  0
LINE
  8
1
 62
3
 10
553.9974149333382
 20
-675.4596025668952
 30
0
 11
587.5974149333381
 21
-675.4596025668952
 31
0
  0
LINE
  8
1
 62
3
 10
594.0974149333381
 20
-668.9596025668952
 30
0
 11
594.0974149333381
 21
-635.3596025668953
 31
0
  0
LINE
  8
1
 62
1
 10
599.0974149333381
 20
-635.3596025668953
 30
0
 11
553.9974149333382
 21
-635.3596025668953
 31
0
  0
LINE
  8
1
 62
1
 10
593.227414933338
 20
-668.5896025668951
 30
0
 11
581.227414933338
 21
-668.5896025668951
 31
0
  0
LINE
  8
1
 62
1
 10
587.227414933338
 20
-674.5896025668951
 30
0
 11
587.227414933338
 21
-662.5896025668951
 31
0
  0
LINE
  8
1
 62
3
 10
513.897414933338
 20
-635.3596025668951
 30
0
 11
513.897414933338
 21
-668.9596025668952
 31
0
  0
LINE
  8
1
 62
3
 10
520.397414933338
 20
-675.4596025668952
 30
0
 11
553.9974149333382
 21
-675.4596025668952
 31
0
  0
LINE
  8
1
 62
1
 10
553.9974149333382
 20
-680.4596025668952
 30
0
 11
553.9974149333382
 21
-635.3596025668953
 31
0
  0
LINE
  8
1
 62
1
 10
520.7674149333382
 20
-674.5896025668951
 30
0
 11
520.7674149333382
 21
-662.5896025668951
 31
0
  0
LINE
  8
1
 62
1
 10
514.7674149333382
 20
-668.5896025668951
 30
0
 11
526.7674149333382
 21
-668.5896025668951
 31
0
  0
LINE
  8
1
 62
3
 10
553.9974149333382
 20
-595.2596025668951
 30
0
 11
520.397414933338
 21
-595.2596025668951
 31
0
  0
LINE
  8
1
 62
3
 10
513.897414933338
 20
-601.7596025668951
 30
0
 11
513.897414933338
 21
-635.3596025668951
 31
0
  0
LINE
  8
1
 62
1
 10
508.8974149333381
 20
-635.3596025668951
 30
0
 11
553.9974149333382
 21
-635.3596025668953
 31
0
  0
LINE
  8
1
 62
1
 10
514.7674149333382
 20
-602.1296025668952
 30
0
 11
526.7674149333382
 21
-602.1296025668952
 31
0
  0
LINE
  8
1
 62
1
 10
520.7674149333382
 20
-596.1296025668952
 30
0
 11
520.7674149333382
 21
-608.1296025668951
 31
0
  0
LINE
  8
1
 62
3
 10
594.0974149333381
 20
-635.3596025668953
 30
0
 11
594.0974149333381
 21
-601.7596025668951
 31
0
  0
LINE
  8
1
 62
3
 10
587.5974149333381
 20
-595.2596025668951
 30
0
 11
553.9974149333382
 21
-595.2596025668951
 31
0
  0
LINE
  8
1
 62
1
 10
553.9974149333382
 20
-590.2596025668951
 30
0
 11
553.9974149333382
 21
-635.3596025668953
 31
0
  0
LINE
  8
1
 62
1
 10
587.227414933338
 20
-596.1296025668952
 30
0
 11
587.227414933338
 21
-608.1296025668951
 31
0
  0
LINE
  8
1
 62
1
 10
593.227414933338
 20
-602.1296025668952
 30
0
 11
581.227414933338
 21
-602.1296025668952
 31
0
  0
ARC
  8
1
 62
2
 10
553.9974149333382
 20
-635.3596025668953
 30
0
 40
46.99999999999996
 50
199.203258117259
 51
237.0254572456813
  0
ARC
  8
1
 62
2
 10
553.9974149333382
 20
-635.3596025668953
 30
0
 40
46.99999999999996
 50
19.20325811725899
 51
57.02545724568206
  0
CIRCLE
  8
1
 62
3
 10
587.227414933338
 20
-668.5896025668951
 30
0
 40
2.75
  0
CIRCLE
  8
1
 62
3
 10
520.7674149333382
 20
-668.5896025668951
 30
0
 40
2.75
  0
CIRCLE
  8
1
 62
3
 10
520.7674149333382
 20
-602.1296025668952
 30
0
 40
2.75
  0
CIRCLE
  8
1
 62
4
  6
DIVIDE
 10
553.9974149333382
 20
-635.3596025668953
 30
0
 40
47.00000000000006
  0
CIRCLE
  8
1
 62
3
 10
526.4974149333382
 20
-619.3596025668951
 30
0
 40
4.300000000000182
  0
CIRCLE
  8
1
 62
3
 10
553.9974149333382
 20
-667.3596025668953
 30
0
 40
4.299999999999955
  0
CIRCLE
  8
1
 62
3
 10
581.4974149333382
 20
-619.3596025668951
 30
0
 40
4.299999999999955
  0
CIRCLE
  8
1
 62
3
 10
553.9974149333382
 20
-620.3596025668951
 30
0
 40
17
  0
CIRCLE
  8
1
 62
3
 10
587.2474149333382
 20
-668.6096025668953
 30
0
 40
6.5
  0
CIRCLE
  8
1
 62
3
 10
520.7474149333382
 20
-668.6096025668951
 30
0
 40
6.5
  0
CIRCLE
  8
1
 62
3
 10
520.7474149333382
 20
-602.109602566895
 30
0
 40
6.5
  0
CIRCLE
  8
1
 62
3
 10
587.2474149333382
 20
-602.109602566895
 30
0
 40
6.5
  0
CIRCLE
  8
1
 62
3
 10
587.227414933338
 20
-602.1296025668952
 30
0
 40
2.750000000000227
  0
ARC
  8
1
 62
3
 10
587.5974149333381
 20
-668.9596025668952
 30
0
 40
6.5
 50
270
 51
0
  0
ARC
  8
1
 62
3
 10
520.397414933338
 20
-668.9596025668952
 30
0
 40
6.5
 50
180
 51
270
  0
ARC
  8
1
 62
3
 10
520.397414933338
 20
-601.7596025668951
 30
0
 40
6.5
 50
90
 51
180
  0
ARC
  8
1
 62
3
 10
587.5974149333381
 20
-601.7596025668951
 30
0
 40
6.5
 50
0
 51
90
  0
TEXT
  8
1
 62
2
 10
503.690864268036
 20
-766.819172679485
 30
0
 40
8
  1
8H3~180N
 41
0.9
  0
DIMENSION
  8
1
  6
CONTINUOUS
 62
2
  2
*D12
  3
DMST_3
 10
535.0056881693123
 20
-635.359602566895
 30
0
 11
531.4056881693123
 21
-628.1531651297501
 31
0
 12
0
 22
0
 32
0
 70
0
 13
573.9974149333382
 23
-620.3596025668951
 33
0
 14
599.0974149333381
 24
-635.3596025668953
 34
0
 50
90
 53
0
  0
DIMENSION
  8
1
  6
CONTINUOUS
 62
2
  2
*D13
  3
DMST_3
 10
619.0974149333382
 20
-675.4596025668951
 30
0
 11
615.4974149333382
 21
-635.9102457304086
 31
0
 12
0
 22
0
 32
0
 70
0
  1
80
 13
587.5974149333381
 23
-595.2596025668951
 33
0
 14
587.5974149333381
 24
-675.4596025668952
 34
0
 50
90
 53
0
  0
DIMENSION
  8
1
  6
CONTINUOUS
 62
2
  2
*D14
  3
DMST_7
 10
609.0974149333382
 20
-668.5896025668951
 30
0
 11
605.4974149333382
 21
-635.4043491694961
 31
0
 12
0
 22
0
 32
0
 70
0
  1
66.5
 13
593.227414933338
 23
-602.1296025668952
 33
0
 14
593.227414933338
 24
-668.5896025668951
 34
0
 50
90
 53
0
  0
DIMENSION
  8
1
  6
CONTINUOUS
 62
2
  2
*D15
  3
DMST_3
 10
594.0974149333381
 20
-565.2596025668952
 30
0
 11
554.3983896709583
 21
-561.6596025668952
 31
0
 12
0
 22
0
 32
0
 70
0
  1
80
 13
513.897414933338
 23
-601.7596025668951
 33
0
 14
594.0974149333381
 24
-601.7596025668951
 34
0
 53
0
  0
DIMENSION
  8
1
  6
CONTINUOUS
 62
2
  2
*D17
  3
DMST_8
 10
597.1262818719588
 20
-616.6807151109796
 30
0
 11
525.986516461129
 21
-643.5678502031078
 31
0
 12
0
 22
0
 32
0
 70
3
  1
(âË<>
 15
510.8685479947174
 25
-654.0384900228105
 35
0
 40
0
 53
0
  0
INSERT
  8
0
  2
BB__4
 10
524.5102304076499
 20
-466.6183562181059
 30
0
  0
INSERT
  8
0
  2
G8G__5
 10
30.97700402341997
 20
-775.418198781406
 30
0
  0
INSERT
  8
0
  2
____M4_______
 10
581.4974149333382
 20
-619.3596025668951
 30
0
  0
INSERT
  8
1
  2
*D16
 10
0
 20
0
 30
0
  0
ENDSEC
  0
EOF
