  0
SECTION
  2
HEADER
  9
$ACADVER
  1
AC1009
  9
$INSBASE
 10
0
 20
0
  9
$EXTMIN
 10
-50.32159776084442
 20
-81.6680483884726
  9
$EXTMAX
 10
251.6784022391556
 20
114.6345184026284
  9
$LIMMIN
 10
-50.32159776084442
 20
-81.6680483884726
  9
$LIMMAX
 10
251.6784022391556
 20
114.6345184026284
  9
$VIEWCTR
 10
10
 20
10
  9
$VIEWSIZE
 40
10
  9
$SNAPMODE
 70
0
  9
$SNAPUNIT
 10
1
 20
1
  9
$SNAPBASE
 10
0
 20
0
  9
$SNAPANG
 50
0
  9
$SNAPSTYLE
 70
0
  9
$SNAPISOPAIR
 70
0
  9
$GRIDMODE
 70
0
  9
$GRIDUNIT
 10
0
 20
0
  9
$ORTHOMODE
 70
0
  9
$REGENMODE
 70
1
  9
$FILLMODE
 70
1
  9
$QTEXTMODE
 70
0
  9
$DRAGMODE
 70
2
  9
$LTSCALE
 40
1
  9
$OSMODE
 70
0
  9
$ATTMODE
 70
1
  9
$TEXTSIZE
 40
3.5
  9
$TRACEWID
 40
0.5
  9
$TEXTSTYLE
  7
STANDARD
  9
$CLAYER
  8
0
  9
$CELTYPE
  6
BYLAYER
  9
$CECOLOR
 62
256
  9
$DIMSCALE
 40
1
  9
$DIMASZ
 40
0.18
  9
$DIMEXO
 40
0.0625
  9
$DIMDLI
 40
0.38
  9
$DIMRND
 40
0
  9
$DIMDLE
 40
0
  9
$DIMEXE
 40
0.18
  9
$DIMTP
 40
0
  9
$DIMTM
 40
0
  9
$DIMTXT
 40
0.18
  9
$DIMCEN
 40
0.09
  9
$DIMTSZ
 40
0
  9
$DIMTOL
 70
0
  9
$DIMLIM
 70
0
  9
$DIMTIH
 70
1
  9
$DIMTOH
 70
1
  9
$DIMSE1
 70
0
  9
$DIMSE2
 70
0
  9
$DIMTAD
 70
0
  9
$DIMZIN
 70
0
  9
$DIMBLK
  1

  9
$DIMASO
 70
1
  9
$DIMSHO
 70
1
  9
$DIMPOST
  1

  9
$DIMAPOST
  1

  9
$DIMALT
 70
0
  9
$DIMALTD
 70
2
  9
$DIMALTF
 40
25.4
  9
$DIMLFAC
 40
1
  9
$DIMTOFL
 70
0
  9
$DIMTVP
 40
0
  9
$DIMTIX
 70
0
  9
$DIMSOXD
 70
0
  9
$DIMSAH
 70
0
  9
$DIMBLK1
  1

  9
$DIMBLK2
  1

  9
$DIMSTYLE
  2
*UNNAMED
  9
$DIMCLRD
 70
0
  9
$DIMCLRE
 70
0
  9
$DIMCLRT
 70
0
  9
$DIMTFAC
 40
1
  9
$DIMGAP
 40
0.09
  9
$LUNITS
 70
2
  9
$LUPREC
 70
4
  9
$AXISMODE
 70
0
  9
$AXISUNIT
 10
0
 20
0
  9
$SKETCHINC
 40
0.1
  9
$FILLETRAD
 40
2
  9
$AUNITS
 70
0
  9
$AUPREC
 70
0
  9
$MENU
  1
ACAD
  9
$ELEVATION
 40
0
  9
$THICKNESS
 40
0
  9
$VIEWDIR
 10
0
 20
0
 30
1
  9
$LIMCHECK
 70
0
  9
$BLIPMODE
 70
1
  9
$CHAMFERA
 40
0
  9
$CHAMFERB
 40
0
  9
$FASTZOOM
 70
1
  9
$SKPOLY
 70
0
  9
$ANGBASE
 50
0
  9
$ANGDIR
 70
0
  9
$PDMODE
 70
0
  9
$PDSIZE
 40
0
  9
$PLINEWID
 40
0
  9
$COORDS
 70
2
  0
ENDSEC
  0
SECTION
  2
TABLES
  0
TABLE
  2
DIMSTYLE
 70
5
  0
DIMSTYLE
  2
DMST_1
 70
0
  3

  4

  5

  6

  7

 40
1
 41
3.2
 42
1
 43
7
 44
1.5
 45
0
 46
0
 47
0
 48
0
140
3.2
141
0
142
0
143
25.4
144
1
145
0
146
1
147
0.09
 71
0
 72
0
 73
0
 74
0
 75
0
 76
0
 77
1
 78
9
170
0
171
2
172
0
173
0
174
0
175
0
176
2
177
2
178
2
  0
DIMSTYLE
  2
DMST_2
 70
0
  3

  4

  5

  6

  7

 40
1
 41
3.2
 42
1
 43
7
 44
1
 45
0
 46
0
 47
0
 48
0
140
3.2
141
0
142
0
143
25.4
144
1
145
0
146
0.7000000000000001
147
0.09
 71
1
 72
0
 73
0
 74
0
 75
0
 76
0
 77
1
 78
9
170
0
171
2
172
0
173
0
174
0
175
0
176
2
177
2
178
2
  0
DIMSTYLE
  2
DMST_3
 70
0
  3

  4

  5

  6

  7

 40
1
 41
3.2
 42
1
 43
7
 44
1
 45
0
 46
0
 47
0
 48
0
140
3.2
141
0
142
0
143
25.4
144
1
145
0
146
1
147
0.09
 71
0
 72
0
 73
0
 74
0
 75
0
 76
0
 77
1
 78
9
170
0
171
2
172
0
173
0
174
0
175
0
176
2
177
2
178
2
  0
DIMSTYLE
  2
DMST_4
 70
0
  3

  4

  5

  6

  7

 40
1
 41
3.2
 42
0
 43
7
 44
1
 45
0
 46
0
 47
0
 48
0
140
3.2
141
0
142
0
143
25.4
144
1
145
0
146
0.7000000000000001
147
0.09
 71
1
 72
0
 73
0
 74
0
 75
0
 76
0
 77
1
 78
9
170
0
171
2
172
0
173
0
174
0
175
0
176
2
177
2
178
2
  0
DIMSTYLE
  2
DMST_5
 70
0
  3
)
  4

  5

  6

  7

 40
1
 41
3.2
 42
0
 43
7
 44
1
 45
0
 46
0
 47
0
 48
0
140
3.2
141
0
142
0
143
25.4
144
1
145
0
146
1
147
0.09
 71
0
 72
0
 73
0
 74
0
 75
0
 76
0
 77
1
 78
9
170
0
171
2
172
0
173
0
174
1
175
0
176
2
177
2
178
2
  0
ENDTAB
  0
TABLE
  2
LTYPE
 70
9
  0
LTYPE
  2
CONTINUOUS
 70
64
  3
Solid line
 72
65
 73
0
 40
0
  0
LTYPE
  2
BORDER
 70
64
  3
__ __ . __ __ .
 72
65
 73
6
 40
13.90789473684211
 49
3.973684210526316
 49
-1.986842105263158
 49
3.973684210526316
 49
-1.986842105263158
 49
0
 49
-1.986842105263158
  0
LTYPE
  2
CENTER
 70
64
  3
____ _ ____ _
 72
65
 73
4
 40
15.89473684210526
 49
9.934210526315789
 49
-1.986842105263158
 49
1.986842105263158
 49
-1.986842105263158
  0
LTYPE
  2
DASHDOT
 70
64
  3
__ . __ . __ .
 72
65
 73
4
 40
7.947368421052632
 49
3.973684210526316
 49
-1.986842105263158
 49
0
 49
-1.986842105263158
  0
LTYPE
  2
DASHED
 70
64
  3
__ __ __ __ __
 72
65
 73
2
 40
5.960526315789474
 49
3.973684210526316
 49
-1.986842105263158
  0
LTYPE
  2
DIVIDE
 70
64
  3
__ . . __ . . 
 72
65
 73
6
 40
9.934210526315789
 49
3.973684210526316
 49
-1.986842105263158
 49
0
 49
-1.986842105263158
 49
0
 49
-1.986842105263158
  0
LTYPE
  2
DOT
 70
64
  3
..............
 72
65
 73
4
 40
3.973684210526316
 49
0
 49
-1.986842105263158
 49
0
 49
-1.986842105263158
  0
LTYPE
  2
HIDDEN
 70
64
  3
_ _ _ _ _ _ _
 72
65
 73
2
 40
2.980263157894737
 49
1.986842105263158
 49
-0.993421052631579
  0
LTYPE
  2
PHANTOM
 70
64
  3
_____ _ _ _____ _ _ 
 72
65
 73
6
 40
19.86842105263158
 49
9.934210526315789
 49
-1.986842105263158
 49
1.986842105263158
 49
-1.986842105263158
 49
1.986842105263158
 49
-1.986842105263158
  0
ENDTAB
  0
TABLE
  2
LAYER
 70
3
  0
LAYER
  2
1
 70
0
 62
7
  6
CONTINUOUS
  0
LAYER
  2
0
 70
0
 62
7
  6
CONTINUOUS
  0
ENDTAB
  0
TABLE
  2
STYLE
 70
4
  0
STYLE
  2
STANDARD
 70
0
 40
0
 41
1
 50
0
 71
0
 42
3.5
  3
txt
  4

  0
STYLE
  2
SIMPLEX
 70
0
 40
0
 41
1
 50
0
 71
0
 42
3.5
  3
simplex
  4

  0
STYLE
  2
COMPLEX
 70
0
 40
0
 41
1
 50
0
 71
0
 42
3.5
  3
complex
  4

  0
STYLE
  2
ITALIC
 70
0
 40
0
 41
1
 50
0
 71
0
 42
3.5
  3
italic
  4

  0
ENDTAB
  0
TABLE
  2
VIEW
 70
0
  0
ENDTAB
  0
ENDSEC
  0
SECTION
  2
BLOCKS
  0
BLOCK
  8
0
  2
MOJINOMUKI
 70
0
 10
180.2681978244926
 20
88.6345184026284
 30
0
  0
LINE
  8
1
 62
2
 10
180.2681978244926
 20
90.1345184026284
 30
0
 11
180.2681978244926
 21
92.6345184026284
 31
0
  0
LINE
  8
1
 62
2
 10
177.7681978244926
 20
91.6345184026284
 30
0
 11
180.2681978244926
 21
90.1345184026284
 31
0
  0
LINE
  8
1
 62
2
 10
182.7681978244926
 20
91.6345184026284
 30
0
 11
177.7681978244926
 21
91.6345184026284
 31
0
  0
LINE
  8
1
 62
2
 10
177.2681978244926
 20
94.6345184026284
 30
0
 11
183.2681978244926
 21
94.6345184026284
 31
0
  0
LINE
  8
1
 62
2
 10
183.2681978244926
 20
88.6345184026284
 30
0
 11
177.2681978244926
 21
88.6345184026284
 31
0
  0
LINE
  8
1
 62
2
 10
183.2681978244926
 20
114.6345184026284
 30
0
 11
183.2681978244926
 21
88.6345184026284
 31
0
  0
LINE
  8
1
 62
2
 10
177.2681978244926
 20
114.6345184026284
 30
0
 11
183.2681978244926
 21
114.6345184026284
 31
0
  0
LINE
  8
1
 62
2
 10
177.2681978244926
 20
88.6345184026284
 30
0
 11
177.2681978244926
 21
114.6345184026284
 31
0
  0
TEXT
  8
1
 62
2
 10
182.2681978244926
 20
86.6812639647586
 30
0
 40
4
  1
òÂÄÜé╠î³é½
 50
90
 41
0.9
 72
1
 73
2
 11
180.2681978244926
 21
104.6812639647586
 31
0
  0
ENDBLK
  8
0
  0
BLOCK
  8
1
  2
*D0
 70
1
 10
0
 20
0
 30
0
  0
LINE
  8
1
 62
2
 10
112.6784022391556
 20
91.2015371332318
 30
0
 11
124.6784022391556
 21
91.2015371332318
 31
0
  0
LINE
  8
1
 62
2
 10
124.6784022391556
 20
67.2015371332318
 30
0
 11
124.6784022391556
 21
92.7015371332318
 31
0
  0
LINE
  8
1
 62
2
 10
112.6784022391556
 20
30.20153713323168
 30
0
 11
112.6784022391556
 21
92.7015371332318
 31
0
  0
SOLID
  8
1
 62
2
 10
112.6784022391556
 20
91.2015371332318
 30
0
 11
115.8784022391556
 21
91.61753713323179
 31
0
 12
115.8784022391556
 22
90.7855371332318
 32
0
 13
115.8784022391556
 23
90.7855371332318
 33
0
  0
SOLID
  8
1
 62
2
 10
124.6784022391556
 20
91.2015371332318
 30
0
 11
121.4784022391556
 21
90.7855371332318
 31
0
 12
121.4784022391556
 22
91.61753713323179
 32
0
 13
121.4784022391556
 23
91.61753713323179
 33
0
  0
TEXT
  8
1
 62
2
 10
116.184881162268
 20
93.2015371332318
 30
0
 40
3.2
  1
12
 41
0.9
  0
ENDBLK
  8
0
  0
BLOCK
  8
1
  2
*D1
 70
1
 10
0
 20
0
 30
0
  0
LINE
  8
1
 62
2
 10
224.6784022391556
 20
91.2015371332318
 30
0
 11
236.6784022391556
 21
91.2015371332318
 31
0
  0
LINE
  8
1
 62
2
 10
236.6784022391556
 20
67.2015371332318
 30
0
 11
236.6784022391556
 21
92.7015371332318
 31
0
  0
LINE
  8
1
 62
2
 10
224.6784022391556
 20
30.20153713323168
 30
0
 11
224.6784022391556
 21
92.7015371332318
 31
0
  0
SOLID
  8
1
 62
2
 10
224.6784022391556
 20
91.2015371332318
 30
0
 11
227.8784022391556
 21
91.61753713323179
 31
0
 12
227.8784022391556
 22
90.7855371332318
 32
0
 13
227.8784022391556
 23
90.7855371332318
 33
0
  0
SOLID
  8
1
 62
2
 10
236.6784022391556
 20
91.2015371332318
 30
0
 11
233.4784022391556
 21
90.7855371332318
 31
0
 12
233.4784022391556
 22
91.61753713323179
 32
0
 13
233.4784022391556
 23
91.61753713323179
 33
0
  0
TEXT
  8
1
 62
2
 10
228.970508249848
 20
93.2015371332318
 30
0
 40
3.2
  1
12
 41
0.9
  0
ENDBLK
  8
0
  0
BLOCK
  8
0
  2
*D2
 70
1
 10
0
 20
0
 30
0
  0
LINE
  8
0
 62
2
 10
211.6784022391556
 20
-10.2984628667682
 30
0
 11
211.6784022391556
 21
62.7015371332318
 31
0
  0
LINE
  8
0
 62
2
 10
233.6784022391556
 20
-10.2984628667682
 30
0
 11
210.6784022391556
 21
-10.2984628667682
 31
0
  0
LINE
  8
0
 62
2
 10
233.6784022391556
 20
62.7015371332318
 30
0
 11
210.6784022391556
 21
62.7015371332318
 31
0
  0
SOLID
  8
0
 62
2
 10
211.6784022391556
 20
-10.2984628667682
 30
0
 11
211.2624022391556
 21
-7.0984628667682
 31
0
 12
212.0944022391556
 22
-7.0984628667682
 32
0
 13
212.0944022391556
 23
-7.0984628667682
 33
0
  0
SOLID
  8
0
 62
2
 10
211.6784022391556
 20
62.7015371332318
 30
0
 11
212.0944022391556
 21
59.50153713323179
 31
0
 12
211.2624022391556
 22
59.50153713323179
 32
0
 13
211.2624022391556
 23
59.50153713323179
 33
0
  0
TEXT
  8
0
 62
2
 10
208.6384022391556
 20
18.2135371332318
 30
0
 40
3.2
  1
73h7
 50
90
 41
0.9
  0
TEXT
  8
0
 62
2
 10
206.2384022391556
 20
32.37353713323179
 30
0
 40
2.24
  1
0
 50
90
 41
0.9
  0
TEXT
  8
0
 62
2
 10
210.0784022391556
 20
30.13353713323179
 30
0
 40
2.24
  1
-0.03
 50
90
 41
0.9
  0
TEXT
  8
0
 62
2
 10
208.6384022391556
 20
14.3735371332318
 30
0
 40
3.2
  1
%%c
 50
90
 41
0.9
  0
ENDBLK
  8
0
  0
BLOCK
  8
0
  2
*D3
 70
1
 10
0
 20
0
 30
0
  0
LINE
  8
0
 62
2
 10
243.0784022391556
 20
81.2015371332318
 30
0
 11
236.6784022391556
 21
81.2015371332318
 31
0
  0
LINE
  8
0
 62
2
 10
234.6784022391556
 20
81.2015371332318
 30
0
 11
236.6784022391556
 21
81.2015371332318
 31
0
  0
LINE
  8
0
 62
2
 10
234.6784022391556
 20
81.2015371332318
 30
0
 11
227.865922848797
 21
81.2015371332318
 31
0
  0
LINE
  8
0
 62
2
 10
234.6784022391556
 20
63.7015371332318
 30
0
 11
234.6784022391556
 21
82.2015371332318
 31
0
  0
LINE
  8
0
 62
2
 10
236.6784022391556
 20
67.2015371332318
 30
0
 11
236.6784022391556
 21
82.2015371332318
 31
0
  0
SOLID
  8
0
 62
2
 10
234.6784022391556
 20
81.2015371332318
 30
0
 11
231.4784022391556
 21
80.7855371332318
 31
0
 12
231.4784022391556
 22
81.61753713323179
 32
0
 13
231.4784022391556
 23
81.61753713323179
 33
0
  0
SOLID
  8
0
 62
2
 10
236.6784022391556
 20
81.2015371332318
 30
0
 11
239.8784022391556
 21
81.61753713323179
 31
0
 12
239.8784022391556
 22
80.7855371332318
 32
0
 13
239.8784022391556
 23
80.7855371332318
 33
0
  0
TEXT
  8
0
 62
2
 10
227.865922848797
 20
82.80153713323179
 30
0
 40
3.2
  1
2
 41
0.9
  0
ENDBLK
  8
0
  0
BLOCK
  8
0
  2
*D4
 70
1
 10
0
 20
0
 30
0
  0
LINE
  8
0
 62
2
 10
165.6784022391556
 20
-10.2984628667682
 30
0
 11
165.6784022391556
 21
62.7015371332318
 31
0
  0
LINE
  8
0
 62
2
 10
151.6784022391556
 20
62.7015371332318
 30
0
 11
166.6784022391556
 21
62.7015371332318
 31
0
  0
LINE
  8
0
 62
2
 10
151.6784022391556
 20
-10.2984628667682
 30
0
 11
166.6784022391556
 21
-10.2984628667682
 31
0
  0
SOLID
  8
0
 62
2
 10
165.6784022391556
 20
-10.2984628667682
 30
0
 11
165.2624022391556
 21
-7.0984628667682
 31
0
 12
166.0944022391556
 22
-7.0984628667682
 32
0
 13
166.0944022391556
 23
-7.0984628667682
 33
0
  0
SOLID
  8
0
 62
2
 10
165.6784022391556
 20
62.7015371332318
 30
0
 11
166.0944022391556
 21
59.50153713323179
 31
0
 12
165.2624022391556
 22
59.50153713323179
 32
0
 13
165.2624022391556
 23
59.50153713323179
 33
0
  0
TEXT
  8
0
 62
2
 10
162.6384022391556
 20
17.9335371332318
 30
0
 40
3.2
  1
73H7
 50
90
 41
0.9
  0
TEXT
  8
0
 62
2
 10
160.4784022391556
 20
30.4135371332318
 30
0
 40
2.24
  1
+0.03
 50
90
 41
0.9
  0
TEXT
  8
0
 62
2
 10
163.8384022391556
 20
32.2055371332318
 30
0
 40
2.24
  1
0
 50
90
 41
0.9
  0
TEXT
  8
0
 62
2
 10
162.6384022391556
 20
14.0935371332318
 30
0
 40
3.2
  1
%%c
 50
90
 41
0.9
  0
ENDBLK
  8
0
  0
BLOCK
  8
0
  2
*D5
 70
1
 10
0
 20
0
 30
0
  0
LINE
  8
0
 62
2
 10
97.67840223915559
 20
-10.2984628667682
 30
0
 11
97.67840223915559
 21
62.7015371332318
 31
0
  0
LINE
  8
0
 62
2
 10
121.6784022391556
 20
62.7015371332318
 30
0
 11
96.67840223915559
 21
62.7015371332318
 31
0
  0
LINE
  8
0
 62
2
 10
121.6784022391556
 20
-10.2984628667682
 30
0
 11
96.67840223915559
 21
-10.2984628667682
 31
0
  0
SOLID
  8
0
 62
2
 10
97.67840223915559
 20
-10.2984628667682
 30
0
 11
97.26240223915559
 21
-7.0984628667682
 31
0
 12
98.09440223915558
 22
-7.0984628667682
 32
0
 13
98.09440223915558
 23
-7.0984628667682
 33
0
  0
SOLID
  8
0
 62
2
 10
97.67840223915559
 20
62.7015371332318
 30
0
 11
98.09440223915558
 21
59.50153713323179
 31
0
 12
97.26240223915559
 22
59.50153713323179
 32
0
 13
97.26240223915559
 23
59.50153713323179
 33
0
  0
TEXT
  8
0
 62
2
 10
94.63840223915558
 20
18.0935371332318
 30
0
 40
3.2
  1
73h7
 50
90
 41
0.9
  0
TEXT
  8
0
 62
2
 10
92.47840223915559
 20
32.0455371332318
 30
0
 40
2.24
  1
0
 50
90
 41
0.9
  0
TEXT
  8
0
 62
2
 10
95.83840223915558
 20
30.2535371332318
 30
0
 40
2.24
  1
-0.03
 50
90
 41
0.9
  0
TEXT
  8
0
 62
2
 10
94.63840223915558
 20
14.2535371332318
 30
0
 40
3.2
  1
%%c
 50
90
 41
0.9
  0
ENDBLK
  8
0
  0
BLOCK
  8
0
  2
*D6
 70
1
 10
0
 20
0
 30
0
  0
LINE
  8
0
 62
2
 10
124.6784022391556
 20
91.2015371332318
 30
0
 11
150.6784022391556
 21
91.2015371332318
 31
0
  0
LINE
  8
0
 62
2
 10
124.6784022391556
 20
67.2015371332318
 30
0
 11
124.6784022391556
 21
92.2015371332318
 31
0
  0
LINE
  8
0
 62
2
 10
150.6784022391556
 20
67.2015371332318
 30
0
 11
150.6784022391556
 21
92.2015371332318
 31
0
  0
SOLID
  8
0
 62
2
 10
124.6784022391556
 20
91.2015371332318
 30
0
 11
127.8784022391556
 21
91.61753713323179
 31
0
 12
127.8784022391556
 22
90.7855371332318
 32
0
 13
127.8784022391556
 23
90.7855371332318
 33
0
  0
SOLID
  8
0
 62
2
 10
150.6784022391556
 20
91.2015371332318
 30
0
 11
147.4784022391556
 21
90.7855371332318
 31
0
 12
147.4784022391556
 22
91.61753713323179
 32
0
 13
147.4784022391556
 23
91.61753713323179
 33
0
  0
TEXT
  8
0
 62
2
 10
135.2784022391556
 20
92.80153713323179
 30
0
 40
3.2
  1
26
 41
0.9
  0
ENDBLK
  8
0
  0
BLOCK
  8
0
  2
*D7
 70
1
 10
0
 20
0
 30
0
  0
LINE
  8
0
 62
2
 10
150.6784022391556
 20
81.2015371332318
 30
0
 11
157.0784022391556
 21
81.2015371332318
 31
0
  0
LINE
  8
0
 62
2
 10
148.6784022391556
 20
81.2015371332318
 30
0
 11
150.6784022391556
 21
81.2015371332318
 31
0
  0
LINE
  8
0
 62
2
 10
142.2784022391556
 20
81.2015371332318
 30
0
 11
148.6784022391556
 21
81.2015371332318
 31
0
  0
LINE
  8
0
 62
2
 10
150.6784022391556
 20
67.2015371332318
 30
0
 11
150.6784022391556
 21
82.2015371332318
 31
0
  0
LINE
  8
0
 62
2
 10
148.6784022391556
 20
63.7015371332318
 30
0
 11
148.6784022391556
 21
82.2015371332318
 31
0
  0
SOLID
  8
0
 62
2
 10
148.6784022391556
 20
81.2015371332318
 30
0
 11
145.4784022391556
 21
80.7855371332318
 31
0
 12
145.4784022391556
 22
81.61753713323179
 32
0
 13
145.4784022391556
 23
81.61753713323179
 33
0
  0
SOLID
  8
0
 62
2
 10
150.6784022391556
 20
81.2015371332318
 30
0
 11
153.8784022391556
 21
81.61753713323179
 31
0
 12
153.8784022391556
 22
80.7855371332318
 32
0
 13
153.8784022391556
 23
80.7855371332318
 33
0
  0
TEXT
  8
0
 62
2
 10
154.769032651356
 20
82.80153713323179
 30
0
 40
3.2
  1
2
 41
0.9
  0
ENDBLK
  8
0
  0
BLOCK
  8
0
  2
*D8
 70
1
 10
0
 20
0
 30
0
  0
LINE
  8
0
 62
2
 10
124.6784022391556
 20
81.2015371332318
 30
0
 11
131.0784022391556
 21
81.2015371332318
 31
0
  0
LINE
  8
0
 62
2
 10
122.6784022391556
 20
81.2015371332318
 30
0
 11
124.6784022391556
 21
81.2015371332318
 31
0
  0
LINE
  8
0
 62
2
 10
116.2784022391556
 20
81.2015371332318
 30
0
 11
122.6784022391556
 21
81.2015371332318
 31
0
  0
LINE
  8
0
 62
2
 10
124.6784022391556
 20
67.2015371332318
 30
0
 11
124.6784022391556
 21
82.2015371332318
 31
0
  0
LINE
  8
0
 62
2
 10
122.6784022391556
 20
63.7015371332318
 30
0
 11
122.6784022391556
 21
82.2015371332318
 31
0
  0
SOLID
  8
0
 62
2
 10
122.6784022391556
 20
81.2015371332318
 30
0
 11
119.4784022391556
 21
80.7855371332318
 31
0
 12
119.4784022391556
 22
81.61753713323179
 32
0
 13
119.4784022391556
 23
81.61753713323179
 33
0
  0
SOLID
  8
0
 62
2
 10
124.6784022391556
 20
81.2015371332318
 30
0
 11
127.8784022391556
 21
81.61753713323179
 31
0
 12
127.8784022391556
 22
80.7855371332318
 32
0
 13
127.8784022391556
 23
80.7855371332318
 33
0
  0
TEXT
  8
0
 62
2
 10
129.053104608507
 20
82.80153713323179
 30
0
 40
3.2
  1
2
 41
0.9
  0
ENDBLK
  8
0
  0
BLOCK
  8
0
  2
*D9
 70
1
 10
0
 20
0
 30
0
  0
LINE
  8
0
 62
2
 10
61.67840223915559
 20
-13.79846286676821
 30
0
 11
61.67840223915559
 21
66.2015371332318
 31
0
  0
LINE
  8
0
 62
2
 10
31.17840223915559
 20
66.2015371332318
 30
0
 11
62.67840223915559
 21
66.2015371332318
 31
0
  0
LINE
  8
0
 62
2
 10
31.17840223915559
 20
-13.79846286676821
 30
0
 11
62.67840223915559
 21
-13.79846286676821
 31
0
  0
SOLID
  8
0
 62
2
 10
61.67840223915559
 20
66.2015371332318
 30
0
 11
62.09440223915558
 21
63.00153713323179
 31
0
 12
61.26240223915559
 22
63.00153713323179
 32
0
 13
61.26240223915559
 23
63.00153713323179
 33
0
  0
SOLID
  8
0
 62
2
 10
61.67840223915559
 20
-13.79846286676821
 30
0
 11
61.26240223915558
 21
-10.59846286676821
 31
0
 12
62.09440223915558
 22
-10.59846286676821
 32
0
 13
62.09440223915558
 23
-10.59846286676821
 33
0
  0
TEXT
  8
0
 62
2
 10
60.07840223915559
 20
23.80153713323179
 30
0
 40
3.2
  1
80
 50
90
 41
0.9
  0
ENDBLK
  8
0
  0
BLOCK
  8
0
  2
*D10
 70
1
 10
0
 20
0
 30
0
  0
LINE
  8
0
 62
2
 10
-43.32159776084441
 20
91.2015371332318
 30
0
 11
36.67840223915559
 21
91.2015371332318
 31
0
  0
LINE
  8
0
 62
2
 10
-43.32159776084441
 20
60.7015371332318
 30
0
 11
-43.32159776084441
 21
92.2015371332318
 31
0
  0
LINE
  8
0
 62
2
 10
36.67840223915559
 20
60.7015371332318
 30
0
 11
36.67840223915559
 21
92.2015371332318
 31
0
  0
SOLID
  8
0
 62
2
 10
-43.32159776084441
 20
91.2015371332318
 30
0
 11
-40.12159776084441
 21
91.61753713323179
 31
0
 12
-40.12159776084441
 22
90.7855371332318
 32
0
 13
-40.12159776084441
 23
90.7855371332318
 33
0
  0
SOLID
  8
0
 62
2
 10
36.67840223915559
 20
91.2015371332318
 30
0
 11
33.47840223915559
 21
90.7855371332318
 31
0
 12
33.47840223915559
 22
91.61753713323179
 32
0
 13
33.47840223915559
 23
91.61753713323179
 33
0
  0
TEXT
  8
0
 62
2
 10
-5.72159776084442
 20
92.80153713323179
 30
0
 40
3.2
  1
80
 41
0.9
  0
ENDBLK
  8
0
  0
BLOCK
  8
0
  2
*D11
 70
1
 10
0
 20
0
 30
0
  0
LINE
  8
0
 62
2
 10
51.67840223915558
 20
-7.048462866768201
 30
0
 11
51.67840223915558
 21
59.4515371332318
 31
0
  0
LINE
  8
0
 62
2
 10
37.67840223915557
 20
59.4515371332318
 30
0
 11
52.67840223915558
 21
59.4515371332318
 31
0
  0
LINE
  8
0
 62
2
 10
37.67840223915557
 20
-7.048462866768201
 30
0
 11
52.67840223915558
 21
-7.048462866768201
 31
0
  0
SOLID
  8
0
 62
2
 10
51.67840223915558
 20
59.4515371332318
 30
0
 11
52.09440223915558
 21
56.25153713323179
 31
0
 12
51.26240223915558
 22
56.25153713323179
 32
0
 13
51.26240223915558
 23
56.25153713323179
 33
0
  0
SOLID
  8
0
 62
2
 10
51.67840223915558
 20
-7.048462866768201
 30
0
 11
51.26240223915558
 21
-3.8484628667682
 31
0
 12
52.09440223915558
 22
-3.8484628667682
 32
0
 13
52.09440223915558
 23
-3.8484628667682
 33
0
  0
TEXT
  8
0
 62
2
 10
50.07840223915558
 20
17.1895371332318
 30
0
 40
3.2
  1
66.5
 50
90
 41
0.9
  0
TEXT
  8
0
 62
2
 10
49.59840223915558
 20
27.5095371332318
 30
0
 40
2.24
  1
%%p0.3
 50
90
 41
0.9
  0
ENDBLK
  8
0
  0
BLOCK
  8
0
  2
*D12
 70
1
 10
0
 20
0
 30
0
  0
LINE
  8
0
 62
2
 10
-36.57159776084441
 20
81.2015371332318
 30
0
 11
29.92840223915559
 21
81.2015371332318
 31
0
  0
LINE
  8
0
 62
2
 10
-36.57159776084441
 20
67.2015371332318
 30
0
 11
-36.57159776084441
 21
82.2015371332318
 31
0
  0
LINE
  8
0
 62
2
 10
29.92840223915559
 20
67.2015371332318
 30
0
 11
29.92840223915559
 21
82.2015371332318
 31
0
  0
SOLID
  8
0
 62
2
 10
-36.57159776084441
 20
81.2015371332318
 30
0
 11
-33.37159776084441
 21
81.61753713323179
 31
0
 12
-33.37159776084441
 22
80.7855371332318
 32
0
 13
-33.37159776084441
 23
80.7855371332318
 33
0
  0
SOLID
  8
0
 62
2
 10
29.92840223915559
 20
81.2015371332318
 30
0
 11
26.72840223915559
 21
80.7855371332318
 31
0
 12
26.72840223915559
 22
81.61753713323179
 32
0
 13
26.72840223915559
 23
81.61753713323179
 33
0
  0
TEXT
  8
0
 62
2
 10
-12.33359776084442
 20
82.80153713323179
 30
0
 40
3.2
  1
66.5
 41
0.9
  0
TEXT
  8
0
 62
2
 10
-2.01359776084442
 20
83.28153713323179
 30
0
 40
2.24
  1
%%p0.3
 41
0.9
  0
ENDBLK
  8
0
  0
BLOCK
  8
0
  2
*D13
 70
1
 10
0
 20
0
 30
0
  0
LINE
  8
0
 62
2
 10
46.67840223915557
 20
76.20153713323178
 30
0
 11
67.73677303812929
 21
76.20153713323178
 31
0
  0
LINE
  8
0
 62
2
 10
31.8729458874186
 20
61.3960807814948
 30
0
 11
46.67840223915557
 21
76.20153713323178
 31
0
  0
SOLID
  8
0
 62
2
 10
31.8729458874186
 20
61.3960807814948
 30
0
 11
33.84153116624195
 21
63.95297890226536
 31
0
 12
34.42984400818916
 22
63.36466606031815
 32
0
 13
34.42984400818916
 23
63.36466606031815
 33
0
  0
TEXT
  8
0
 62
2
 10
57.54121748257372
 20
77.90113567629851
 30
0
 40
3.2
  1
5.5
 41
0.9
  0
TEXT
  8
0
 62
2
 10
48.26121748257372
 20
77.90113567629851
 30
0
 40
3.2
  1
4-%%c
 41
0.9
  0
TEXT
  8
0
 62
2
 10
64.98121748257373
 20
77.90113567629851
 30
0
 40
3.2
  1
îè
 41
0.9
  0
ENDBLK
  8
0
  0
BLOCK
  8
0
  2
*D14
 70
1
 10
0
 20
0
 30
0
  0
LINE
  8
0
 62
2
 10
-45.91806375156697
 20
6.338478831418918
 30
0
 11
39.27486822987815
 21
46.06459543504467
 31
0
  0
SOLID
  8
0
 62
2
 10
-45.91806375156697
 20
6.338478831418918
 30
0
 11
-43.19368802993382
 21
8.067881308396402
 31
0
 12
-42.84206963616555
 22
7.31383322958191
 32
0
 13
-42.84206963616555
 23
7.31383322958191
 33
0
  0
SOLID
  8
0
 62
2
 10
39.27486822987815
 20
46.06459543504467
 30
0
 11
36.550492508245
 21
44.33519295806718
 31
0
 12
36.19887411447674
 22
45.08924103688167
 32
0
 13
36.19887411447674
 23
45.08924103688167
 33
0
  0
TEXT
  8
0
 62
2
 10
11.31858318793112
 20
35.75413791749591
 30
0
 40
3.2
  1
94
 50
25.00000000000001
 41
0.9
  0
TEXT
  8
0
 62
2
 10
6.533278072377605
 20
33.52271349550502
 30
0
 40
3.2
  1
(%%c
 50
25.00000000000001
 41
0.9
  0
TEXT
  8
0
 62
2
 10
17.11895302496568
 20
38.45889479263639
 30
0
 40
3.2
  1
)
 50
25.00000000000001
 41
0.9
  0
ENDBLK
  8
0
  0
ENDSEC
  0
SECTION
  2
ENTITIES
  0
LINE
  8
1
 62
3
 10
224.6784022391556
 20
26.20153713323168
 30
0
 11
224.6784022391556
 21
29.20153713323168
 31
0
  0
LINE
  8
1
 62
3
 10
224.6784022391556
 20
29.20153713323168
 30
0
 11
225.1784022391556
 21
29.70153713323168
 31
0
  0
LINE
  8
1
 62
2
  6
CENTER
 10
232.6784022391556
 20
29.10153713323155
 30
0
 11
222.6784022391556
 21
29.10153713323155
 31
0
  0
LINE
  8
1
 62
3
 10
225.1784022391556
 20
22.70153713323168
 30
0
 11
234.6784022391556
 21
22.70153713323168
 31
0
  0
LINE
  8
1
 62
3
 10
224.6784022391556
 20
23.20153713323168
 30
0
 11
224.6784022391556
 21
26.20153713323168
 31
0
  0
LINE
  8
1
 62
3
 10
225.1784022391556
 20
22.70153713323168
 30
0
 11
224.6784022391556
 21
23.20153713323168
 31
0
  0
LINE
  8
1
 62
2
  6
CENTER
 10
222.6784022391556
 20
23.30153713323159
 30
0
 11
232.6784022391556
 21
23.30153713323159
 31
0
  0
LINE
  8
1
 62
3
 10
234.6784022391556
 20
29.70153713323168
 30
0
 11
225.1784022391556
 21
29.70153713323168
 31
0
  0
LINE
  8
1
 62
1
 10
234.6784022391556
 20
26.20153713323168
 30
0
 11
219.6784022391556
 21
26.2015371332318
 31
0
  0
LINE
  8
1
 62
2
 10
168.9881901056009
 20
-31.67747290731143
 30
0
 11
215.110584837921
 21
-31.67747290731143
 31
0
  0
LINE
  8
1
 62
2
 10
168.9881901056009
 20
-38.67747290731143
 30
0
 11
215.110584837921
 21
-38.67747290731143
 31
0
  0
LINE
  8
1
 62
2
 10
168.9881901056009
 20
-45.67747290731143
 30
0
 11
215.110584837921
 21
-45.67747290731143
 31
0
  0
LINE
  8
1
 62
2
 10
168.9881901056009
 20
-52.67747290731143
 30
0
 11
215.110584837921
 21
-52.67747290731143
 31
0
  0
LINE
  8
1
 62
2
 10
168.9881901056009
 20
-59.67747290731143
 30
0
 11
215.110584837921
 21
-59.67747290731143
 31
0
  0
LINE
  8
1
 62
2
 10
225.7632009381285
 20
29.70153713323168
 30
0
 11
228.1420786812926
 21
22.70153713323168
 31
0
  0
LINE
  8
1
 62
2
 10
226.7632009381285
 20
29.70153713323168
 30
0
 11
229.1420786812926
 21
22.70153713323168
 31
0
  0
LINE
  8
1
 62
2
 10
227.7632009381285
 20
29.70153713323168
 30
0
 11
230.1420786812926
 21
22.70153713323168
 31
0
  0
LINE
  8
1
 62
2
 10
115.7632009381285
 20
29.70153713323168
 30
0
 11
118.1420786812927
 21
22.70153713323168
 31
0
  0
LINE
  8
1
 62
2
 10
114.7632009381285
 20
29.70153713323168
 30
0
 11
117.1420786812927
 21
22.70153713323168
 31
0
  0
LINE
  8
1
 62
2
 10
113.7632009381285
 20
29.70153713323168
 30
0
 11
116.1420786812927
 21
22.70153713323168
 31
0
  0
LINE
  8
1
 62
2
 10
56.98819010560088
 20
-59.67747290731143
 30
0
 11
103.110584837921
 21
-59.67747290731143
 31
0
  0
LINE
  8
1
 62
2
 10
56.98819010560088
 20
-52.67747290731143
 30
0
 11
103.110584837921
 21
-52.67747290731143
 31
0
  0
LINE
  8
1
 62
2
 10
56.98819010560088
 20
-45.67747290731143
 30
0
 11
103.110584837921
 21
-45.67747290731143
 31
0
  0
LINE
  8
1
 62
2
 10
56.98819010560088
 20
-38.67747290731143
 30
0
 11
103.110584837921
 21
-38.67747290731143
 31
0
  0
LINE
  8
1
 62
2
 10
56.98819010560088
 20
-31.67747290731143
 30
0
 11
103.110584837921
 21
-31.67747290731143
 31
0
  0
LINE
  8
1
 62
1
 10
122.6784022391556
 20
26.20153713323168
 30
0
 11
107.6784022391556
 21
26.2015371332318
 31
0
  0
LINE
  8
1
 62
3
 10
122.6784022391556
 20
29.70153713323168
 30
0
 11
113.1784022391556
 21
29.70153713323168
 31
0
  0
LINE
  8
1
 62
2
  6
CENTER
 10
110.6784022391556
 20
23.30153713323159
 30
0
 11
120.6784022391556
 21
23.30153713323159
 31
0
  0
LINE
  8
1
 62
3
 10
113.1784022391556
 20
22.70153713323168
 30
0
 11
112.6784022391556
 21
23.20153713323168
 31
0
  0
LINE
  8
1
 62
3
 10
112.6784022391556
 20
23.20153713323168
 30
0
 11
112.6784022391556
 21
26.20153713323168
 31
0
  0
LINE
  8
1
 62
3
 10
113.1784022391556
 20
22.70153713323168
 30
0
 11
122.6784022391556
 21
22.70153713323168
 31
0
  0
LINE
  8
1
 62
2
  6
CENTER
 10
120.6784022391556
 20
29.10153713323155
 30
0
 11
110.6784022391556
 21
29.10153713323155
 31
0
  0
LINE
  8
1
 62
3
 10
112.6784022391556
 20
29.20153713323168
 30
0
 11
113.1784022391556
 21
29.70153713323168
 31
0
  0
LINE
  8
1
 62
3
 10
112.6784022391556
 20
26.20153713323168
 30
0
 11
112.6784022391556
 21
29.20153713323168
 31
0
  0
LINE
  8
1
 62
3
 10
20.17840223915559
 20
67.2015371332318
 30
0
 11
-26.82159776084441
 21
67.2015371332318
 31
0
  0
LINE
  8
1
 62
3
 10
30.17840223915558
 20
-13.7984628667682
 30
0
 11
-36.82159776084441
 21
-13.7984628667682
 31
0
  0
LINE
  8
1
 62
3
 10
36.67840223915559
 20
59.7015371332318
 30
0
 11
36.67840223915559
 21
-7.298462866768205
 31
0
  0
LINE
  8
1
 62
3
 10
-36.82159776084441
 20
66.2015371332318
 30
0
 11
30.17840223915559
 21
66.2015371332318
 31
0
  0
LINE
  8
1
 62
3
 10
-43.32159776084441
 20
59.7015371332318
 30
0
 11
-43.32159776084441
 21
-7.298462866768205
 31
0
  0
LINE
  8
1
 62
1
 10
22.17840223915559
 20
59.4515371332318
 30
0
 11
37.67840223915558
 21
59.4515371332318
 31
0
  0
LINE
  8
1
 62
1
 10
29.92840223915559
 20
67.2015371332318
 30
0
 11
29.92840223915559
 21
51.7015371332318
 31
0
  0
LINE
  8
1
 62
1
 10
-44.32159776084441
 20
59.4515371332318
 30
0
 11
-28.82159776084441
 21
59.4515371332318
 31
0
  0
LINE
  8
1
 62
1
 10
-36.57159776084441
 20
67.2015371332318
 30
0
 11
-36.57159776084441
 21
51.7015371332318
 31
0
  0
LINE
  8
1
 62
1
 10
-44.32159776084441
 20
-7.048462866768205
 30
0
 11
-28.82159776084441
 21
-7.048462866768205
 31
0
  0
LINE
  8
1
 62
1
 10
-36.57159776084441
 20
0.7015371332317955
 30
0
 11
-36.57159776084441
 21
-14.7984628667682
 31
0
  0
LINE
  8
1
 62
1
 10
22.17840223915559
 20
-7.048462866768205
 30
0
 11
37.67840223915558
 21
-7.048462866768205
 31
0
  0
LINE
  8
1
 62
1
 10
29.92840223915559
 20
0.7015371332317955
 30
0
 11
29.92840223915559
 21
-14.7984628667682
 31
0
  0
LINE
  8
1
 62
1
 10
-48.32159776084441
 20
26.2015371332318
 30
0
 11
41.67840223915559
 21
26.2015371332318
 31
0
  0
LINE
  8
1
 62
1
 10
-3.321597760844409
 20
71.2015371332318
 30
0
 11
-3.321597760844414
 21
-18.7984628667682
 31
0
  0
LINE
  8
1
 62
3
 10
124.6784022391556
 20
-13.7984628667682
 30
0
 11
150.6784022391556
 21
-13.7984628667682
 31
0
  0
LINE
  8
1
 62
3
 10
150.6784022391556
 20
-13.7984628667682
 30
0
 11
150.6784022391556
 21
66.2015371332318
 31
0
  0
LINE
  8
1
 62
3
 10
150.6784022391556
 20
66.2015371332318
 30
0
 11
124.6784022391556
 21
66.2015371332318
 31
0
  0
LINE
  8
1
 62
3
 10
124.6784022391556
 20
66.2015371332318
 30
0
 11
124.6784022391556
 21
-13.7984628667682
 31
0
  0
LINE
  8
1
 62
3
 10
124.6784022391556
 20
62.7015371332318
 30
0
 11
122.6784022391556
 21
62.7015371332318
 31
0
  0
LINE
  8
1
 62
3
 10
122.6784022391556
 20
62.7015371332318
 30
0
 11
122.6784022391556
 21
-10.2984628667682
 31
0
  0
LINE
  8
1
 62
3
 10
122.6784022391556
 20
-10.2984628667682
 30
0
 11
124.6784022391556
 21
-10.2984628667682
 31
0
  0
LINE
  8
1
 62
2
  6
DASHED
 10
150.6784022391556
 20
62.7015371332318
 30
0
 11
148.6784022391556
 21
62.7015371332318
 31
0
  0
LINE
  8
1
 62
2
  6
DASHED
 10
148.6784022391556
 20
62.7015371332318
 30
0
 11
148.6784022391556
 21
-10.2984628667682
 31
0
  0
LINE
  8
1
 62
2
  6
DASHED
 10
148.6784022391556
 20
-10.2984628667682
 30
0
 11
150.6784022391556
 21
-10.2984628667682
 31
0
  0
LINE
  8
1
 62
1
 10
107.6784022391556
 20
26.2015371332318
 30
0
 11
155.6784022391556
 21
26.2015371332318
 31
0
  0
LINE
  8
1
 62
3
 10
127.6784022391556
 20
67.2015371332318
 30
0
 11
147.6784022391556
 21
67.2015371332318
 31
0
  0
LINE
  8
1
 62
3
 10
246.6784022391556
 20
66.2015371332318
 30
0
 11
236.6784022391556
 21
66.2015371332318
 31
0
  0
LINE
  8
1
 62
3
 10
236.6784022391556
 20
66.2015371332318
 30
0
 11
236.6784022391556
 21
-13.7984628667682
 31
0
  0
LINE
  8
1
 62
3
 10
236.6784022391556
 20
-13.7984628667682
 30
0
 11
246.6784022391556
 21
-13.7984628667682
 31
0
  0
LINE
  8
1
 62
3
 10
236.6784022391556
 20
62.7015371332318
 30
0
 11
234.6784022391556
 21
62.7015371332318
 31
0
  0
LINE
  8
1
 62
3
 10
234.6784022391556
 20
62.7015371332318
 30
0
 11
234.6784022391556
 21
-10.2984628667682
 31
0
  0
LINE
  8
1
 62
3
 10
234.6784022391556
 20
-10.2984628667682
 30
0
 11
236.6784022391556
 21
-10.2984628667682
 31
0
  0
LINE
  8
1
 62
1
 10
219.6784022391556
 20
26.2015371332318
 30
0
 11
251.6784022391556
 21
26.2015371332318
 31
0
  0
ARC
  8
1
 62
2
 10
-3.321597760844412
 20
26.2015371332318
 30
0
 40
47
 50
20
 51
54.99999999999999
  0
ARC
  8
1
 62
2
 10
-3.321597760844412
 20
26.2015371332318
 30
0
 40
46.99999999999999
 50
200
 51
235
  0
CIRCLE
  8
1
 62
3
 10
-3.321597760844412
 20
26.2015371332318
 30
0
 40
34
  0
CIRCLE
  8
1
 62
3
 10
29.92840223915559
 20
59.4515371332318
 30
0
 40
2.749999999999996
  0
CIRCLE
  8
1
 62
3
 10
-36.57159776084441
 20
59.4515371332318
 30
0
 40
2.75
  0
CIRCLE
  8
1
 62
3
 10
-36.57159776084441
 20
-7.048462866768205
 30
0
 40
2.75
  0
CIRCLE
  8
1
 62
3
 10
29.92840223915559
 20
-7.048462866768205
 30
0
 40
2.749999999999996
  0
CIRCLE
  8
1
 62
3
 10
-3.321597760844412
 20
26.2015371332318
 30
0
 40
36.50000000000001
  0
CIRCLE
  8
1
 62
4
  6
DIVIDE
 10
-3.321597760844412
 20
26.2015371332318
 30
0
 40
47.00000000000001
  0
CIRCLE
  8
1
 62
3
 10
-3.321597760844412
 20
26.2015371332318
 30
0
 40
7.999999999999998
  0
CIRCLE
  8
1
 62
2
  6
CENTER
 10
-3.321597760844412
 20
26.2015371332318
 30
0
 40
2.5985
  0
CIRCLE
  8
1
 62
3
 10
-3.321597760844412
 20
26.2015371332318
 30
0
 40
2.9985
  0
ARC
  8
1
 62
3
 10
-36.82159776084441
 20
59.7015371332318
 30
0
 40
6.499999999999993
 50
90
 51
180
  0
ARC
  8
1
 62
3
 10
30.17840223915559
 20
59.7015371332318
 30
0
 40
6.499999999999996
 50
0
 51
90
  0
ARC
  8
1
 62
3
 10
30.17840223915559
 20
-7.298462866768205
 30
0
 40
6.499999999999994
 50
270
 51
0
  0
ARC
  8
1
 62
3
 10
-36.82159776084441
 20
-7.298462866768205
 30
0
 40
6.5
 50
180
 51
270
  0
LINE
  8
1
 62
2
 10
168.9881901056009
 20
-24.67747290731143
 30
0
 11
215.110584837921
 21
-24.67747290731143
 31
0
  0
LINE
  8
1
 62
2
 10
215.110584837921
 20
-24.67747290731143
 30
0
 11
228.6420786812926
 21
22.70153713323168
 31
0
  0
SOLID
  8
1
 62
2
 10
228.1683838845617
 20
19.50887416761989
 30
0
 11
227.3582026632576
 21
19.74026275507053
 31
0
 12
228.6420786812926
 22
22.70153713323168
 32
0
 13
228.6420786812926
 23
22.70153713323168
 33
0
  0
LINE
  8
1
 62
2
 10
56.98819010560088
 20
-24.67747290731143
 30
0
 11
103.1105848379208
 21
-24.67747290731143
 31
0
  0
LINE
  8
1
 62
2
 10
103.1105848379208
 20
-24.67747290731143
 30
0
 11
116.6420786812927
 21
22.70153713323168
 31
0
  0
SOLID
  8
1
 62
2
 10
116.1683838845618
 20
19.50887416761989
 30
0
 11
115.3582026632577
 21
19.74026275507054
 31
0
 12
116.6420786812927
 22
22.70153713323168
 32
0
 13
116.6420786812927
 23
22.70153713323168
 33
0
  0
LINE
  8
1
 62
2
 10
194.3384697382085
 20
81.2015371332318
 30
0
 11
165.6784022391556
 21
81.2015371332318
 31
0
  0
LINE
  8
1
 62
2
 10
165.6784022391556
 20
81.2015371332318
 30
0
 11
138.254317509904
 21
67.2015371332318
 31
0
  0
SOLID
  8
1
 62
2
 10
141.1621013568857
 20
69.20331503192956
 30
0
 11
141.581119269218
 21
68.3825162654383
 31
0
 12
138.254317509904
 22
67.2015371332318
 32
0
 13
138.254317509904
 23
67.2015371332318
 33
0
  0
TEXT
  8
1
 62
2
 10
174.2614403891288
 20
-23.55267900129149
 30
0
 40
4
  1
âéâWâàü[âï : 0.5
 41
0.7200000000000001
  0
TEXT
  8
1
 62
2
 10
174.2614403891288
 20
-30.55267900129149
 30
0
 40
4
  1
êü@ù═ü@èp : 20%%d
 41
0.7200000000000001
  0
TEXT
  8
1
 62
2
 10
174.2614403891288
 20
-37.55267900129149
 30
0
 40
4
  1
Äòü@ü@ü@Éö : 10
 41
0.7200000000000001
  0
TEXT
  8
1
 62
2
 10
174.2614403891288
 20
-44.55267900129149
 30
0
 40
4
  1
èOü@ü@ü@îa : âË7
 41
0.7200000000000001
  0
TEXT
  8
1
 62
2
 10
174.2614403891288
 20
-51.55267900129149
 30
0
 40
4
  1
é╦éÂéÛò¹î³ : ëE
 41
0.7200000000000001
  0
TEXT
  8
1
 62
2
 10
174.2614403891288
 20
-58.55267900129149
 30
0
 40
4
  1
 èÜìçæèÄÞâwâèâJâïÄdùl
 41
0.7200000000000001
  0
TEXT
  8
1
 62
2
 10
62.26144038912877
 20
-23.55267900129149
 30
0
 40
4
  1
âéâWâàü[âï : 0.5
 41
0.7200000000000001
  0
TEXT
  8
1
 62
2
 10
62.26144038912877
 20
-30.55267900129149
 30
0
 40
4
  1
êü@ù═ü@èp : 20%%d
 41
0.7200000000000001
  0
TEXT
  8
1
 62
2
 10
62.26144038912877
 20
-37.55267900129149
 30
0
 40
4
  1
Äòü@ü@ü@Éö : 10
 41
0.7200000000000001
  0
TEXT
  8
1
 62
2
 10
62.26144038912877
 20
-44.55267900129149
 30
0
 40
4
  1
èOü@ü@ü@îa : âË7
 41
0.7200000000000001
  0
TEXT
  8
1
 62
2
 10
62.26144038912877
 20
-51.55267900129149
 30
0
 40
4
  1
é╦éÂéÛò¹î³ : ëE
 41
0.7200000000000001
  0
TEXT
  8
1
 62
2
 10
62.26144038912877
 20
-58.55267900129149
 30
0
 40
4
  1
   âwâèâJâïÄdùl
 41
0.7200000000000001
  0
TEXT
  8
1
 62
2
 10
166.6784022391556
 20
82.2015371332318
 30
0
 40
4
  1
âlü[âÇâvâîü[âg
 41
0.9
  0
TEXT
  8
1
 62
2
 10
194.014021481735
 20
-81.6680483884726
 30
0
 40
6
  1
8H10XFN
 41
0.9
  0
DIMENSION
  8
1
  6
CONTINUOUS
 62
2
  2
*D0
  3
DMST_1
 10
112.6784022391556
 20
91.2015371332318
 30
0
 11
118.104881162268
 21
94.80153713323179
 31
0
 12
0
 22
0
 32
0
 70
0
 13
124.6784022391556
 23
66.2015371332318
 33
0
 14
112.6784022391556
 24
29.20153713323168
 34
0
 53
0
  0
DIMENSION
  8
1
  6
CONTINUOUS
 62
2
  2
*D1
  3
DMST_1
 10
236.6784022391556
 20
91.2015371332318
 30
0
 11
230.890508249848
 21
94.80153713323179
 31
0
 12
0
 22
0
 32
0
 70
0
 13
224.6784022391556
 23
29.20153713323168
 33
0
 14
236.6784022391556
 24
66.2015371332318
 34
0
 53
0
  0
DIMENSION
  8
0
  6
CONTINUOUS
 62
2
  2
*D2
  3
DMST_2
 10
211.6784022391556
 20
-10.2984628667682
 30
0
 11
207.0384022391556
 21
26.2015371332318
 31
0
 12
0
 22
0
 32
0
 70
0
  1
73h7
 13
234.6784022391556
 23
62.7015371332318
 33
0
 14
234.6784022391556
 24
-10.2984628667682
 34
0
 50
90
 53
0
  0
DIMENSION
  8
0
  6
CONTINUOUS
 62
2
  2
*D3
  3
DMST_3
 10
234.6784022391556
 20
81.2015371332318
 30
0
 11
228.825922848797
 21
84.40153713323178
 31
0
 12
0
 22
0
 32
0
 70
0
 13
236.6784022391556
 23
66.2015371332318
 33
0
 14
234.6784022391556
 24
62.7015371332318
 34
0
 53
0
  0
DIMENSION
  8
0
  6
CONTINUOUS
 62
2
  2
*D4
  3
DMST_2
 10
165.6784022391556
 20
62.7015371332318
 30
0
 11
161.0384022391556
 21
26.2015371332318
 31
0
 12
0
 22
0
 32
0
 70
0
  1
73H7
 13
150.6784022391556
 23
-10.2984628667682
 33
0
 14
150.6784022391556
 24
62.7015371332318
 34
0
 50
90
 53
0
  0
DIMENSION
  8
0
  6
CONTINUOUS
 62
2
  2
*D5
  3
DMST_2
 10
97.67840223915559
 20
62.7015371332318
 30
0
 11
93.03840223915559
 21
26.2015371332318
 31
0
 12
0
 22
0
 32
0
 70
0
  1
73h7
 13
122.6784022391556
 23
-10.2984628667682
 33
0
 14
122.6784022391556
 24
62.7015371332318
 34
0
 50
90
 53
0
  0
DIMENSION
  8
0
  6
CONTINUOUS
 62
2
  2
*D6
  3
DMST_3
 10
124.6784022391556
 20
91.2015371332318
 30
0
 11
137.6784022391556
 21
94.40153713323178
 31
0
 12
0
 22
0
 32
0
 70
0
 13
150.6784022391556
 23
66.2015371332318
 33
0
 14
124.6784022391556
 24
66.2015371332318
 34
0
 53
0
  0
DIMENSION
  8
0
  6
CONTINUOUS
 62
2
  2
*D7
  3
DMST_3
 10
150.6784022391556
 20
81.2015371332318
 30
0
 11
155.729032651356
 21
84.40153713323178
 31
0
 12
0
 22
0
 32
0
 70
0
 13
148.6784022391556
 23
62.7015371332318
 33
0
 14
150.6784022391556
 24
66.2015371332318
 34
0
 53
0
  0
DIMENSION
  8
0
  6
CONTINUOUS
 62
2
  2
*D8
  3
DMST_3
 10
124.6784022391556
 20
81.2015371332318
 30
0
 11
130.013104608507
 21
84.40153713323178
 31
0
 12
0
 22
0
 32
0
 70
0
 13
122.6784022391556
 23
62.7015371332318
 33
0
 14
124.6784022391556
 24
66.2015371332318
 34
0
 53
0
  0
DIMENSION
  8
0
  6
CONTINUOUS
 62
2
  2
*D9
  3
DMST_3
 10
61.67840223915559
 20
66.2015371332318
 30
0
 11
58.47840223915559
 21
26.20153713323179
 31
0
 12
0
 22
0
 32
0
 70
0
 13
30.17840223915558
 23
-13.7984628667682
 33
0
 14
30.17840223915559
 24
66.2015371332318
 34
0
 50
90
 53
0
  0
DIMENSION
  8
0
  6
CONTINUOUS
 62
2
  2
*D10
  3
DMST_3
 10
-43.32159776084441
 20
91.2015371332318
 30
0
 11
-3.321597760844419
 21
94.40153713323178
 31
0
 12
0
 22
0
 32
0
 70
0
 13
36.67840223915559
 23
59.7015371332318
 33
0
 14
-43.32159776084441
 24
59.7015371332318
 34
0
 53
0
  0
DIMENSION
  8
0
  6
CONTINUOUS
 62
2
  2
*D11
  3
DMST_4
 10
51.67840223915558
 20
59.4515371332318
 30
0
 11
48.47840223915558
 21
26.2015371332318
 31
0
 12
0
 22
0
 32
0
 70
0
 13
37.67840223915558
 23
-7.048462866768205
 33
0
 14
37.67840223915558
 24
59.4515371332318
 34
0
 50
90
 53
0
  0
DIMENSION
  8
0
  6
CONTINUOUS
 62
2
  2
*D12
  3
DMST_4
 10
-36.57159776084441
 20
81.2015371332318
 30
0
 11
-3.321597760844419
 21
84.40153713323178
 31
0
 12
0
 22
0
 32
0
 70
0
 13
29.92840223915559
 23
67.2015371332318
 33
0
 14
-36.57159776084441
 24
67.2015371332318
 34
0
 53
0
  0
DIMENSION
  8
0
  6
CONTINUOUS
 62
2
  2
*D14
  3
DMST_5
 10
-45.91806375156696
 20
6.33847883141892
 30
0
 11
11.36744019877532
 21
37.54232498614711
 31
0
 12
0
 22
0
 32
0
 70
3
  1
(%%c<>
 15
39.27486822987814
 25
46.06459543504466
 35
0
 40
0
 53
0
  0
INSERT
  8
0
  2
MOJINOMUKI
 10
180.2681978244926
 20
88.6345184026284
 30
0
  0
INSERT
  8
0
  2
*D13
 10
0
 20
0
 30
0
  0
ENDSEC
  0
EOF
