  0
SECTION
  2
HEADER
  9
$ACADVER
  1
AC1009
  9
$INSBASE
 10
0
 20
0
  9
$EXTMIN
 10
-43.22589293852742
 20
189.2461502978235
  9
$EXTMAX
 10
204.227183542658
 20
382.0386668683802
  9
$LIMMIN
 10
-43.22589293852742
 20
189.2461502978235
  9
$LIMMAX
 10
204.227183542658
 20
382.0386668683802
  9
$VIEWCTR
 10
10
 20
10
  9
$VIEWSIZE
 40
10
  9
$SNAPMODE
 70
0
  9
$SNAPUNIT
 10
1
 20
1
  9
$SNAPBASE
 10
0
 20
0
  9
$SNAPANG
 50
0
  9
$SNAPSTYLE
 70
0
  9
$SNAPISOPAIR
 70
0
  9
$GRIDMODE
 70
0
  9
$GRIDUNIT
 10
0
 20
0
  9
$ORTHOMODE
 70
0
  9
$REGENMODE
 70
1
  9
$FILLMODE
 70
1
  9
$QTEXTMODE
 70
0
  9
$DRAGMODE
 70
2
  9
$LTSCALE
 40
1
  9
$OSMODE
 70
0
  9
$ATTMODE
 70
1
  9
$TEXTSIZE
 40
3.5
  9
$TRACEWID
 40
0.5
  9
$TEXTSTYLE
  7
STANDARD
  9
$CLAYER
  8
0
  9
$CELTYPE
  6
BYLAYER
  9
$CECOLOR
 62
256
  9
$DIMSCALE
 40
1
  9
$DIMASZ
 40
0.18
  9
$DIMEXO
 40
0.0625
  9
$DIMDLI
 40
0.38
  9
$DIMRND
 40
0
  9
$DIMDLE
 40
0
  9
$DIMEXE
 40
0.18
  9
$DIMTP
 40
0
  9
$DIMTM
 40
0
  9
$DIMTXT
 40
0.18
  9
$DIMCEN
 40
0.09
  9
$DIMTSZ
 40
0
  9
$DIMTOL
 70
0
  9
$DIMLIM
 70
0
  9
$DIMTIH
 70
1
  9
$DIMTOH
 70
1
  9
$DIMSE1
 70
0
  9
$DIMSE2
 70
0
  9
$DIMTAD
 70
0
  9
$DIMZIN
 70
0
  9
$DIMBLK
  1

  9
$DIMASO
 70
1
  9
$DIMSHO
 70
1
  9
$DIMPOST
  1

  9
$DIMAPOST
  1

  9
$DIMALT
 70
0
  9
$DIMALTD
 70
2
  9
$DIMALTF
 40
25.4
  9
$DIMLFAC
 40
1
  9
$DIMTOFL
 70
0
  9
$DIMTVP
 40
0
  9
$DIMTIX
 70
0
  9
$DIMSOXD
 70
0
  9
$DIMSAH
 70
0
  9
$DIMBLK1
  1

  9
$DIMBLK2
  1

  9
$DIMSTYLE
  2
*UNNAMED
  9
$DIMCLRD
 70
0
  9
$DIMCLRE
 70
0
  9
$DIMCLRT
 70
0
  9
$DIMTFAC
 40
1
  9
$DIMGAP
 40
0.09
  9
$LUNITS
 70
2
  9
$LUPREC
 70
4
  9
$AXISMODE
 70
0
  9
$AXISUNIT
 10
0
 20
0
  9
$SKETCHINC
 40
0.1
  9
$FILLETRAD
 40
2
  9
$AUNITS
 70
0
  9
$AUPREC
 70
0
  9
$MENU
  1
ACAD
  9
$ELEVATION
 40
0
  9
$THICKNESS
 40
0
  9
$VIEWDIR
 10
0
 20
0
 30
1
  9
$LIMCHECK
 70
0
  9
$BLIPMODE
 70
1
  9
$CHAMFERA
 40
0
  9
$CHAMFERB
 40
0
  9
$FASTZOOM
 70
1
  9
$SKPOLY
 70
0
  9
$ANGBASE
 50
0
  9
$ANGDIR
 70
0
  9
$PDMODE
 70
0
  9
$PDSIZE
 40
0
  9
$PLINEWID
 40
0
  9
$COORDS
 70
2
  0
ENDSEC
  0
SECTION
  2
TABLES
  0
TABLE
  2
DIMSTYLE
 70
7
  0
DIMSTYLE
  2
DMST_1
 70
0
  3

  4

  5

  6

  7

 40
1
 41
3.2
 42
1
 43
7
 44
1
 45
0
 46
0
 47
0
 48
0.02
140
3.2
141
0
142
0
143
25.4
144
1
145
0
146
0.6
147
0.09
 71
1
 72
0
 73
0
 74
0
 75
0
 76
0
 77
1
 78
9
170
0
171
2
172
0
173
0
174
0
175
0
176
2
177
2
178
2
  0
DIMSTYLE
  2
DMST_2
 70
0
  3

  4

  5

  6

  7

 40
1
 41
3.2
 42
1
 43
7
 44
1
 45
0
 46
0
 47
0
 48
0
140
3.2
141
0
142
0
143
25.4
144
1
145
0
146
1
147
0.09
 71
0
 72
0
 73
0
 74
0
 75
0
 76
0
 77
1
 78
9
170
0
171
2
172
0
173
0
174
0
175
0
176
2
177
2
178
2
  0
DIMSTYLE
  2
DMST_3
 70
0
  3

  4

  5

  6

  7

 40
1
 41
3.2
 42
1
 43
7
 44
1
 45
0
 46
0
 47
0
 48
0
140
3.2
141
0
142
0
143
25.4
144
1
145
0
146
1
147
0.09
 71
0
 72
0
 73
1
 74
1
 75
0
 76
0
 77
0
 78
9
170
0
171
2
172
0
173
0
174
0
175
0
176
2
177
2
178
2
  0
DIMSTYLE
  2
DMST_4
 70
0
  3
±0.3
  4

  5

  6

  7

 40
1
 41
3.2
 42
1
 43
7
 44
1
 45
0
 46
0
 47
0
 48
0
140
3.2
141
0
142
0
143
25.4
144
1
145
0
146
1
147
0.09
 71
0
 72
0
 73
0
 74
0
 75
0
 76
0
 77
1
 78
9
170
0
171
2
172
0
173
0
174
0
175
0
176
2
177
2
178
2
  0
DIMSTYLE
  2
DMST_5
 70
0
  3

  4

  5

  6

  7

 40
1
 41
3.2
 42
1
 43
7
 44
1.5
 45
0
 46
0
 47
0
 48
0
140
3.2
141
0
142
0
143
25.4
144
1
145
0
146
1
147
0.09
 71
0
 72
0
 73
0
 74
0
 75
0
 76
0
 77
1
 78
9
170
0
171
2
172
0
173
0
174
0
175
0
176
2
177
2
178
2
  0
DIMSTYLE
  2
DMST_6
 70
0
  3
)
  4

  5

  6

  7

 40
1
 41
3.2
 42
1
 43
7
 44
1
 45
0
 46
0
 47
0
 48
0
140
3.2
141
0
142
0
143
25.4
144
1
145
0
146
1
147
0.09
 71
0
 72
0
 73
0
 74
0
 75
0
 76
0
 77
1
 78
9
170
0
171
2
172
0
173
0
174
1
175
0
176
2
177
2
178
2
  0
DIMSTYLE
  2
DMST_7
 70
0
  3
穴
  4

  5

  6

  7

 40
1
 41
3.2
 42
1
 43
7
 44
1.5
 45
0
 46
0
 47
0
 48
0
140
3.2
141
0
142
0
143
25.4
144
1
145
0
146
1
147
0.09
 71
0
 72
0
 73
1
 74
1
 75
0
 76
0
 77
1
 78
9
170
0
171
2
172
0
173
0
174
0
175
0
176
2
177
2
178
2
  0
ENDTAB
  0
TABLE
  2
LTYPE
 70
9
  0
LTYPE
  2
CONTINUOUS
 70
64
  3
Solid line
 72
65
 73
0
 40
0
  0
LTYPE
  2
BORDER
 70
64
  3
__ __ . __ __ .
 72
65
 73
6
 40
11.39586536426512
 49
3.255961532647176
 49
-1.627980766323588
 49
3.255961532647176
 49
-1.627980766323588
 49
0
 49
-1.627980766323588
  0
LTYPE
  2
CENTER
 70
64
  3
____ _ ____ _
 72
65
 73
4
 40
13.02384613058871
 49
8.139903831617941
 49
-1.627980766323588
 49
1.627980766323588
 49
-1.627980766323588
  0
LTYPE
  2
DASHDOT
 70
64
  3
__ . __ . __ .
 72
65
 73
4
 40
6.511923065294353
 49
3.255961532647176
 49
-1.627980766323588
 49
0
 49
-1.627980766323588
  0
LTYPE
  2
DASHED
 70
64
  3
__ __ __ __ __
 72
65
 73
2
 40
4.883942298970764
 49
3.255961532647176
 49
-1.627980766323588
  0
LTYPE
  2
DIVIDE
 70
64
  3
__ . . __ . . 
 72
65
 73
6
 40
8.139903831617941
 49
3.255961532647176
 49
-1.627980766323588
 49
0
 49
-1.627980766323588
 49
0
 49
-1.627980766323588
  0
LTYPE
  2
DOT
 70
64
  3
..............
 72
65
 73
4
 40
3.255961532647176
 49
0
 49
-1.627980766323588
 49
0
 49
-1.627980766323588
  0
LTYPE
  2
HIDDEN
 70
64
  3
_ _ _ _ _ _ _
 72
65
 73
2
 40
2.441971149485382
 49
1.627980766323588
 49
-0.8139903831617941
  0
LTYPE
  2
PHANTOM
 70
64
  3
_____ _ _ _____ _ _ 
 72
65
 73
6
 40
16.27980766323588
 49
8.139903831617941
 49
-1.627980766323588
 49
1.627980766323588
 49
-1.627980766323588
 49
1.627980766323588
 49
-1.627980766323588
  0
ENDTAB
  0
TABLE
  2
LAYER
 70
4
  0
LAYER
  2
1
 70
0
 62
7
  6
CONTINUOUS
  0
LAYER
  2
2
 70
0
 62
7
  6
CONTINUOUS
  0
LAYER
  2
0
 70
0
 62
7
  6
CONTINUOUS
  0
ENDTAB
  0
TABLE
  2
STYLE
 70
4
  0
STYLE
  2
STANDARD
 70
0
 40
0
 41
1
 50
0
 71
0
 42
3.5
  3
txt
  4

  0
STYLE
  2
SIMPLEX
 70
0
 40
0
 41
1
 50
0
 71
0
 42
3.5
  3
simplex
  4

  0
STYLE
  2
COMPLEX
 70
0
 40
0
 41
1
 50
0
 71
0
 42
3.5
  3
complex
  4

  0
STYLE
  2
ITALIC
 70
0
 40
0
 41
1
 50
0
 71
0
 42
3.5
  3
italic
  4

  0
ENDTAB
  0
TABLE
  2
VIEW
 70
0
  0
ENDTAB
  0
ENDSEC
  0
SECTION
  2
BLOCKS
  0
BLOCK
  8
1
  2
*D0
 70
1
 10
0
 20
0
 30
0
  0
LINE
  8
1
 62
2
 10
94.72027405650648
 20
328.0886668683802
 30
0
 11
94.72027405650648
 21
336.0886668683802
 31
0
  0
LINE
  8
1
 62
2
 10
94.72027405650648
 20
328.0886668683802
 30
0
 11
94.72027405650648
 21
321.6886668683802
 31
0
  0
LINE
  8
1
 62
2
 10
94.72027405650648
 20
336.0886668683802
 30
0
 11
94.72027405650648
 21
342.4886668683802
 31
0
  0
LINE
  8
1
 62
2
 10
113.7202740565065
 20
328.0886668683802
 30
0
 11
93.72027405650648
 21
328.0886668683802
 31
0
  0
LINE
  8
1
 62
2
 10
130.7202740565065
 20
336.0886668683802
 30
0
 11
93.72027405650648
 21
336.0886668683802
 31
0
  0
SOLID
  8
1
 62
2
 10
94.72027405650648
 20
336.0886668683802
 30
0
 11
94.30427405650649
 21
339.2886668683802
 31
0
 12
95.13627405650648
 22
339.2886668683802
 32
0
 13
95.13627405650648
 23
339.2886668683802
 33
0
  0
SOLID
  8
1
 62
2
 10
94.72027405650648
 20
328.0886668683802
 30
0
 11
95.13627405650648
 21
324.8886668683802
 31
0
 12
94.30427405650649
 22
324.8886668683802
 32
0
 13
94.30427405650649
 23
324.8886668683802
 33
0
  0
TEXT
  8
1
 62
2
 10
91.92027405650647
 20
328.5342851074108
 30
0
 40
3.2
  1
8
 50
90
 41
0.9
  0
TEXT
  8
1
 62
2
 10
89.84027405650647
 20
332.0542851074108
 30
0
 40
1.92
  1
 0
 50
90
 41
0.9
  0
TEXT
  8
1
 62
2
 10
92.72027405650648
 20
332.0542851074108
 30
0
 40
1.92
  1
-0.02
 50
90
 41
0.9
  0
TEXT
  8
1
 62
2
 10
91.92027405650647
 20
324.8898406629664
 30
0
 40
3.2
  1
φ
 50
90
 41
0.9
  0
ENDBLK
  8
0
  0
BLOCK
  8
1
  2
*D1
 70
1
 10
0
 20
0
 30
0
  0
LINE
  8
1
 62
2
 10
114.7202740565065
 20
376.8386668683802
 30
0
 11
149.7202740565065
 21
376.8386668683802
 31
0
  0
LINE
  8
1
 62
2
 10
114.7202740565065
 20
336.0886668683802
 30
0
 11
114.7202740565065
 21
377.8386668683802
 31
0
  0
LINE
  8
1
 62
2
 10
149.7202740565065
 20
357.8386668683802
 30
0
 11
149.7202740565065
 21
377.8386668683802
 31
0
  0
SOLID
  8
1
 62
2
 10
114.7202740565065
 20
376.8386668683802
 30
0
 11
117.9202740565065
 21
377.2546668683802
 31
0
 12
117.9202740565065
 22
376.4226668683802
 32
0
 13
117.9202740565065
 23
376.4226668683802
 33
0
  0
SOLID
  8
1
 62
2
 10
149.7202740565065
 20
376.8386668683802
 30
0
 11
146.5202740565065
 21
376.4226668683802
 31
0
 12
146.5202740565065
 22
377.2546668683802
 32
0
 13
146.5202740565065
 23
377.2546668683802
 33
0
  0
TEXT
  8
1
 62
2
 10
129.461605195963
 20
378.8386668683802
 30
0
 40
3.2
  1
35
 41
0.9
  0
ENDBLK
  8
0
  0
BLOCK
  8
1
  2
*D2
 70
1
 10
0
 20
0
 30
0
  0
LINE
  8
1
 62
2
 10
104.7202740565065
 20
328.6886668683802
 30
0
 11
104.7202740565065
 21
335.0886668683802
 31
0
  0
LINE
  8
1
 62
2
 10
104.7202740565065
 20
335.0886668683802
 30
0
 11
104.7202740565065
 21
336.0886668683802
 31
0
  0
LINE
  8
1
 62
2
 10
104.7202740565065
 20
336.0886668683802
 30
0
 11
104.7202740565065
 21
342.4886668683802
 31
0
  0
LINE
  8
1
 62
2
 10
113.7202740565065
 20
335.0886668683802
 30
0
 11
103.7202740565065
 21
335.0886668683802
 31
0
  0
LINE
  8
1
 62
2
 10
130.7202740565065
 20
336.0886668683802
 30
0
 11
103.7202740565065
 21
336.0886668683802
 31
0
  0
SOLID
  8
1
 62
2
 10
104.7202740565065
 20
336.0886668683802
 30
0
 11
104.3042740565065
 21
339.2886668683802
 31
0
 12
105.1362740565065
 22
339.2886668683802
 32
0
 13
105.1362740565065
 23
339.2886668683802
 33
0
  0
SOLID
  8
1
 62
2
 10
104.7202740565065
 20
335.0886668683802
 30
0
 11
105.1362740565065
 21
331.8886668683802
 31
0
 12
104.3042740565065
 22
331.8886668683802
 32
0
 13
104.3042740565065
 23
331.8886668683802
 33
0
  0
TEXT
  8
1
 62
2
 10
102.7202740565065
 20
339.8037325975526
 30
0
 40
3.2
  1
1
 50
90
 41
0.9
  0
ENDBLK
  8
0
  0
BLOCK
  8
1
  2
*D3
 70
1
 10
0
 20
0
 30
0
  0
LINE
  8
1
 62
2
 10
114.7202740565065
 20
351.0886668683802
 30
0
 11
128.7202740565065
 21
351.0886668683802
 31
0
  0
LINE
  8
1
 62
2
 10
114.7202740565065
 20
336.0886668683802
 30
0
 11
114.7202740565065
 21
352.0886668683802
 31
0
  0
LINE
  8
1
 62
2
 10
128.7202740565065
 20
336.0886668683802
 30
0
 11
128.7202740565065
 21
352.0886668683802
 31
0
  0
SOLID
  8
1
 62
2
 10
114.7202740565065
 20
351.0886668683802
 30
0
 11
117.9202740565065
 21
351.5046668683802
 31
0
 12
117.9202740565065
 22
350.6726668683802
 32
0
 13
117.9202740565065
 23
350.6726668683802
 33
0
  0
SOLID
  8
1
 62
2
 10
128.7202740565065
 20
351.0886668683802
 30
0
 11
125.5202740565065
 21
350.6726668683802
 31
0
 12
125.5202740565065
 22
351.5046668683802
 32
0
 13
125.5202740565065
 23
351.5046668683802
 33
0
  0
TEXT
  8
1
 62
2
 10
119.753458154468
 20
353.0886668683802
 30
0
 40
3.2
  1
14
 41
0.9
  0
ENDBLK
  8
0
  0
BLOCK
  8
1
  2
*D4
 70
1
 10
0
 20
0
 30
0
  0
LINE
  8
1
 62
2
 10
134.7202740565065
 20
315.0886668683802
 30
0
 11
134.7202740565065
 21
349.0886668683802
 31
0
  0
LINE
  8
1
 62
2
 10
144.2202740565065
 20
315.0886668683802
 30
0
 11
133.7202740565065
 21
315.0886668683802
 31
0
  0
LINE
  8
1
 62
2
 10
144.2202740565065
 20
349.0886668683802
 30
0
 11
133.7202740565065
 21
349.0886668683802
 31
0
  0
SOLID
  8
1
 62
2
 10
134.7202740565065
 20
349.0886668683802
 30
0
 11
135.1362740565065
 21
345.8886668683802
 31
0
 12
134.3042740565065
 22
345.8886668683802
 32
0
 13
134.3042740565065
 23
345.8886668683802
 33
0
  0
SOLID
  8
1
 62
2
 10
134.7202740565065
 20
315.0886668683802
 30
0
 11
134.3042740565065
 21
318.2886668683802
 31
0
 12
135.1362740565065
 22
318.2886668683802
 32
0
 13
135.1362740565065
 23
318.2886668683802
 33
0
  0
TEXT
  8
1
 62
2
 10
132.7202740565065
 20
321.0460754332322
 30
0
 40
3.2
  1
34
 50
90
 41
0.9
  0
TEXT
  8
1
 62
2
 10
132.7202740565065
 20
317.4016309887878
 30
0
 40
3.2
  1
φ
 50
90
 41
0.9
  0
ENDBLK
  8
0
  0
BLOCK
  8
1
  2
*D5
 70
1
 10
0
 20
0
 30
0
  0
LINE
  8
1
 62
2
 10
156.1202740565065
 20
366.8386668683802
 30
0
 11
149.7202740565065
 21
366.8386668683802
 31
0
  0
LINE
  8
1
 62
2
 10
144.7202740565065
 20
366.8386668683802
 30
0
 11
149.7202740565065
 21
366.8386668683802
 31
0
  0
LINE
  8
1
 62
2
 10
144.7202740565065
 20
366.8386668683802
 30
0
 11
138.2813274589134
 21
366.8386668683802
 31
0
  0
LINE
  8
1
 62
2
 10
144.7202740565065
 20
349.5886668683802
 30
0
 11
144.7202740565065
 21
367.8386668683802
 31
0
  0
LINE
  8
1
 62
2
 10
149.7202740565065
 20
357.8386668683802
 30
0
 11
149.7202740565065
 21
367.8386668683802
 31
0
  0
SOLID
  8
1
 62
2
 10
144.7202740565065
 20
366.8386668683802
 30
0
 11
141.5202740565065
 21
366.4226668683803
 31
0
 12
141.5202740565065
 22
367.2546668683802
 32
0
 13
141.5202740565065
 23
367.2546668683802
 33
0
  0
SOLID
  8
1
 62
2
 10
149.7202740565065
 20
366.8386668683802
 30
0
 11
152.9202740565065
 21
367.2546668683802
 31
0
 12
152.9202740565065
 22
366.4226668683803
 32
0
 13
152.9202740565065
 23
366.4226668683803
 33
0
  0
TEXT
  8
1
 62
2
 10
138.2813274589134
 20
368.8386668683802
 30
0
 40
3.2
  1
5
 41
0.9
  0
ENDBLK
  8
0
  0
BLOCK
  8
1
  2
*D6
 70
1
 10
0
 20
0
 30
0
  0
LINE
  8
1
 62
2
 10
-17.23157626086947
 20
317.0886668683802
 30
0
 11
-17.23157626086947
 21
332.0886668683802
 31
0
  0
LINE
  8
1
 62
2
 10
2.76842373913053
 20
317.0886668683802
 30
0
 11
-18.23157626086947
 21
317.0886668683802
 31
0
  0
LINE
  8
1
 62
2
 10
-17.23157626086947
 20
332.0886668683802
 30
0
 11
-18.23157626086947
 21
332.0886668683802
 31
0
  0
SOLID
  8
1
 62
2
 10
-17.23157626086947
 20
332.0886668683802
 30
0
 11
-16.81557626086947
 21
328.8886668683802
 31
0
 12
-17.64757626086947
 22
328.8886668683802
 32
0
 13
-17.64757626086947
 23
328.8886668683802
 33
0
  0
SOLID
  8
1
 62
2
 10
-17.23157626086947
 20
317.0886668683802
 30
0
 11
-17.64757626086947
 21
320.2886668683802
 31
0
 12
-16.81557626086947
 22
320.2886668683802
 32
0
 13
-16.81557626086947
 23
320.2886668683802
 33
0
  0
TEXT
  8
1
 62
2
 10
-18.28849299562401
 20
322.6686668683802
 30
0
 40
3.2
  1
15
 50
90
 41
0.9
  0
ENDBLK
  8
0
  0
BLOCK
  8
1
  2
*D7
 70
1
 10
0
 20
0
 30
0
  0
LINE
  8
1
 62
2
 10
68.5184237391305
 20
277.3386668683802
 30
0
 11
68.5184237391305
 21
356.8386668683802
 31
0
  0
LINE
  8
1
 62
2
 10
37.9984237391305
 20
277.3386668683802
 30
0
 11
69.5184237391305
 21
277.3386668683802
 31
0
  0
LINE
  8
1
 62
2
 10
37.9984237391305
 20
356.8386668683802
 30
0
 11
69.5184237391305
 21
356.8386668683802
 31
0
  0
SOLID
  8
1
 62
2
 10
68.5184237391305
 20
356.8386668683802
 30
0
 11
68.93442373913049
 21
353.6386668683802
 31
0
 12
68.1024237391305
 22
353.6386668683802
 32
0
 13
68.1024237391305
 23
353.6386668683802
 33
0
  0
SOLID
  8
1
 62
2
 10
68.5184237391305
 20
277.3386668683802
 30
0
 11
68.1024237391305
 21
280.5386668683802
 31
0
 12
68.93442373913049
 22
280.5386668683802
 32
0
 13
68.93442373913049
 23
280.5386668683802
 33
0
  0
TEXT
  8
1
 62
2
 10
66.5184237391305
 20
314.7632223421808
 30
0
 40
3.2
  1
80
 50
90
 41
0.9
  0
ENDBLK
  8
0
  0
BLOCK
  8
1
  2
*D8
 70
1
 10
0
 20
0
 30
0
  0
LINE
  8
1
 62
2
 10
58.51842373913051
 20
283.8586668683802
 30
0
 11
58.51842373913051
 21
350.3186668683802
 31
0
  0
LINE
  8
1
 62
2
 10
45.9984237391305
 20
283.8586668683802
 30
0
 11
59.51842373913051
 21
283.8586668683802
 31
0
  0
LINE
  8
1
 62
2
 10
45.9984237391305
 20
350.3186668683802
 30
0
 11
59.51842373913051
 21
350.3186668683802
 31
0
  0
SOLID
  8
1
 62
2
 10
58.51842373913051
 20
350.3186668683802
 30
0
 11
58.9344237391305
 21
347.1186668683802
 31
0
 12
58.1024237391305
 22
347.1186668683802
 32
0
 13
58.1024237391305
 23
347.1186668683802
 33
0
  0
SOLID
  8
1
 62
2
 10
58.51842373913051
 20
283.8586668683802
 30
0
 11
58.1024237391305
 21
287.0586668683802
 31
0
 12
58.9344237391305
 22
287.0586668683802
 32
0
 13
58.9344237391305
 23
287.0586668683802
 33
0
  0
TEXT
  8
1
 62
2
 10
56.51842373913051
 20
306.6693459508572
 30
0
 40
3.2
  1
66.5
 50
90
 41
0.9
  0
TEXT
  8
1
 62
2
 10
56.51842373913051
 20
317.1493459508573
 30
0
 40
3.2
  1
±0.3
 50
90
 41
0.9
  0
ENDBLK
  8
0
  0
BLOCK
  8
1
  2
*D9
 70
1
 10
0
 20
0
 30
0
  0
LINE
  8
1
 62
2
 10
-35.98157626086945
 20
376.8386668683802
 30
0
 11
43.51842373913051
 21
376.8386668683802
 31
0
  0
LINE
  8
1
 62
2
 10
-35.98157626086945
 20
351.3186668683802
 30
0
 11
-35.98157626086945
 21
377.8386668683802
 31
0
  0
LINE
  8
1
 62
2
 10
43.51842373913051
 20
351.3186668683802
 30
0
 11
43.51842373913051
 21
377.8386668683802
 31
0
  0
SOLID
  8
1
 62
2
 10
-35.98157626086945
 20
376.8386668683802
 30
0
 11
-32.78157626086945
 21
377.2546668683802
 31
0
 12
-32.78157626086945
 22
376.4226668683803
 32
0
 13
-32.78157626086945
 23
376.4226668683803
 33
0
  0
SOLID
  8
1
 62
2
 10
43.51842373913051
 20
376.8386668683802
 30
0
 11
40.3184237391305
 21
376.4226668683803
 31
0
 12
40.3184237391305
 22
377.2546668683802
 32
0
 13
40.3184237391305
 23
377.2546668683802
 33
0
  0
TEXT
  8
1
 62
2
 10
1.258316767456402
 20
378.8386668683802
 30
0
 40
3.2
  1
80
 41
0.9
  0
ENDBLK
  8
0
  0
BLOCK
  8
1
  2
*D10
 70
1
 10
0
 20
0
 30
0
  0
LINE
  8
1
 62
2
 10
-29.46157626086947
 20
366.8386668683802
 30
0
 11
36.99842373913053
 21
366.8386668683802
 31
0
  0
LINE
  8
1
 62
2
 10
-29.46157626086947
 20
359.3186668683802
 30
0
 11
-29.46157626086947
 21
367.8386668683802
 31
0
  0
LINE
  8
1
 62
2
 10
36.99842373913053
 20
359.3186668683802
 30
0
 11
36.99842373913053
 21
367.8386668683802
 31
0
  0
SOLID
  8
1
 62
2
 10
-29.46157626086947
 20
366.8386668683802
 30
0
 11
-26.26157626086947
 21
367.2546668683802
 31
0
 12
-26.26157626086947
 22
366.4226668683802
 32
0
 13
-26.26157626086947
 23
366.4226668683802
 33
0
  0
SOLID
  8
1
 62
2
 10
36.99842373913053
 20
366.8386668683802
 30
0
 11
33.79842373913053
 21
366.4226668683802
 31
0
 12
33.79842373913053
 22
367.2546668683802
 32
0
 13
33.79842373913053
 23
367.2546668683802
 33
0
  0
TEXT
  8
1
 62
2
 10
-6.883654702330375
 20
368.8386668683802
 30
0
 40
3.2
  1
66.5
 41
0.9
  0
TEXT
  8
1
 62
2
 10
3.596345297669623
 20
368.8386668683802
 30
0
 40
3.2
  1
±0.3
 41
0.9
  0
ENDBLK
  8
0
  0
BLOCK
  8
1
  2
*D11
 70
1
 10
0
 20
0
 30
0
  0
LINE
  8
1
 62
2
 10
149.7202740565065
 20
376.8386668683802
 30
0
 11
189.7202740565065
 21
376.8386668683802
 31
0
  0
LINE
  8
1
 62
2
 10
149.7202740565065
 20
357.8386668683802
 30
0
 11
149.7202740565065
 21
378.3386668683802
 31
0
  0
LINE
  8
1
 62
2
 10
189.7202740565065
 20
354.5886668683802
 30
0
 11
189.7202740565065
 21
378.3386668683802
 31
0
  0
SOLID
  8
1
 62
2
 10
149.7202740565065
 20
376.8386668683802
 30
0
 11
152.9202740565065
 21
377.2546668683802
 31
0
 12
152.9202740565065
 22
376.4226668683802
 32
0
 13
152.9202740565065
 23
376.4226668683802
 33
0
  0
SOLID
  8
1
 62
2
 10
189.7202740565065
 20
376.8386668683802
 30
0
 11
186.5202740565065
 21
376.4226668683802
 31
0
 12
186.5202740565065
 22
377.2546668683802
 32
0
 13
186.5202740565065
 23
377.2546668683802
 33
0
  0
TEXT
  8
1
 62
2
 10
167.250368768053
 20
378.8386668683802
 30
0
 40
3.2
  1
40
 41
0.9
  0
ENDBLK
  8
0
  0
BLOCK
  8
1
  2
*D12
 70
1
 10
0
 20
0
 30
0
  0
LINE
  8
1
 62
2
 10
48.44555772712377
 20
331.6632851693478
 30
0
 11
-40.90871024886272
 21
302.5140485674126
 31
0
  0
SOLID
  8
1
 62
2
 10
-40.90871024886272
 20
302.5140485674126
 30
0
 11
-37.99551143617602
 21
303.901970999597
 31
0
 12
-37.73747848062568
 22
303.1109950240769
 32
0
 13
-37.73747848062568
 23
303.1109950240769
 33
0
  0
SOLID
  8
1
 62
2
 10
48.44555772712377
 20
331.6632851693478
 30
0
 11
45.53235891443707
 21
330.2753627371633
 31
0
 12
45.27432595888673
 22
331.0663387126834
 32
0
 13
45.27432595888673
 23
331.0663387126834
 33
0
  0
TEXT
  8
1
 62
2
 10
-26.51801331125938
 20
309.3123259230598
 30
0
 40
3.2
  1
94
 50
18.06741244040918
 41
0.9
  0
TEXT
  8
1
 62
2
 10
-31.35175538388214
 20
307.7354578613632
 30
0
 40
3.2
  1
(φ
 50
18.06741244040918
 41
0.9
  0
TEXT
  8
1
 62
2
 10
-20.43358273033564
 20
311.2971948119085
 30
0
 40
3.2
  1
)
 50
18.06741244040918
 41
0.9
  0
ENDBLK
  8
0
  0
BLOCK
  8
1
  2
*D13
 70
1
 10
0
 20
0
 30
0
  0
LINE
  8
1
 62
2
 10
38.68830834279066
 20
352.4881806448547
 30
0
 11
51.35619682775862
 21
368.751515151515
 31
0
  0
LINE
  8
1
 62
2
 10
51.35619682775862
 20
368.751515151515
 30
0
 11
76.35384388658216
 21
368.751515151515
 31
0
  0
SOLID
  8
1
 62
2
 10
38.68830834279066
 20
352.4881806448547
 30
0
 11
40.32653125213577
 21
355.2683392193422
 31
0
 12
40.98290778378186
 22
354.7570723137985
 32
0
 13
40.98290778378186
 23
354.7570723137985
 33
0
  0
TEXT
  8
1
 62
2
 10
65.83619682775864
 20
370.751515151515
 30
0
 40
3.2
  1
5.5
 41
0.9
  0
TEXT
  8
1
 62
2
 10
56.55619682775863
 20
370.751515151515
 30
0
 40
3.2
  1
4-%%c
 41
0.9
  0
TEXT
  8
1
 62
2
 10
73.43619682775864
 20
370.751515151515
 30
0
 40
3.2
  1
穴
 41
0.9
  0
ENDBLK
  8
0
  0
ENDSEC
  0
SECTION
  2
ENTITIES
  0
LINE
  8
1
 62
3
 10
27.26842373913053
 20
357.8386668683802
 30
0
 11
-19.73157626086947
 21
357.8386668683802
 31
0
  0
LINE
  8
1
 62
1
 10
-23.73157626086947
 20
340.0886668683802
 30
0
 11
-23.73157626086947
 21
326.0886668683802
 31
0
  0
LINE
  8
1
 62
1
 10
-16.73157626086947
 20
333.0886668683802
 30
0
 11
-30.73157626086948
 21
333.0886668683802
 31
0
  0
LINE
  8
1
 62
1
 10
38.2684237391305
 20
333.0886668683802
 30
0
 11
24.26842373913053
 21
333.0886668683802
 31
0
  0
LINE
  8
1
 62
1
 10
31.26842373913053
 20
340.0886668683802
 30
0
 11
31.26842373913053
 21
326.0886668683802
 31
0
  0
LINE
  8
1
 62
1
 10
10.76842373913053
 20
285.0886668683802
 30
0
 11
-3.231576260869467
 21
285.0886668683802
 31
0
  0
LINE
  8
1
 62
3
 10
1.122672428065943
 20
335.0886668683802
 30
0
 11
6.414175050195119
 21
335.0886668683802
 31
0
  0
LINE
  8
1
 62
1
 10
154.7202740565065
 20
332.0886668683802
 30
0
 11
109.7202740565065
 21
332.0886668683802
 31
0
  0
LINE
  8
1
 62
3
 10
114.7202740565065
 20
332.0886668683802
 30
0
 11
114.7202740565065
 21
335.0886668683802
 31
0
  0
LINE
  8
1
 62
3
 10
114.7202740565065
 20
335.0886668683802
 30
0
 11
128.7202740565065
 21
335.0886668683802
 31
0
  0
LINE
  8
1
 62
3
 10
131.7202740565065
 20
336.0886668683802
 30
0
 11
144.7202740565065
 21
336.0886668683802
 31
0
  0
LINE
  8
1
 62
3
 10
144.7202740565065
 20
328.0886668683802
 30
0
 11
114.7202740565065
 21
328.0886668683802
 31
0
  0
LINE
  8
1
 62
3
 10
114.7202740565065
 20
328.0886668683802
 30
0
 11
114.7202740565065
 21
332.0886668683802
 31
0
  0
LINE
  8
1
 62
1
 10
147.7202740565065
 20
350.3186668683802
 30
0
 11
154.7202740565065
 21
350.3186668683802
 31
0
  0
LINE
  8
1
 62
1
 10
147.7202740565065
 20
283.8586668683802
 30
0
 11
154.7202740565065
 21
283.8586668683802
 31
0
  0
LINE
  8
1
 62
3
 10
188.7202740565065
 20
356.0886668683802
 30
0
 11
188.7202740565065
 21
278.0886668683802
 31
0
  0
LINE
  8
1
 62
3
 10
150.2202740565065
 20
343.7986668683802
 30
0
 11
150.2202740565065
 21
314.5886668683802
 31
0
  0
LINE
  8
1
 62
3
 10
149.7202740565065
 20
349.0886668683802
 30
0
 11
149.7202740565065
 21
343.7986668683802
 31
0
  0
LINE
  8
2
 62
3
 10
150.2202740565065
 20
343.7986668683802
 30
0
 11
149.7202740565065
 21
343.7986668683802
 31
0
  0
LINE
  8
2
 62
3
 10
149.7202740565065
 20
349.0886668683802
 30
0
 11
145.2202740565065
 21
349.0886668683802
 31
0
  0
LINE
  8
2
 62
3
 10
144.7202740565065
 20
322.3386668683802
 30
0
 11
144.7202740565065
 21
332.0886668683802
 31
0
  0
LINE
  8
2
 62
3
 10
144.7202740565065
 20
332.0886668683802
 30
0
 11
144.7202740565065
 21
341.8386668683802
 31
0
  0
LINE
  8
2
 62
3
 10
144.7202740565065
 20
341.8386668683802
 30
0
 11
144.7202740565065
 21
348.5886668683802
 31
0
  0
LINE
  8
2
 62
1
 10
3.768423739130533
 20
317.0886668683802
 30
0
 11
-40.98157626086947
 21
317.0886668683802
 31
0
  0
LINE
  8
2
 62
3
 10
189.7202740565065
 20
280.5886668683802
 30
0
 11
189.7202740565065
 21
317.0886668683802
 31
0
  0
LINE
  8
2
 62
3
 10
189.7202740565065
 20
353.5886668683802
 30
0
 11
189.7202740565065
 21
356.0886668683802
 31
0
  0
LINE
  8
2
 62
3
 10
144.7202740565065
 20
315.5886668683802
 30
0
 11
144.7202740565065
 21
322.3386668683802
 31
0
  0
LINE
  8
2
 62
3
 10
189.7202740565065
 20
278.0886668683802
 30
0
 11
189.7202740565065
 21
280.5886668683802
 31
0
  0
LINE
  8
2
 62
3
 10
188.7202740565065
 20
278.0886668683802
 30
0
 11
189.7202740565065
 21
278.0886668683802
 31
0
  0
LINE
  8
2
 62
3
 10
188.7202740565064
 20
276.9886668683802
 30
0
 11
188.7202740565065
 21
278.0886668683802
 31
0
  0
LINE
  8
2
 62
3
 10
152.2020929895929
 20
277.3206503326248
 30
0
 11
188.7202740565064
 21
276.9886668683802
 31
0
  0
LINE
  8
2
 62
3
 10
150.2202740565065
 20
314.5886668683802
 30
0
 11
150.2202740565065
 21
286.8586668683802
 31
0
  0
LINE
  8
2
 62
3
 10
145.2202740565065
 20
315.0886668683802
 30
0
 11
150.2202740565065
 21
315.0886668683802
 31
0
  0
LINE
  8
2
 62
3
 10
188.7202740565065
 20
357.1886668683802
 30
0
 11
152.2020929895929
 21
356.8566834041355
 31
0
  0
LINE
  8
2
 62
3
 10
188.7202740565065
 20
356.0886668683802
 30
0
 11
188.7202740565065
 21
357.1886668683802
 31
0
  0
LINE
  8
2
 62
3
 10
189.7202740565065
 20
356.0886668683802
 30
0
 11
188.7202740565065
 21
356.0886668683802
 31
0
  0
LINE
  8
2
 62
3
 10
189.7202740565065
 20
317.0886668683802
 30
0
 11
189.7202740565065
 21
353.5886668683802
 31
0
  0
LINE
  8
2
 62
1
 10
194.7202740565065
 20
317.0886668683802
 30
0
 11
139.7202740565065
 21
317.0886668683802
 31
0
  0
LINE
  8
2
 62
1
 10
-16.23157626086947
 20
332.0886668683802
 30
0
 11
23.76842373913053
 21
332.0886668683802
 31
0
  0
LINE
  8
2
 62
1
 10
-29.46157626086946
 20
342.3186668683802
 30
0
 11
-29.46157626086946
 21
358.3186668683802
 31
0
  0
LINE
  8
2
 62
1
 10
-29.46157626086944
 20
275.8586668683802
 30
0
 11
-29.46157626086946
 21
291.8586668683802
 31
0
  0
LINE
  8
2
 62
1
 10
36.99842373913053
 20
275.8586668683802
 30
0
 11
36.99842373913053
 21
291.8586668683802
 31
0
  0
LINE
  8
2
 62
1
 10
36.99842373913053
 20
358.3186668683802
 30
0
 11
36.99842373913053
 21
342.3186668683802
 31
0
  0
LINE
  8
2
 62
1
 10
28.99842373913053
 20
283.8586668683802
 30
0
 11
44.9984237391305
 21
283.8586668683802
 31
0
  0
LINE
  8
2
 62
1
 10
-37.46157626086947
 20
283.8586668683802
 30
0
 11
-21.46157626086946
 21
283.8586668683802
 31
0
  0
LINE
  8
2
 62
1
 10
-21.46157626086946
 20
350.3186668683802
 30
0
 11
-37.46157626086947
 21
350.3186668683802
 31
0
  0
LINE
  8
2
 62
1
 10
44.9984237391305
 20
350.3186668683802
 30
0
 11
28.99842373913053
 21
350.3186668683802
 31
0
  0
LINE
  8
2
 62
3
 10
43.5184237391305
 20
283.8586668683802
 30
0
 11
43.5184237391305
 21
350.3186668683802
 31
0
  0
LINE
  8
2
 62
3
 10
-29.46157626086944
 20
277.3386668683802
 30
0
 11
36.99842373913053
 21
277.3386668683802
 31
0
  0
LINE
  8
2
 62
3
 10
-35.98157626086946
 20
350.3186668683802
 30
0
 11
-35.98157626086946
 21
283.8586668683802
 31
0
  0
LINE
  8
2
 62
3
 10
36.99842373913053
 20
356.8386668683802
 30
0
 11
-29.46157626086944
 21
356.8386668683802
 31
0
  0
LINE
  8
2
 62
1
 10
3.768423739130533
 20
361.8386668683802
 30
0
 11
3.768423739130533
 21
272.3386668683802
 31
0
  0
LINE
  8
2
 62
1
 10
48.5184237391305
 20
317.0886668683802
 30
0
 11
3.768423739130533
 21
317.0886668683802
 31
0
  0
LINE
  8
2
 62
3
 10
152.2020929895929
 20
277.3206503326248
 30
0
 11
149.7202740565065
 21
277.3386668683802
 31
0
  0
LINE
  8
2
 62
3
 10
149.7202740565065
 20
277.3386668683802
 30
0
 11
149.7202740565065
 21
290.3786668683803
 31
0
  0
LINE
  8
2
 62
3
 10
149.7202740565065
 20
290.3786668683803
 30
0
 11
150.2202740565065
 21
290.3786668683803
 31
0
  0
LINE
  8
2
 62
3
 10
152.2020929895929
 20
356.8566834041355
 30
0
 11
149.7202740565065
 21
356.8386668683802
 31
0
  0
LINE
  8
2
 62
3
 10
149.7202740565065
 20
356.8386668683802
 30
0
 11
149.7202740565065
 21
349.0886668683802
 31
0
  0
LINE
  8
1
 62
3
 10
150.2202740565065
 20
346.7986668683802
 30
0
 11
150.2202740565065
 21
343.7969543818416
 31
0
  0
LINE
  8
1
 62
3
 10
32.79313779584575
 20
332.1557127991705
 30
0
 11
32.0137565251763
 21
332.93509406984
 31
0
  0
LINE
  8
1
 62
3
 10
32.79313779584575
 20
334.02162093759
 30
0
 11
32.0137565251763
 21
333.2422396669205
 31
0
  0
LINE
  8
1
 62
3
 10
30.33546966992079
 20
331.563952811665
 30
0
 11
31.11485094059024
 21
332.3433340823345
 31
0
  0
LINE
  8
1
 62
3
 10
32.20137780834026
 20
331.563952811665
 30
0
 11
31.42199653767081
 21
332.3433340823345
 31
0
  0
LINE
  8
1
 62
3
 10
29.74370968241531
 20
334.02162093759
 30
0
 11
30.52309095308475
 21
333.2422396669206
 31
0
  0
LINE
  8
1
 62
3
 10
29.74370968241531
 20
332.1557127991705
 30
0
 11
30.52309095308475
 21
332.93509406984
 31
0
  0
LINE
  8
1
 62
3
 10
32.20137780834026
 20
334.6133809250955
 30
0
 11
31.42199653767081
 21
333.833999654426
 31
0
  0
LINE
  8
1
 62
3
 10
30.33546966992079
 20
334.6133809250955
 30
0
 11
31.11485094059024
 21
333.833999654426
 31
0
  0
LINE
  8
1
 62
3
 10
5.293137795845759
 20
284.1557127991705
 30
0
 11
4.513756525176305
 21
284.93509406984
 31
0
  0
LINE
  8
1
 62
3
 10
5.293137795845759
 20
286.02162093759
 30
0
 11
4.513756525176305
 21
285.2422396669205
 31
0
  0
LINE
  8
1
 62
3
 10
2.835469669920798
 20
283.563952811665
 30
0
 11
3.614850940590244
 21
284.3433340823345
 31
0
  0
LINE
  8
1
 62
3
 10
4.701377808340268
 20
283.563952811665
 30
0
 11
3.921996537670815
 21
284.3433340823345
 31
0
  0
LINE
  8
1
 62
3
 10
2.243709682415314
 20
286.02162093759
 30
0
 11
3.023090953084754
 21
285.2422396669206
 31
0
  0
LINE
  8
1
 62
3
 10
2.243709682415314
 20
284.1557127991705
 30
0
 11
3.023090953084754
 21
284.93509406984
 31
0
  0
LINE
  8
1
 62
3
 10
4.701377808340268
 20
286.6133809250955
 30
0
 11
3.921996537670815
 21
285.833999654426
 31
0
  0
LINE
  8
1
 62
3
 10
2.835469669920798
 20
286.6133809250955
 30
0
 11
3.614850940590244
 21
285.833999654426
 31
0
  0
LINE
  8
1
 62
3
 10
-22.20686220415424
 20
332.1557127991705
 30
0
 11
-22.9862434748237
 21
332.93509406984
 31
0
  0
LINE
  8
1
 62
3
 10
-22.20686220415424
 20
334.02162093759
 30
0
 11
-22.9862434748237
 21
333.2422396669205
 31
0
  0
LINE
  8
1
 62
3
 10
-24.66453033007921
 20
331.563952811665
 30
0
 11
-23.88514905940976
 21
332.3433340823345
 31
0
  0
LINE
  8
1
 62
3
 10
-22.79862219165974
 20
331.563952811665
 30
0
 11
-23.57800346232919
 21
332.3433340823345
 31
0
  0
LINE
  8
1
 62
3
 10
-25.25629031758469
 20
334.02162093759
 30
0
 11
-24.47690904691525
 21
333.2422396669206
 31
0
  0
LINE
  8
1
 62
3
 10
-25.25629031758469
 20
332.1557127991705
 30
0
 11
-24.47690904691525
 21
332.93509406984
 31
0
  0
LINE
  8
1
 62
3
 10
-22.79862219165974
 20
334.6133809250955
 30
0
 11
-23.57800346232919
 21
333.833999654426
 31
0
  0
LINE
  8
1
 62
3
 10
-24.66453033007921
 20
334.6133809250955
 30
0
 11
-23.88514905940976
 21
333.833999654426
 31
0
  0
LINE
  8
1
 62
1
 10
-16.23157626086947
 20
332.0886668683802
 30
0
 11
-17.23157626086946
 21
332.0886668683802
 31
0
  0
LINE
  8
1
 62
2
 10
2.469304740893911
 20
255.708224798806
 30
0
 11
204.227183542658
 21
255.708224798806
 31
0
  0
LINE
  8
1
 62
2
 10
2.469304740893911
 20
248.708224798806
 30
0
 11
204.227183542658
 21
248.708224798806
 31
0
  0
LINE
  8
1
 62
2
 10
2.469304740893911
 20
241.708224798806
 30
0
 11
204.227183542658
 21
241.708224798806
 31
0
  0
LINE
  8
1
 62
2
 10
2.469304740893911
 20
234.708224798806
 30
0
 11
204.227183542658
 21
234.708224798806
 31
0
  0
LINE
  8
1
 62
2
 10
2.469304740893911
 20
227.708224798806
 30
0
 11
204.227183542658
 21
227.708224798806
 31
0
  0
LINE
  8
1
 62
2
 10
2.469304740893911
 20
220.708224798806
 30
0
 11
204.227183542658
 21
220.708224798806
 31
0
  0
LINE
  8
1
 62
2
 10
204.227183542658
 20
255.708224798806
 30
0
 11
204.227183542658
 21
213.708224798806
 31
0
  0
LINE
  8
1
 62
2
 10
2.469304740893911
 20
255.708224798806
 30
0
 11
2.469304740893911
 21
213.708224798806
 31
0
  0
LINE
  8
1
 62
2
 10
147.348244141776
 20
248.708224798806
 30
0
 11
147.348244141776
 21
213.708224798806
 31
0
  0
LINE
  8
1
 62
2
 10
121.375132662228
 20
248.708224798806
 30
0
 11
121.375132662228
 21
213.708224798806
 31
0
  0
LINE
  8
1
 62
2
 10
32.46930474089391
 20
248.708224798806
 30
0
 11
32.46930474089391
 21
213.708224798806
 31
0
  0
LINE
  8
1
 62
2
 10
12.46930474089391
 20
248.708224798806
 30
0
 11
12.46930474089391
 21
213.708224798806
 31
0
  0
LINE
  8
1
 62
2
 10
2.469304740893911
 20
213.708224798806
 30
0
 11
204.227183542658
 21
213.708224798806
 31
0
  0
LINE
  8
1
 62
2
 10
128.7202740565065
 20
335.0886668683802
 30
0
 11
128.7202740565065
 21
336.0886668683802
 31
0
  0
ARC
  8
1
 62
3
 10
128.7202740565065
 20
340.0886668683802
 30
0
 40
5
 50
270
 51
306.8698976458441
  0
ARC
  8
1
 62
2
 10
3.768423739130533
 20
317.0886668683802
 30
0
 40
46.99431667765798
 50
191.9827451557963
 51
236.1847617958204
  0
ARC
  8
1
 62
2
 10
3.768423739130533
 20
317.0886668683802
 30
0
 40
46.99431667765798
 50
11.98274515579617
 51
56.18476179582044
  0
ARC
  8
1
 62
3
 10
31.26842373913053
 20
333.0886668683802
 30
0
 40
0.7434374999999782
 50
350.8377712759748
 51
9.162228724038155
  0
ARC
  8
1
 62
3
 10
31.26842373913053
 20
333.0886668683802
 30
0
 40
1.787499999999975
 50
301.4619589546532
 51
328.5380410453481
  0
ARC
  8
1
 62
3
 10
31.26842373913053
 20
333.0886668683802
 30
0
 40
0.7434374999999333
 50
260.837771275967
 51
279.1622287240322
  0
ARC
  8
1
 62
3
 10
31.26842373913053
 20
333.0886668683802
 30
0
 40
1.787499999999977
 50
211.461958954652
 51
238.5380410453466
  0
ARC
  8
1
 62
3
 10
31.26842373913053
 20
333.0886668683802
 30
0
 40
0.743437500000016
 50
170.837771275962
 51
189.1622287240251
  0
ARC
  8
1
 62
3
 10
31.26842373913053
 20
333.0886668683802
 30
0
 40
1.787500000000076
 50
121.4619589546515
 51
148.5380410453449
  0
ARC
  8
1
 62
3
 10
31.26842373913053
 20
333.0886668683802
 30
0
 40
0.7434375000000999
 50
80.83777127596996
 51
99.16222872403004
  0
ARC
  8
1
 62
3
 10
31.26842373913053
 20
333.0886668683802
 30
0
 40
1.787500000000039
 50
31.46195895465502
 51
58.53804104534871
  0
ARC
  8
1
 62
3
 10
3.768423739130533
 20
285.0886668683802
 30
0
 40
0.7434374999999888
 50
350.8377712759749
 51
9.162228724038023
  0
ARC
  8
1
 62
3
 10
3.768423739130533
 20
285.0886668683802
 30
0
 40
1.787499999999977
 50
301.4619589546533
 51
328.5380410453481
  0
ARC
  8
1
 62
3
 10
3.768423739130533
 20
285.0886668683802
 30
0
 40
0.7434374999999333
 50
260.8377712759671
 51
279.1622287240323
  0
ARC
  8
1
 62
3
 10
3.768423739130533
 20
285.0886668683802
 30
0
 40
1.787499999999977
 50
211.461958954652
 51
238.5380410453467
  0
ARC
  8
1
 62
3
 10
3.768423739130533
 20
285.0886668683802
 30
0
 40
0.7434375000000155
 50
170.837771275962
 51
189.1622287240251
  0
ARC
  8
1
 62
3
 10
3.768423739130533
 20
285.0886668683802
 30
0
 40
1.787500000000074
 50
121.4619589546514
 51
148.5380410453449
  0
ARC
  8
1
 62
3
 10
3.768423739130533
 20
285.0886668683802
 30
0
 40
0.7434375000001005
 50
80.83777127596972
 51
99.16222872402977
  0
ARC
  8
1
 62
3
 10
3.768423739130533
 20
285.0886668683802
 30
0
 40
1.787500000000042
 50
31.46195895465497
 51
58.53804104534861
  0
ARC
  8
1
 62
3
 10
-23.73157626086947
 20
333.0886668683802
 30
0
 40
0.7434374999999923
 50
350.8377712759749
 51
9.162228724037981
  0
ARC
  8
1
 62
3
 10
-23.73157626086947
 20
333.0886668683802
 30
0
 40
1.787499999999975
 50
301.4619589546532
 51
328.5380410453482
  0
ARC
  8
1
 62
3
 10
-23.73157626086947
 20
333.0886668683802
 30
0
 40
0.7434374999999333
 50
260.837771275967
 51
279.1622287240322
  0
ARC
  8
1
 62
3
 10
-23.73157626086947
 20
333.0886668683802
 30
0
 40
1.787499999999977
 50
211.461958954652
 51
238.5380410453466
  0
ARC
  8
1
 62
3
 10
-23.73157626086947
 20
333.0886668683802
 30
0
 40
0.743437500000016
 50
170.837771275962
 51
189.1622287240251
  0
ARC
  8
1
 62
3
 10
-23.73157626086947
 20
333.0886668683802
 30
0
 40
1.787500000000076
 50
121.4619589546515
 51
148.5380410453449
  0
ARC
  8
1
 62
3
 10
-23.73157626086947
 20
333.0886668683802
 30
0
 40
0.7434375000000999
 50
80.83777127596996
 51
99.16222872403004
  0
ARC
  8
1
 62
3
 10
-23.73157626086947
 20
333.0886668683802
 30
0
 40
1.787500000000045
 50
31.4619589546549
 51
58.53804104534871
  0
CIRCLE
  8
1
 62
3
 10
-23.73157626086947
 20
333.0886668683802
 30
0
 40
4
  0
CIRCLE
  8
1
 62
3
 10
3.768423739130533
 20
285.0886668683802
 30
0
 40
4
  0
CIRCLE
  8
1
 62
3
 10
31.26842373913053
 20
333.0886668683802
 30
0
 40
4.000000000000004
  0
CIRCLE
  8
1
 62
3
 10
3.768423739130533
 20
332.0886668683802
 30
0
 40
4
  0
CIRCLE
  8
1
 62
3
 10
-29.46157626086946
 20
350.3186668683802
 30
0
 40
2.750000000000021
  0
CIRCLE
  8
1
 62
3
 10
-29.46157626086946
 20
283.8586668683802
 30
0
 40
2.750000000000032
  0
CIRCLE
  8
1
 62
3
 10
36.99842373913053
 20
283.8586668683802
 30
0
 40
2.750000000000071
  0
CIRCLE
  8
1
 62
3
 10
36.99842373913053
 20
350.3186668683802
 30
0
 40
2.749999999999972
  0
CIRCLE
  8
1
 62
4
  6
DIVIDE
 10
3.768423739130533
 20
317.0886668683802
 30
0
 40
46.99431667765796
  0
CIRCLE
  8
2
 62
3
 10
3.768423739130533
 20
332.0886668683802
 30
0
 40
9.999999999999996
  0
CIRCLE
  8
2
 62
3
 10
3.768423739130533
 20
332.0886668683802
 30
0
 40
17
  0
CIRCLE
  8
2
 62
3
 10
-29.46157626086946
 20
283.8586668683802
 30
0
 40
6.52
  0
CIRCLE
  8
2
 62
3
 10
36.99842373913053
 20
283.8586668683802
 30
0
 40
6.519999999999968
  0
CIRCLE
  8
2
 62
3
 10
-29.46157626086946
 20
350.3186668683802
 30
0
 40
6.52
  0
CIRCLE
  8
2
 62
3
 10
36.99842373913053
 20
350.3186668683802
 30
0
 40
6.519999999999968
  0
CIRCLE
  8
1
 62
3
 10
31.26842373913053
 20
333.0886668683802
 30
0
 40
3.250000000000004
  0
CIRCLE
  8
1
 62
3
 10
3.768423739130533
 20
285.0886668683802
 30
0
 40
3.25
  0
CIRCLE
  8
1
 62
3
 10
-23.73157626086947
 20
333.0886668683802
 30
0
 40
3.25
  0
ARC
  8
2
 62
3
 10
145.2202740565065
 20
315.5886668683802
 30
0
 40
0.5
 50
180
 51
270
  0
ARC
  8
2
 62
3
 10
145.2202740565065
 20
348.5886668683802
 30
0
 40
0.5
 50
90
 51
180
  0
ARC
  8
1
 62
3
 10
32.04248273816201
 20
332.9638202828257
 30
0
 40
0.04062500000001086
 50
170.8377712759527
 51
224.999999999993
  0
ARC
  8
1
 62
3
 10
32.04248273816201
 20
333.2135134539349
 30
0
 40
0.04062499999992346
 50
135.0000000001205
 51
189.1622287241264
  0
ARC
  8
1
 62
3
 10
31.14357715357595
 20
332.3146078693488
 30
0
 40
0.04062500000000045
 50
80.8377712759808
 51
135.0000000000071
  0
ARC
  8
1
 62
3
 10
31.39327032468511
 20
332.3146078693488
 30
0
 40
0.04062499999999882
 50
45
 51
99.16222872403404
  0
ARC
  8
1
 62
3
 10
30.49436474009905
 20
333.2135134539349
 30
0
 40
0.04062500000000939
 50
350.8377712758712
 51
45.00000000000355
  0
ARC
  8
1
 62
3
 10
30.49436474009905
 20
332.9638202828257
 30
0
 40
0.04062499999999631
 50
314.9999999999964
 51
9.162228724049681
  0
ARC
  8
1
 62
3
 10
31.3932703246851
 20
333.8627258674118
 30
0
 40
0.04062500000005714
 50
260.8377712759886
 51
314.9999999998937
  0
ARC
  8
1
 62
3
 10
31.14357715357595
 20
333.8627258674118
 30
0
 40
0.04062500000008423
 50
225.0000000001063
 51
279.1622287240213
  0
ARC
  8
1
 62
3
 10
4.542482738162015
 20
284.9638202828257
 30
0
 40
0.04062500000000384
 50
170.8377712759511
 51
224.999999999993
  0
ARC
  8
1
 62
3
 10
4.542482738162015
 20
285.2135134539349
 30
0
 40
0.04062499999992346
 50
135.0000000001205
 51
189.162228724128
  0
ARC
  8
1
 62
3
 10
3.643577153575954
 20
284.3146078693488
 30
0
 40
0.04062500000000059
 50
80.83777127597958
 51
135.0000000000071
  0
ARC
  8
1
 62
3
 10
3.893270324685119
 20
284.3146078693488
 30
0
 40
0.04062499999999411
 50
45.00000000000664
 51
99.16222872403961
  0
ARC
  8
1
 62
3
 10
2.994364740099059
 20
285.2135134539349
 30
0
 40
0.04062500000000588
 50
350.8377712758704
 51
45.00000000000753
  0
ARC
  8
1
 62
3
 10
2.994364740099059
 20
284.9638202828257
 30
0
 40
0.04062499999999349
 50
314.9999999999924
 51
9.162228724050479
  0
ARC
  8
1
 62
3
 10
3.893270324685105
 20
285.8627258674118
 30
0
 40
0.04062500000005664
 50
260.8377712759929
 51
314.9999999998942
  0
ARC
  8
1
 62
3
 10
3.643577153575954
 20
285.8627258674118
 30
0
 40
0.04062500000008423
 50
225.0000000001063
 51
279.1622287240268
  0
ARC
  8
1
 62
3
 10
-22.95751726183799
 20
332.9638202828257
 30
0
 40
0.04062500000000034
 50
170.8377712759503
 51
224.999999999993
  0
ARC
  8
1
 62
3
 10
-22.95751726183799
 20
333.2135134539349
 30
0
 40
0.04062499999992346
 50
135.0000000001205
 51
189.1622287241288
  0
ARC
  8
1
 62
3
 10
-23.85642284642405
 20
332.3146078693488
 30
0
 40
0.04062500000000045
 50
80.8377712759808
 51
135.0000000000071
  0
ARC
  8
1
 62
3
 10
-23.60672967531488
 20
332.3146078693488
 30
0
 40
0.04062499999999129
 50
45.00000000001063
 51
99.16222872404887
  0
ARC
  8
1
 62
3
 10
-24.50563525990095
 20
333.2135134539349
 30
0
 40
0.04062500000000939
 50
350.8377712758712
 51
45.00000000000355
  0
ARC
  8
1
 62
3
 10
-24.50563525990095
 20
332.9638202828257
 30
0
 40
0.04062499999999631
 50
314.9999999999964
 51
9.162228724049681
  0
ARC
  8
1
 62
3
 10
-23.6067296753149
 20
333.8627258674118
 30
0
 40
0.04062500000005714
 50
260.8377712759886
 51
314.9999999998937
  0
ARC
  8
1
 62
3
 10
-23.85642284642405
 20
333.8627258674118
 30
0
 40
0.04062500000008423
 50
225.0000000001063
 51
279.1622287240213
  0
TEXT
  8
1
 62
2
 10
0.2693047408939107
 20
243.208224798806
 30
0
 40
4
  1
数量
 41
0.9
 72
1
 73
2
 11
7.469304740893911
 21
245.208224798806
 31
0
  0
TEXT
  8
1
 62
2
 10
8.069304740893911
 20
243.208224798806
 30
0
 40
4
  1
品　　名
 41
0.9
 72
1
 73
2
 11
22.46930474089391
 21
245.208224798806
 31
0
  0
TEXT
  8
1
 62
2
 10
37.56930474089398
 20
243.208224798806
 30
0
 40
4
  1
呼　　　　　　　称
 41
0.9
 72
1
 73
2
 11
69.96930474089398
 21
245.208224798806
 31
0
  0
TEXT
  8
1
 62
2
 10
116.975132662228
 20
243.208224798806
 30
0
 40
4
  1
坑　　質
 41
0.9
 72
1
 73
2
 11
131.375132662228
 21
245.208224798806
 31
0
  0
TEXT
  8
1
 62
2
 10
151.448244141776
 20
243.208224798806
 30
0
 40
4
  1
備　　考
 41
0.9
 72
1
 73
2
 11
165.848244141776
 21
245.208224798806
 31
0
  0
TEXT
  8
1
 62
2
 10
78.14824414177599
 20
250.208224798806
 30
0
 40
4
  1
付　　属　　品
 41
0.9
 72
1
 73
2
 11
103.348244141776
 21
252.208224798806
 31
0
  0
TEXT
  8
1
 62
2
 10
3.869304740893911
 20
236.208224798806
 30
0
 40
4
  1
４
 41
0.9
 72
1
 73
2
 11
7.469304740893911
 21
238.208224798806
 31
0
  0
TEXT
  8
1
 62
2
 10
8.069304740893911
 20
236.208224798806
 30
0
 40
4
  1
取付ネジ
 41
0.9
 72
1
 73
2
 11
22.46930474089391
 21
238.208224798806
 31
0
  0
TEXT
  8
1
 62
2
 10
34.46930474089391
 20
236.208224798806
 30
0
 40
4
  1
十字穴付ナベ　小ネジ　　Ｍ５×０．８×６０
 41
0.765
 73
2
 11
34.46930474089391
 21
238.208224798806
 31
0
  0
TEXT
  8
1
 62
2
 10
115.175132662228
 20
236.208224798806
 30
0
 40
4
  1
ＳＷＲＭ１２
 41
0.675
 72
1
 73
2
 11
131.375132662228
 21
238.208224798806
 31
0
  0
TEXT
  8
1
 62
2
 10
148.2097287227864
 20
236.208224798806
 30
0
 40
4
  1
Ｅｐ－Ｆｅ／Ｚｎ　８／ＣＭ　２
 41
0.468
 73
2
 11
148.2097287227864
 21
238.208224798806
 31
0
  0
TEXT
  8
1
 62
2
 10
3.869304740893911
 20
229.208224798806
 30
0
 40
4
  1
４
 41
0.9
 72
1
 73
2
 11
7.469304740893911
 21
231.208224798806
 31
0
  0
TEXT
  8
1
 62
2
 10
3.869304740893911
 20
222.208224798806
 30
0
 40
4
  1
４
 41
0.9
 72
1
 73
2
 11
7.469304740893911
 21
224.208224798806
 31
0
  0
TEXT
  8
1
 62
2
 10
11.66930474089391
 20
229.208224798806
 30
0
 40
4
  1
ナット
 41
0.9
 72
1
 73
2
 11
22.46930474089391
 21
231.208224798806
 31
0
  0
TEXT
  8
1
 62
2
 10
11.66930474089391
 20
222.208224798806
 30
0
 40
4
  1
座　金
 41
0.9
 72
1
 73
2
 11
22.46930474089391
 21
224.208224798806
 31
0
  0
TEXT
  8
1
 62
2
 10
34.46930474089391
 20
229.208224798806
 30
0
 40
4
  1
六角ナット　　　　　　　Ｍ５×０．８
 41
0.765
 73
2
 11
34.46930474089391
 21
231.208224798806
 31
0
  0
TEXT
  8
1
 62
2
 10
34.46930474089391
 20
222.208224798806
 30
0
 40
4
  1
バネ座金　　　　　　　　２号　５
 41
0.765
 73
2
 11
34.46930474089391
 21
224.208224798806
 31
0
  0
TEXT
  8
1
 62
2
 10
160.348244141776
 20
227.708224798806
 30
0
 40
5
  1
〃
 41
0.9
 72
1
 73
2
 11
164.848244141776
 21
230.208224798806
 31
0
  0
TEXT
  8
1
 62
2
 10
127.775132662228
 20
222.208224798806
 30
0
 40
4
  1
Ｓ
 41
0.9
 72
1
 73
2
 11
131.375132662228
 21
224.208224798806
 31
0
  0
TEXT
  8
1
 62
2
 10
200.2583043908408
 20
235.708224798806
 30
0
 40
4
  1
黒
 41
0.8100000000000001
 73
2
 11
200.2583043908408
 21
237.708224798806
 31
0
  0
TEXT
  8
1
 62
2
 10
160.348244141776
 20
220.708224798806
 30
0
 40
5
  1
〃
 41
0.9
 72
1
 73
2
 11
164.848244141776
 21
223.208224798806
 31
0
  0
TEXT
  8
1
 62
2
 10
125.875132662228
 20
227.708224798806
 30
0
 40
5
  1
〃
 41
0.9
 72
1
 73
2
 11
130.375132662228
 21
230.208224798806
 31
0
  0
TEXT
  8
1
 62
2
 10
83.29834424466947
 20
189.2461502978235
 30
0
 40
4.5
  1
8DG187.5~8DG1800
 41
0.9
  0
DIMENSION
  8
1
  6
CONTINUOUS
 62
2
  2
*D0
  3
DMST_1
 10
94.72027405650648
 20
328.0886668683802
 30
0
 11
90.32027405650648
 21
331.8560628851886
 31
0
 12
0
 22
0
 32
0
 70
0
  1
φ<>
 13
131.7202740565065
 23
336.0886668683802
 33
0
 14
114.7202740565065
 24
328.0886668683802
 34
0
 50
90
 53
0
  0
DIMENSION
  8
1
  6
CONTINUOUS
 62
2
  2
*D1
  3
DMST_2
 10
114.7202740565065
 20
376.8386668683802
 30
0
 11
131.861605195963
 21
380.4386668683802
 31
0
 12
0
 22
0
 32
0
 70
0
 13
149.7202740565065
 23
356.8386668683802
 33
0
 14
114.7202740565065
 24
335.0886668683802
 34
0
 53
0
  0
DIMENSION
  8
1
  6
CONTINUOUS
 62
2
  2
*D2
  3
DMST_2
 10
104.7202740565065
 20
336.0886668683802
 30
0
 11
101.1202740565065
 21
340.2837325975526
 31
0
 12
0
 22
0
 32
0
 70
0
 13
114.7202740565065
 23
335.0886668683802
 33
0
 14
131.7202740565065
 24
336.0886668683802
 34
0
 50
90
 53
0
  0
DIMENSION
  8
1
  6
CONTINUOUS
 62
2
  2
*D3
  3
DMST_3
 10
114.7202740565065
 20
351.0886668683802
 30
0
 11
121.673458154468
 21
354.6886668683802
 31
0
 12
0
 22
0
 32
0
 70
1
 13
128.7202740565065
 23
335.0886668683802
 33
0
 14
114.7202740565065
 24
335.0886668683802
 34
0
 53
0
  0
DIMENSION
  8
1
  6
CONTINUOUS
 62
2
  2
*D4
  3
DMST_2
 10
134.7202740565065
 20
315.0886668683802
 30
0
 11
131.1202740565065
 21
321.62385321101
 31
0
 12
0
 22
0
 32
0
 70
1
  1
φ<>
 13
145.2202740565065
 23
349.0886668683802
 33
0
 14
145.2202740565065
 24
315.0886668683802
 34
0
 53
0
  0
DIMENSION
  8
1
  6
CONTINUOUS
 62
2
  2
*D5
  3
DMST_2
 10
144.7202740565065
 20
366.8386668683802
 30
0
 11
139.2413274589134
 21
370.4386668683802
 31
0
 12
0
 22
0
 32
0
 70
0
 13
149.7202740565065
 23
356.8386668683802
 33
0
 14
144.7202740565065
 24
348.5886668683802
 34
0
 53
0
  0
DIMENSION
  8
1
  6
CONTINUOUS
 62
2
  2
*D6
  3
DMST_2
 10
-17.23157626086947
 20
317.0886668683802
 30
0
 11
-19.88849299562401
 21
324.5886668683802
 31
0
 12
0
 22
0
 32
0
 70
0
 13
-16.23157626086947
 23
332.0886668683802
 33
0
 14
3.768423739130533
 24
317.0886668683802
 34
0
 50
90
 53
0
  0
DIMENSION
  8
1
  6
CONTINUOUS
 62
2
  2
*D7
  3
DMST_2
 10
68.5184237391305
 20
356.8386668683802
 30
0
 11
64.9184237391305
 21
317.1632223421808
 31
0
 12
0
 22
0
 32
0
 70
0
  1
80
 13
36.99842373913053
 23
277.3386668683802
 33
0
 14
36.99842373913053
 24
356.8386668683802
 34
0
 50
90
 53
0
  0
DIMENSION
  8
1
  6
CONTINUOUS
 62
2
  2
*D8
  3
DMST_4
 10
58.51842373913051
 20
283.8586668683802
 30
0
 11
54.9184237391305
 21
316.7916988920337
 31
0
 12
0
 22
0
 32
0
 70
0
  1
66.5
 13
44.9984237391305
 23
350.3186668683802
 33
0
 14
44.9984237391305
 24
283.8586668683802
 34
0
 50
90
 53
0
  0
DIMENSION
  8
1
  6
CONTINUOUS
 62
2
  2
*D9
  3
DMST_2
 10
-35.98157626086945
 20
376.8386668683802
 30
0
 11
3.658316767456402
 21
380.4386668683802
 31
0
 12
0
 22
0
 32
0
 70
0
  1
80
 13
43.5184237391305
 23
350.3186668683802
 33
0
 14
-35.98157626086946
 24
350.3186668683802
 34
0
 53
0
  0
DIMENSION
  8
1
  6
CONTINUOUS
 62
2
  2
*D10
  3
DMST_4
 10
-29.46157626086947
 20
366.8386668683802
 30
0
 11
3.238698238846094
 21
370.4386668683802
 31
0
 12
0
 22
0
 32
0
 70
0
  1
66.5
 13
36.99842373913053
 23
358.3186668683802
 33
0
 14
-29.46157626086946
 24
358.3186668683802
 34
0
 53
0
  0
DIMENSION
  8
1
  6
CONTINUOUS
 62
2
  2
*D11
  3
DMST_5
 10
149.7202740565065
 20
376.8386668683802
 30
0
 11
169.650368768053
 21
380.4386668683802
 31
0
 12
0
 22
0
 32
0
 70
0
 13
189.7202740565065
 23
353.5886668683802
 33
0
 14
149.7202740565065
 24
356.8386668683802
 34
0
 53
0
  0
DIMENSION
  8
1
  6
CONTINUOUS
 62
2
  2
*D12
  3
DMST_6
 10
48.44555772712378
 20
331.6632851693478
 30
0
 11
-26.16072013253645
 21
311.1118665651986
 31
0
 12
0
 22
0
 32
0
 70
3
  1
94
 15
-40.9087102488627
 25
302.5140485674126
 35
0
 40
0
 53
0
  0
DIMENSION
  8
1
  6
CONTINUOUS
 62
2
  2
*D13
  3
DMST_7
 10
35.3085391354704
 20
348.1491530919058
 30
0
 11
66.4550203571704
 21
372.351515151515
 31
0
 12
0
 22
0
 32
0
 70
3
  1
4-%%c<>
 15
38.68830834279065
 25
352.4881806448547
 35
0
 40
0
 53
0
  0
ENDSEC
  0
EOF
