  0
SECTION
  2
HEADER
  9
$ACADVER
  1
AC1009
  9
$INSBASE
 10
0
 20
0
  9
$EXTMIN
 10
-42.82380976222242
 20
-9.097258328103838
  9
$EXTMAX
 10
319.6656577985919
 20
187.3832851683454
  9
$LIMMIN
 10
-42.82380976222242
 20
-9.097258328103838
  9
$LIMMAX
 10
319.6656577985919
 20
187.3832851683454
  9
$VIEWCTR
 10
10
 20
10
  9
$VIEWSIZE
 40
10
  9
$SNAPMODE
 70
0
  9
$SNAPUNIT
 10
1
 20
1
  9
$SNAPBASE
 10
0
 20
0
  9
$SNAPANG
 50
0
  9
$SNAPSTYLE
 70
0
  9
$SNAPISOPAIR
 70
0
  9
$GRIDMODE
 70
0
  9
$GRIDUNIT
 10
0
 20
0
  9
$ORTHOMODE
 70
0
  9
$REGENMODE
 70
1
  9
$FILLMODE
 70
1
  9
$QTEXTMODE
 70
0
  9
$DRAGMODE
 70
2
  9
$LTSCALE
 40
1
  9
$OSMODE
 70
0
  9
$ATTMODE
 70
1
  9
$TEXTSIZE
 40
3.5
  9
$TRACEWID
 40
0.5
  9
$TEXTSTYLE
  7
STANDARD
  9
$CLAYER
  8
0
  9
$CELTYPE
  6
BYLAYER
  9
$CECOLOR
 62
256
  9
$DIMSCALE
 40
1
  9
$DIMASZ
 40
0.18
  9
$DIMEXO
 40
0.0625
  9
$DIMDLI
 40
0.38
  9
$DIMRND
 40
0
  9
$DIMDLE
 40
0
  9
$DIMEXE
 40
0.18
  9
$DIMTP
 40
0
  9
$DIMTM
 40
0
  9
$DIMTXT
 40
0.18
  9
$DIMCEN
 40
0.09
  9
$DIMTSZ
 40
0
  9
$DIMTOL
 70
0
  9
$DIMLIM
 70
0
  9
$DIMTIH
 70
1
  9
$DIMTOH
 70
1
  9
$DIMSE1
 70
0
  9
$DIMSE2
 70
0
  9
$DIMTAD
 70
0
  9
$DIMZIN
 70
0
  9
$DIMBLK
  1

  9
$DIMASO
 70
1
  9
$DIMSHO
 70
1
  9
$DIMPOST
  1

  9
$DIMAPOST
  1

  9
$DIMALT
 70
0
  9
$DIMALTD
 70
2
  9
$DIMALTF
 40
25.4
  9
$DIMLFAC
 40
1
  9
$DIMTOFL
 70
0
  9
$DIMTVP
 40
0
  9
$DIMTIX
 70
0
  9
$DIMSOXD
 70
0
  9
$DIMSAH
 70
0
  9
$DIMBLK1
  1

  9
$DIMBLK2
  1

  9
$DIMSTYLE
  2
*UNNAMED
  9
$DIMCLRD
 70
0
  9
$DIMCLRE
 70
0
  9
$DIMCLRT
 70
0
  9
$DIMTFAC
 40
1
  9
$DIMGAP
 40
0.09
  9
$LUNITS
 70
2
  9
$LUPREC
 70
4
  9
$AXISMODE
 70
0
  9
$AXISUNIT
 10
0
 20
0
  9
$SKETCHINC
 40
0.1
  9
$FILLETRAD
 40
2
  9
$AUNITS
 70
0
  9
$AUPREC
 70
0
  9
$MENU
  1
ACAD
  9
$ELEVATION
 40
0
  9
$THICKNESS
 40
0
  9
$VIEWDIR
 10
0
 20
0
 30
1
  9
$LIMCHECK
 70
0
  9
$BLIPMODE
 70
1
  9
$CHAMFERA
 40
0
  9
$CHAMFERB
 40
0
  9
$FASTZOOM
 70
1
  9
$SKPOLY
 70
0
  9
$ANGBASE
 50
0
  9
$ANGDIR
 70
0
  9
$PDMODE
 70
0
  9
$PDSIZE
 40
0
  9
$PLINEWID
 40
0
  9
$COORDS
 70
2
  0
ENDSEC
  0
SECTION
  2
TABLES
  0
TABLE
  2
DIMSTYLE
 70
9
  0
DIMSTYLE
  2
DMST_1
 70
0
  3

  4

  5

  6

  7

 40
1
 41
3.2
 42
1
 43
7
 44
1.5
 45
0
 46
0
 47
0
 48
0
140
3.2
141
0
142
0
143
25.4
144
1
145
0
146
1
147
0.09
 71
0
 72
0
 73
0
 74
0
 75
0
 76
0
 77
1
 78
9
170
0
171
2
172
0
173
0
174
0
175
0
176
2
177
2
178
2
  0
DIMSTYLE
  2
DMST_2
 70
0
  3

  4

  5

  6

  7

 40
1
 41
3.2
 42
1
 43
7
 44
1.5
 45
0
 46
0
 47
0
 48
0
140
3.2
141
0
142
0
143
25.4
144
1
145
0
146
0.6
147
0.09
 71
1
 72
0
 73
0
 74
0
 75
0
 76
0
 77
1
 78
9
170
0
171
2
172
0
173
0
174
0
175
0
176
2
177
2
178
2
  0
DIMSTYLE
  2
DMST_3
 70
0
  3

  4

  5

  6

  7

 40
1
 41
3.2
 42
1
 43
7
 44
1.5
 45
0
 46
0
 47
0.3
 48
0.3
140
3.2
141
0
142
0
143
25.4
144
1
145
0
146
0.6
147
0.09
 71
1
 72
0
 73
0
 74
0
 75
0
 76
0
 77
1
 78
9
170
0
171
2
172
0
173
0
174
0
175
0
176
2
177
2
178
2
  0
DIMSTYLE
  2
DMST_4
 70
0
  3

  4

  5

  6

  7

 40
1
 41
3.2
 42
1
 43
7
 44
1
 45
0
 46
0
 47
0
 48
0
140
3.2
141
0
142
0
143
25.4
144
1
145
0
146
1
147
0.09
 71
0
 72
0
 73
1
 74
1
 75
0
 76
0
 77
1
 78
9
170
0
171
2
172
0
173
0
174
0
175
0
176
2
177
2
178
2
  0
DIMSTYLE
  2
DMST_5
 70
0
  3

  4

  5

  6

  7

 40
1
 41
3.2
 42
1
 43
7
 44
1
 45
0
 46
0
 47
0
 48
0
140
3.2
141
0
142
0
143
25.4
144
1
145
0
146
1
147
0.09
 71
0
 72
0
 73
0
 74
0
 75
0
 76
0
 77
1
 78
9
170
0
171
2
172
0
173
0
174
0
175
0
176
2
177
2
178
2
  0
DIMSTYLE
  2
DMST_6
 70
0
  3

  4

  5

  6

  7

 40
1
 41
3.2
 42
1
 43
7
 44
1
 45
0
 46
0
 47
0
 48
0
140
3.2
141
0
142
0
143
25.4
144
1
145
0
146
0.6
147
0.09
 71
1
 72
0
 73
0
 74
0
 75
0
 76
0
 77
1
 78
9
170
0
171
2
172
0
173
0
174
0
175
0
176
2
177
2
178
2
  0
DIMSTYLE
  2
DMST_7
 70
0
  3

  4

  5

  6

  7

 40
1
 41
3.2
 42
0
 43
7
 44
1
 45
0
 46
0
 47
0
 48
0
140
3.2
141
0
142
0
143
25.4
144
1
145
0
146
0.6
147
0.09
 71
1
 72
0
 73
0
 74
0
 75
0
 76
0
 77
1
 78
9
170
0
171
2
172
0
173
0
174
0
175
0
176
2
177
2
178
2
  0
DIMSTYLE
  2
DMST_8
 70
0
  3

  4

  5

  6

  7

 40
1
 41
3.2
 42
0
 43
7
 44
1
 45
0
 46
0
 47
0
 48
0
140
3.2
141
0
142
0
143
25.4
144
1
145
0
146
1
147
0.09
 71
0
 72
0
 73
0
 74
0
 75
0
 76
0
 77
1
 78
9
170
0
171
2
172
0
173
0
174
0
175
0
176
2
177
2
178
2
  0
DIMSTYLE
  2
DMST_9
 70
0
  3
)
  4

  5

  6

  7

 40
1
 41
3.2
 42
1
 43
7
 44
1
 45
0
 46
0
 47
0
 48
0
140
3.2
141
0
142
0
143
25.4
144
1
145
0
146
1
147
0.09
 71
0
 72
0
 73
0
 74
0
 75
0
 76
0
 77
1
 78
9
170
0
171
2
172
0
173
0
174
1
175
0
176
2
177
2
178
2
  0
ENDTAB
  0
TABLE
  2
LTYPE
 70
9
  0
LTYPE
  2
CONTINUOUS
 70
64
  3
Solid line
 72
65
 73
0
 40
0
  0
LTYPE
  2
BORDER
 70
64
  3
__ __ . __ __ .
 72
65
 73
6
 40
16.69359390082698
 49
4.769598257379136
 49
-2.384799128689568
 49
4.769598257379136
 49
-2.384799128689568
 49
0
 49
-2.384799128689568
  0
LTYPE
  2
CENTER
 70
64
  3
____ _ ____ _
 72
65
 73
4
 40
19.07839302951654
 49
11.92399564344784
 49
-2.384799128689568
 49
2.384799128689568
 49
-2.384799128689568
  0
LTYPE
  2
DASHDOT
 70
64
  3
__ . __ . __ .
 72
65
 73
4
 40
9.539196514758272
 49
4.769598257379136
 49
-2.384799128689568
 49
0
 49
-2.384799128689568
  0
LTYPE
  2
DASHED
 70
64
  3
__ __ __ __ __
 72
65
 73
2
 40
7.154397386068704
 49
4.769598257379136
 49
-2.384799128689568
  0
LTYPE
  2
DIVIDE
 70
64
  3
__ . . __ . . 
 72
65
 73
6
 40
11.92399564344784
 49
4.769598257379136
 49
-2.384799128689568
 49
0
 49
-2.384799128689568
 49
0
 49
-2.384799128689568
  0
LTYPE
  2
DOT
 70
64
  3
..............
 72
65
 73
4
 40
4.769598257379136
 49
0
 49
-2.384799128689568
 49
0
 49
-2.384799128689568
  0
LTYPE
  2
HIDDEN
 70
64
  3
_ _ _ _ _ _ _
 72
65
 73
2
 40
3.577198693034352
 49
2.384799128689568
 49
-1.192399564344784
  0
LTYPE
  2
PHANTOM
 70
64
  3
_____ _ _ _____ _ _ 
 72
65
 73
6
 40
23.84799128689568
 49
11.92399564344784
 49
-2.384799128689568
 49
2.384799128689568
 49
-2.384799128689568
 49
2.384799128689568
 49
-2.384799128689568
  0
ENDTAB
  0
TABLE
  2
LAYER
 70
4
  0
LAYER
  2
1
 70
0
 62
7
  6
CONTINUOUS
  0
LAYER
  2
2
 70
0
 62
7
  6
CONTINUOUS
  0
LAYER
  2
0
 70
0
 62
7
  6
CONTINUOUS
  0
ENDTAB
  0
TABLE
  2
STYLE
 70
4
  0
STYLE
  2
STANDARD
 70
0
 40
0
 41
1
 50
0
 71
0
 42
3.5
  3
txt
  4

  0
STYLE
  2
SIMPLEX
 70
0
 40
0
 41
1
 50
0
 71
0
 42
3.5
  3
simplex
  4

  0
STYLE
  2
COMPLEX
 70
0
 40
0
 41
1
 50
0
 71
0
 42
3.5
  3
complex
  4

  0
STYLE
  2
ITALIC
 70
0
 40
0
 41
1
 50
0
 71
0
 42
3.5
  3
italic
  4

  0
ENDTAB
  0
TABLE
  2
VIEW
 70
0
  0
ENDTAB
  0
ENDSEC
  0
SECTION
  2
BLOCKS
  0
BLOCK
  8
0
  2
AS25012_8H15FB-6________
 70
0
 10
865.8644612616661
 20
-526.2410904768393
 30
0
  0
LINE
  8
1
 62
2
 10
62.01630593062765
 20
-9.097258328103838
 30
0
 11
62.01630593062765
 21
25.90274167189662
 31
0
  0
LINE
  8
1
 62
2
 10
83.26980037858067
 20
25.90274167189662
 30
0
 11
83.26980037858067
 21
-9.097258328103838
 31
0
  0
LINE
  8
1
 62
2
 10
-13.38584567528238
 20
25.90274167189662
 30
0
 11
-13.38584567528238
 21
-9.097258328103838
 31
0
  0
LINE
  8
1
 62
2
 10
-31.39610632295938
 20
25.90274167189662
 30
0
 11
-31.39610632295938
 21
-9.097258328103838
 31
0
  0
LINE
  8
1
 62
2
 10
-42.82380976222242
 20
25.90274167189662
 30
0
 11
122.9502780709666
 21
25.90274167189662
 31
0
  0
LINE
  8
1
 62
2
 10
-42.82380976222242
 20
18.90274167189662
 30
0
 11
122.9502780709666
 21
18.90274167189662
 31
0
  0
LINE
  8
1
 62
2
 10
-42.82380976222242
 20
11.90274167189616
 30
0
 11
122.9502780709666
 21
11.90274167189616
 31
0
  0
LINE
  8
1
 62
2
 10
-42.82380976222242
 20
4.902741671896163
 30
0
 11
122.9502780709666
 21
4.902741671896163
 31
0
  0
LINE
  8
1
 62
2
 10
-42.82380976222242
 20
-2.097258328103837
 30
0
 11
122.9502780709666
 21
-2.097258328103837
 31
0
  0
LINE
  8
1
 62
2
 10
122.9502780709666
 20
-9.097258328103838
 30
0
 11
122.9502780709666
 21
32.90274167189658
 31
0
  0
LINE
  8
1
 62
2
 10
-42.82380976222242
 20
-9.097258328103838
 30
0
 11
122.9502780709666
 21
-9.097258328103838
 31
0
  0
LINE
  8
1
 62
2
 10
-42.82380976222242
 20
32.90274167189658
 30
0
 11
-42.82380976222242
 21
-9.097258328103838
 31
0
  0
LINE
  8
1
 62
2
 10
122.9502780709666
 20
32.90274167189658
 30
0
 11
-42.82380976222242
 21
32.90274167189658
 31
0
  0
TEXT
  8
1
 62
2
 10
97.6100392247736
 20
-2.097258328103838
 30
0
 40
5
  1
üV
 41
0.9
 72
1
 73
2
 11
102.1100392247736
 21
0.4027416718961625
 31
0
  0
TEXT
  8
1
 62
2
 10
97.6100392247736
 20
4.902741671896163
 30
0
 40
5
  1
üV
 41
0.9
 72
1
 73
2
 11
102.1100392247736
 21
7.402741671896163
 31
0
  0
TEXT
  8
1
 62
2
 10
84.37444819163562
 20
13.23352088275842
 30
0
 40
4
  1
édéÉü|éeéàü^éyéÄü@éWü^ébélü@éQ
 41
0.4950000000000001
 73
2
 11
84.37444819163562
 21
15.23352088275842
 31
0
  0
TEXT
  8
1
 62
2
 10
-40.7099580425909
 20
13.40274167189639
 30
0
 40
4
  1
éS
 41
0.9
 72
1
 73
2
 11
-37.1099580425909
 21
15.40274167189639
 31
0
  0
TEXT
  8
1
 62
2
 10
14.86323415437208
 20
27.40274167189662
 30
0
 40
4
  1
òtü@ü@æ«ü@ü@òi
 41
0.9
 72
1
 73
2
 11
40.06323415437208
 21
29.40274167189662
 31
0
  0
TEXT
  8
1
 62
2
 10
-44.3099580425909
 20
20.40274167189662
 30
0
 40
4
  1
Éöù╩
 41
0.9
 72
1
 73
2
 11
-37.1099580425909
 21
22.40274167189662
 31
0
  0
TEXT
  8
1
 62
2
 10
-40.7099580425909
 20
6.402741671895935
 30
0
 40
4
  1
éS
 41
0.9
 72
1
 73
2
 11
-37.1099580425909
 21
8.402741671895935
 31
0
  0
TEXT
  8
1
 62
2
 10
-40.7099580425909
 20
-0.5972583281045201
 30
0
 40
4
  1
éS
 41
0.9
 72
1
 73
2
 11
-37.1099580425909
 21
1.40274167189548
 31
0
  0
TEXT
  8
1
 62
2
 10
-36.79097599912088
 20
20.40274167189662
 30
0
 40
4
  1
òiü@ü@û╝
 41
0.9
 72
1
 73
2
 11
-22.39097599912088
 21
22.40274167189662
 31
0
  0
TEXT
  8
1
 62
2
 10
-11.68476987232731
 20
20.40274167189662
 30
0
 40
4
  1
î─ü@ü@ü@ü@ü@ü@ü@ü@Å╠
 41
0.9
 72
1
 73
2
 11
24.31523012767269
 21
22.40274167189662
 31
0
  0
TEXT
  8
1
 62
2
 10
58.24305315460416
 20
20.40274167189662
 30
0
 40
4
  1
ìBü@ü@Ä┐
 41
0.9
 72
1
 73
2
 11
72.64305315460416
 21
22.40274167189662
 31
0
  0
TEXT
  8
1
 62
2
 10
85.1100392247736
 20
20.40274167189662
 30
0
 40
4
  1
ö§ü@ü@ü@ìl
 41
0.9
 72
1
 73
2
 11
103.1100392247736
 21
22.40274167189662
 31
0
  0
TEXT
  8
1
 62
2
 10
-36.79097599912088
 20
13.40274167189639
 30
0
 40
4
  1
ÄµòtâlâW
 41
0.9
 72
1
 73
2
 11
-22.39097599912088
 21
15.40274167189639
 31
0
  0
TEXT
  8
1
 62
2
 10
-33.19097599912088
 20
6.402741671896163
 30
0
 40
4
  1
âiâbâg
 41
0.9
 72
1
 73
2
 11
-22.39097599912088
 21
8.402741671896163
 31
0
  0
TEXT
  8
1
 62
2
 10
-33.19097599912088
 20
-0.5972583281040649
 30
0
 40
4
  1
ì└ü@ïÓ
 41
0.9
 72
1
 73
2
 11
-22.39097599912088
 21
1.402741671895935
 31
0
  0
TEXT
  8
1
 62
2
 10
-11.38584567528238
 20
13.40274167189639
 30
0
 40
4
  1
Å\ÄÜîèòtâiâxü@Å¼âlâWü@éléSü~éOüDéVü~éUéO
 41
0.8100000000000001
 73
2
 11
-11.38584567528238
 21
15.40274167189639
 31
0
  0
TEXT
  8
1
 62
2
 10
-11.38584567528238
 20
6.402741671896163
 30
0
 40
4
  1
ÿZèpâiâbâgü@ü@ü@ü@ü@ü@éléSü~éOüDéV
 41
0.8100000000000001
 73
2
 11
-11.38584567528238
 21
8.402741671896163
 31
0
  0
TEXT
  8
1
 62
2
 10
-11.38584567528238
 20
-0.5972583281040649
 30
0
 40
4
  1
âoâlì└ïÓü@ü@ü@ü@ü@ü@ü@éQìåü@éS
 41
0.8100000000000001
 73
2
 11
-11.38584567528238
 21
1.402741671895935
 31
0
  0
TEXT
  8
1
 62
2
 10
55.36305315460416
 20
13.40274167189639
 30
0
 40
4
  1
érévéqéléPéQ
 41
0.7200000000000001
 72
1
 73
2
 11
72.64305315460416
 21
15.40274167189639
 31
0
  0
TEXT
  8
1
 62
2
 10
67.14305315460416
 20
4.902741671896163
 30
0
 40
5
  1
üV
 41
0.9
 72
1
 73
2
 11
71.64305315460416
 21
7.402741671896163
 31
0
  0
TEXT
  8
1
 62
2
 10
69.04305315460417
 20
-0.5972583281040649
 30
0
 40
4
  1
ér
 41
0.9
 72
1
 73
2
 11
72.64305315460416
 21
1.402741671895935
 31
0
  0
TEXT
  8
1
 62
2
 10
118.9502780709666
 20
12.73352088275842
 30
0
 40
4
  1
ìò
 41
0.8100000000000001
 73
2
 11
118.9502780709666
 21
14.73352088275842
 31
0
  0
ENDBLK
  8
0
  0
BLOCK
  8
0
  2
A
 70
0
 10
272.4027478789968
 20
-100.6447321790261
 30
0
  0
INSERT
  8
0
  2
AS25012_8H15FB-6________
 10
865.8644612616661
 20
-526.2410904768393
 30
0
  0
ENDBLK
  8
0
  0
BLOCK
  8
0
  2
G6G
 70
0
 10
512.1508493378481
 20
-19.35254285150907
 30
0
  0
INSERT
  8
0
  2
A
 10
272.4027478789968
 20
-100.6447321790261
 30
0
  0
ENDBLK
  8
0
  0
BLOCK
  8
1
  2
*D0
 70
1
 10
0
 20
0
 30
0
  0
LINE
  8
1
 62
2
 10
138.872939745175
 20
155.6832851683454
 30
0
 11
151.872939745175
 21
155.6832851683454
 31
0
  0
LINE
  8
1
 62
2
 10
151.872939745175
 20
140.6832850787704
 30
0
 11
151.872939745175
 21
157.1832851683454
 31
0
  0
LINE
  8
1
 62
2
 10
138.872939745175
 20
140.6832850787704
 30
0
 11
138.872939745175
 21
157.1832851683454
 31
0
  0
SOLID
  8
1
 62
2
 10
138.872939745175
 20
155.6832851683454
 30
0
 11
142.072939745175
 21
156.0992851683454
 31
0
 12
142.072939745175
 22
155.2672851683454
 32
0
 13
142.072939745175
 23
155.2672851683454
 33
0
  0
SOLID
  8
1
 62
2
 10
151.872939745175
 20
155.6832851683454
 30
0
 11
148.672939745175
 21
155.2672851683454
 31
0
 12
148.672939745175
 22
156.0992851683454
 32
0
 13
148.672939745175
 23
156.0992851683454
 33
0
  0
TEXT
  8
1
 62
2
 10
143.292616038627
 20
157.6832851683454
 30
0
 40
3.2
  1
13
 41
0.9
  0
ENDBLK
  8
0
  0
BLOCK
  8
1
  2
*D1
 70
1
 10
0
 20
0
 30
0
  0
LINE
  8
1
 62
2
 10
108.872939745175
 20
127.6832851683454
 30
0
 11
108.872939745175
 21
145.6832851683454
 31
0
  0
LINE
  8
1
 62
2
 10
164.872939745175
 20
145.6832851683454
 30
0
 11
107.372939745175
 21
145.6832851683454
 31
0
  0
LINE
  8
1
 62
2
 10
164.872939745175
 20
127.6832851683454
 30
0
 11
107.372939745175
 21
127.6832851683454
 31
0
  0
SOLID
  8
1
 62
2
 10
108.872939745175
 20
145.6832851683454
 30
0
 11
109.288939745175
 21
142.4832851683454
 31
0
 12
108.456939745175
 22
142.4832851683454
 32
0
 13
108.456939745175
 23
142.4832851683454
 33
0
  0
SOLID
  8
1
 62
2
 10
108.872939745175
 20
127.6832851683454
 30
0
 11
108.456939745175
 21
130.8832851683454
 31
0
 12
109.288939745175
 22
130.8832851683454
 32
0
 13
109.288939745175
 23
130.8832851683454
 33
0
  0
TEXT
  8
1
 62
2
 10
106.872939745175
 20
136.5855073905676
 30
0
 40
3.2
  1
18
 50
90
 41
0.9
  0
TEXT
  8
1
 62
2
 10
106.872939745175
 20
132.9410629461232
 30
0
 40
3.2
  1
âË
 50
90
 41
0.9
  0
ENDBLK
  8
0
  0
BLOCK
  8
1
  2
*D2
 70
1
 10
0
 20
0
 30
0
  0
LINE
  8
1
 62
2
 10
118.872939745175
 20
140.6832851683454
 30
0
 11
118.872939745175
 21
147.0832851683454
 31
0
  0
LINE
  8
1
 62
2
 10
118.872939745175
 20
132.6832851683454
 30
0
 11
118.872939745175
 21
126.2832851683454
 31
0
  0
LINE
  8
1
 62
2
 10
118.872939745175
 20
132.6832851683454
 30
0
 11
118.872939745175
 21
140.6832851683454
 31
0
  0
LINE
  8
1
 62
2
 10
156.2581047851807
 20
140.6832851683454
 30
0
 11
117.372939745175
 21
140.6832851683454
 31
0
  0
LINE
  8
1
 62
2
 10
137.872939745175
 20
132.6832851683454
 30
0
 11
117.372939745175
 21
132.6832851683454
 31
0
  0
SOLID
  8
1
 62
2
 10
118.872939745175
 20
140.6832851683454
 30
0
 11
118.456939745175
 21
143.8832851683454
 31
0
 12
119.288939745175
 22
143.8832851683454
 32
0
 13
119.288939745175
 23
143.8832851683454
 33
0
  0
SOLID
  8
1
 62
2
 10
118.872939745175
 20
132.6832851683454
 30
0
 11
119.288939745175
 21
129.4832851683454
 31
0
 12
118.456939745175
 22
129.4832851683454
 32
0
 13
118.456939745175
 23
129.4832851683454
 33
0
  0
TEXT
  8
1
 62
2
 10
116.072939745175
 20
133.3615073905676
 30
0
 40
3.2
  1
8
 50
90
 41
0.9
  0
TEXT
  8
1
 62
2
 10
113.992939745175
 20
138.4175073905676
 30
0
 40
1.92
  1
0
 50
90
 41
0.9
  0
TEXT
  8
1
 62
2
 10
116.872939745175
 20
136.8815073905676
 30
0
 40
1.92
  1
-0.02
 50
90
 41
0.9
  0
TEXT
  8
1
 62
2
 10
116.072939745175
 20
129.7170629461232
 30
0
 40
3.2
  1
âË
 50
90
 41
0.9
  0
ENDBLK
  8
0
  0
BLOCK
  8
1
  2
*D3
 70
1
 10
0
 20
0
 30
0
  0
LINE
  8
1
 62
2
 10
128.872939745175
 20
140.6832851683454
 30
0
 11
128.872939745175
 21
149.559161718284
 31
0
  0
LINE
  8
1
 62
2
 10
128.872939745175
 20
139.6832850787704
 30
0
 11
128.872939745175
 21
140.6832851683454
 31
0
  0
LINE
  8
1
 62
2
 10
128.872939745175
 20
133.2832850787704
 30
0
 11
128.872939745175
 21
139.6832850787704
 31
0
  0
LINE
  8
1
 62
2
 10
156.2581047851807
 20
140.6832851683454
 30
0
 11
127.372939745175
 21
140.6832851683454
 31
0
  0
LINE
  8
1
 62
2
 10
137.872939745175
 20
139.6832850787704
 30
0
 11
127.372939745175
 21
139.6832850787704
 31
0
  0
SOLID
  8
1
 62
2
 10
128.872939745175
 20
140.6832851683454
 30
0
 11
128.456939745175
 21
143.8832851683454
 31
0
 12
129.288939745175
 22
143.8832851683454
 32
0
 13
129.288939745175
 23
143.8832851683454
 33
0
  0
SOLID
  8
1
 62
2
 10
128.872939745175
 20
139.6832850787704
 30
0
 11
129.288939745175
 21
136.4832850787704
 31
0
 12
128.456939745175
 22
136.4832850787704
 32
0
 13
128.456939745175
 23
136.4832850787704
 33
0
  0
TEXT
  8
1
 62
2
 10
126.872939745175
 20
148.599161718284
 30
0
 40
3.2
  1
1
 50
90
 41
0.9
  0
ENDBLK
  8
0
  0
BLOCK
  8
1
  2
*D4
 70
1
 10
0
 20
0
 30
0
  0
LINE
  8
1
 62
2
 10
71.372939745175
 20
101.9332851683454
 30
0
 11
71.372939745175
 21
151.4332851683454
 31
0
  0
LINE
  8
1
 62
2
 10
59.622939745175
 20
151.4332851683454
 30
0
 11
72.872939745175
 21
151.4332851683454
 31
0
  0
LINE
  8
1
 62
2
 10
59.622939745175
 20
101.9332851683454
 30
0
 11
72.872939745175
 21
101.9332851683454
 31
0
  0
SOLID
  8
1
 62
2
 10
71.372939745175
 20
151.4332851683454
 30
0
 11
71.788939745175
 21
148.2332851683454
 31
0
 12
70.95693974517501
 22
148.2332851683454
 32
0
 13
70.95693974517501
 23
148.2332851683454
 33
0
  0
SOLID
  8
1
 62
2
 10
71.372939745175
 20
101.9332851683454
 30
0
 11
70.95693974517501
 21
105.1332851683454
 31
0
 12
71.788939745175
 22
105.1332851683454
 32
0
 13
71.788939745175
 23
105.1332851683454
 33
0
  0
TEXT
  8
1
 62
2
 10
69.372939745175
 20
118.6192851683454
 30
0
 40
3.2
  1
49.5
 50
90
 41
0.9
  0
TEXT
  8
1
 62
2
 10
68.732939745175
 20
128.9392851683454
 30
0
 40
1.92
  1
%%p0.3
 50
90
 41
0.9
  0
ENDBLK
  8
0
  0
BLOCK
  8
1
  2
*D5
 70
1
 10
0
 20
0
 30
0
  0
LINE
  8
1
 62
2
 10
1.122939745174989
 20
172.1832851683454
 30
0
 11
50.622939745175
 21
172.1832851683454
 31
0
  0
LINE
  8
1
 62
2
 10
50.622939745175
 20
160.4332851683454
 30
0
 11
50.622939745175
 21
173.6832851683454
 31
0
  0
LINE
  8
1
 62
2
 10
1.122939745174989
 20
160.4332851683454
 30
0
 11
1.122939745174989
 21
173.6832851683454
 31
0
  0
SOLID
  8
1
 62
2
 10
1.122939745174989
 20
172.1832851683454
 30
0
 11
4.32293974517499
 21
172.5992851683454
 31
0
 12
4.32293974517499
 22
171.7672851683454
 32
0
 13
4.32293974517499
 23
171.7672851683454
 33
0
  0
SOLID
  8
1
 62
2
 10
50.622939745175
 20
172.1832851683454
 30
0
 11
47.422939745175
 21
171.7672851683454
 31
0
 12
47.422939745175
 22
172.5992851683454
 32
0
 13
47.422939745175
 23
172.5992851683454
 33
0
  0
TEXT
  8
1
 62
2
 10
17.808939745175
 20
174.1832851683454
 30
0
 40
3.2
  1
49.5
 41
0.9
  0
TEXT
  8
1
 62
2
 10
28.128939745175
 20
174.8232851683454
 30
0
 40
1.92
  1
%%p0.3
 41
0.9
  0
ENDBLK
  8
0
  0
BLOCK
  8
1
  2
*D6
 70
1
 10
0
 20
0
 30
0
  0
LINE
  8
1
 62
2
 10
165.8729397451749
 20
172.1832851683454
 30
0
 11
170.8729397451749
 21
172.1832851683454
 31
0
  0
LINE
  8
1
 62
2
 10
165.8729397451749
 20
172.1832851683454
 30
0
 11
159.4729397451749
 21
172.1832851683454
 31
0
  0
LINE
  8
1
 62
2
 10
170.8729397451749
 20
172.1832851683454
 30
0
 11
177.2729397451749
 21
172.1832851683454
 31
0
  0
LINE
  8
1
 62
2
 10
165.8729397451749
 20
146.6832851683454
 30
0
 11
165.8729397451749
 21
173.1832851683454
 31
0
  0
LINE
  8
1
 62
2
 10
170.8729397451749
 20
157.6832851683454
 30
0
 11
170.8729397451749
 21
173.1832851683454
 31
0
  0
SOLID
  8
1
 62
2
 10
165.8729397451749
 20
172.1832851683454
 30
0
 11
162.6729397451749
 21
171.7672851683454
 31
0
 12
162.6729397451749
 22
172.5992851683454
 32
0
 13
162.6729397451749
 23
172.5992851683454
 33
0
  0
SOLID
  8
1
 62
2
 10
170.8729397451749
 20
172.1832851683454
 30
0
 11
174.0729397451749
 21
172.5992851683454
 31
0
 12
174.0729397451749
 22
171.7672851683454
 32
0
 13
174.0729397451749
 23
171.7672851683454
 33
0
  0
TEXT
  8
1
 62
2
 10
167.5006583774219
 20
174.3888111295624
 30
0
 40
3.2
  1
5
 41
0.9
  0
ENDBLK
  8
0
  0
BLOCK
  8
1
  2
*D7
 70
1
 10
0
 20
0
 30
0
  0
LINE
  8
1
 62
2
 10
170.872939745175
 20
182.1832851683454
 30
0
 11
212.872939745175
 21
182.1832851683454
 31
0
  0
LINE
  8
1
 62
2
 10
212.872939745175
 20
157.1832851683454
 30
0
 11
212.872939745175
 21
183.1832851683454
 31
0
  0
LINE
  8
1
 62
2
 10
170.872939745175
 20
157.6832851683454
 30
0
 11
170.872939745175
 21
183.1832851683454
 31
0
  0
SOLID
  8
1
 62
2
 10
170.872939745175
 20
182.1832851683454
 30
0
 11
174.072939745175
 21
182.5992851683454
 31
0
 12
174.072939745175
 22
181.7672851683454
 32
0
 13
174.072939745175
 23
181.7672851683454
 33
0
  0
SOLID
  8
1
 62
2
 10
212.872939745175
 20
182.1832851683454
 30
0
 11
209.672939745175
 21
181.7672851683454
 31
0
 12
209.672939745175
 22
182.5992851683454
 32
0
 13
209.672939745175
 23
182.5992851683454
 33
0
  0
TEXT
  8
1
 62
2
 10
189.479775497792
 20
183.9482595231935
 30
0
 40
3.2
  1
42
 41
0.9
  0
ENDBLK
  8
0
  0
BLOCK
  8
1
  2
*D8
 70
1
 10
0
 20
0
 30
0
  0
LINE
  8
1
 62
2
 10
13.7638296053463
 20
126.6832851683454
 30
0
 11
13.7638296053463
 21
136.6832851683454
 31
0
  0
LINE
  8
1
 62
2
 10
13.76382960534628
 20
136.6832851683454
 30
0
 11
12.7638296053463
 21
136.6832851683454
 31
0
  0
LINE
  8
1
 62
2
 10
13.76382960534628
 20
126.6832851683454
 30
0
 11
12.7638296053463
 21
126.6832851683454
 31
0
  0
SOLID
  8
1
 62
2
 10
13.7638296053463
 20
136.6832851683454
 30
0
 11
14.1798296053463
 21
133.4832851683455
 31
0
 12
13.3478296053463
 22
133.4832851683455
 32
0
 13
13.3478296053463
 23
133.4832851683455
 33
0
  0
SOLID
  8
1
 62
2
 10
13.7638296053463
 20
126.6832851683454
 30
0
 11
13.3478296053463
 21
129.8832851683454
 31
0
 12
14.1798296053463
 22
129.8832851683454
 32
0
 13
14.1798296053463
 23
129.8832851683454
 33
0
  0
TEXT
  8
1
 62
2
 10
12.5662304262968
 20
129.9808319043909
 30
0
 40
3.2
  1
10
 50
90
 41
0.9
  0
ENDBLK
  8
0
  0
BLOCK
  8
1
  2
*D9
 70
1
 10
0
 20
0
 30
0
  0
LINE
  8
1
 62
2
 10
272.249739745175
 20
99.68328516834539
 30
0
 11
272.249739745175
 21
153.6832851683454
 31
0
  0
LINE
  8
1
 62
2
 10
292.249739745175
 20
153.6832851683454
 30
0
 11
271.249739745175
 21
153.6832851683454
 31
0
  0
LINE
  8
1
 62
2
 10
292.249739745175
 20
99.68328516834539
 30
0
 11
271.249739745175
 21
99.68328516834539
 31
0
  0
SOLID
  8
1
 62
2
 10
272.249739745175
 20
153.6832851683454
 30
0
 11
272.665739745175
 21
150.4832851683454
 31
0
 12
271.833739745175
 22
150.4832851683454
 32
0
 13
271.833739745175
 23
150.4832851683454
 33
0
  0
SOLID
  8
1
 62
2
 10
272.249739745175
 20
99.68328516834539
 30
0
 11
271.833739745175
 21
102.8832851683454
 31
0
 12
272.665739745175
 22
102.8832851683454
 32
0
 13
272.665739745175
 23
102.8832851683454
 33
0
  0
TEXT
  8
1
 62
2
 10
269.449739745175
 20
117.6014341217706
 30
0
 40
3.2
  1
54h7
 50
90
 41
0.9
  0
TEXT
  8
1
 62
2
 10
267.369739745175
 20
131.2974341217706
 30
0
 40
1.92
  1
0
 50
90
 41
0.9
  0
TEXT
  8
1
 62
2
 10
270.249739745175
 20
129.7614341217706
 30
0
 40
1.92
  1
-0.030
 50
90
 41
0.9
  0
TEXT
  8
1
 62
2
 10
269.449739745175
 20
113.9569896773262
 30
0
 40
3.2
  1
âË
 50
90
 41
0.9
  0
ENDBLK
  8
0
  0
BLOCK
  8
1
  2
*D10
 70
1
 10
0
 20
0
 30
0
  0
LINE
  8
1
 62
2
 10
295.2497397451749
 20
172.1832851683454
 30
0
 11
302.5529630511459
 21
172.1832851683454
 31
0
  0
LINE
  8
1
 62
2
 10
293.2497397451749
 20
172.1832851683454
 30
0
 11
295.2497397451749
 21
172.1832851683454
 31
0
  0
LINE
  8
1
 62
2
 10
286.8497397451749
 20
172.1832851683454
 30
0
 11
293.2497397451749
 21
172.1832851683454
 31
0
  0
LINE
  8
1
 62
2
 10
295.2497397451749
 20
158.1832851683454
 30
0
 11
295.2497397451749
 21
173.1832851683454
 31
0
  0
LINE
  8
1
 62
2
 10
293.2497397451749
 20
154.6832851683454
 30
0
 11
293.2497397451749
 21
173.1832851683454
 31
0
  0
SOLID
  8
1
 62
2
 10
293.2497397451749
 20
172.1832851683454
 30
0
 11
290.0497397451749
 21
171.7672851683454
 31
0
 12
290.0497397451749
 22
172.5992851683454
 32
0
 13
290.0497397451749
 23
172.5992851683454
 33
0
  0
SOLID
  8
1
 62
2
 10
295.2497397451749
 20
172.1832851683454
 30
0
 11
298.4497397451749
 21
172.5992851683454
 31
0
 12
298.4497397451749
 22
171.7672851683454
 32
0
 13
298.4497397451749
 23
171.7672851683454
 33
0
  0
TEXT
  8
1
 62
2
 10
300.6329630511459
 20
174.1832851683454
 30
0
 40
3.2
  1
2
 41
0.9
  0
ENDBLK
  8
0
  0
BLOCK
  8
1
  2
*D11
 70
1
 10
0
 20
0
 30
0
  0
LINE
  8
1
 62
2
 10
282.2497397451751
 20
182.1832851683454
 30
0
 11
295.2497397451751
 21
182.1832851683454
 31
0
  0
LINE
  8
1
 62
2
 10
295.2497397451751
 20
158.1832851683454
 30
0
 11
295.2497397451751
 21
183.1832851683454
 31
0
  0
LINE
  8
1
 62
2
 10
282.2497397451751
 20
131.0832851683454
 30
0
 11
282.2497397451751
 21
183.1832851683454
 31
0
  0
SOLID
  8
1
 62
2
 10
282.2497397451751
 20
182.1832851683454
 30
0
 11
285.4497397451751
 21
182.5992851683454
 31
0
 12
285.4497397451751
 22
181.7672851683454
 32
0
 13
285.4497397451751
 23
181.7672851683454
 33
0
  0
SOLID
  8
1
 62
2
 10
295.2497397451751
 20
182.1832851683454
 30
0
 11
292.0497397451751
 21
181.7672851683454
 31
0
 12
292.0497397451751
 22
182.5992851683454
 32
0
 13
292.0497397451751
 23
182.5992851683454
 33
0
  0
TEXT
  8
1
 62
2
 10
286.5971072285731
 20
184.1832851683454
 30
0
 40
3.2
  1
13
 41
0.9
  0
ENDBLK
  8
0
  0
BLOCK
  8
1
  2
*D12
 70
1
 10
0
 20
0
 30
0
  0
LINE
  8
1
 62
2
 10
232.872939745175
 20
99.68328516834541
 30
0
 11
232.872939745175
 21
153.6832851683454
 31
0
  0
LINE
  8
1
 62
2
 10
214.872939745175
 20
153.6832851683454
 30
0
 11
233.872939745175
 21
153.6832851683454
 31
0
  0
LINE
  8
1
 62
2
 10
214.872939745175
 20
99.68328516834541
 30
0
 11
233.872939745175
 21
99.68328516834541
 31
0
  0
SOLID
  8
1
 62
2
 10
232.872939745175
 20
153.6832851683454
 30
0
 11
233.288939745175
 21
150.4832851683454
 31
0
 12
232.456939745175
 22
150.4832851683454
 32
0
 13
232.456939745175
 23
150.4832851683454
 33
0
  0
SOLID
  8
1
 62
2
 10
232.872939745175
 20
99.68328516834541
 30
0
 11
232.456939745175
 21
102.8832851683454
 31
0
 12
233.288939745175
 22
102.8832851683454
 32
0
 13
233.288939745175
 23
102.8832851683454
 33
0
  0
TEXT
  8
1
 62
2
 10
230.072939745175
 20
117.4768642464556
 30
0
 40
3.2
  1
54H7
 50
90
 41
0.9
  0
TEXT
  8
1
 62
2
 10
227.992939745175
 20
129.9568642464556
 30
0
 40
1.92
  1
+0.030
 50
90
 41
0.9
  0
TEXT
  8
1
 62
2
 10
230.872939745175
 20
131.4928642464556
 30
0
 40
1.92
  1
0
 50
90
 41
0.9
  0
TEXT
  8
1
 62
2
 10
230.072939745175
 20
113.8324198020112
 30
0
 40
3.2
  1
âË
 50
90
 41
0.9
  0
ENDBLK
  8
0
  0
BLOCK
  8
1
  2
*D13
 70
1
 10
0
 20
0
 30
0
  0
LINE
  8
1
 62
2
 10
-4.627070254825021
 20
182.1832851683454
 30
0
 11
56.37293974517499
 21
182.1832851683454
 31
0
  0
LINE
  8
1
 62
2
 10
56.37293974517499
 20
151.1832851683454
 30
0
 11
56.37293974517499
 21
183.1832851683454
 31
0
  0
LINE
  8
1
 62
2
 10
-4.627070254825021
 20
151.1832851683454
 30
0
 11
-4.627070254825021
 21
183.1832851683454
 31
0
  0
SOLID
  8
1
 62
2
 10
-4.627070254825021
 20
182.1832851683454
 30
0
 11
-1.427070254825021
 21
182.5992851683454
 31
0
 12
-1.427070254825021
 22
181.7672851683454
 32
0
 13
-1.427070254825021
 23
181.7672851683454
 33
0
  0
SOLID
  8
1
 62
2
 10
56.37293974517499
 20
182.1832851683454
 30
0
 11
53.17293974517499
 21
181.7672851683454
 31
0
 12
53.17293974517499
 22
182.5992851683454
 32
0
 13
53.17293974517499
 23
182.5992851683454
 33
0
  0
TEXT
  8
1
 62
2
 10
23.93414718234129
 20
184.1832851683454
 30
0
 40
3.2
  1
61
 41
0.9
  0
ENDBLK
  8
0
  0
BLOCK
  8
1
  2
*D14
 70
1
 10
0
 20
0
 30
0
  0
LINE
  8
1
 62
2
 10
81.37293974517499
 20
96.18328516834539
 30
0
 11
81.37293974517499
 21
157.1832851683454
 31
0
  0
LINE
  8
1
 62
2
 10
50.37293974517499
 20
157.1832851683454
 30
0
 11
82.37293974517499
 21
157.1832851683454
 31
0
  0
LINE
  8
1
 62
2
 10
50.37293974517499
 20
96.18328516834539
 30
0
 11
82.37293974517499
 21
96.18328516834539
 31
0
  0
SOLID
  8
1
 62
2
 10
81.37293974517499
 20
157.1832851683454
 30
0
 11
81.78893974517499
 21
153.9832851683454
 31
0
 12
80.95693974517499
 22
153.9832851683454
 32
0
 13
80.95693974517499
 23
153.9832851683454
 33
0
  0
SOLID
  8
1
 62
2
 10
81.37293974517499
 20
96.18328516834539
 30
0
 11
80.95693974517499
 21
99.3832851683454
 31
0
 12
81.78893974517499
 22
99.3832851683454
 32
0
 13
81.78893974517499
 23
99.3832851683454
 33
0
  0
TEXT
  8
1
 62
2
 10
79.37293974517499
 20
124.7981120340244
 30
0
 40
3.2
  1
61
 50
90
 41
0.9
  0
ENDBLK
  8
0
  0
BLOCK
  8
1
  2
*D15
 70
1
 10
0
 20
0
 30
0
  0
LINE
  8
1
 62
2
 10
138.872939745175
 20
182.1832851683454
 30
0
 11
170.872939745175
 21
182.1832851683454
 31
0
  0
LINE
  8
1
 62
2
 10
138.872939745175
 20
140.6832850787704
 30
0
 11
138.872939745175
 21
183.1832851683454
 31
0
  0
LINE
  8
1
 62
2
 10
170.872939745175
 20
157.6832851683454
 30
0
 11
170.872939745175
 21
183.1832851683454
 31
0
  0
SOLID
  8
1
 62
2
 10
138.872939745175
 20
182.1832851683454
 30
0
 11
142.072939745175
 21
182.5992851683454
 31
0
 12
142.072939745175
 22
181.7672851683454
 32
0
 13
142.072939745175
 23
181.7672851683454
 33
0
  0
SOLID
  8
1
 62
2
 10
170.872939745175
 20
182.1832851683454
 30
0
 11
167.672939745175
 21
181.7672851683454
 31
0
 12
167.672939745175
 22
182.5992851683454
 32
0
 13
167.672939745175
 23
182.5992851683454
 33
0
  0
TEXT
  8
1
 62
2
 10
152.1302903470531
 20
184.1832851683454
 30
0
 40
3.2
  1
32
 41
0.9
  0
ENDBLK
  8
0
  0
BLOCK
  8
1
  2
*D16
 70
1
 10
0
 20
0
 30
0
  0
LINE
  8
1
 62
2
 10
66.532939745175
 20
167.1832851683454
 30
0
 11
86.012939745175
 21
167.1832851683454
 31
0
  0
LINE
  8
1
 62
2
 10
52.22194996407319
 20
153.016214831931
 30
0
 11
66.532939745175
 21
167.1832851683454
 31
0
  0
SOLID
  8
1
 62
2
 10
52.22194996407319
 20
153.016214831931
 30
0
 11
53.89382519923166
 21
155.1651760223818
 31
0
 12
54.38769925427037
 22
154.6662848340856
 32
0
 13
54.38769925427037
 23
154.6662848340856
 33
0
  0
TEXT
  8
1
 62
2
 10
75.81738418961945
 20
168.810348564929
 30
0
 40
3.2
  1
4.5
 41
0.9
  0
TEXT
  8
1
 62
2
 10
66.732939745175
 20
168.810348564929
 30
0
 40
3.2
  1
4-âË
 41
0.9
  0
TEXT
  8
1
 62
2
 10
83.25738418961944
 20
168.810348564929
 30
0
 40
3.2
  1
îè
 41
0.9
  0
ENDBLK
  8
0
  0
BLOCK
  8
1
  2
*D17
 70
1
 10
0
 20
0
 30
0
  0
LINE
  8
1
 62
2
 10
58.76656375977211
 20
138.641943085784
 30
0
 11
-7.020684269422162
 21
114.7246272509067
 31
0
  0
SOLID
  8
1
 62
2
 10
-7.020684269422162
 20
114.7246272509067
 30
0
 11
-4.155404407906266
 21
116.2089544773603
 31
0
 12
-3.871130025411724
 22
115.4270260436419
 32
0
 13
-3.871130025411724
 23
115.4270260436419
 33
0
  0
SOLID
  8
1
 62
2
 10
58.76656375977211
 20
138.641943085784
 30
0
 11
55.90128389825622
 21
137.1576158593304
 31
0
 12
55.61700951576167
 22
137.9395442930488
 32
0
 13
55.61700951576167
 23
137.9395442930488
 33
0
  0
TEXT
  8
1
 62
2
 10
1.914496032376409
 20
120.1011331835265
 30
0
 40
3.2
  1
70
 50
19.97901435547795
 41
0.9
  0
TEXT
  8
1
 62
2
 10
-2.863955507013956
 20
118.3639008460598
 30
0
 40
3.2
  1
(âË
 50
19.97901435547795
 41
0.9
  0
TEXT
  8
1
 62
2
 10
7.929330137902743
 20
122.2878592027152
 30
0
 40
3.2
  1
)
 50
19.97901435547795
 41
0.9
  0
ENDBLK
  8
0
  0
ENDSEC
  0
SECTION
  2
ENTITIES
  0
LINE
  8
1
 62
3
 10
49.372939745175
 20
158.1832851683454
 30
0
 11
2.372939745175002
 21
158.1832851683454
 31
0
  0
LINE
  8
1
 62
2
 10
151.872939745175
 20
139.6832850787704
 30
0
 11
151.872939745175
 21
140.6832850787704
 31
0
  0
LINE
  8
2
 62
1
 10
5.102119745174981
 20
144.1832851683454
 30
0
 11
5.102119745174981
 21
134.1832851683454
 31
0
  0
LINE
  8
2
 62
1
 10
10.10211974517498
 20
139.1832851683454
 30
0
 11
0.1021197451749813
 21
139.1832851683454
 31
0
  0
LINE
  8
1
 62
3
 10
4.45057225457456
 20
140.3020282108012
 30
0
 11
4.996143121675097
 21
139.7564573437007
 31
0
  0
LINE
  8
1
 62
3
 10
5.753667235775403
 20
140.3020282108012
 30
0
 11
5.208096368674866
 21
139.7564573437007
 31
0
  0
LINE
  8
1
 62
3
 10
3.983376702719148
 20
138.531737677745
 30
0
 11
4.528947569819685
 21
139.0773085448455
 31
0
  0
LINE
  8
1
 62
3
 10
3.983376702719148
 20
139.8348326589458
 30
0
 11
4.528947569819685
 21
139.2892617918452
 31
0
  0
LINE
  8
1
 62
3
 10
5.208096368674866
 20
138.6101129929901
 30
0
 11
5.213574002442591
 21
138.6046353592223
 31
0
  0
LINE
  8
1
 62
3
 10
5.213574002442591
 20
138.6046353592223
 30
0
 11
5.753667235775403
 21
138.0645421258896
 31
0
  0
LINE
  8
1
 62
3
 10
4.45057225457456
 20
138.0645421258896
 30
0
 11
4.996143121675097
 21
138.6101129929901
 31
0
  0
LINE
  8
1
 62
3
 10
6.220862787630814
 20
139.8348326589458
 30
0
 11
5.675291920530277
 21
139.2892617918453
 31
0
  0
LINE
  8
1
 62
3
 10
6.220862787630814
 20
138.531737677745
 30
0
 11
5.675291920530277
 21
139.0773085448455
 31
0
  0
LINE
  8
2
 62
1
 10
30.872939745175
 20
103.1832851683454
 30
0
 11
20.872939745175
 21
103.1832851683454
 31
0
  0
LINE
  8
1
 62
3
 10
25.22139225457458
 20
104.3020282108012
 30
0
 11
25.76696312167511
 21
103.7564573437007
 31
0
  0
LINE
  8
1
 62
3
 10
26.52448723577542
 20
104.3020282108012
 30
0
 11
25.97891636867488
 21
103.7564573437007
 31
0
  0
LINE
  8
1
 62
3
 10
24.75419670271917
 20
102.531737677745
 30
0
 11
25.2997675698197
 21
103.0773085448455
 31
0
  0
LINE
  8
1
 62
3
 10
24.75419670271917
 20
103.8348326589458
 30
0
 11
25.2997675698197
 21
103.2892617918452
 31
0
  0
LINE
  8
1
 62
3
 10
25.97891636867488
 20
102.6101129929901
 30
0
 11
25.98439400244261
 21
102.6046353592223
 31
0
  0
LINE
  8
1
 62
3
 10
25.98439400244261
 20
102.6046353592223
 30
0
 11
26.52448723577542
 21
102.0645421258896
 31
0
  0
LINE
  8
1
 62
3
 10
25.22139225457458
 20
102.0645421258896
 30
0
 11
25.76696312167511
 21
102.6101129929901
 31
0
  0
LINE
  8
1
 62
3
 10
26.99168278763083
 20
103.8348326589458
 30
0
 11
26.4461119205303
 21
103.2892617918453
 31
0
  0
LINE
  8
1
 62
3
 10
26.99168278763083
 20
102.531737677745
 30
0
 11
26.4461119205303
 21
103.0773085448455
 31
0
  0
LINE
  8
2
 62
1
 10
46.64373974517499
 20
144.1832851683454
 30
0
 11
46.64373974517499
 21
134.1832851683454
 31
0
  0
LINE
  8
2
 62
1
 10
51.64373974517499
 20
139.1832851683454
 30
0
 11
41.64373974517499
 21
139.1832851683454
 31
0
  0
LINE
  8
1
 62
3
 10
45.99219225457457
 20
140.3020282108012
 30
0
 11
46.53776312167511
 21
139.7564573437007
 31
0
  0
LINE
  8
1
 62
3
 10
47.29528723577541
 20
140.3020282108012
 30
0
 11
46.74971636867487
 21
139.7564573437007
 31
0
  0
LINE
  8
1
 62
3
 10
45.52499670271916
 20
138.531737677745
 30
0
 11
46.07056756981969
 21
139.0773085448455
 31
0
  0
LINE
  8
1
 62
3
 10
45.52499670271916
 20
139.8348326589458
 30
0
 11
46.07056756981969
 21
139.2892617918452
 31
0
  0
LINE
  8
1
 62
3
 10
46.74971636867487
 20
138.6101129929901
 30
0
 11
46.7551940024426
 21
138.6046353592223
 31
0
  0
LINE
  8
1
 62
3
 10
46.7551940024426
 20
138.6046353592223
 30
0
 11
47.29528723577541
 21
138.0645421258896
 31
0
  0
LINE
  8
1
 62
3
 10
45.99219225457457
 20
138.0645421258896
 30
0
 11
46.53776312167511
 21
138.6101129929901
 31
0
  0
LINE
  8
1
 62
3
 10
47.76248278763082
 20
139.8348326589458
 30
0
 11
47.21691192053029
 21
139.2892617918453
 31
0
  0
LINE
  8
1
 62
3
 10
47.76248278763082
 20
138.531737677745
 30
0
 11
47.21691192053029
 21
139.0773085448455
 31
0
  0
LINE
  8
1
 62
3
 10
23.2271884341104
 20
139.6832851683454
 30
0
 11
28.5186910562396
 21
139.6832851683454
 31
0
  0
LINE
  8
1
 62
3
 10
138.872939745175
 20
139.6832850787704
 30
0
 11
151.872939745175
 21
139.6832850787704
 31
0
  0
LINE
  8
2
 62
1
 10
14.76382960534628
 20
126.6832851683454
 30
0
 11
61.37293974517501
 21
126.6832851683454
 31
0
  0
LINE
  8
2
 62
1
 10
14.76382960534628
 20
136.6832851683454
 30
0
 11
36.95694974517503
 21
136.6832851683454
 31
0
  0
LINE
  8
1
 62
3
 10
212.872939745175
 20
97.18328516834539
 30
0
 11
211.872939745175
 21
97.18328516834539
 31
0
  0
LINE
  8
1
 62
3
 10
212.872939745175
 20
156.1832851683454
 30
0
 11
212.872939745175
 21
97.18328516834539
 31
0
  0
LINE
  8
1
 62
3
 10
211.872939745175
 20
156.1832851683454
 30
0
 11
212.872939745175
 21
156.1832851683454
 31
0
  0
LINE
  8
1
 62
3
 10
282.249739745175
 20
123.2832851683454
 30
0
 11
293.249739745175
 21
123.2832851683454
 31
0
  0
LINE
  8
1
 62
3
 10
282.249739745175
 20
130.0832851683454
 30
0
 11
293.249739745175
 21
130.0832851683454
 31
0
  0
LINE
  8
1
 62
3
 10
293.249739745175
 20
99.68328516834539
 30
0
 11
295.249739745175
 21
99.68328516834539
 31
0
  0
LINE
  8
1
 62
3
 10
293.249739745175
 20
153.6832851683454
 30
0
 11
295.249739745175
 21
153.6832851683454
 31
0
  0
LINE
  8
1
 62
3
 10
293.249739745175
 20
99.68328516834539
 30
0
 11
293.249739745175
 21
153.6832851683454
 31
0
  0
LINE
  8
1
 62
3
 10
282.249739745175
 20
123.2832851683454
 30
0
 11
282.249739745175
 21
130.0832851683454
 31
0
  0
LINE
  8
1
 62
3
 10
295.249739745175
 20
96.18328516834539
 30
0
 11
295.249739745175
 21
157.1832851683454
 31
0
  0
LINE
  8
1
 62
3
 10
295.249739745175
 20
96.18328516834539
 30
0
 11
305.249739745175
 21
96.18328516834539
 31
0
  0
LINE
  8
1
 62
3
 10
295.249739745175
 20
157.1832851683454
 30
0
 11
305.249739745175
 21
157.1832851683454
 31
0
  0
LINE
  8
1
 62
3
 10
171.5729397451749
 20
147.1832851683454
 30
0
 11
170.872939745175
 21
147.1832851683454
 31
0
  0
LINE
  8
1
 62
3
 10
170.872939745175
 20
156.6832851683454
 30
0
 11
170.872939745175
 21
147.1832851683454
 31
0
  0
LINE
  8
1
 62
3
 10
211.872939745175
 20
157.1832851683454
 30
0
 11
211.872939745175
 21
126.6832851683454
 31
0
  0
LINE
  8
1
 62
3
 10
170.872939745175
 20
156.6832851683454
 30
0
 11
211.872939745175
 21
157.1832851683454
 31
0
  0
LINE
  8
1
 62
2
 10
56.372939745175
 20
151.4332851683454
 30
0
 11
56.372939745175
 21
101.9332851683454
 31
0
  0
LINE
  8
1
 62
3
 10
171.5729397451749
 20
147.1832851683454
 30
0
 11
171.5729397451749
 21
126.6832851683454
 31
0
  0
LINE
  8
1
 62
3
 10
171.5729397451749
 20
106.1832851683454
 30
0
 11
170.872939745175
 21
106.1832851683454
 31
0
  0
LINE
  8
1
 62
3
 10
170.872939745175
 20
96.68328516834539
 30
0
 11
170.872939745175
 21
106.1832851683454
 31
0
  0
LINE
  8
1
 62
3
 10
211.872939745175
 20
96.18328516834539
 30
0
 11
211.872939745175
 21
126.6832851683454
 31
0
  0
LINE
  8
1
 62
3
 10
170.872939745175
 20
96.68328516834539
 30
0
 11
211.872939745175
 21
96.18328516834539
 31
0
  0
LINE
  8
1
 62
3
 10
171.5729397451749
 20
106.1832851683454
 30
0
 11
171.5729397451749
 21
126.6832851683454
 31
0
  0
LINE
  8
1
 62
3
 10
165.872939745175
 20
127.6832851683454
 30
0
 11
165.872939745175
 21
145.6832851683454
 31
0
  0
LINE
  8
1
 62
3
 10
181.361489052023
 20
157.811268663969
 30
0
 11
201.3600020078929
 21
158.0551529683088
 31
0
  0
LINE
  8
1
 62
3
 10
165.872939745175
 20
145.6832851683454
 30
0
 11
171.5729397451749
 21
145.6832851683454
 31
0
  0
LINE
  8
1
 62
3
 10
165.872939745175
 20
127.6832851683454
 30
0
 11
171.5729397451749
 21
127.6832851683454
 31
0
  0
LINE
  8
2
 62
1
 10
277.928339745175
 20
126.6832851683454
 30
0
 11
306.872939745175
 21
126.6832851683454
 31
0
  0
LINE
  8
2
 62
1
  6
CENTER
 10
280.784139745175
 20
123.8832851683454
 30
0
 11
293.218439745175
 21
123.8832851683454
 31
0
  0
LINE
  8
2
 62
1
  6
CENTER
 10
280.784139745175
 20
129.4832851683454
 30
0
 11
293.249739745175
 21
129.4832851683454
 31
0
  0
LINE
  8
2
 62
1
 10
1.122939745174996
 20
109.9332851683454
 30
0
 11
1.122939745174996
 21
93.93328516834539
 31
0
  0
LINE
  8
2
 62
1
 10
1.122939745174996
 20
159.4332851683454
 30
0
 11
1.122939745174996
 21
143.4332851683454
 31
0
  0
LINE
  8
2
 62
1
 10
-6.877060254825004
 20
101.9332851683454
 30
0
 11
9.122939745174994
 21
101.9332851683454
 31
0
  0
LINE
  8
2
 62
1
 10
-6.877060254825004
 20
151.4332851683454
 30
0
 11
9.122939745174994
 21
151.4332851683454
 31
0
  0
LINE
  8
2
 62
1
 10
50.622939745175
 20
109.9332851683454
 30
0
 11
50.622939745175
 21
93.93328516834539
 31
0
  0
LINE
  8
2
 62
1
 10
50.622939745175
 20
159.4332851683454
 30
0
 11
50.622939745175
 21
143.4332851683454
 31
0
  0
LINE
  8
2
 62
1
 10
58.622939745175
 20
101.9332851683454
 30
0
 11
42.622939745175
 21
101.9332851683454
 31
0
  0
LINE
  8
2
 62
1
 10
58.622939745175
 20
151.4332851683454
 30
0
 11
42.622939745175
 21
151.4332851683454
 31
0
  0
LINE
  8
2
 62
1
 10
25.872939745175
 20
162.1832851683454
 30
0
 11
25.872939745175
 21
91.18328516834541
 31
0
  0
LINE
  8
2
 62
1
 10
-9.627070254824972
 20
126.6832851683454
 30
0
 11
14.76382960534628
 21
126.6832851683454
 31
0
  0
LINE
  8
2
 62
1
 10
13.26382960534628
 20
136.6832851683454
 30
0
 11
14.76382960534628
 21
136.6832851683454
 31
0
  0
LINE
  8
2
 62
1
 10
168.372939745175
 20
151.4332851683454
 30
0
 11
176.972439745175
 21
151.4332851683454
 31
0
  0
LINE
  8
2
 62
1
 10
166.5729397451749
 20
126.6832851683454
 30
0
 11
217.872939745175
 21
126.6832851683454
 31
0
  0
LINE
  8
2
 62
1
 10
168.372939745175
 20
101.9332851683454
 30
0
 11
176.972439745175
 21
101.9332851683454
 31
0
  0
LINE
  8
2
 62
1
 10
175.872939745175
 20
136.6832851683454
 30
0
 11
133.872939745175
 21
136.6832851683454
 31
0
  0
LINE
  8
1
 62
3
 10
1.372929745175028
 20
157.1832851683454
 30
0
 11
50.372939745175
 21
157.1832851683454
 31
0
  0
LINE
  8
1
 62
3
 10
56.372939745175
 20
151.1832851683454
 30
0
 11
56.372939745175
 21
102.1832851683454
 31
0
  0
LINE
  8
1
 62
3
 10
1.372929745175028
 20
96.18328516834539
 30
0
 11
50.372939745175
 21
96.18328516834539
 31
0
  0
LINE
  8
1
 62
3
 10
-4.627070254824972
 20
102.1832851683454
 30
0
 11
-4.627070254824972
 21
151.1832851683454
 31
0
  0
LINE
  8
1
 62
3
 10
46.372939745175
 20
96.18328516834539
 30
0
 11
46.372939745175
 21
101.6832851683454
 31
0
  0
LINE
  8
1
 62
3
 10
56.372939745175
 20
106.1832851683454
 30
0
 11
50.872939745175
 21
106.1832851683454
 31
0
  0
LINE
  8
1
 62
3
 10
46.372939745175
 20
157.1832851683454
 30
0
 11
46.372939745175
 21
151.6832851683454
 31
0
  0
LINE
  8
1
 62
3
 10
-4.627060254825004
 20
147.1832851683454
 30
0
 11
0.8729397451749961
 21
147.1832851683454
 31
0
  0
LINE
  8
1
 62
3
 10
5.372939745174996
 20
96.18328516834539
 30
0
 11
5.372939745174996
 21
101.6832851683454
 31
0
  0
LINE
  8
1
 62
3
 10
56.372939745175
 20
147.1832851683454
 30
0
 11
50.872939745175
 21
147.1832851683454
 31
0
  0
LINE
  8
1
 62
3
 10
5.372939745174996
 20
157.1832851683454
 30
0
 11
5.372939745174996
 21
151.6832851683454
 31
0
  0
LINE
  8
1
 62
3
 10
-4.627060254825004
 20
106.1832851683454
 30
0
 11
0.8729397451749961
 21
106.1832851683454
 31
0
  0
LINE
  8
1
 62
1
 10
209.872939745175
 20
153.6832851683454
 30
0
 11
214.872939745175
 21
153.6832851683454
 31
0
  0
LINE
  8
1
 62
1
 10
209.872939745175
 20
99.68328516834539
 30
0
 11
214.872939745175
 21
99.68328516834539
 31
0
  0
LINE
  8
1
 62
3
 10
138.872939745175
 20
139.6832850787704
 30
0
 11
138.872939745175
 21
132.6832851683454
 31
0
  0
LINE
  8
1
 62
3
 10
165.872939745175
 20
140.6832851683454
 30
0
 11
157.2581047851807
 21
140.6832851683454
 31
0
  0
LINE
  8
1
 62
3
 10
138.872939745175
 20
132.6832851683454
 30
0
 11
165.872939745175
 21
132.6832851683454
 31
0
  0
LINE
  8
1
 62
2
 10
272.2853863356333
 20
37.5894816454156
 30
0
 11
316.2853863356333
 21
37.5894816454156
 31
0
  0
LINE
  8
1
 62
2
 10
268.9051148726748
 20
75.5894816454156
 30
0
 11
319.6656577985919
 21
75.5894816454156
 31
0
  0
LINE
  8
1
 62
2
 10
319.6656577985919
 20
68.5894816454156
 30
0
 11
268.9051148726748
 21
68.5894816454156
 31
0
  0
LINE
  8
1
 62
2
 10
268.9051148726748
 20
61.5894816454156
 30
0
 11
319.6656577985919
 21
61.5894816454156
 31
0
  0
LINE
  8
1
 62
2
 10
319.6656577985919
 20
54.5894816454156
 30
0
 11
268.9051148726748
 21
54.5894816454156
 31
0
  0
LINE
  8
1
 62
2
 10
268.9051148726748
 20
47.5894816454156
 30
0
 11
319.6656577985919
 21
47.5894816454156
 31
0
  0
ARC
  8
1
 62
3
 10
5.102119745174981
 20
139.1832851683454
 30
0
 40
1.29464285714285
 50
30.21619828524941
 51
59.78380171474888
  0
ARC
  8
1
 62
3
 10
5.102119745174981
 20
139.1832851683454
 30
0
 40
0.5669642857143076
 50
82.54155094369258
 51
97.45844905630527
  0
ARC
  8
1
 62
3
 10
5.102119745174981
 20
139.1832851683454
 30
0
 40
1.29464285714284
 50
120.2161982852511
 51
149.7838017147506
  0
ARC
  8
1
 62
3
 10
5.102119745174981
 20
139.1832851683454
 30
0
 40
0.5669642857142767
 50
172.5415509436944
 51
187.4584490563085
  0
ARC
  8
1
 62
3
 10
5.102119745174981
 20
139.1832851683454
 30
0
 40
1.294642857142851
 50
210.2161982852494
 51
239.7838017147489
  0
ARC
  8
1
 62
3
 10
5.102119745174981
 20
139.1832851683454
 30
0
 40
0.5669642857143076
 50
262.5415509436926
 51
277.4584490563053
  0
ARC
  8
1
 62
3
 10
5.102119745174981
 20
139.1832851683454
 30
0
 40
1.29464285714284
 50
300.2161982852511
 51
329.7838017147506
  0
ARC
  8
1
 62
3
 10
5.102119745174981
 20
139.1832851683454
 30
0
 40
0.5669642857142805
 50
352.5415509436915
 51
7.458449056305659
  0
ARC
  8
1
 62
3
 10
25.872939745175
 20
103.1832851683454
 30
0
 40
1.294642857142847
 50
30.21619828524948
 51
59.78380171474856
  0
ARC
  8
1
 62
3
 10
25.872939745175
 20
103.1832851683454
 30
0
 40
0.5669642857143072
 50
82.54155094369294
 51
97.45844905630493
  0
ARC
  8
1
 62
3
 10
25.872939745175
 20
103.1832851683454
 30
0
 40
1.294642857142826
 50
120.2161982852513
 51
149.7838017147505
  0
ARC
  8
1
 62
3
 10
25.872939745175
 20
103.1832851683454
 30
0
 40
0.566964285714282
 50
172.541550943693
 51
187.4584490563085
  0
ARC
  8
1
 62
3
 10
25.872939745175
 20
103.1832851683454
 30
0
 40
1.294642857142854
 50
210.21619828525
 51
239.783801714749
  0
ARC
  8
1
 62
3
 10
25.872939745175
 20
103.1832851683454
 30
0
 40
0.5669642857143213
 50
262.5415509436932
 51
277.4584490563047
  0
ARC
  8
1
 62
3
 10
25.872939745175
 20
103.1832851683454
 30
0
 40
1.29464285714284
 50
300.2161982852511
 51
329.78380171475
  0
ARC
  8
1
 62
3
 10
25.872939745175
 20
103.1832851683454
 30
0
 40
0.5669642857142839
 50
352.5415509436915
 51
7.458449056307035
  0
ARC
  8
1
 62
3
 10
46.64373974517499
 20
139.1832851683454
 30
0
 40
1.29464285714285
 50
30.21619828524941
 51
59.78380171474888
  0
ARC
  8
1
 62
3
 10
46.64373974517499
 20
139.1832851683454
 30
0
 40
0.5669642857143068
 50
82.54155094369331
 51
97.45844905630527
  0
ARC
  8
1
 62
3
 10
46.64373974517499
 20
139.1832851683454
 30
0
 40
1.29464285714284
 50
120.2161982852511
 51
149.7838017147506
  0
ARC
  8
1
 62
3
 10
46.64373974517499
 20
139.1832851683454
 30
0
 40
0.5669642857142837
 50
172.5415509436944
 51
187.4584490563084
  0
ARC
  8
1
 62
3
 10
46.64373974517499
 20
139.1832851683454
 30
0
 40
1.29464285714285
 50
210.2161982852494
 51
239.7838017147489
  0
ARC
  8
1
 62
3
 10
46.64373974517499
 20
139.1832851683454
 30
0
 40
0.5669642857143076
 50
262.5415509436926
 51
277.4584490563053
  0
ARC
  8
1
 62
3
 10
46.64373974517499
 20
139.1832851683454
 30
0
 40
1.29464285714284
 50
300.2161982852511
 51
329.7838017147506
  0
ARC
  8
1
 62
3
 10
46.64373974517499
 20
139.1832851683454
 30
0
 40
0.5669642857142875
 50
352.5415509436916
 51
7.458449056305566
  0
ARC
  8
1
 62
3
 10
151.872939745175
 20
154.6832850787704
 30
0
 40
15
 50
270
 51
291.0394707343556
  0
ARC
  8
1
 62
2
 10
25.872939745175
 20
126.6832851683454
 30
0
 40
34.99999999999999
 50
197.9790143554779
 51
237.1450195917798
  0
ARC
  8
1
 62
2
 10
25.872939745175
 20
126.6832851683454
 30
0
 40
34.99999999999984
 50
17.97901435547774
 51
57.14501959177984
  0
CIRCLE
  8
1
 62
3
 10
5.102119745174981
 20
139.1832851683454
 30
0
 40
2.5
  0
CIRCLE
  8
1
 62
3
 10
5.102119745174981
 20
139.1832851683454
 30
0
 40
3.25
  0
CIRCLE
  8
1
 62
3
 10
25.872939745175
 20
103.1832851683454
 30
0
 40
2.5
  0
CIRCLE
  8
1
 62
3
 10
25.872939745175
 20
103.1832851683454
 30
0
 40
3.25
  0
CIRCLE
  8
1
 62
3
 10
46.64373974517499
 20
139.1832851683454
 30
0
 40
2.5
  0
CIRCLE
  8
1
 62
3
 10
46.64373974517499
 20
139.1832851683454
 30
0
 40
3.25
  0
CIRCLE
  8
1
 62
4
  6
DIVIDE
 10
25.872939745175
 20
126.6832851683454
 30
0
 40
34.99999999999999
  0
CIRCLE
  8
1
 62
3
 10
25.872939745175
 20
136.6832851683454
 30
0
 40
4
  0
CIRCLE
  8
1
 62
3
 10
1.122939745174996
 20
101.9332851683454
 30
0
 40
2.25
  0
CIRCLE
  8
1
 62
3
 10
1.122939745174996
 20
151.4332851683454
 30
0
 40
2.25
  0
CIRCLE
  8
1
 62
3
 10
50.622939745175
 20
101.9332851683454
 30
0
 40
2.25
  0
CIRCLE
  8
1
 62
3
 10
50.622939745175
 20
151.4332851683454
 30
0
 40
2.25
  0
CIRCLE
  8
1
 62
3
 10
25.872939745175
 20
136.6832851683454
 30
0
 40
9.000000000000004
  0
CIRCLE
  8
1
 62
3
 10
25.872939745175
 20
136.6832851683454
 30
0
 40
7.000000000000004
  0
ARC
  8
1
 62
3
 10
5.023501419756805
 20
139.7838156417823
 30
0
 40
0.03869047619051717
 50
224.9999999998809
 51
277.4584490561996
  0
ARC
  8
1
 62
3
 10
5.180738070593272
 20
139.7838156417823
 30
0
 40
0.03869047619045295
 50
262.5415509436634
 51
314.9999999999991
  0
ARC
  8
1
 62
3
 10
4.501589271738091
 20
139.1046668429272
 30
0
 40
0.03869047619051717
 50
314.999999999881
 51
7.458449056194178
  0
ARC
  8
1
 62
3
 10
4.501589271738091
 20
139.2619034937637
 30
0
 40
0.03869047619048378
 50
352.5415509436389
 51
44.99999999991072
  0
ARC
  8
1
 62
3
 10
5.180738070593272
 20
138.5827546949085
 30
0
 40
0.03869047619045626
 50
45.00000000003069
 51
97.45844905636241
  0
ARC
  8
1
 62
3
 10
5.023501419756805
 20
138.5827546949085
 30
0
 40
0.03869047619046626
 50
82.54155094383711
 51
135.0000000000893
  0
ARC
  8
1
 62
3
 10
5.702650218611872
 20
139.2619034937637
 30
0
 40
0.03869047619043679
 50
135
 51
187.4584490563611
  0
ARC
  8
1
 62
3
 10
5.702650218611872
 20
139.1046668429272
 30
0
 40
0.03869047619046903
 50
172.5415509438058
 51
225.0000000001191
  0
ARC
  8
1
 62
3
 10
25.79432141975682
 20
103.7838156417823
 30
0
 40
0.03869047619051717
 50
224.9999999998809
 51
277.45844905621
  0
ARC
  8
1
 62
3
 10
25.95155807059329
 20
103.7838156417823
 30
0
 40
0.0386904761904533
 50
262.5415509436595
 51
314.9999999999963
  0
ARC
  8
1
 62
3
 10
25.27240927173811
 20
103.1046668429272
 30
0
 40
0.03869047619051467
 50
314.9999999998773
 51
7.45844905619486
  0
ARC
  8
1
 62
3
 10
25.27240927173811
 20
103.2619034937637
 30
0
 40
0.03869047619047842
 50
352.5415509436591
 51
44.99999999991444
  0
ARC
  8
1
 62
3
 10
25.95155807059329
 20
102.5827546949085
 30
0
 40
0.03869047619043427
 50
45.00000000000372
 51
97.45844905637178
  0
ARC
  8
1
 62
3
 10
25.79432141975682
 20
102.5827546949085
 30
0
 40
0.03869047619043901
 50
82.54155094382124
 51
135.0000000001191
  0
ARC
  8
1
 62
3
 10
26.47347021861189
 20
103.2619034937637
 30
0
 40
0.03869047619044432
 50
134.9999999999814
 51
187.4584490563409
  0
ARC
  8
1
 62
3
 10
26.47347021861189
 20
103.1046668429272
 30
0
 40
0.03869047619046551
 50
172.5415509438051
 51
225.0000000001228
  0
ARC
  8
1
 62
3
 10
46.56512141975681
 20
139.7838156417823
 30
0
 40
0.03869047619050713
 50
224.9999999998958
 51
277.45844905621
  0
ARC
  8
1
 62
3
 10
46.72235807059328
 20
139.7838156417823
 30
0
 40
0.03869047619045377
 50
262.5415509436543
 51
314.9999999999926
  0
ARC
  8
1
 62
3
 10
46.0432092717381
 20
139.1046668429272
 30
0
 40
0.03869047619051215
 50
314.9999999998735
 51
7.458449056195544
  0
ARC
  8
1
 62
3
 10
46.0432092717381
 20
139.2619034937637
 30
0
 40
0.03869047619047675
 50
352.5415509436375
 51
44.99999999991815
  0
ARC
  8
1
 62
3
 10
46.72235807059328
 20
138.5827546949085
 30
0
 40
0.03869047619045186
 50
45.0000000000372
 51
97.4584490563611
  0
ARC
  8
1
 62
3
 10
46.56512141975681
 20
138.5827546949085
 30
0
 40
0.03869047619046719
 50
82.54155094382669
 51
135.0000000000744
  0
ARC
  8
1
 62
3
 10
47.24427021861188
 20
139.2619034937637
 30
0
 40
0.03869047619043177
 50
134.9999999999926
 51
187.4584490563625
  0
ARC
  8
1
 62
3
 10
47.24427021861188
 20
139.1046668429272
 30
0
 40
0.03869047619046198
 50
172.5415509438045
 51
225.0000000001265
  0
ARC
  8
1
 62
3
 10
50.872939745175
 20
101.6832851683454
 30
0
 40
4.5
 50
90
 51
180
  0
ARC
  8
1
 62
3
 10
1.372929745175028
 20
102.1832851683454
 30
0
 40
6
 50
180
 51
270
  0
ARC
  8
1
 62
3
 10
1.372929745175028
 20
151.1832851683454
 30
0
 40
6
 50
90
 51
180
  0
ARC
  8
1
 62
3
 10
50.372939745175
 20
151.1832851683454
 30
0
 40
6
 50
0
 51
90
  0
ARC
  8
1
 62
3
 10
50.372939745175
 20
102.1832851683454
 30
0
 40
6.000000000000014
 50
270
 51
0
  0
ARC
  8
1
 62
3
 10
50.872939745175
 20
151.6832851683454
 30
0
 40
4.5
 50
180
 51
270
  0
ARC
  8
1
 62
3
 10
0.8729397451749961
 20
151.6832851683454
 30
0
 40
4.5
 50
270
 51
0
  0
ARC
  8
1
 62
3
 10
0.8729397451749961
 20
101.6832851683454
 30
0
 40
4.5
 50
0
 51
90
  0
LINE
  8
1
 62
2
 10
319.6656577985919
 20
82.5894816454156
 30
0
 11
268.9051148726748
 21
82.5894816454156
 31
0
  0
LINE
  8
1
 62
2
 10
268.9051148726748
 20
82.5894816454156
 30
0
 11
285.7209617991281
 21
123.45947699813
 31
0
  0
SOLID
  8
1
 62
2
 10
284.8153403544057
 20
120.0474143587078
 30
0
 11
283.9630918626642
 21
120.3980696513434
 31
0
 12
285.7209617991281
 22
123.45947699813
 32
0
 13
285.7209617991281
 23
123.45947699813
 33
0
  0
TEXT
  8
1
 62
2
 10
161.181605454372
 20
47.70274176862972
 30
0
 40
4.5
  1
6DG3F~180F
 41
0.9
  0
TEXT
  8
1
 62
2
 10
258.2853863356333
 20
38.8394816454156
 30
0
 40
4
  1
èÜìçæèÄÞâsâjâIâôÄdùl
 41
0.9
 72
1
 11
294.2853863356333
 21
38.8394816454156
 31
0
  0
TEXT
  8
1
 62
2
 10
271.3623235849123
 20
83.69184295937656
 30
0
 40
4
  1
âsü@âjü@âIü@âôü@Ädü@ùl
 41
0.9
  0
TEXT
  8
1
 62
2
 10
271.3623235849123
 20
76.69184295937656
 30
0
 40
4
  1
âéâWâàü|âïü@üFü@éOüDéT
 41
0.9
  0
TEXT
  8
1
 62
2
 10
271.3623235849123
 20
69.69184295937656
 30
0
 40
4
  1
ê%%dü@ù═ü@èpü@üFü@éQéO%%d
 41
0.9
  0
TEXT
  8
1
 62
2
 10
271.3623235849123
 20
62.69184295937656
 30
0
 40
4
  1
Äòü@ü@ü@Éöü@üFü@éPéP
 41
0.9
  0
TEXT
  8
1
 62
2
 10
271.3623235849123
 20
55.69184295937656
 30
0
 40
4
  1
èOü@ü@ü@îaü@üFâËéUüDéW
 41
0.9
  0
TEXT
  8
1
 62
2
 10
271.3623235849123
 20
48.69184295937656
 30
0
 40
4
  1
ô]ü@ê╩ü@ù╩ü@üFü{éOüDéPéT
 41
0.9
  0
DIMENSION
  8
1
  6
CONTINUOUS
 62
2
  2
*D0
  3
DMST_1
 10
138.872939745175
 20
155.6832851683454
 30
0
 11
145.212616038627
 21
159.2832851683454
 31
0
 12
0
 22
0
 32
0
 70
0
 13
151.872939745175
 23
139.6832850787704
 33
0
 14
138.872939745175
 24
139.6832850787704
 34
0
 53
0
  0
DIMENSION
  8
1
  6
CONTINUOUS
 62
2
  2
*D1
  3
DMST_1
 10
108.872939745175
 20
145.6832851683454
 30
0
 11
105.272939745175
 21
136.6832851683454
 31
0
 12
0
 22
0
 32
0
 70
0
  1
âË<>
 13
165.872939745175
 23
127.6832851683454
 33
0
 14
165.872939745175
 24
145.6832851683454
 34
0
 50
90
 53
0
  0
DIMENSION
  8
1
  6
CONTINUOUS
 62
2
  2
*D2
  3
DMST_2
 10
118.872939745175
 20
140.6832851683454
 30
0
 11
114.472939745175
 21
136.6832851683454
 31
0
 12
0
 22
0
 32
0
 70
0
  1
âË<>
 13
138.872939745175
 23
132.6832851683454
 33
0
 14
157.2581047851807
 24
140.6832851683454
 34
0
 50
90
 53
0
  0
DIMENSION
  8
1
  6
CONTINUOUS
 62
2
  2
*D3
  3
DMST_1
 10
128.872939745175
 20
140.6832851683454
 30
0
 11
125.272939745175
 21
149.079161718284
 31
0
 12
0
 22
0
 32
0
 70
0
 13
138.872939745175
 23
139.6832850787704
 33
0
 14
157.2581047851807
 24
140.6832851683454
 34
0
 50
90
 53
0
  0
DIMENSION
  8
1
  6
CONTINUOUS
 62
2
  2
*D4
  3
DMST_3
 10
71.372939745175
 20
151.4332851683454
 30
0
 11
67.77293974517501
 21
126.6832851683454
 31
0
 12
0
 22
0
 32
0
 70
0
 13
58.622939745175
 23
101.9332851683454
 33
0
 14
58.622939745175
 24
151.4332851683454
 34
0
 50
90
 53
0
  0
DIMENSION
  8
1
  6
CONTINUOUS
 62
2
  2
*D5
  3
DMST_3
 10
50.622939745175
 20
172.1832851683454
 30
0
 11
25.872939745175
 21
175.7832851683454
 31
0
 12
0
 22
0
 32
0
 70
0
 13
1.122939745174996
 23
159.4332851683454
 33
0
 14
50.622939745175
 24
159.4332851683454
 34
0
 53
0
  0
DIMENSION
  8
1
  6
CONTINUOUS
 62
2
  2
*D6
  3
DMST_4
 10
170.8729397451749
 20
172.1832851683454
 30
0
 11
168.4606583774219
 21
175.9888111295624
 31
0
 12
0
 22
0
 32
0
 70
0
 13
165.872939745175
 23
145.6832851683454
 33
0
 14
170.872939745175
 24
156.6832851683454
 34
0
 53
0
  0
DIMENSION
  8
1
  6
CONTINUOUS
 62
2
  2
*D7
  3
DMST_4
 10
212.872939745175
 20
182.1832851683454
 30
0
 11
191.879775497792
 21
185.5482595231935
 31
0
 12
0
 22
0
 32
0
 70
0
 13
170.872939745175
 23
156.6832851683454
 33
0
 14
212.872939745175
 24
156.1832851683454
 34
0
 53
0
  0
DIMENSION
  8
1
  6
CONTINUOUS
 62
2
  2
*D8
  3
DMST_5
 10
13.7638296053463
 20
136.6832851683454
 30
0
 11
10.9662304262968
 21
131.9008319043909
 31
0
 12
0
 22
0
 32
0
 70
0
 13
14.76382960534628
 23
126.6832851683454
 33
0
 14
14.76382960534628
 24
136.6832851683454
 34
0
 50
90
 53
0
  0
DIMENSION
  8
1
  6
CONTINUOUS
 62
2
  2
*D9
  3
DMST_6
 10
272.249739745175
 20
99.68328516834539
 30
0
 11
267.849739745175
 21
126.1072118995484
 31
0
 12
0
 22
0
 32
0
 70
0
  1
54h7
 13
293.249739745175
 23
153.6832851683454
 33
0
 14
293.249739745175
 24
99.68328516834539
 34
0
 50
90
 53
0
  0
DIMENSION
  8
1
  6
CONTINUOUS
 62
2
  2
*D10
  3
DMST_5
 10
295.2497397451749
 20
172.1832851683454
 30
0
 11
301.5929630511459
 21
175.7832851683454
 31
0
 12
0
 22
0
 32
0
 70
0
 13
293.249739745175
 23
153.6832851683454
 33
0
 14
295.249739745175
 24
157.1832851683454
 34
0
 53
0
  0
DIMENSION
  8
1
  6
CONTINUOUS
 62
2
  2
*D11
  3
DMST_5
 10
282.2497397451751
 20
182.1832851683454
 30
0
 11
288.5171072285731
 21
185.7832851683454
 31
0
 12
0
 22
0
 32
0
 70
0
 13
295.249739745175
 23
157.1832851683454
 33
0
 14
282.249739745175
 24
130.0832851683454
 34
0
 53
0
  0
DIMENSION
  8
1
  6
CONTINUOUS
 62
2
  2
*D12
  3
DMST_7
 10
232.872939745175
 20
99.68328516834541
 30
0
 11
228.472939745175
 21
126.1426420242334
 31
0
 12
0
 22
0
 32
0
 70
0
  1
54H7
 13
214.872939745175
 23
153.6832851683454
 33
0
 14
214.872939745175
 24
99.68328516834539
 34
0
 50
90
 53
0
  0
DIMENSION
  8
1
  6
CONTINUOUS
 62
2
  2
*D13
  3
DMST_8
 10
-4.627070254825021
 20
182.1832851683454
 30
0
 11
25.85414718234129
 21
185.7832851683454
 31
0
 12
0
 22
0
 32
0
 70
0
 13
56.372939745175
 23
151.1832851683454
 33
0
 14
-4.627070254824972
 24
151.1832851683454
 34
0
 53
0
  0
DIMENSION
  8
1
  6
CONTINUOUS
 62
2
  2
*D14
  3
DMST_8
 10
81.37293974517499
 20
157.1832851683454
 30
0
 11
77.772939745175
 21
126.7181120340244
 31
0
 12
0
 22
0
 32
0
 70
0
 13
50.372939745175
 23
96.18328516834539
 33
0
 14
50.372939745175
 24
157.1832851683454
 34
0
 50
90
 53
0
  0
DIMENSION
  8
1
  6
CONTINUOUS
 62
2
  2
*D15
  3
DMST_5
 10
138.872939745175
 20
182.1832851683454
 30
0
 11
154.5302903470531
 21
185.7832851683454
 31
0
 12
0
 22
0
 32
0
 70
0
 13
170.872939745175
 23
156.6832851683454
 33
0
 14
138.872939745175
 24
139.6832850787704
 34
0
 53
0
  0
DIMENSION
  8
1
  6
CONTINUOUS
 62
2
  2
*D17
  3
DMST_9
 10
58.76656375977214
 20
138.641943085784
 30
0
 11
2.211562089604435
 21
121.9115907764887
 31
0
 12
0
 22
0
 32
0
 70
3
  1
(âË<>
 15
-7.020684269422119
 25
114.7246272509067
 35
0
 40
0
 53
0
  0
INSERT
  8
0
  2
G6G
 10
512.1508493378481
 20
-19.35254285150907
 30
0
  0
INSERT
  8
1
  2
*D16
 10
0
 20
0
 30
0
  0
ENDSEC
  0
EOF
