  0
SECTION
  2
HEADER
  9
$ACADVER
  1
AC1009
  9
$INSBASE
 10
0
 20
0
  9
$EXTMIN
 10
-194.5
 20
-146
  9
$EXTMAX
 10
194.5
 20
146
  9
$LIMMIN
 10
-194.5
 20
-146
  9
$LIMMAX
 10
194.5
 20
146
  9
$VIEWCTR
 10
10
 20
10
  9
$VIEWSIZE
 40
10
  9
$SNAPMODE
 70
0
  9
$SNAPUNIT
 10
1
 20
1
  9
$SNAPBASE
 10
0
 20
0
  9
$SNAPANG
 50
0
  9
$SNAPSTYLE
 70
0
  9
$SNAPISOPAIR
 70
0
  9
$GRIDMODE
 70
0
  9
$GRIDUNIT
 10
0
 20
0
  9
$ORTHOMODE
 70
0
  9
$REGENMODE
 70
1
  9
$FILLMODE
 70
1
  9
$QTEXTMODE
 70
0
  9
$DRAGMODE
 70
2
  9
$LTSCALE
 40
1
  9
$OSMODE
 70
0
  9
$ATTMODE
 70
1
  9
$TEXTSIZE
 40
3.5
  9
$TRACEWID
 40
0.5
  9
$TEXTSTYLE
  7
STANDARD
  9
$CLAYER
  8
0
  9
$CELTYPE
  6
BYLAYER
  9
$CECOLOR
 62
256
  9
$DIMSCALE
 40
1
  9
$DIMASZ
 40
0.18
  9
$DIMEXO
 40
0.0625
  9
$DIMDLI
 40
0.38
  9
$DIMRND
 40
0
  9
$DIMDLE
 40
0
  9
$DIMEXE
 40
0.18
  9
$DIMTP
 40
0
  9
$DIMTM
 40
0
  9
$DIMTXT
 40
0.18
  9
$DIMCEN
 40
0.09
  9
$DIMTSZ
 40
0
  9
$DIMTOL
 70
0
  9
$DIMLIM
 70
0
  9
$DIMTIH
 70
1
  9
$DIMTOH
 70
1
  9
$DIMSE1
 70
0
  9
$DIMSE2
 70
0
  9
$DIMTAD
 70
0
  9
$DIMZIN
 70
0
  9
$DIMBLK
  1

  9
$DIMASO
 70
1
  9
$DIMSHO
 70
1
  9
$DIMPOST
  1

  9
$DIMAPOST
  1

  9
$DIMALT
 70
0
  9
$DIMALTD
 70
2
  9
$DIMALTF
 40
25.4
  9
$DIMLFAC
 40
1
  9
$DIMTOFL
 70
0
  9
$DIMTVP
 40
0
  9
$DIMTIX
 70
0
  9
$DIMSOXD
 70
0
  9
$DIMSAH
 70
0
  9
$DIMBLK1
  1

  9
$DIMBLK2
  1

  9
$DIMSTYLE
  2
*UNNAMED
  9
$DIMCLRD
 70
0
  9
$DIMCLRE
 70
0
  9
$DIMCLRT
 70
0
  9
$DIMTFAC
 40
1
  9
$DIMGAP
 40
0.09
  9
$LUNITS
 70
2
  9
$LUPREC
 70
4
  9
$AXISMODE
 70
0
  9
$AXISUNIT
 10
0
 20
0
  9
$SKETCHINC
 40
0.1
  9
$FILLETRAD
 40
2
  9
$AUNITS
 70
0
  9
$AUPREC
 70
0
  9
$MENU
  1
ACAD
  9
$ELEVATION
 40
0
  9
$THICKNESS
 40
0
  9
$VIEWDIR
 10
0
 20
0
 30
1
  9
$LIMCHECK
 70
0
  9
$BLIPMODE
 70
1
  9
$CHAMFERA
 40
0
  9
$CHAMFERB
 40
0
  9
$FASTZOOM
 70
1
  9
$SKPOLY
 70
0
  9
$ANGBASE
 50
0
  9
$ANGDIR
 70
0
  9
$PDMODE
 70
0
  9
$PDSIZE
 40
0
  9
$PLINEWID
 40
0
  9
$COORDS
 70
2
  0
ENDSEC
  0
SECTION
  2
TABLES
  0
TABLE
  2
DIMSTYLE
 70
8
  0
DIMSTYLE
  2
DMST_1
 70
0
  3

  4

  5

  6

  7

 40
1
 41
3
 42
1
 43
7
 44
1
 45
0
 46
0
 47
0
 48
0
140
3.2
141
0
142
0
143
25.4
144
1
145
0
146
1
147
0.09
 71
0
 72
0
 73
0
 74
0
 75
0
 76
0
 77
1
 78
9
170
0
171
2
172
0
173
0
174
0
175
0
176
2
177
2
178
2
  0
DIMSTYLE
  2
DMST_2
 70
0
  3

  4

  5

  6

  7

 40
1
 41
3
 42
1
 43
7
 44
1
 45
0
 46
0
 47
0
 48
0.02
140
3.2
141
0
142
0
143
25.4
144
1
145
0
146
0.6
147
0.09
 71
1
 72
0
 73
0
 74
0
 75
0
 76
0
 77
1
 78
9
170
0
171
2
172
0
173
0
174
0
175
0
176
2
177
2
178
2
  0
DIMSTYLE
  2
DMST_3
 70
0
  3

  4

  5

  6

  7

 40
1
 41
3.2
 42
1
 43
7
 44
1
 45
0
 46
0
 47
0
 48
0
140
3.2
141
0
142
0
143
25.4
144
1
145
0
146
1
147
0.09
 71
0
 72
0
 73
0
 74
0
 75
0
 76
0
 77
1
 78
9
170
0
171
2
172
0
173
0
174
0
175
0
176
2
177
2
178
2
  0
DIMSTYLE
  2
DMST_4
 70
0
  3
)
  4

  5

  6

  7

 40
1
 41
3
 42
1
 43
7
 44
1
 45
0
 46
0
 47
0
 48
0
140
3.2
141
0
142
0
143
25.4
144
1
145
0
146
1
147
0.09
 71
0
 72
0
 73
0
 74
0
 75
0
 76
0
 77
1
 78
9
170
0
171
2
172
0
173
0
174
0
175
0
176
2
177
2
178
2
  0
DIMSTYLE
  2
DMST_5
 70
0
  3

  4

  5

  6

  7

 40
1
 41
3
 42
1
 43
7
 44
1
 45
0
 46
0
 47
30
 48
30
140
3.2
141
0
142
0
143
25.4
144
1
145
0
146
0.6
147
0.09
 71
1
 72
0
 73
0
 74
0
 75
0
 76
0
 77
1
 78
9
170
0
171
2
172
0
173
0
174
0
175
0
176
2
177
2
178
2
  0
DIMSTYLE
  2
DMST_6
 70
0
  3

  4

  5

  6

  7

 40
1
 41
3.2
 42
1
 43
7
 44
1
 45
0
 46
0
 47
0.3
 48
0.3
140
3.2
141
0
142
0
143
25.4
144
1
145
0
146
0.6
147
0.09
 71
1
 72
0
 73
0
 74
0
 75
0
 76
0
 77
1
 78
9
170
0
171
2
172
0
173
0
174
0
175
0
176
2
177
2
178
2
  0
DIMSTYLE
  2
DMST_7
 70
0
  3

  4

  5

  6

  7

 40
1
 41
3.2
 42
1
 43
7
 44
1
 45
0
 46
0
 47
0.03
 48
0
140
3.2
141
0
142
0
143
25.4
144
1
145
0
146
0.6
147
0.09
 71
1
 72
0
 73
0
 74
0
 75
0
 76
0
 77
1
 78
9
170
0
171
2
172
0
173
0
174
0
175
0
176
2
177
2
178
2
  0
DIMSTYLE
  2
DMST_8
 70
0
  3

  4

  5

  6

  7

 40
1
 41
3.2
 42
1
 43
7
 44
1
 45
0
 46
0
 47
0.5
 48
0.5
140
3.2
141
0
142
0
143
25.4
144
1
145
0
146
0.6
147
0.09
 71
1
 72
0
 73
0
 74
0
 75
0
 76
0
 77
1
 78
9
170
0
171
2
172
0
173
0
174
0
175
0
176
2
177
2
178
2
  0
ENDTAB
  0
TABLE
  2
LTYPE
 70
9
  0
LTYPE
  2
CONTINUOUS
 70
64
  3
Solid line
 72
65
 73
0
 40
0
  0
LTYPE
  2
BORDER
 70
64
  3
__ __ . __ __ .
 72
65
 73
6
 40
17.91447368421053
 49
5.118421052631579
 49
-2.559210526315789
 49
5.118421052631579
 49
-2.559210526315789
 49
0
 49
-2.559210526315789
  0
LTYPE
  2
CENTER
 70
64
  3
____ _ ____ _
 72
65
 73
4
 40
20.47368421052632
 49
12.79605263157895
 49
-2.559210526315789
 49
2.559210526315789
 49
-2.559210526315789
  0
LTYPE
  2
DASHDOT
 70
64
  3
__ . __ . __ .
 72
65
 73
4
 40
10.23684210526316
 49
5.118421052631579
 49
-2.559210526315789
 49
0
 49
-2.559210526315789
  0
LTYPE
  2
DASHED
 70
64
  3
__ __ __ __ __
 72
65
 73
2
 40
7.677631578947368
 49
5.118421052631579
 49
-2.559210526315789
  0
LTYPE
  2
DIVIDE
 70
64
  3
__ . . __ . . 
 72
65
 73
6
 40
12.79605263157895
 49
5.118421052631579
 49
-2.559210526315789
 49
0
 49
-2.559210526315789
 49
0
 49
-2.559210526315789
  0
LTYPE
  2
DOT
 70
64
  3
..............
 72
65
 73
4
 40
5.118421052631579
 49
0
 49
-2.559210526315789
 49
0
 49
-2.559210526315789
  0
LTYPE
  2
HIDDEN
 70
64
  3
_ _ _ _ _ _ _
 72
65
 73
2
 40
3.838815789473684
 49
2.559210526315789
 49
-1.279605263157895
  0
LTYPE
  2
PHANTOM
 70
64
  3
_____ _ _ _____ _ _ 
 72
65
 73
6
 40
25.59210526315789
 49
12.79605263157895
 49
-2.559210526315789
 49
2.559210526315789
 49
-2.559210526315789
 49
2.559210526315789
 49
-2.559210526315789
  0
ENDTAB
  0
TABLE
  2
LAYER
 70
3
  0
LAYER
  2
1
 70
0
 62
7
  6
CONTINUOUS
  0
LAYER
  2
0
 70
0
 62
7
  6
CONTINUOUS
  0
ENDTAB
  0
TABLE
  2
STYLE
 70
4
  0
STYLE
  2
STANDARD
 70
0
 40
0
 41
1
 50
0
 71
0
 42
3.5
  3
txt
  4

  0
STYLE
  2
SIMPLEX
 70
0
 40
0
 41
1
 50
0
 71
0
 42
3.5
  3
simplex
  4

  0
STYLE
  2
COMPLEX
 70
0
 40
0
 41
1
 50
0
 71
0
 42
3.5
  3
complex
  4

  0
STYLE
  2
ITALIC
 70
0
 40
0
 41
1
 50
0
 71
0
 42
3.5
  3
italic
  4

  0
ENDTAB
  0
TABLE
  2
VIEW
 70
0
  0
ENDTAB
  0
ENDSEC
  0
SECTION
  2
BLOCKS
  0
BLOCK
  8
0
  2
___R___O_______R
 70
0
 10
0.5
 20
-3.75
 30
0
  0
LINE
  8
1
 62
4
  6
PHANTOM
 10
194.5
 20
-136.5
 30
0
 11
194.5
 21
-146
 31
0
  0
LINE
  8
1
 62
4
  6
PHANTOM
 10
-194.5
 20
-146
 30
0
 11
-194.5
 21
146
 31
0
  0
LINE
  8
1
 62
4
  6
PHANTOM
 10
194.5
 20
146
 30
0
 11
194.5
 21
129
 31
0
  0
LINE
  8
1
 62
4
  6
PHANTOM
 10
194.5
 20
146
 30
0
 11
-194.5
 21
146
 31
0
  0
LINE
  8
1
 62
4
  6
PHANTOM
 10
-194.5
 20
-146
 30
0
 11
194.5
 21
-146
 31
0
  0
TEXT
  8
1
 62
4
 10
178.746911898274
 20
-142.6071298819256
 30
0
 40
5
  1
A3
 41
0.9
 72
1
 73
2
 11
183.246911898274
 21
-140.1071298819256
 31
0
  0
ENDBLK
  8
0
  0
BLOCK
  8
0
  2
___
 70
0
 10
-196.1221264909976
 20
-445.6883015227631
 30
0
  0
LINE
  8
1
 62
2
  6
DOT
 10
-39.5
 20
-79.60000000000002
 30
0
 11
-39.5
 21
-93.19999999999999
 31
0
  0
LINE
  8
1
 62
7
 10
-89.5
 20
-76
 30
0
 11
-89.5
 21
-93.19999999999999
 31
0
  0
LINE
  8
1
 62
7
 10
-19.49999999999989
 20
-76
 30
0
 11
-154.5
 21
-76
 31
0
  0
LINE
  8
1
 62
7
 10
-154.5
 20
-88.19999999999999
 30
0
 11
-19.5
 21
-88.19999999999999
 31
0
  0
LINE
  8
1
 62
7
 10
-154.5
 20
-93.19999999999999
 30
0
 11
-19.5
 21
-93.19999999999999
 31
0
  0
LINE
  8
1
 62
7
 10
-19.49999999999989
 20
-76
 30
0
 11
-19.5
 21
-93.19999999999999
 31
0
  0
LINE
  8
1
 62
7
 10
-124.5
 20
-76
 30
0
 11
-124.5
 21
-93.19999999999999
 31
0
  0
LINE
  8
1
 62
7
 10
-154.5
 20
-76
 30
0
 11
-154.5
 21
-93.19999999999999
 31
0
  0
LINE
  8
1
 62
4
  6
PHANTOM
 10
-194.5
 20
-146
 30
0
 11
-194.5
 21
-136
 31
0
  0
LINE
  8
1
 62
4
  6
PHANTOM
 10
-194.5
 20
-146
 30
0
 11
-184.5
 21
-146
 31
0
  0
LINE
  8
1
 62
7
 10
-124.5
 20
-79.60000000000002
 30
0
 11
-19.5
 21
-79.60000000000002
 31
0
  0
LINE
  8
1
 62
7
 10
-54.49999999999989
 20
-76
 30
0
 11
-54.49999999999989
 21
-93.19999999999999
 31
0
  0
LINE
  8
1
 62
2
  6
DOT
 10
-109.5
 20
-79.60000000000002
 30
0
 11
-109.5
 21
-93.19999999999999
 31
0
  0
LINE
  8
1
 62
7
 10
-154.5
 20
-83.19999999999999
 30
0
 11
-19.5
 21
-83.19999999999999
 31
0
  0
LINE
  8
1
 62
2
  6
DOT
 10
-74.5
 20
-79.60000000000002
 30
0
 11
-74.5
 21
-93.19999999999999
 31
0
  0
TEXT
  8
1
 62
2
 10
-43.35040000000013
 20
-79.06000000000002
 30
0
 40
2.520000000000007
  1
ＢＯＬＴ
 41
0.63
 72
1
 73
2
 11
-37
 21
-77.80000000000001
 31
0
  0
TEXT
  8
1
 62
7
 10
-58.25
 20
-91.94999999999999
 30
0
 40
2.5
  1
Ｍ５×６０
 41
0.9
 72
1
 73
2
 11
-47
 21
-90.69999999999999
 31
0
  0
TEXT
  8
1
 62
7
 10
-58.25
 20
-86.94999999999999
 30
0
 40
2.5
  1
Ｍ５×５０
 41
0.9
 72
1
 73
2
 11
-47
 21
-85.69999999999999
 31
0
  0
TEXT
  8
1
 62
2
 10
-51.7628000000001
 20
-82.65999999999998
 30
0
 40
2.520000000000007
  1
(ｍｍ)
 41
0.63
 72
1
 73
2
 11
-47
 21
-81.39999999999998
 31
0
  0
TEXT
  8
1
 62
2
 10
-37.43800000000016
 20
-82.65999999999998
 30
0
 40
2.520000000000007
  1
(ｉｎｃｈ)
 41
0.63
 72
1
 73
2
 11
-29.5
 21
-81.39999999999998
 31
0
  0
TEXT
  8
1
 62
7
 10
-43.9
 20
-91.94999999999999
 30
0
 40
2.5
  1
Ｍ５×２．３６２
 41
0.7200000000000001
 72
1
 73
2
 11
-29.5
 21
-90.69999999999999
 31
0
  0
TEXT
  8
1
 62
7
 10
-43.9
 20
-86.94999999999999
 30
0
 40
2.5
  1
Ｍ５×１．９６９
 41
0.7200000000000001
 72
1
 73
2
 11
-29.5
 21
-85.69999999999999
 31
0
  0
TEXT
  8
1
 62
2
 10
-74.38140000000004
 20
-79.06000000000002
 30
0
 40
2.520000000000007
  1
Ｌ2
 41
0.63
 72
1
 73
2
 11
-72
 21
-77.80000000000001
 31
0
  0
TEXT
  8
1
 62
7
 10
-86.5
 20
-91.94999999999999
 30
0
 40
2.5
  1
４２
 41
0.9
 72
1
 73
2
 11
-82
 21
-90.69999999999999
 31
0
  0
TEXT
  8
1
 62
7
 10
-86.5
 20
-86.94999999999999
 30
0
 40
2.5
  1
３２
 41
0.9
 72
1
 73
2
 11
-82
 21
-85.69999999999999
 31
0
  0
TEXT
  8
1
 62
7
 10
-128.25
 20
-91.94999999999999
 30
0
 40
2.5
  1
１１１．０
 41
0.9
 72
1
 73
2
 11
-117
 21
-90.69999999999999
 31
0
  0
TEXT
  8
1
 62
7
 10
-128.25
 20
-86.94999999999999
 30
0
 40
2.5
  1
１０１．０
 41
0.9
 72
1
 73
2
 11
-117
 21
-85.69999999999999
 31
0
  0
TEXT
  8
1
 62
2
 10
-109.3814
 20
-79.06000000000002
 30
0
 40
2.520000000000007
  1
Ｌ1
 41
0.63
 72
1
 73
2
 11
-107
 21
-77.80000000000001
 31
0
  0
TEXT
  8
1
 62
7
 10
-153.5
 20
-91.94999999999999
 30
0
 40
2.5
  1
１／２２５ ～ １／１８００
 41
0.7200000000000001
 73
2
 11
-153.5
 21
-90.69999999999999
 31
0
  0
TEXT
  8
1
 62
7
 10
-153.5
 20
-86.94999999999999
 30
0
 40
2.5
  1
１／３　　 ～ １／１８０
 41
0.7200000000000001
 73
2
 11
-153.5
 21
-85.69999999999999
 31
0
  0
TEXT
  8
1
 62
2
 10
-163.9944000000005
 20
-80.85999999999997
 30
0
 40
2.520000000000007
  1
ＤＥＣＯＬＥＲＡＴＩＯＮ　ＲＡＴＩＯ
 41
0.5399999999999999
 72
1
 73
2
 11
-139.5
 21
-79.59999999999997
 31
0
  0
TEXT
  8
1
 62
2
 10
-121.7628000000001
 20
-82.65999999999998
 30
0
 40
2.520000000000007
  1
(ｍｍ)
 41
0.63
 72
1
 73
2
 11
-117
 21
-81.39999999999998
 31
0
  0
TEXT
  8
1
 62
2
 10
-86.7628000000001
 20
-82.65999999999998
 30
0
 40
2.520000000000007
  1
(ｍｍ)
 41
0.63
 72
1
 73
2
 11
-82
 21
-81.39999999999998
 31
0
  0
TEXT
  8
1
 62
2
 10
-107.4380000000002
 20
-82.65999999999998
 30
0
 40
2.520000000000007
  1
(ｉｎｃｈ)
 41
0.63
 72
1
 73
2
 11
-99.5
 21
-81.39999999999998
 31
0
  0
TEXT
  8
1
 62
2
 10
-72.43800000000016
 20
-82.65999999999998
 30
0
 40
2.520000000000007
  1
(ｉｎｃｈ)
 41
0.63
 72
1
 73
2
 11
-64.5
 21
-81.39999999999998
 31
0
  0
TEXT
  8
1
 62
7
 10
-110.75
 20
-86.94999999999999
 30
0
 40
2.5
  1
３．９７６
 41
0.9
 72
1
 73
2
 11
-99.5
 21
-85.69999999999999
 31
0
  0
TEXT
  8
1
 62
7
 10
-108.5
 20
-91.94999999999999
 30
0
 40
2.5
  1
４．３７
 41
0.9
 72
1
 73
2
 11
-99.5
 21
-90.69999999999999
 31
0
  0
TEXT
  8
1
 62
7
 10
-75.75
 20
-91.94999999999999
 30
0
 40
2.5
  1
１．６５４
 41
0.9
 72
1
 73
2
 11
-64.5
 21
-90.69999999999999
 31
0
  0
TEXT
  8
1
 62
7
 10
-73.5
 20
-86.94999999999999
 30
0
 40
2.5
  1
１．２６
 41
0.9
 72
1
 73
2
 11
-64.5
 21
-85.69999999999999
 31
0
  0
ENDBLK
  8
0
  0
BLOCK
  8
0
  2
TOP
 70
0
 10
358.2751942342005
 20
217.2680463147007
 30
0
  0
INSERT
  8
0
  2
___
 10
-196.1221264909976
 20
-445.6883015227631
 30
0
  0
ENDBLK
  8
0
  0
BLOCK
  8
1
  2
*D0
 70
1
 10
0
 20
0
 30
0
  0
LINE
  8
1
 62
2
 10
-1.06581410364015e-014
 20
74.02505934373551
 30
0
 11
34.99999999999999
 21
74.02505934373551
 31
0
  0
LINE
  8
1
 62
2
 10
34.99999999999999
 20
40.5
 30
0
 11
34.99999999999999
 21
75.02505934373551
 31
0
  0
LINE
  8
1
 62
2
 10
-1.06581410364015e-014
 20
20.58257569495583
 30
0
 11
-1.06581410364015e-014
 21
75.02505934373551
 31
0
  0
SOLID
  8
1
 62
2
 10
-1.06581410364015e-014
 20
74.02505934373551
 30
0
 11
2.99999999999999
 21
74.41505934373551
 31
0
 12
2.99999999999999
 22
73.63505934373551
 32
0
 13
2.99999999999999
 23
73.63505934373551
 33
0
  0
SOLID
  8
1
 62
2
 10
34.99999999999999
 20
74.02505934373551
 30
0
 11
31.99999999999999
 21
73.63505934373551
 31
0
 12
31.99999999999999
 22
74.41505934373551
 32
0
 13
31.99999999999999
 23
74.41505934373551
 33
0
  0
TEXT
  8
1
 62
2
 10
15.09999999999999
 20
75.02505934373551
 30
0
 40
3.2
  1
35
 41
0.9
  0
ENDBLK
  8
0
  0
BLOCK
  8
1
  2
*D1
 70
1
 10
0
 20
0
 30
0
  0
LINE
  8
1
 62
2
 10
-1.06581410364015e-014
 20
50.00000000000002
 30
0
 11
25
 21
50.00000000000002
 31
0
  0
LINE
  8
1
 62
2
 10
-1.06581410364015e-014
 20
20.58257569495584
 30
0
 11
-1.06581410364015e-014
 21
51.00000000000002
 31
0
  0
LINE
  8
1
 62
2
 10
25
 20
18.5
 30
0
 11
25
 21
51.00000000000002
 31
0
  0
SOLID
  8
1
 62
2
 10
-1.06581410364015e-014
 20
50.00000000000002
 30
0
 11
2.99999999999999
 21
50.39000000000002
 31
0
 12
2.99999999999999
 22
49.61000000000002
 32
0
 13
2.99999999999999
 23
49.61000000000002
 33
0
  0
SOLID
  8
1
 62
2
 10
25
 20
50.00000000000002
 30
0
 11
22
 21
49.61000000000002
 31
0
 12
22
 22
50.39000000000002
 32
0
 13
22
 23
50.39000000000002
 33
0
  0
TEXT
  8
1
 62
2
 10
10.1
 20
51.00000000000002
 30
0
 40
3.2
  1
25
 41
0.9
  0
ENDBLK
  8
0
  0
BLOCK
  8
1
  2
*D2
 70
1
 10
0
 20
0
 30
0
  0
LINE
  8
1
 62
2
 10
-10.6105029821582
 20
20
 30
0
 11
-10.6105029821582
 21
32.5786998893089
 31
0
  0
LINE
  8
1
 62
2
 10
-10.6105029821582
 20
17.5
 30
0
 11
-10.6105029821582
 21
20
 31
0
  0
LINE
  8
1
 62
2
 10
-10.6105029821582
 20
11.5
 30
0
 11
-10.6105029821582
 21
17.5
 31
0
  0
LINE
  8
1
 62
2
 10
28.3301270189222
 20
20
 30
0
 11
-11.6105029821582
 21
20
 31
0
  0
LINE
  8
1
 62
2
 10
-1.000000000000011
 20
17.5
 30
0
 11
-11.6105029821582
 21
17.5
 31
0
  0
SOLID
  8
1
 62
2
 10
-10.6105029821582
 20
20
 30
0
 11
-11.0005029821582
 21
23
 31
0
 12
-10.2205029821582
 22
23
 32
0
 13
-10.2205029821582
 23
23
 33
0
  0
SOLID
  8
1
 62
2
 10
-10.6105029821582
 20
17.5
 30
0
 11
-10.2205029821582
 21
14.5
 31
0
 12
-11.0005029821582
 22
14.5
 32
0
 13
-11.0005029821582
 23
14.5
 33
0
  0
TEXT
  8
1
 62
2
 10
-11.6105029821582
 20
26.7386998893089
 30
0
 40
3.2
  1
2.5
 50
90
 41
0.9
  0
ENDBLK
  8
0
  0
BLOCK
  8
1
  2
*D3
 70
1
 10
0
 20
0
 30
0
  0
LINE
  8
1
 62
2
 10
-22.6364339363561
 20
20
 30
0
 11
-22.6364339363561
 21
39.59784227892412
 31
0
  0
LINE
  8
1
 62
2
 10
-22.6364339363561
 20
10
 30
0
 11
-22.6364339363561
 21
20
 31
0
  0
LINE
  8
1
 62
2
 10
28.3301270189222
 20
20
 30
0
 11
-23.6364339363561
 21
20
 31
0
  0
LINE
  8
1
 62
2
 10
-1.000000000000011
 20
10
 30
0
 11
-23.6364339363561
 21
10
 31
0
  0
SOLID
  8
1
 62
2
 10
-22.6364339363561
 20
20
 30
0
 11
-22.2464339363561
 21
17
 31
0
 12
-23.0264339363561
 22
17
 32
0
 13
-23.0264339363561
 23
17
 33
0
  0
SOLID
  8
1
 62
2
 10
-22.6364339363561
 20
10
 30
0
 11
-23.0264339363561
 21
13
 31
0
 12
-22.24643393635611
 22
13
 32
0
 13
-22.24643393635611
 23
13
 33
0
  0
TEXT
  8
1
 62
2
 10
-24.4364339363561
 20
27.38984227892412
 30
0
 40
3.2
  1
10
 50
90
 41
0.9
  0
TEXT
  8
1
 62
2
 10
-26.5164339363561
 20
32.82984227892412
 30
0
 40
1.92
  1
 0
 50
90
 41
0.9
  0
TEXT
  8
1
 62
2
 10
-23.6364339363561
 20
32.82984227892412
 30
0
 40
1.92
  1
-0.02
 50
90
 41
0.9
  0
TEXT
  8
1
 62
2
 10
-24.4364339363561
 20
23.74539783447968
 30
0
 40
3.2
  1
φ
 50
90
 41
0.9
  0
ENDBLK
  8
0
  0
BLOCK
  8
1
  2
*D4
 70
1
 10
0
 20
0
 30
0
  0
LINE
  8
1
 62
2
 10
34.99999999999999
 20
61.9011212872969
 30
0
 11
67
 21
61.9011212872969
 31
0
  0
LINE
  8
1
 62
2
 10
67
 20
41
 30
0
 11
67
 21
62.9011212872969
 31
0
  0
LINE
  8
1
 62
2
 10
34.99999999999999
 20
40.5
 30
0
 11
34.99999999999999
 21
62.9011212872969
 31
0
  0
SOLID
  8
1
 62
2
 10
34.99999999999999
 20
61.9011212872969
 30
0
 11
37.99999999999999
 21
62.2911212872969
 31
0
 12
37.99999999999999
 22
61.5111212872969
 32
0
 13
37.99999999999999
 23
61.5111212872969
 33
0
  0
SOLID
  8
1
 62
2
 10
67
 20
61.9011212872969
 30
0
 11
64
 21
61.5111212872969
 31
0
 12
64
 22
62.2911212872969
 32
0
 13
64
 23
62.2911212872969
 33
0
  0
TEXT
  8
1
 62
2
 10
48.6
 20
62.9011212872969
 30
0
 40
3.2
  1
L2
 41
0.9
  0
ENDBLK
  8
0
  0
BLOCK
  8
1
  2
*D5
 70
1
 10
0
 20
0
 30
0
  0
LINE
  8
1
 62
2
 10
34.99999999999999
 20
74.0067188953882
 30
0
 11
136
 21
74.0067188953882
 31
0
  0
LINE
  8
1
 62
2
 10
136
 20
20.5
 30
0
 11
136
 21
75.0067188953882
 31
0
  0
LINE
  8
1
 62
2
 10
34.99999999999999
 20
40.5
 30
0
 11
34.99999999999999
 21
75.0067188953882
 31
0
  0
SOLID
  8
1
 62
2
 10
34.99999999999999
 20
74.0067188953882
 30
0
 11
38.2
 21
74.4227188953882
 31
0
 12
38.2
 22
73.59071889538821
 32
0
 13
38.2
 23
73.59071889538821
 33
0
  0
SOLID
  8
1
 62
2
 10
136
 20
74.0067188953882
 30
0
 11
132.8
 21
73.59071889538821
 31
0
 12
132.8
 22
74.4227188953882
 32
0
 13
132.8
 23
74.4227188953882
 33
0
  0
TEXT
  8
1
 62
2
 10
83.58
 20
75.0067188953882
 30
0
 40
3.2
  1
L1
 41
0.9
  0
ENDBLK
  8
0
  0
BLOCK
  8
1
  2
*D6
 70
1
 10
0
 20
0
 30
0
  0
LINE
  8
1
 62
2
 10
161.006501193659
 20
-90.5
 30
0
 11
161.006501193659
 21
-84.5
 31
0
  0
LINE
  8
1
 62
2
 10
161.006501193659
 20
-84.5
 30
0
 11
161.006501193659
 21
-81.5
 31
0
  0
LINE
  8
1
 62
2
 10
161.006501193659
 20
-81.5
 30
0
 11
161.006501193659
 21
-70.50565334582424
 31
0
  0
LINE
  8
1
 62
2
 10
122.3612878820809
 20
-84.5
 30
0
 11
162.006501193659
 21
-84.5
 31
0
  0
LINE
  8
1
 62
2
 10
123
 20
-81.5
 30
0
 11
162.006501193659
 21
-81.5
 31
0
  0
SOLID
  8
1
 62
2
 10
161.006501193659
 20
-81.5
 30
0
 11
160.616501193659
 21
-78.5
 31
0
 12
161.396501193659
 22
-78.5
 32
0
 13
161.396501193659
 23
-78.5
 33
0
  0
SOLID
  8
1
 62
2
 10
161.006501193659
 20
-84.5
 30
0
 11
161.396501193659
 21
-87.5
 31
0
 12
160.616501193659
 22
-87.5
 32
0
 13
160.616501193659
 23
-87.5
 33
0
  0
TEXT
  8
1
 62
2
 10
160.006501193659
 20
-74.50565334582423
 30
0
 40
3.2
  1
3
 50
90
 41
0.9
  0
TEXT
  8
1
 62
2
 10
160.006501193659
 20
-76.58565334582424
 30
0
 40
3.2
  1
(
 50
90
 41
0.9
  0
TEXT
  8
1
 62
2
 10
160.006501193659
 20
-70.98565334582423
 30
0
 40
3.2
  1
)
 50
90
 41
0.9
  0
ENDBLK
  8
0
  0
BLOCK
  8
1
  2
*D7
 70
1
 10
0
 20
0
 30
0
  0
LINE
  8
1
 62
2
 10
172.979643875196
 20
-29.5
 30
0
 11
172.979643875196
 21
29.5
 31
0
  0
LINE
  8
1
 62
2
 10
127
 20
-29.5
 30
0
 11
173.979643875196
 21
-29.5
 31
0
  0
LINE
  8
1
 62
2
 10
127
 20
29.5
 30
0
 11
173.979643875196
 21
29.5
 31
0
  0
SOLID
  8
1
 62
2
 10
172.979643875196
 20
29.5
 30
0
 11
173.369643875196
 21
26.5
 31
0
 12
172.589643875196
 22
26.5
 32
0
 13
172.589643875196
 23
26.5
 33
0
  0
SOLID
  8
1
 62
2
 10
172.979643875196
 20
-29.5
 30
0
 11
172.589643875196
 21
-26.5
 31
0
 12
173.369643875196
 22
-26.5
 32
0
 13
173.369643875196
 23
-26.5
 33
0
  0
TEXT
  8
1
 62
2
 10
171.979643875196
 20
-0.577777777777778
 30
0
 40
3.2
  1
59
 50
90
 41
0.9
  0
TEXT
  8
1
 62
2
 10
171.979643875196
 20
-4.222222222222222
 30
0
 40
3.2
  1
φ
 50
90
 41
0.9
  0
ENDBLK
  8
0
  0
BLOCK
  8
1
  2
*D8
 70
1
 10
0
 20
0
 30
0
  0
LINE
  8
1
 62
2
 10
161.006501193659
 20
-12.5
 30
0
 11
161.006501193659
 21
12.5
 31
0
  0
LINE
  8
1
 62
2
 10
144.5
 20
-12.5
 30
0
 11
162.006501193659
 21
-12.5
 31
0
  0
LINE
  8
1
 62
2
 10
144.5
 20
12.5
 30
0
 11
162.006501193659
 21
12.5
 31
0
  0
SOLID
  8
1
 62
2
 10
161.006501193659
 20
12.5
 30
0
 11
161.396501193659
 21
9.5
 31
0
 12
160.616501193659
 22
9.5
 32
0
 13
160.616501193659
 23
9.5
 33
0
  0
SOLID
  8
1
 62
2
 10
161.006501193659
 20
-12.5
 30
0
 11
160.616501193659
 21
-9.5
 31
0
 12
161.396501193659
 22
-9.5
 32
0
 13
161.396501193659
 23
-9.5
 33
0
  0
TEXT
  8
1
 62
2
 10
160.006501193659
 20
-0.577777777777778
 30
0
 40
3.2
  1
25
 50
90
 41
0.9
  0
TEXT
  8
1
 62
2
 10
160.006501193659
 20
-4.222222222222222
 30
0
 40
3.2
  1
φ
 50
90
 41
0.9
  0
ENDBLK
  8
0
  0
BLOCK
  8
1
  2
*D9
 70
1
 10
0
 20
0
 30
0
  0
LINE
  8
1
 62
2
 10
136
 20
73.98947564688351
 30
0
 11
145.5
 21
73.98947564688351
 31
0
  0
LINE
  8
1
 62
2
 10
145.5
 20
73.98947564688351
 30
0
 11
158.0199490415981
 21
73.98947564688351
 31
0
  0
LINE
  8
1
 62
2
 10
136
 20
20.5
 30
0
 11
136
 21
74.98947564688351
 31
0
  0
LINE
  8
1
 62
2
 10
145.5
 20
11.5
 30
0
 11
145.5
 21
74.98947564688351
 31
0
  0
SOLID
  8
1
 62
2
 10
136
 20
73.98947564688351
 30
0
 11
139
 21
74.37947564688351
 31
0
 12
139
 22
73.59947564688351
 32
0
 13
139
 23
73.59947564688351
 33
0
  0
SOLID
  8
1
 62
2
 10
145.5
 20
73.98947564688351
 30
0
 11
142.5
 21
73.59947564688351
 31
0
 12
142.5
 22
74.37947564688351
 32
0
 13
142.5
 23
74.37947564688351
 33
0
  0
TEXT
  8
1
 62
2
 10
150.0999490415981
 20
74.98947564688351
 30
0
 40
3.2
  1
9.5
 41
0.9
  0
TEXT
  8
1
 62
2
 10
148.0199490415981
 20
74.98947564688351
 30
0
 40
3.2
  1
(
 41
0.9
  0
TEXT
  8
1
 62
2
 10
157.5399490415981
 20
74.98947564688351
 30
0
 40
3.2
  1
)
 41
0.9
  0
ENDBLK
  8
0
  0
BLOCK
  8
1
  2
*D10
 70
1
 10
0
 20
0
 30
0
  0
LINE
  8
1
 62
2
 10
172.979643875196
 20
-84.5
 30
0
 11
172.979643875196
 21
-29.5
 31
0
  0
LINE
  8
1
 62
2
 10
122.3612878820809
 20
-84.5
 30
0
 11
173.979643875196
 21
-84.5
 31
0
  0
LINE
  8
1
 62
2
 10
127
 20
-29.5
 30
0
 11
173.979643875196
 21
-29.5
 31
0
  0
SOLID
  8
1
 62
2
 10
172.979643875196
 20
-84.5
 30
0
 11
172.589643875196
 21
-81.5
 31
0
 12
173.369643875196
 22
-81.5
 32
0
 13
173.369643875196
 23
-81.5
 33
0
  0
SOLID
  8
1
 62
2
 10
172.979643875196
 20
-29.5
 30
0
 11
173.369643875196
 21
-32.5
 31
0
 12
172.589643875196
 22
-32.5
 32
0
 13
172.589643875196
 23
-32.5
 33
0
  0
TEXT
  8
1
 62
2
 10
171.979643875196
 20
-63.752
 30
0
 40
3.2
  1
300
 50
90
 41
0.9
  0
TEXT
  8
1
 62
2
 10
171.339643875196
 20
-54.472
 30
0
 40
1.92
  1
%%p30
 50
90
 41
0.9
  0
ENDBLK
  8
0
  0
BLOCK
  8
1
  2
*D11
 70
1
 10
0
 20
0
 30
0
  0
LINE
  8
1
 62
2
 10
30
 20
61.90502415052339
 30
0
 11
22.5447851390506
 21
61.90502415052339
 31
0
  0
LINE
  8
1
 62
2
 10
30
 20
61.90502415052339
 30
0
 11
34.99999999999999
 21
61.90502415052339
 31
0
  0
LINE
  8
1
 62
2
 10
41.39999999999999
 20
61.90502415052339
 30
0
 11
34.99999999999999
 21
61.90502415052339
 31
0
  0
LINE
  8
1
 62
2
 10
34.99999999999999
 20
40.5
 30
0
 11
34.99999999999999
 21
62.90502415052339
 31
0
  0
LINE
  8
1
 62
2
 10
30
 20
29.63
 30
0
 11
30
 21
62.90502415052339
 31
0
  0
SOLID
  8
1
 62
2
 10
30
 20
61.90502415052339
 30
0
 11
26.8
 21
61.48902415052339
 31
0
 12
26.8
 22
62.32102415052339
 32
0
 13
26.8
 23
62.32102415052339
 33
0
  0
SOLID
  8
1
 62
2
 10
34.99999999999999
 20
61.90502415052339
 30
0
 11
38.2
 21
62.32102415052339
 31
0
 12
38.2
 22
61.48902415052339
 32
0
 13
38.2
 23
61.48902415052339
 33
0
  0
TEXT
  8
1
 62
2
 10
22.5447851390506
 20
62.9050241505234
 30
0
 40
3.2
  1
5
 41
0.9
  0
ENDBLK
  8
0
  0
BLOCK
  8
1
  2
*D12
 70
1
 10
0
 20
0
 30
0
  0
LINE
  8
1
 62
2
 10
-150.0000000000001
 20
86.111812470225
 30
0
 11
-70.00000000000003
 21
86.111812470225
 31
0
  0
LINE
  8
1
 62
2
 10
-70.00000000000003
 20
34.25
 30
0
 11
-70.00000000000003
 21
87.111812470225
 31
0
  0
LINE
  8
1
 62
2
 10
-150.0000000000001
 20
34.25
 30
0
 11
-150.0000000000001
 21
87.111812470225
 31
0
  0
SOLID
  8
1
 62
2
 10
-150.0000000000001
 20
86.111812470225
 30
0
 11
-146.8000000000001
 21
86.527812470225
 31
0
 12
-146.8000000000001
 22
85.69581247022501
 32
0
 13
-146.8000000000001
 23
85.69581247022501
 33
0
  0
SOLID
  8
1
 62
2
 10
-70.00000000000003
 20
86.111812470225
 30
0
 11
-73.20000000000003
 21
85.69581247022501
 31
0
 12
-73.20000000000003
 22
86.527812470225
 32
0
 13
-73.20000000000003
 23
86.527812470225
 33
0
  0
TEXT
  8
1
 62
2
 10
-110.3111111111111
 20
87.111812470225
 30
0
 40
3.2
  1
80
 41
0.9
  0
TEXT
  8
1
 62
2
 10
-114.4888888888889
 20
87.111812470225
 30
0
 40
3.2
  1
□
 41
0.9
  0
ENDBLK
  8
0
  0
BLOCK
  8
1
  2
*D13
 70
1
 10
0
 20
0
 30
0
  0
LINE
  8
1
 62
2
 10
-143.2500000000001
 20
74.0224804065669
 30
0
 11
-76.75
 21
74.0224804065669
 31
0
  0
LINE
  8
1
 62
2
 10
-76.75
 20
41
 30
0
 11
-76.75
 21
75.0224804065669
 31
0
  0
LINE
  8
1
 62
2
 10
-143.2500000000001
 20
41
 30
0
 11
-143.2500000000001
 21
75.0224804065669
 31
0
  0
SOLID
  8
1
 62
2
 10
-143.2500000000001
 20
74.0224804065669
 30
0
 11
-140.0500000000002
 21
74.4384804065669
 31
0
 12
-140.0500000000002
 22
73.6064804065669
 32
0
 13
-140.0500000000002
 23
73.6064804065669
 33
0
  0
SOLID
  8
1
 62
2
 10
-76.75
 20
74.0224804065669
 30
0
 11
-79.95
 21
73.6064804065669
 31
0
 12
-79.95
 22
74.4384804065669
 32
0
 13
-79.95
 23
74.4384804065669
 33
0
  0
TEXT
  8
1
 62
2
 10
-117.584
 20
75.0224804065669
 30
0
 40
3.2
  1
66.5
 41
0.9
  0
TEXT
  8
1
 62
2
 10
-107.264
 20
75.6624804065669
 30
0
 40
1.92
  1
%%p0.3
 41
0.9
  0
ENDBLK
  8
0
  0
BLOCK
  8
1
  2
*D14
 70
1
 10
0
 20
0
 30
0
  0
LINE
  8
1
 62
2
 10
-127
 20
62.1726311147166
 30
0
 11
-93
 21
62.1726311147166
 31
0
  0
LINE
  8
1
 62
2
 10
-93
 20
16
 30
0
 11
-93
 21
63.1726311147166
 31
0
  0
LINE
  8
1
 62
2
 10
-127
 20
16
 30
0
 11
-127
 21
63.1726311147166
 31
0
  0
SOLID
  8
1
 62
2
 10
-127
 20
62.1726311147166
 30
0
 11
-123.8
 21
62.5886311147166
 31
0
 12
-123.8
 22
61.75663111471661
 32
0
 13
-123.8
 23
61.75663111471661
 33
0
  0
SOLID
  8
1
 62
2
 10
-93
 20
62.1726311147166
 30
0
 11
-96.2
 21
61.75663111471661
 31
0
 12
-96.2
 22
62.5886311147166
 32
0
 13
-96.2
 23
62.5886311147166
 33
0
  0
TEXT
  8
1
 62
2
 10
-110.5777777777778
 20
63.1726311147166
 30
0
 40
3.2
  1
34
 41
0.9
  0
TEXT
  8
1
 62
2
 10
-114.2222222222222
 20
63.1726311147166
 30
0
 40
3.2
  1
φ
 41
0.9
  0
ENDBLK
  8
0
  0
BLOCK
  8
1
  2
*D15
 70
1
 10
0
 20
0
 30
0
  0
LINE
  8
1
 62
2
 10
-101.6
 20
50.0130544528453
 30
0
 11
-108
 21
50.0130544528453
 31
0
  0
LINE
  8
1
 62
2
 10
-112
 20
50.0130544528453
 30
0
 11
-108
 21
50.0130544528453
 31
0
  0
LINE
  8
1
 62
2
 10
-112
 20
50.0130544528453
 30
0
 11
-165.60591644028
 21
50.0130544528453
 31
0
  0
LINE
  8
1
 62
2
 10
-112
 20
20.58257569495578
 30
0
 11
-112
 21
51.0130544528453
 31
0
  0
LINE
  8
1
 62
2
 10
-108
 20
20.58257569495578
 30
0
 11
-108
 21
51.0130544528453
 31
0
  0
SOLID
  8
1
 62
2
 10
-112
 20
50.0130544528453
 30
0
 11
-115.2
 21
49.59705445284531
 31
0
 12
-115.2
 22
50.4290544528453
 32
0
 13
-115.2
 23
50.4290544528453
 33
0
  0
SOLID
  8
1
 62
2
 10
-108
 20
50.0130544528453
 30
0
 11
-104.8
 21
50.4290544528453
 31
0
 12
-104.8
 22
49.59705445284531
 32
0
 13
-104.8
 23
49.59705445284531
 33
0
  0
TEXT
  8
1
 62
2
 10
-165.60591644028
 20
51.8130544528453
 30
0
 40
3.2
  1
4
 41
0.9
  0
TEXT
  8
1
 62
2
 10
-162.08591644028
 20
53.8930544528453
 30
0
 40
1.92
  1
+0.03
 41
0.9
  0
TEXT
  8
1
 62
2
 10
-162.08591644028
 20
51.0130544528453
 30
0
 40
1.92
  1
 0
 41
0.9
  0
ENDBLK
  8
0
  0
BLOCK
  8
1
  2
*D16
 70
1
 10
0
 20
0
 30
0
  0
LINE
  8
1
 62
2
 10
-60.1124513184787
 20
0
 30
0
 11
-60.1124513184787
 21
15
 31
0
  0
LINE
  8
1
 62
2
 10
-60.1124513184787
 20
0
 30
0
 11
-60.1124513184787
 21
-14.92405112431754
 31
0
  0
LINE
  8
1
 62
2
 10
-68.99999999999999
 20
0
 30
0
 11
-59.1124513184787
 21
0
 31
0
  0
LINE
  8
1
 62
2
 10
-92
 20
15
 30
0
 11
-59.1124513184787
 21
15
 31
0
  0
SOLID
  8
1
 62
2
 10
-60.1124513184787
 20
15
 30
0
 11
-59.6964513184787
 21
11.8
 31
0
 12
-60.5284513184787
 22
11.8
 32
0
 13
-60.5284513184787
 23
11.8
 33
0
  0
SOLID
  8
1
 62
2
 10
-60.1124513184787
 20
0
 30
0
 11
-60.5284513184787
 21
3.200000000000001
 31
0
 12
-59.6964513184787
 22
3.200000000000001
 32
0
 13
-59.6964513184787
 23
3.200000000000001
 33
0
  0
TEXT
  8
1
 62
2
 10
-61.1124513184787
 20
-14.92405112431754
 30
0
 40
3.2
  1
15
 50
90
 41
0.9
  0
TEXT
  8
1
 62
2
 10
-61.7524513184787
 20
-9.48405112431754
 30
0
 40
1.92
  1
%%p0.5
 50
90
 41
0.9
  0
ENDBLK
  8
0
  0
BLOCK
  8
1
  2
*D17
 70
1
 10
0
 20
0
 30
0
  0
LINE
  8
1
 62
2
 10
-47.976633598102
 20
-33.25
 30
0
 11
-47.976633598102
 21
33.25
 31
0
  0
LINE
  8
1
 62
2
 10
-68.99999999999999
 20
33.25
 30
0
 11
-46.976633598102
 21
33.25
 31
0
  0
LINE
  8
1
 62
2
 10
-68.99999999999999
 20
-33.25
 30
0
 11
-46.976633598102
 21
-33.25
 31
0
  0
SOLID
  8
1
 62
2
 10
-47.976633598102
 20
33.25
 30
0
 11
-47.560633598102
 21
30.05
 31
0
 12
-48.392633598102
 22
30.05
 32
0
 13
-48.392633598102
 23
30.05
 33
0
  0
SOLID
  8
1
 62
2
 10
-47.976633598102
 20
-33.25
 30
0
 11
-48.392633598102
 21
-30.05
 31
0
 12
-47.560633598102
 22
-30.05
 32
0
 13
-47.560633598102
 23
-30.05
 33
0
  0
TEXT
  8
1
 62
2
 10
-48.976633598102
 20
-7.584
 30
0
 40
3.2
  1
66.5
 50
90
 41
0.9
  0
TEXT
  8
1
 62
2
 10
-49.616633598102
 20
2.736000000000001
 30
0
 40
1.92
  1
%%p0.3
 50
90
 41
0.9
  0
ENDBLK
  8
0
  0
ENDSEC
  0
SECTION
  2
ENTITIES
  0
LINE
  8
1
 62
2
 10
35.70982061369964
 20
-59.34991020425775
 30
0
 11
104.0666083899897
 21
-59.34991020425775
 31
0
  0
LINE
  8
1
 62
7
 10
67.49999999999989
 20
15.0454545454545
 30
0
 11
66.99999999999989
 21
15.0454545454545
 31
0
  0
LINE
  8
1
 62
7
 10
67.49999999999989
 20
20.01666666666665
 30
0
 11
66.99999999999989
 21
20.15000000000009
 31
0
  0
LINE
  8
1
 62
7
 10
66.99999999999989
 20
-11
 30
0
 11
67.49999999999989
 21
-11
 31
0
  0
LINE
  8
1
 62
7
 10
67.49999999999989
 20
11
 30
0
 11
66.99999999999989
 21
11
 31
0
  0
LINE
  8
1
 62
7
 10
66.99999999999989
 20
-3.650000000000031
 30
0
 11
67.49999999999989
 21
-3.516666666666589
 31
0
  0
LINE
  8
1
 62
7
 10
67.49999999999989
 20
3.516666666666595
 30
0
 11
66.99999999999989
 21
3.649999999999977
 31
0
  0
LINE
  8
1
 62
7
 10
66.99999999999989
 20
-15.0454545454545
 30
0
 11
67.49999999999989
 21
-15.0454545454545
 31
0
  0
LINE
  8
1
 62
7
 10
66.99999999999989
 20
-20.15000000000003
 30
0
 11
67.49999999999989
 21
-20.01666666666659
 31
0
  0
LINE
  8
1
 62
7
 10
-7.549516567451065e-015
 20
19.58257569495584
 30
0
 11
-7.549516567451065e-015
 21
17.5
 31
0
  0
LINE
  8
1
 62
7
 10
-7.549516567451065e-015
 20
19.58257569495584
 30
0
 11
29.06062007879801
 21
19.58257569495584
 31
0
  0
LINE
  8
1
 62
7
 10
-7.549516567451065e-015
 20
17.5
 30
0
 11
-7.549516567451065e-015
 21
10
 31
0
  0
LINE
  8
1
 62
3
  6
DASHED
 10
25
 20
17.5
 30
0
 11
-7.549516567451065e-015
 21
17.5
 31
0
  0
LINE
  8
1
 62
7
 10
-7.549516567451065e-015
 20
10
 30
0
 11
30
 21
10
 31
0
  0
LINE
  8
1
 62
7
 10
30
 20
20
 30
0
 11
29.3301270189222
 21
20
 31
0
  0
LINE
  8
1
 62
3
 10
-82.49999999999999
 20
22
 30
0
 11
-82.49999999999999
 21
10
 31
0
  0
LINE
  8
1
 62
3
 10
-88.49999999999999
 20
16
 30
0
 11
-76.49999999999999
 21
16
 31
0
  0
LINE
  8
1
 62
3
 10
-137.5
 20
22
 30
0
 11
-137.5
 21
10
 31
0
  0
LINE
  8
1
 62
3
 10
-143.5
 20
16
 30
0
 11
-131.5
 21
16
 31
0
  0
LINE
  8
1
 62
3
 10
-116
 20
-32
 30
0
 11
-104
 21
-32
 31
0
  0
LINE
  8
1
 62
7
 10
34.99999999999999
 20
27
 30
0
 11
34.99999999999999
 21
39.5
 31
0
  0
LINE
  8
1
 62
7
 10
67
 20
-40
 30
0
 11
35.49999999999999
 21
-40
 31
0
  0
LINE
  8
1
 62
7
 10
34.99999999999999
 20
-39.5
 30
0
 11
34.99999999999999
 21
-27
 31
0
  0
LINE
  8
1
 62
7
 10
35.49999999999999
 20
31.18890302618422
 30
0
 11
35.49999999999999
 21
-31.24222153221842
 31
0
  0
LINE
  8
1
 62
7
 10
30
 20
-2
 30
0
 11
35.49999999999999
 21
-2
 31
0
  0
LINE
  8
1
 62
3
 10
-3.360163401782508
 20
15
 30
0
 11
44.481697023354
 21
15
 31
0
  0
LINE
  8
1
 62
3
 10
14.810589578099
 20
33.25
 30
0
 11
72.16750321974462
 21
33.25
 31
0
  0
LINE
  8
1
 62
7
 10
17.50000000000001
 20
35.75
 30
0
 11
29.3
 21
35.75
 31
0
  0
LINE
  8
1
 62
7
 10
17.50000000000001
 20
30.75
 30
0
 11
29.3
 21
30.75
 31
0
  0
LINE
  8
1
 62
3
 10
17.00000000000001
 20
35.25
 30
0
 11
29.3
 21
35.25
 31
0
  0
LINE
  8
1
 62
3
 10
17.00000000000001
 20
31.25
 30
0
 11
29.3
 21
31.25
 31
0
  0
LINE
  8
1
 62
7
 10
17.00000000000001
 20
35.25
 30
0
 11
17.00000000000001
 21
31.25
 31
0
  0
LINE
  8
1
 62
7
 10
17.50000000000001
 20
35.75
 30
0
 11
17.50000000000001
 21
30.75
 31
0
  0
LINE
  8
1
 62
7
 10
17.50000000000001
 20
35.75
 30
0
 11
17.00000000000001
 21
35.25
 31
0
  0
LINE
  8
1
 62
7
 10
17.50000000000001
 20
30.75
 30
0
 11
17.00000000000001
 21
31.25
 31
0
  0
LINE
  8
1
 62
7
 10
34.99999999999999
 20
-28.25
 30
0
 11
34
 21
-28.25
 31
0
  0
LINE
  8
1
 62
7
 10
34
 20
-38.25
 30
0
 11
34.99999999999999
 21
-38.25
 31
0
  0
LINE
  8
1
 62
7
 10
29.60342359048091
 20
-37.87
 30
0
 11
33.6965764095191
 21
-37.87
 31
0
  0
LINE
  8
1
 62
7
 10
29.60342359048091
 20
-28.63
 30
0
 11
33.6965764095191
 21
-28.63
 31
0
  0
LINE
  8
1
 62
7
 10
29.60342359048091
 20
-30.94
 30
0
 11
33.6965764095191
 21
-30.94
 31
0
  0
LINE
  8
1
 62
7
 10
29.60342359048091
 20
-35.56
 30
0
 11
33.6965764095191
 21
-35.56
 31
0
  0
LINE
  8
1
 62
7
 10
29.3
 20
-29.78500000000003
 30
0
 11
29.3
 21
-36.71499999999997
 31
0
  0
LINE
  8
1
 62
7
 10
34
 20
-38.25
 30
0
 11
34
 21
-28.25
 31
0
  0
LINE
  8
1
 62
3
 10
17.00000000000001
 20
-31.25
 30
0
 11
29.3
 21
-31.25
 31
0
  0
LINE
  8
1
 62
3
 10
17.00000000000001
 20
-35.25
 30
0
 11
29.3
 21
-35.25
 31
0
  0
LINE
  8
1
 62
7
 10
17.50000000000001
 20
-35.75
 30
0
 11
29.3
 21
-35.75
 31
0
  0
LINE
  8
1
 62
7
 10
17.50000000000001
 20
-30.75
 30
0
 11
29.3
 21
-30.75
 31
0
  0
LINE
  8
1
 62
7
 10
17.50000000000001
 20
-30.75
 30
0
 11
17.00000000000001
 21
-31.25
 31
0
  0
LINE
  8
1
 62
7
 10
17.00000000000001
 20
-35.25
 30
0
 11
17.50000000000001
 21
-35.75
 31
0
  0
LINE
  8
1
 62
7
 10
17.50000000000001
 20
-30.75
 30
0
 11
17.50000000000001
 21
-35.75
 31
0
  0
LINE
  8
1
 62
7
 10
17.00000000000001
 20
-31.25
 30
0
 11
17.00000000000001
 21
-35.25
 31
0
  0
LINE
  8
1
 62
3
 10
14.76397429139201
 20
-33.25
 30
0
 11
73.14714149934562
 21
-33.25
 31
0
  0
LINE
  8
1
 62
7
 10
34.99999999999999
 20
38.25
 30
0
 11
34
 21
38.25
 31
0
  0
LINE
  8
1
 62
7
 10
34
 20
38.25
 30
0
 11
34
 21
28.25
 31
0
  0
LINE
  8
1
 62
7
 10
34
 20
28.25
 30
0
 11
34.99999999999999
 21
28.25
 31
0
  0
LINE
  8
1
 62
7
 10
29.60342359048091
 20
28.63
 30
0
 11
33.6965764095191
 21
28.63
 31
0
  0
LINE
  8
1
 62
7
 10
29.60342359048091
 20
37.87
 30
0
 11
33.6965764095191
 21
37.87
 31
0
  0
LINE
  8
1
 62
7
 10
29.60342359048091
 20
35.56
 30
0
 11
33.6965764095191
 21
35.56
 31
0
  0
LINE
  8
1
 62
7
 10
29.60342359048091
 20
30.94
 30
0
 11
33.6965764095191
 21
30.94
 31
0
  0
LINE
  8
1
 62
7
 10
29.3
 20
36.71500000000003
 30
0
 11
29.3
 21
29.78499999999997
 31
0
  0
LINE
  8
1
 62
7
 10
67
 20
40
 30
0
 11
67
 21
-40
 31
0
  0
LINE
  8
1
 62
7
 10
67
 20
40
 30
0
 11
35.49999999999999
 21
40
 31
0
  0
LINE
  8
1
 62
7
 10
65
 20
40
 30
0
 11
65
 21
-40
 31
0
  0
LINE
  8
1
 62
7
 10
-139.7
 20
16.39999999999998
 30
0
 11
-139.1
 21
16.39999999999998
 31
0
  0
LINE
  8
1
 62
7
 10
-137.9
 20
17.59999999999997
 30
0
 11
-137.9
 21
18.19999999999999
 31
0
  0
LINE
  8
1
 62
7
 10
-137.8
 20
18.29999999999995
 30
0
 11
-137.2
 21
18.29999999999995
 31
0
  0
LINE
  8
1
 62
7
 10
-137.1
 20
18.19999999999999
 30
0
 11
-137.1
 21
17.59999999999997
 31
0
  0
LINE
  8
1
 62
7
 10
-135.9
 20
16.39999999999998
 30
0
 11
-135.3
 21
16.39999999999998
 31
0
  0
LINE
  8
1
 62
7
 10
-135.2
 20
16.30000000000001
 30
0
 11
-135.2
 21
15.69999999999999
 31
0
  0
LINE
  8
1
 62
7
 10
-135.3
 20
15.60000000000002
 30
0
 11
-135.9
 21
15.60000000000002
 31
0
  0
LINE
  8
1
 62
7
 10
-137.1
 20
14.39999999999998
 30
0
 11
-137.1
 21
13.80000000000001
 31
0
  0
LINE
  8
1
 62
7
 10
-137.2
 20
13.69999999999999
 30
0
 11
-137.8
 21
13.69999999999999
 31
0
  0
LINE
  8
1
 62
7
 10
-137.9
 20
13.80000000000001
 30
0
 11
-137.9
 21
14.39999999999998
 31
0
  0
LINE
  8
1
 62
7
 10
-139.1
 20
15.60000000000002
 30
0
 11
-139.7
 21
15.60000000000002
 31
0
  0
LINE
  8
1
 62
7
 10
-139.8
 20
15.69999999999999
 30
0
 11
-139.8
 21
16.30000000000001
 31
0
  0
LINE
  8
1
 62
7
 10
-84.69999999999997
 20
16.39999999999998
 30
0
 11
-84.09999999999998
 21
16.39999999999998
 31
0
  0
LINE
  8
1
 62
7
 10
-82.89999999999999
 20
17.59999999999997
 30
0
 11
-82.89999999999999
 21
18.19999999999999
 31
0
  0
LINE
  8
1
 62
7
 10
-82.79999999999998
 20
18.29999999999995
 30
0
 11
-82.19999999999999
 21
18.29999999999995
 31
0
  0
LINE
  8
1
 62
7
 10
-82.09999999999998
 20
18.19999999999999
 30
0
 11
-82.09999999999998
 21
17.59999999999997
 31
0
  0
LINE
  8
1
 62
7
 10
-80.89999999999999
 20
16.39999999999998
 30
0
 11
-80.3
 21
16.39999999999998
 31
0
  0
LINE
  8
1
 62
7
 10
-80.19999999999999
 20
16.30000000000001
 30
0
 11
-80.19999999999999
 21
15.69999999999999
 31
0
  0
LINE
  8
1
 62
7
 10
-80.3
 20
15.60000000000002
 30
0
 11
-80.89999999999999
 21
15.60000000000002
 31
0
  0
LINE
  8
1
 62
7
 10
-82.09999999999998
 20
14.39999999999998
 30
0
 11
-82.09999999999998
 21
13.80000000000001
 31
0
  0
LINE
  8
1
 62
7
 10
-82.19999999999999
 20
13.69999999999999
 30
0
 11
-82.79999999999998
 21
13.69999999999999
 31
0
  0
LINE
  8
1
 62
7
 10
-82.89999999999999
 20
13.80000000000001
 30
0
 11
-82.89999999999999
 21
14.39999999999998
 31
0
  0
LINE
  8
1
 62
7
 10
-84.09999999999998
 20
15.60000000000002
 30
0
 11
-84.69999999999997
 21
15.60000000000002
 31
0
  0
LINE
  8
1
 62
7
 10
-84.79999999999998
 20
15.69999999999999
 30
0
 11
-84.79999999999998
 21
16.30000000000001
 31
0
  0
LINE
  8
1
 62
7
 10
-112.2
 20
-31.60000000000002
 30
0
 11
-111.6
 21
-31.60000000000002
 31
0
  0
LINE
  8
1
 62
7
 10
-110.4
 20
-30.39999999999998
 30
0
 11
-110.4
 21
-29.80000000000001
 31
0
  0
LINE
  8
1
 62
7
 10
-110.3
 20
-29.69999999999999
 30
0
 11
-109.7
 21
-29.69999999999999
 31
0
  0
LINE
  8
1
 62
7
 10
-109.6
 20
-29.80000000000001
 30
0
 11
-109.6
 21
-30.39999999999998
 31
0
  0
LINE
  8
1
 62
7
 10
-108.4
 20
-31.60000000000002
 30
0
 11
-107.8
 21
-31.60000000000002
 31
0
  0
LINE
  8
1
 62
7
 10
-107.7
 20
-31.69999999999999
 30
0
 11
-107.7
 21
-32.30000000000001
 31
0
  0
LINE
  8
1
 62
7
 10
-107.8
 20
-32.39999999999998
 30
0
 11
-108.4
 21
-32.39999999999998
 31
0
  0
LINE
  8
1
 62
7
 10
-109.6
 20
-33.60000000000002
 30
0
 11
-109.6
 21
-34.19999999999999
 31
0
  0
LINE
  8
1
 62
7
 10
-109.7
 20
-34.30000000000001
 30
0
 11
-110.3
 21
-34.30000000000001
 31
0
  0
LINE
  8
1
 62
7
 10
-110.4
 20
-34.19999999999999
 30
0
 11
-110.4
 21
-33.60000000000002
 31
0
  0
LINE
  8
1
 62
7
 10
-111.6
 20
-32.39999999999998
 30
0
 11
-112.2
 21
-32.39999999999998
 31
0
  0
LINE
  8
1
 62
7
 10
-112.3
 20
-32.30000000000001
 30
0
 11
-112.3
 21
-31.69999999999999
 31
0
  0
LINE
  8
1
 62
7
 10
68.33360848093682
 20
37.72631756474999
 30
0
 11
67.1087155742747
 21
37.77190351355142
 31
0
  0
LINE
  8
1
 62
7
 10
68.33360848093682
 20
28.79558594880143
 30
0
 11
67.1087155742747
 21
28.75
 31
0
  0
LINE
  8
1
 62
7
 10
68.33360848093682
 20
-28.77368243525001
 30
0
 11
67.1087155742747
 21
-28.72809648644858
 31
0
  0
LINE
  8
1
 62
7
 10
68.33360848093682
 20
-37.70441405119863
 30
0
 11
67.1087155742747
 21
-37.75
 31
0
  0
LINE
  8
1
 62
7
 10
-139.7
 20
16.39999999999998
 30
0
 11
-139.1
 21
16.39999999999998
 31
0
  0
LINE
  8
1
 62
7
 10
-137.9
 20
17.59999999999997
 30
0
 11
-137.9
 21
18.19999999999999
 31
0
  0
LINE
  8
1
 62
7
 10
-137.8
 20
18.29999999999995
 30
0
 11
-137.2
 21
18.29999999999995
 31
0
  0
LINE
  8
1
 62
7
 10
-137.1
 20
18.19999999999999
 30
0
 11
-137.1
 21
17.59999999999997
 31
0
  0
LINE
  8
1
 62
7
 10
-135.9
 20
16.39999999999998
 30
0
 11
-135.3
 21
16.39999999999998
 31
0
  0
LINE
  8
1
 62
7
 10
-135.2
 20
16.30000000000001
 30
0
 11
-135.2
 21
15.69999999999999
 31
0
  0
LINE
  8
1
 62
7
 10
-135.3
 20
15.60000000000002
 30
0
 11
-135.9
 21
15.60000000000002
 31
0
  0
LINE
  8
1
 62
7
 10
-137.1
 20
14.39999999999998
 30
0
 11
-137.1
 21
13.80000000000001
 31
0
  0
LINE
  8
1
 62
7
 10
-137.2
 20
13.69999999999999
 30
0
 11
-137.8
 21
13.69999999999999
 31
0
  0
LINE
  8
1
 62
7
 10
-137.9
 20
13.80000000000001
 30
0
 11
-137.9
 21
14.39999999999998
 31
0
  0
LINE
  8
1
 62
7
 10
-139.1
 20
15.60000000000002
 30
0
 11
-139.7
 21
15.60000000000002
 31
0
  0
LINE
  8
1
 62
7
 10
-139.8
 20
15.69999999999999
 30
0
 11
-139.8
 21
16.30000000000001
 31
0
  0
LINE
  8
1
 62
7
 10
-84.69999999999997
 20
16.39999999999998
 30
0
 11
-84.09999999999998
 21
16.39999999999998
 31
0
  0
LINE
  8
1
 62
7
 10
-82.89999999999999
 20
17.59999999999997
 30
0
 11
-82.89999999999999
 21
18.19999999999999
 31
0
  0
LINE
  8
1
 62
7
 10
-82.79999999999998
 20
18.29999999999995
 30
0
 11
-82.19999999999999
 21
18.29999999999995
 31
0
  0
LINE
  8
1
 62
7
 10
-82.09999999999998
 20
18.19999999999999
 30
0
 11
-82.09999999999998
 21
17.59999999999997
 31
0
  0
LINE
  8
1
 62
7
 10
-80.89999999999999
 20
16.39999999999998
 30
0
 11
-80.3
 21
16.39999999999998
 31
0
  0
LINE
  8
1
 62
7
 10
-80.19999999999999
 20
16.30000000000001
 30
0
 11
-80.19999999999999
 21
15.69999999999999
 31
0
  0
LINE
  8
1
 62
7
 10
-80.3
 20
15.60000000000002
 30
0
 11
-80.89999999999999
 21
15.60000000000002
 31
0
  0
LINE
  8
1
 62
7
 10
-82.09999999999998
 20
14.39999999999998
 30
0
 11
-82.09999999999998
 21
13.80000000000001
 31
0
  0
LINE
  8
1
 62
7
 10
-82.19999999999999
 20
13.69999999999999
 30
0
 11
-82.79999999999998
 21
13.69999999999999
 31
0
  0
LINE
  8
1
 62
7
 10
-82.89999999999999
 20
13.80000000000001
 30
0
 11
-82.89999999999999
 21
14.39999999999998
 31
0
  0
LINE
  8
1
 62
7
 10
-84.09999999999998
 20
15.60000000000002
 30
0
 11
-84.69999999999997
 21
15.60000000000002
 31
0
  0
LINE
  8
1
 62
7
 10
-84.79999999999998
 20
15.69999999999999
 30
0
 11
-84.79999999999998
 21
16.30000000000001
 31
0
  0
LINE
  8
1
 62
7
 10
-112.2
 20
-31.60000000000002
 30
0
 11
-111.6
 21
-31.60000000000002
 31
0
  0
LINE
  8
1
 62
7
 10
-110.4
 20
-30.39999999999998
 30
0
 11
-110.4
 21
-29.80000000000001
 31
0
  0
LINE
  8
1
 62
7
 10
-110.3
 20
-29.69999999999999
 30
0
 11
-109.7
 21
-29.69999999999999
 31
0
  0
LINE
  8
1
 62
7
 10
-109.6
 20
-29.80000000000001
 30
0
 11
-109.6
 21
-30.39999999999998
 31
0
  0
LINE
  8
1
 62
7
 10
-108.4
 20
-31.60000000000002
 30
0
 11
-107.8
 21
-31.60000000000002
 31
0
  0
LINE
  8
1
 62
7
 10
-107.7
 20
-31.69999999999999
 30
0
 11
-107.7
 21
-32.30000000000001
 31
0
  0
LINE
  8
1
 62
7
 10
-107.8
 20
-32.39999999999998
 30
0
 11
-108.4
 21
-32.39999999999998
 31
0
  0
LINE
  8
1
 62
7
 10
-109.6
 20
-33.60000000000002
 30
0
 11
-109.6
 21
-34.19999999999999
 31
0
  0
LINE
  8
1
 62
7
 10
-109.7
 20
-34.30000000000001
 30
0
 11
-110.3
 21
-34.30000000000001
 31
0
  0
LINE
  8
1
 62
7
 10
-110.4
 20
-34.19999999999999
 30
0
 11
-110.4
 21
-33.60000000000002
 31
0
  0
LINE
  8
1
 62
7
 10
-111.6
 20
-32.39999999999998
 30
0
 11
-112.2
 21
-32.39999999999998
 31
0
  0
LINE
  8
1
 62
7
 10
-112.3
 20
-32.30000000000001
 30
0
 11
-112.3
 21
-31.69999999999999
 31
0
  0
LINE
  8
1
 62
2
 10
-7.549516567451065e-015
 20
17.5
 30
0
 11
-1.000000000000008
 21
17.5
 31
0
  0
LINE
  8
1
 62
7
 10
122
 20
-81.5
 30
0
 11
118
 21
-81.5
 31
0
  0
LINE
  8
1
 62
7
 10
120.5
 20
-81.5
 30
0
 11
120.5
 21
-84.5
 31
0
  0
LINE
  8
1
 62
7
 10
121.3612878820809
 20
-84.5
 30
0
 11
121.3612878820809
 21
-81.5
 31
0
  0
LINE
  8
1
 62
7
 10
118.6044096585509
 20
-81.5
 30
0
 11
118.6044096585509
 21
-84.5
 31
0
  0
LINE
  8
1
 62
7
 10
119.5
 20
-84.5
 30
0
 11
119.5
 21
-81.5
 31
0
  0
LINE
  8
1
 62
7
 10
122
 20
-56.229729759321
 30
0
 11
122
 21
-81.5
 31
0
  0
LINE
  8
1
 62
7
 10
120
 20
-56.229729759321
 30
0
 11
119.9999999999989
 21
-81.5
 31
0
  0
LINE
  8
1
 62
7
 10
118
 20
-56.20163982705844
 30
0
 11
118
 21
-81.5
 31
0
  0
LINE
  8
1
 62
7
 10
118
 20
-31.5
 30
0
 11
118
 21
-53.13063980214019
 31
0
  0
LINE
  8
1
 62
7
 10
120
 20
-31.5
 30
0
 11
120
 21
-53.42466809013314
 31
0
  0
LINE
  8
1
 62
7
 10
122
 20
-31.5
 30
0
 11
122
 21
-53.49286539778484
 31
0
  0
LINE
  8
1
 62
7
 10
74.7999999999999
 20
29.5
 30
0
 11
126
 21
29.5
 31
0
  0
LINE
  8
1
 62
7
 10
111.2
 20
1.399999999999977
 30
0
 11
111.2
 21
1
 31
0
  0
LINE
  8
1
 62
7
 10
110.6
 20
1.399999999999977
 30
0
 11
110.6
 21
1
 31
0
  0
LINE
  8
1
 62
7
 10
110.6
 20
-1.400000000000031
 30
0
 11
110.6
 21
-1
 31
0
  0
LINE
  8
1
 62
7
 10
109.5
 20
-0.2999999999998995
 30
0
 11
109.9
 21
-0.3000000000000096
 31
0
  0
LINE
  8
1
 62
7
 10
109.5
 20
0.2999999999999545
 30
0
 11
109.9
 21
0.2999999999999545
 31
0
  0
LINE
  8
1
 62
7
 10
109.4
 20
0.1999999999999886
 30
0
 11
109.4
 21
-0.2000000000000508
 31
0
  0
LINE
  8
1
 62
7
 10
112.4
 20
0.1999999999999886
 30
0
 11
112.4
 21
-0.2000000000000508
 31
0
  0
LINE
  8
1
 62
7
 10
110.7
 20
-1.5
 30
0
 11
111.1
 21
-1.5
 31
0
  0
LINE
  8
1
 62
7
 10
110.7
 20
1.5
 30
0
 11
111.1
 21
1.5
 31
0
  0
LINE
  8
1
 62
7
 10
111.2
 20
-1
 30
0
 11
111.2
 21
-1.400000000000031
 31
0
  0
LINE
  8
1
 62
7
 10
111.9058823529412
 20
-0.3000000000000096
 30
0
 11
112.3
 21
-0.3000000000000096
 31
0
  0
LINE
  8
1
 62
7
 10
111.9058823529412
 20
0.2999999999999545
 30
0
 11
112.3
 21
0.2999999999999545
 31
0
  0
LINE
  8
1
 62
3
 10
110.9
 20
10.49751927958937
 30
0
 11
110.9
 21
-9.870422382742731
 31
0
  0
LINE
  8
1
 62
3
 10
148.4735500491311
 20
0
 30
0
 11
23.99999999999998
 21
0
 31
0
  0
LINE
  8
1
 62
7
 10
109.3
 20
2.236626924634493
 30
0
 11
109.3
 21
5.899999999999977
 31
0
  0
LINE
  8
1
 62
7
 10
115.5
 20
29.5
 30
0
 11
115.5
 21
-29.5
 31
0
  0
LINE
  8
1
 62
7
 10
112.5
 20
5.899999999999977
 30
0
 11
112.5
 21
2.236626924634493
 31
0
  0
LINE
  8
1
 62
7
 10
136
 20
-19.5
 30
0
 11
136
 21
19.5
 31
0
  0
LINE
  8
1
 62
7
 10
143.5
 20
-12.5
 30
0
 11
137
 21
-12.5
 31
0
  0
LINE
  8
1
 62
7
 10
137.0154082664935
 20
12.5
 30
0
 11
143.5
 21
12.5
 31
0
  0
LINE
  8
1
 62
7
 10
127.2000000000001
 20
0.7999999999999545
 30
0
 11
122.8
 21
0.7999999999999545
 31
0
  0
LINE
  8
1
 62
7
 10
122.8
 20
-0.8000000000000096
 30
0
 11
127.2000000000001
 21
-0.8000000000000096
 31
0
  0
LINE
  8
1
 62
7
 10
125
 20
-7.502581311993708
 30
0
 11
136
 21
-8.002581311993708
 31
0
  0
LINE
  8
1
 62
7
 10
136
 20
8.002581311993765
 30
0
 11
125
 21
7.502581311993765
 31
0
  0
LINE
  8
1
 62
7
 10
129.6723749477709
 20
-5.212380679444101
 30
0
 11
136
 21
-5.5
 31
0
  0
LINE
  8
1
 62
7
 10
129.6723749477709
 20
5.212380679444152
 30
0
 11
136
 21
5.5
 31
0
  0
LINE
  8
1
 62
7
 10
145.5
 20
-10.5
 30
0
 11
145.5
 21
10.5
 31
0
  0
LINE
  8
1
 62
3
 10
125
 20
10.53178475720466
 30
0
 11
125
 21
-10.92959420309313
 31
0
  0
LINE
  8
1
 62
7
 10
128
 20
-29.29795897113274
 30
0
 11
128
 21
-31.5
 31
0
  0
LINE
  8
1
 62
7
 10
128
 20
-31.5
 30
0
 11
114
 21
-31.5
 31
0
  0
LINE
  8
1
 62
7
 10
114
 20
-29.5
 30
0
 11
114
 21
-31.5
 31
0
  0
LINE
  8
1
 62
7
 10
109.3
 20
-2.23662692463455
 30
0
 11
109.3
 21
-5.900000000000031
 31
0
  0
LINE
  8
1
 62
7
 10
112.5
 20
-5.900000000000031
 30
0
 11
112.5
 21
-2.23662692463455
 31
0
  0
LINE
  8
1
 62
7
 10
109.3
 20
5
 30
0
 11
112.5
 21
5.5
 31
0
  0
LINE
  8
1
 62
7
 10
109.3
 20
-5
 30
0
 11
112.5
 21
-5.5
 31
0
  0
LINE
  8
1
 62
7
 10
74.7999999999999
 20
-29.5
 30
0
 11
126
 21
-29.5
 31
0
  0
LINE
  8
1
 62
7
 10
67.4999999999999
 20
22.19999999999999
 30
0
 11
67.49999999999989
 21
-22.20000000000005
 31
0
  0
LINE
  8
1
 62
7
 10
0
 20
18
 30
0
 11
-7.549516567451065e-015
 21
17.5
 31
0
  0
LINE
  8
1
 62
7
 10
30
 20
28.63
 30
0
 11
30
 21
-2
 31
0
  0
LINE
  8
1
 62
7
 10
39.19995243133151
 20
41
 30
0
 11
59.1999524313315
 21
41
 31
0
  0
LINE
  8
1
 62
7
 10
-69.99999999999999
 20
33.25
 30
0
 11
-69.99999999999999
 21
-33.25
 31
0
  0
LINE
  8
1
 62
3
 10
-69.99999999999999
 20
0
 30
0
 11
-65.99999999999999
 21
0
 31
0
  0
LINE
  8
1
 62
3
 10
-93
 20
15
 30
0
 11
-90.00000000000001
 21
15
 31
0
  0
LINE
  8
1
 62
3
 10
-69.99999999999999
 20
-33.25
 30
0
 11
-66.99999999999999
 21
-33.25
 31
0
  0
LINE
  8
1
 62
3
 10
-69.99999999999999
 20
33.25
 30
0
 11
-66.99999999999999
 21
33.25
 31
0
  0
LINE
  8
1
 62
7
 10
-108
 20
17.5
 30
0
 11
-108
 21
19.58257569495578
 31
0
  0
LINE
  8
1
 62
7
 10
-112
 20
17.5
 30
0
 11
-108
 21
17.5
 31
0
  0
LINE
  8
1
 62
7
 10
-112
 20
19.58257569495578
 30
0
 11
-112
 21
17.5
 31
0
  0
LINE
  8
1
 62
3
 10
-130.1653897881265
 20
15
 30
0
 11
-93
 21
15
 31
0
  0
LINE
  8
1
 62
7
 10
-147.2500000000001
 20
30.94059892324151
 30
0
 11
-143.2500000000001
 21
28.63119784648296
 31
0
  0
LINE
  8
1
 62
7
 10
-143.2500000000001
 20
28.63119784648296
 30
0
 11
-139.2500000000001
 21
30.94059892324151
 31
0
  0
LINE
  8
1
 62
7
 10
-139.2500000000001
 20
30.94059892324151
 30
0
 11
-139.2500000000001
 21
35.55940107675849
 31
0
  0
LINE
  8
1
 62
7
 10
-139.2500000000001
 20
35.55940107675849
 30
0
 11
-143.2500000000001
 21
37.86880215351704
 31
0
  0
LINE
  8
1
 62
7
 10
-143.2500000000001
 20
37.86880215351704
 30
0
 11
-147.2500000000001
 21
35.55940107675849
 31
0
  0
LINE
  8
1
 62
7
 10
-147.2500000000001
 20
35.55940107675849
 30
0
 11
-147.2500000000001
 21
30.94059892324151
 31
0
  0
LINE
  8
1
 62
7
 10
-80.75
 20
30.94059892324151
 30
0
 11
-76.75
 21
28.63119784648296
 31
0
  0
LINE
  8
1
 62
7
 10
-76.75
 20
28.63119784648296
 30
0
 11
-72.75
 21
30.94059892324151
 31
0
  0
LINE
  8
1
 62
7
 10
-72.75
 20
30.94059892324151
 30
0
 11
-72.75
 21
35.55940107675849
 31
0
  0
LINE
  8
1
 62
7
 10
-72.75
 20
35.55940107675849
 30
0
 11
-76.75
 21
37.86880215351704
 31
0
  0
LINE
  8
1
 62
7
 10
-76.75
 20
37.86880215351704
 30
0
 11
-80.75
 21
35.55940107675849
 31
0
  0
LINE
  8
1
 62
7
 10
-80.75
 20
35.55940107675849
 30
0
 11
-80.75
 21
30.94059892324151
 31
0
  0
LINE
  8
1
 62
7
 10
-80.75
 20
-35.55940107675849
 30
0
 11
-76.75
 21
-37.86880215351698
 31
0
  0
LINE
  8
1
 62
7
 10
-76.75
 20
-37.86880215351698
 30
0
 11
-72.75
 21
-35.55940107675849
 31
0
  0
LINE
  8
1
 62
7
 10
-72.75
 20
-35.55940107675849
 30
0
 11
-72.75
 21
-30.94059892324151
 31
0
  0
LINE
  8
1
 62
7
 10
-72.75
 20
-30.94059892324151
 30
0
 11
-76.75
 21
-28.63119784648302
 31
0
  0
LINE
  8
1
 62
7
 10
-76.75
 20
-28.63119784648302
 30
0
 11
-80.75
 21
-30.94059892324151
 31
0
  0
LINE
  8
1
 62
7
 10
-80.75
 20
-30.94059892324151
 30
0
 11
-80.75
 21
-35.55940107675849
 31
0
  0
LINE
  8
1
 62
7
 10
-147.2500000000001
 20
-35.55940107675849
 30
0
 11
-143.2500000000001
 21
-37.86880215351698
 31
0
  0
LINE
  8
1
 62
7
 10
-143.2500000000001
 20
-37.86880215351698
 30
0
 11
-139.2500000000001
 21
-35.55940107675849
 31
0
  0
LINE
  8
1
 62
7
 10
-139.2500000000001
 20
-35.55940107675849
 30
0
 11
-139.2500000000001
 21
-30.94059892324151
 31
0
  0
LINE
  8
1
 62
7
 10
-139.2500000000001
 20
-30.94059892324151
 30
0
 11
-143.2500000000001
 21
-28.63119784648302
 31
0
  0
LINE
  8
1
 62
7
 10
-143.2500000000001
 20
-28.63119784648302
 30
0
 11
-147.2500000000001
 21
-30.94059892324151
 31
0
  0
LINE
  8
1
 62
7
 10
-147.2500000000001
 20
-30.94059892324151
 30
0
 11
-147.2500000000001
 21
-35.55940107675849
 31
0
  0
LINE
  8
1
 62
7
 10
-150.0000000000001
 20
-33.25
 30
0
 11
-150.0000000000001
 21
33.25
 31
0
  0
LINE
  8
1
 62
7
 10
-143.2500000000001
 20
40
 30
0
 11
-76.74999999999999
 21
40
 31
0
  0
LINE
  8
1
 62
3
 10
-110
 20
-44
 30
0
 11
-110
 21
44
 31
0
  0
LINE
  8
1
 62
3
 10
-143.2500000000001
 20
40
 30
0
 11
-143.2500000000001
 21
23.125
 31
0
  0
LINE
  8
1
 62
3
 10
-153
 20
33.25
 30
0
 11
-133.1250000000001
 21
33.25
 31
0
  0
LINE
  8
1
 62
3
 10
-76.74999999999999
 20
40
 30
0
 11
-76.74999999999999
 21
23.125
 31
0
  0
LINE
  8
1
 62
3
 10
-86.87500000000001
 20
33.25
 30
0
 11
-69.99999999999999
 21
33.25
 31
0
  0
LINE
  8
1
 62
3
 10
-76.74999999999999
 20
-23.125
 30
0
 11
-76.74999999999999
 21
-43.375
 31
0
  0
LINE
  8
1
 62
3
 10
-86.87500000000001
 20
-33.25
 30
0
 11
-69.99999999999999
 21
-33.25
 31
0
  0
LINE
  8
1
 62
3
 10
-143.2500000000001
 20
-23.125
 30
0
 11
-143.2500000000001
 21
-43.375
 31
0
  0
LINE
  8
1
 62
3
 10
-153
 20
-33.25
 30
0
 11
-133.1250000000001
 21
-33.25
 31
0
  0
LINE
  8
1
 62
3
 10
-69.99999999999999
 20
0
 30
0
 11
-154
 21
0
 31
0
  0
LINE
  8
1
 62
7
 10
-76.89508717648472
 20
-40
 30
0
 11
-143.3950871764848
 21
-40
 31
0
  0
LINE
  8
1
 62
3
 10
-143.2500000000001
 20
40
 30
0
 11
-143.2500000000001
 21
43
 31
0
  0
LINE
  8
1
 62
3
 10
-76.74999999999999
 20
40
 30
0
 11
-76.74999999999999
 21
43
 31
0
  0
LINE
  8
1
 62
7
 10
104.9999999999999
 20
18.56495153597018
 30
0
 11
104.9999999999999
 21
29.5
 31
0
  0
LINE
  8
1
 62
7
 10
77.49999999999997
 20
18.56495153597018
 30
0
 11
104.9999999999999
 21
18.56495153597018
 31
0
  0
LINE
  8
1
 62
7
 10
77.49999999999997
 20
29.5
 30
0
 11
77.49999999999997
 21
18.56495153597018
 31
0
  0
ARC
  8
1
 62
3
  6
DASHED
 10
25
 20
22.5
 30
0
 40
5
 50
270
 51
324.3039756459534
  0
ARC
  8
1
 62
7
 10
25
 20
22.5
 30
0
 40
4.999999999999996
 50
324.3039756459534
 51
330.0000000000001
  0
ARC
  8
1
 62
7
 10
31.65
 20
-29.78500000000003
 30
0
 40
2.350000000000023
 50
150.5614799140745
 51
209.4385200859243
  0
ARC
  8
1
 62
7
 10
31.65
 20
-36.71499999999997
 30
0
 40
2.349999999999991
 50
150.5614799140759
 51
209.4385200859255
  0
ARC
  8
1
 62
7
 10
38.24486461427869
 20
-33.25
 30
0
 40
8.944864614278698
 50
165.0338261958171
 51
194.9661738041828
  0
ARC
  8
1
 62
7
 10
31.65
 20
-29.78500000000003
 30
0
 40
2.35000000000001
 50
330.561479914076
 51
29.43852008592527
  0
ARC
  8
1
 62
7
 10
31.65
 20
-36.71499999999997
 30
0
 40
2.350000000000038
 50
330.5614799140747
 51
29.43852008592391
  0
ARC
  8
1
 62
7
 10
25.0551353857213
 20
-33.25
 30
0
 40
8.944864614278721
 50
345.0338261958172
 51
14.96617380418279
  0
ARC
  8
1
 62
7
 10
31.65
 20
36.71500000000003
 30
0
 40
2.349999999999991
 50
150.5614799140759
 51
209.4385200859255
  0
ARC
  8
1
 62
7
 10
31.65
 20
29.78499999999997
 30
0
 40
2.350000000000023
 50
150.5614799140745
 51
209.4385200859243
  0
ARC
  8
1
 62
7
 10
38.24486461427869
 20
33.25
 30
0
 40
8.944864614278698
 50
165.0338261958171
 51
194.9661738041828
  0
ARC
  8
1
 62
7
 10
31.65
 20
36.71500000000003
 30
0
 40
2.350000000000038
 50
330.5614799140747
 51
29.43852008592391
  0
ARC
  8
1
 62
7
 10
31.65
 20
29.78499999999997
 30
0
 40
2.35000000000001
 50
330.561479914076
 51
29.43852008592527
  0
ARC
  8
1
 62
7
 10
25.0551353857213
 20
33.25
 30
0
 40
8.944864614278721
 50
345.0338261958172
 51
14.96617380418281
  0
ARC
  8
1
 62
7
 10
71.08929794868161
 20
33.25
 30
0
 40
0.7517523941143566
 50
156.4800993873254
 51
203.5199006126746
  0
ARC
  8
1
 62
7
 10
68.33843741604881
 20
36.05569232658854
 30
0
 40
1.670632217155031
 50
32.36499987074286
 51
90.1656127446176
  0
ARC
  8
1
 62
7
 10
61.15104111881239
 20
33.54279937935235
 30
0
 40
9.248961684147959
 50
0.04460665194122277
 51
21.61619621490567
  0
ARC
  8
1
 62
7
 10
68.2163620342821
 20
30.72161391165338
 30
0
 40
1.929593336156816
 50
273.4835667248687
 51
322.6139950970423
  0
ARC
  8
1
 62
7
 10
62.1089537724579
 20
32.77394218661743
 30
0
 40
8.292915283595592
 50
337.1227217188461
 51
1.216475414306757
  0
ARC
  8
1
 62
7
 10
71.08929794868161
 20
-33.25
 30
0
 40
0.7517523941143566
 50
156.4800993873254
 51
203.5199006126746
  0
ARC
  8
1
 62
7
 10
68.33843741604881
 20
-30.44430767341146
 30
0
 40
1.670632217155031
 50
32.36499987074286
 51
90.1656127446176
  0
ARC
  8
1
 62
7
 10
61.15104111881239
 20
-32.95720062064765
 30
0
 40
9.248961684147959
 50
0.04460665194122277
 51
21.61619621490567
  0
ARC
  8
1
 62
7
 10
68.2163620342821
 20
-35.77838608834662
 30
0
 40
1.929593336156877
 50
273.4835667248686
 51
322.6139950970423
  0
ARC
  8
1
 62
7
 10
62.1089537724579
 20
-33.72605781338257
 30
0
 40
8.292915283595592
 50
337.1227217188461
 51
1.216475414306757
  0
ARC
  8
1
 62
7
 10
109.8970588235294
 20
-1.002941176470641
 30
0
 40
0.7029473295325095
 50
0.2397298960851588
 51
89.76027010391822
  0
ARC
  8
1
 62
7
 10
111.9029411764706
 20
-1.002941176470641
 30
0
 40
0.7029473295325524
 50
89.76027010391822
 51
179.7602701039149
  0
ARC
  8
1
 62
7
 10
111.9029411764706
 20
1.002941176470586
 30
0
 40
0.7029473295325234
 50
180.2397298960807
 51
270.2397298960818
  0
ARC
  8
1
 62
7
 10
109.8970588235294
 20
1.002941176470586
 30
0
 40
0.7029473295325524
 50
270.2397298960818
 51
359.7602701039193
  0
ARC
  8
1
 62
7
 10
110.9
 20
-5.900000000000031
 30
0
 40
1.600000000000009
 50
180
 51
0
  0
ARC
  8
1
 62
7
 10
110.9
 20
5.899999999999977
 30
0
 40
1.599999999999994
 50
0
 51
180
  0
ARC
  8
1
 62
7
 10
127.2000000000001
 20
0
 30
0
 40
0.8000000000000096
 50
270
 51
90
  0
ARC
  8
1
 62
7
 10
122.8
 20
0
 30
0
 40
0.7999999999999545
 50
90
 51
270
  0
ARC
  8
1
 62
7
 10
125
 20
0
 30
0
 40
7.502581311993765
 50
90
 51
270
  0
ARC
  8
1
 62
7
 10
-110
 20
15
 30
0
 40
17
 50
0
 51
180
  0
ARC
  8
1
 62
7
 10
-110
 20
15
 30
0
 40
17
 50
180
 51
0
  0
CIRCLE
  8
1
 62
7
 10
-110
 20
-32
 30
0
 40
4
  0
CIRCLE
  8
1
 62
7
 10
-82.49999999999999
 20
16
 30
0
 40
4
  0
CIRCLE
  8
1
 62
7
 10
-137.5
 20
16
 30
0
 40
4
  0
CIRCLE
  8
1
 62
7
 10
-110
 20
-32
 30
0
 40
3.5
  0
CIRCLE
  8
1
 62
7
 10
-82.49999999999999
 20
16
 30
0
 40
3.5
  0
CIRCLE
  8
1
 62
7
 10
-137.5
 20
16
 30
0
 40
3.5
  0
CIRCLE
  8
1
 62
7
 10
-110
 20
15
 30
0
 40
9.75
  0
CIRCLE
  8
1
 62
7
 10
-110
 20
-32
 30
0
 40
4
  0
CIRCLE
  8
1
 62
7
 10
-82.49999999999999
 20
16
 30
0
 40
4
  0
CIRCLE
  8
1
 62
7
 10
-137.5
 20
16
 30
0
 40
4
  0
CIRCLE
  8
1
 62
7
 10
-110
 20
-32
 30
0
 40
3.5
  0
CIRCLE
  8
1
 62
7
 10
-82.49999999999999
 20
16
 30
0
 40
3.5
  0
CIRCLE
  8
1
 62
7
 10
-137.5
 20
16
 30
0
 40
3.5
  0
CIRCLE
  8
1
 62
7
 10
-110
 20
15
 30
0
 40
9.75
  0
CIRCLE
  8
1
 62
7
 10
110.9
 20
0
 30
0
 40
2.7500000000001
  0
CIRCLE
  8
1
 62
7
 10
125
 20
0
 30
0
 40
5
  0
CIRCLE
  8
1
 62
7
 10
125
 20
0
 30
0
 40
6.99999999999998
  0
CIRCLE
  8
1
 62
7
 10
-143.25
 20
33.25
 30
0
 40
2.5
  0
CIRCLE
  8
1
 62
7
 10
-143.25
 20
33.25
 30
0
 40
4.000000000000114
  0
CIRCLE
  8
1
 62
7
 10
-76.74999999999999
 20
33.25
 30
0
 40
4
  0
CIRCLE
  8
1
 62
7
 10
-76.74999999999999
 20
33.25
 30
0
 40
2.5
  0
CIRCLE
  8
1
 62
7
 10
-76.74999999999999
 20
-33.25
 30
0
 40
4
  0
CIRCLE
  8
1
 62
7
 10
-76.74999999999999
 20
-33.25
 30
0
 40
2.5
  0
CIRCLE
  8
1
 62
7
 10
-143.25
 20
-33.25
 30
0
 40
4
  0
CIRCLE
  8
1
 62
7
 10
-143.25
 20
-33.25
 30
0
 40
2.5
  0
CIRCLE
  8
1
 62
7
 10
-143.25
 20
33.25
 30
0
 40
6.750000000000114
  0
CIRCLE
  8
1
 62
7
 10
-76.74999999999999
 20
33.25
 30
0
 40
6.75
  0
CIRCLE
  8
1
 62
7
 10
-76.74999999999999
 20
-33.25
 30
0
 40
6.75
  0
CIRCLE
  8
1
 62
7
 10
-143.25
 20
-33.25
 30
0
 40
6.750000000000114
  0
CIRCLE
  8
1
 62
7
 10
-110
 20
15
 30
0
 40
5
  0
CIRCLE
  8
1
 62
2
 10
-143.25
 20
-33.25
 30
0
 40
2
  0
CIRCLE
  8
1
 62
2
 10
-76.74999999999999
 20
-33.25
 30
0
 40
2
  0
CIRCLE
  8
1
 62
2
 10
-76.74999999999999
 20
33.25
 30
0
 40
2
  0
CIRCLE
  8
1
 62
2
 10
-143.25
 20
33.25
 30
0
 40
2
  0
CIRCLE
  8
1
 62
2
 10
-143.25
 20
-33.25
 30
0
 40
2
  0
CIRCLE
  8
1
 62
2
 10
-76.74999999999999
 20
-33.25
 30
0
 40
2
  0
CIRCLE
  8
1
 62
2
 10
-76.74999999999999
 20
33.25
 30
0
 40
2
  0
CIRCLE
  8
1
 62
2
 10
-143.25
 20
33.25
 30
0
 40
2
  0
POLYLINE
  8
1
 62
2
 66
1
  0
VERTEX
  8
1
 10
118
 20
-53.13063980214019
 30
0
 42
0.004959364709903039
  0
VERTEX
  8
1
 10
118.1868133059515
 20
-53.45740884583285
 30
0
 42
0.01610760733007152
  0
VERTEX
  8
1
 10
118.3755859599016
 20
-53.75751772761851
 30
0
 42
0.03462765575569925
  0
VERTEX
  8
1
 10
118.5682773098491
 20
-54.00430628559022
 30
0
 42
0.07009415413882382
  0
VERTEX
  8
1
 10
118.7668467037927
 20
-54.171114357841
 30
0
 42
0.1384187450981193
  0
VERTEX
  8
1
 10
118.973253489731
 20
-54.23128178246384
 30
0
 42
0.1336282076001775
  0
VERTEX
  8
1
 10
119.1645576069008
 20
-54.18097777310877
 30
0
 42
0.02952619964152645
  0
VERTEX
  8
1
 10
119.3632416258943
 20
-54.05028032011647
 30
0
 42
0.0474348528357834
  0
VERTEX
  8
1
 10
119.5689482373298
 20
-53.86407350256864
 30
0
 42
0.006664315072750373
  0
VERTEX
  8
1
 10
119.7813201318256
 20
-53.64724139954697
 30
0
 42
-0.007265733977987023
  0
VERTEX
  8
1
 10
120
 20
-53.42466809013314
 30
0
 42
-0.01594613734132717
  0
VERTEX
  8
1
 10
120.1955370096244
 20
-53.24410091366312
 30
0
 42
-0.02449293246189506
  0
VERTEX
  8
1
 10
120.3941678713911
 20
-53.08811977778769
 30
0
 42
-0.03667587437393765
  0
VERTEX
  8
1
 10
120.5944534474396
 20
-52.96672840990165
 30
0
 42
-0.0537416441646893
  0
VERTEX
  8
1
 10
120.7949545999097
 20
-52.88993053739976
 30
0
 42
-0.07359236239361063
  0
VERTEX
  8
1
 10
120.994232190941
 20
-52.86772988767683
 30
0
 42
-0.07433083303358919
  0
VERTEX
  8
1
 10
121.1988360974554
 20
-52.90904661869418
 30
0
 42
-0.05003416816820537
  0
VERTEX
  8
1
 10
121.401139774168
 20
-53.00617026371435
 30
0
 42
-0.03022191285210986
  0
VERTEX
  8
1
 10
121.6017182785294
 20
-53.14514909423666
 30
0
 42
-0.01596446642782205
  0
VERTEX
  8
1
 10
121.8011466679899
 20
-53.3120313817604
 30
0
 42
-0.004980351333047762
  0
VERTEX
  8
1
 10
122
 20
-53.49286539778484
 30
0
  0
SEQEND
  8
1
  0
POLYLINE
  8
1
 62
2
 66
1
  0
VERTEX
  8
1
 10
118
 20
-56.20163982705844
 30
0
 42
0.004743828824692946
  0
VERTEX
  8
1
 10
118.1664199141318
 20
-56.41508556858371
 30
0
 42
0.01507104334739644
  0
VERTEX
  8
1
 10
118.3338102389726
 20
-56.61307131383989
 30
0
 42
0.03007720324087144
  0
VERTEX
  8
1
 10
118.5031413852317
 20
-56.78013706655791
 30
0
 42
0.05372635489991029
  0
VERTEX
  8
1
 10
118.6753837636182
 20
-56.90082283046867
 30
0
 42
0.09093657508281043
  0
VERTEX
  8
1
 10
118.8515077848411
 20
-56.95966860930309
 30
0
 42
0.1259786711097485
  0
VERTEX
  8
1
 10
119.0678808765174
 20
-56.93586815102574
 30
0
 42
0.04787193728019793
  0
VERTEX
  8
1
 10
119.2910420411364
 20
-56.82645025264781
 30
0
 42
0.04341530719235373
  0
VERTEX
  8
1
 10
119.5208658814331
 20
-56.65593869841035
 30
0
 42
0.01115428868948581
  0
VERTEX
  8
1
 10
119.7572270001427
 20
-56.44885727255441
 30
0
 42
-0.003374507262152718
  0
VERTEX
  8
1
 10
120
 20
-56.229729759321
 30
0
 42
-0.01455062689470401
  0
VERTEX
  8
1
 10
120.2499597359867
 20
-56.02055748980838
 30
0
 42
-0.02511181930472631
  0
VERTEX
  8
1
 10
120.5024967089982
 20
-55.84074632396922
 30
0
 42
-0.04096858042392158
  0
VERTEX
  8
1
 10
120.7538261740885
 20
-55.7070298166016
 30
0
 42
-0.06491345471680429
  0
VERTEX
  8
1
 10
121.0001633863115
 20
-55.63614152250356
 30
0
 42
-0.1617726136711237
  0
VERTEX
  8
1
 10
121.3976045092406
 20
-55.70487485140026
 30
0
 42
-0.04144019963790206
  0
VERTEX
  8
1
 10
121.552534998651
 20
-55.802883438089
 30
0
 42
-0.02559687134798871
  0
VERTEX
  8
1
 10
121.7037526737295
 20
-55.92935357359899
 30
0
 42
-0.01378851554270846
  0
VERTEX
  8
1
 10
121.8524951392534
 20
-56.07479807498979
 30
0
 42
-0.004346364005119102
  0
VERTEX
  8
1
 10
122
 20
-56.229729759321
 30
0
  0
SEQEND
  8
1
  0
ARC
  8
1
 62
7
 10
35.49999999999999
 20
27
 30
0
 40
0.5
 50
180
 51
270
  0
ARC
  8
1
 62
7
 10
35.49999999999999
 20
-27
 30
0
 40
0.5
 50
90
 51
180
  0
ARC
  8
1
 62
7
 10
35.49999999999999
 20
-39.5
 30
0
 40
0.5
 50
180
 51
270
  0
ARC
  8
1
 62
7
 10
-135.9
 20
17.59999999999997
 30
0
 40
1.199999999999989
 50
180
 51
270
  0
ARC
  8
1
 62
7
 10
-135.9
 20
14.39999999999998
 30
0
 40
1.200000000000038
 50
90
 51
180
  0
ARC
  8
1
 62
7
 10
-139.1
 20
14.39999999999998
 30
0
 40
1.199999999999989
 50
0
 51
90
  0
ARC
  8
1
 62
7
 10
-139.1
 20
17.59999999999997
 30
0
 40
1.199999999999989
 50
270
 51
0
  0
ARC
  8
1
 62
7
 10
-137.8
 20
18.19999999999999
 30
0
 40
0.09999999999996234
 50
90
 51
180
  0
ARC
  8
1
 62
7
 10
-137.2
 20
18.19999999999999
 30
0
 40
0.09999999999999432
 50
0
 51
90
  0
ARC
  8
1
 62
7
 10
-135.3
 20
15.69999999999999
 30
0
 40
0.09999999999997122
 50
270
 51
0
  0
ARC
  8
1
 62
7
 10
-135.3
 20
16.30000000000001
 30
0
 40
0.1000000000000227
 50
0
 51
90
  0
ARC
  8
1
 62
7
 10
-137.8
 20
13.80000000000001
 30
0
 40
0.09999999999999432
 50
180
 51
270
  0
ARC
  8
1
 62
7
 10
-137.2
 20
13.80000000000001
 30
0
 40
0.1000000000000192
 50
270
 51
0
  0
ARC
  8
1
 62
7
 10
-139.7
 20
16.30000000000001
 30
0
 40
0.09999999999996945
 50
90
 51
180
  0
ARC
  8
1
 62
7
 10
-139.7
 20
15.69999999999999
 30
0
 40
0.1000000000000227
 50
180
 51
270
  0
ARC
  8
1
 62
7
 10
-80.89999999999999
 20
17.59999999999997
 30
0
 40
1.199999999999989
 50
180
 51
270
  0
ARC
  8
1
 62
7
 10
-80.89999999999999
 20
14.39999999999998
 30
0
 40
1.200000000000038
 50
90
 51
180
  0
ARC
  8
1
 62
7
 10
-84.09999999999998
 20
14.39999999999998
 30
0
 40
1.199999999999989
 50
0
 51
90
  0
ARC
  8
1
 62
7
 10
-84.09999999999998
 20
17.59999999999997
 30
0
 40
1.199999999999989
 50
270
 51
0
  0
ARC
  8
1
 62
7
 10
-82.79999999999998
 20
18.19999999999999
 30
0
 40
0.09999999999996234
 50
90
 51
180
  0
ARC
  8
1
 62
7
 10
-82.19999999999999
 20
18.19999999999999
 30
0
 40
0.1000000000000085
 50
0
 51
90
  0
ARC
  8
1
 62
7
 10
-80.3
 20
15.69999999999999
 30
0
 40
0.09999999999997122
 50
270
 51
0
  0
ARC
  8
1
 62
7
 10
-80.3
 20
16.30000000000001
 30
0
 40
0.1000000000000085
 50
0
 51
90
  0
ARC
  8
1
 62
7
 10
-82.79999999999998
 20
13.80000000000001
 30
0
 40
0.1000000000000085
 50
180
 51
270
  0
ARC
  8
1
 62
7
 10
-82.19999999999999
 20
13.80000000000001
 30
0
 40
0.1000000000000192
 50
270
 51
0
  0
ARC
  8
1
 62
7
 10
-84.69999999999997
 20
16.30000000000001
 30
0
 40
0.09999999999996945
 50
90
 51
180
  0
ARC
  8
1
 62
7
 10
-84.69999999999997
 20
15.69999999999999
 30
0
 40
0.1000000000000085
 50
180
 51
270
  0
ARC
  8
1
 62
7
 10
-108.4
 20
-30.39999999999998
 30
0
 40
1.199999999999989
 50
180
 51
270
  0
ARC
  8
1
 62
7
 10
-108.4
 20
-33.60000000000002
 30
0
 40
1.200000000000046
 50
90
 51
180
  0
ARC
  8
1
 62
7
 10
-111.6
 20
-33.60000000000002
 30
0
 40
1.199999999999989
 50
0
 51
90
  0
ARC
  8
1
 62
7
 10
-111.6
 20
-30.39999999999998
 30
0
 40
1.200000000000038
 50
270
 51
0
  0
ARC
  8
1
 62
7
 10
-110.3
 20
-29.80000000000001
 30
0
 40
0.1000000000000227
 50
90
 51
180
  0
ARC
  8
1
 62
7
 10
-109.7
 20
-29.80000000000001
 30
0
 40
0.1000000000000085
 50
0
 51
90
  0
ARC
  8
1
 62
7
 10
-107.8
 20
-32.30000000000001
 30
0
 40
0.09999999999996589
 50
270
 51
0
  0
ARC
  8
1
 62
7
 10
-107.8
 20
-31.69999999999999
 30
0
 40
0.09999999999999432
 50
0
 51
90
  0
ARC
  8
1
 62
7
 10
-110.3
 20
-34.19999999999999
 30
0
 40
0.1000000000000085
 50
180
 51
270
  0
ARC
  8
1
 62
7
 10
-109.7
 20
-34.19999999999999
 30
0
 40
0.1000000000000227
 50
270
 51
0
  0
ARC
  8
1
 62
7
 10
-112.2
 20
-31.69999999999999
 30
0
 40
0.09999999999996945
 50
90
 51
180
  0
ARC
  8
1
 62
7
 10
-112.2
 20
-32.30000000000001
 30
0
 40
0.09999999999999432
 50
180
 51
270
  0
ARC
  8
1
 62
7
 10
67.10000000000002
 20
28.84961946980917
 30
0
 40
0.1000000000000227
 50
180
 51
274.9999999999481
  0
ARC
  8
1
 62
7
 10
67.10000000000002
 20
37.67228404374225
 30
0
 40
0.09999999999998742
 50
85.0000000000519
 51
180
  0
ARC
  8
1
 62
7
 10
67.10000000000002
 20
-37.65038053019083
 30
0
 40
0.1000000000000227
 50
180
 51
274.9999999999481
  0
ARC
  8
1
 62
7
 10
67.10000000000002
 20
-28.82771595625775
 30
0
 40
0.09999999999998742
 50
85.0000000000519
 51
180
  0
ARC
  8
1
 62
7
 10
-135.9
 20
17.59999999999997
 30
0
 40
1.199999999999989
 50
180
 51
270
  0
ARC
  8
1
 62
7
 10
-139.1
 20
17.59999999999997
 30
0
 40
1.199999999999989
 50
270
 51
0
  0
ARC
  8
1
 62
7
 10
-139.1
 20
14.39999999999998
 30
0
 40
1.199999999999989
 50
0
 51
90
  0
ARC
  8
1
 62
7
 10
-135.9
 20
14.39999999999998
 30
0
 40
1.200000000000038
 50
90
 51
180
  0
ARC
  8
1
 62
7
 10
-137.8
 20
18.19999999999999
 30
0
 40
0.09999999999996234
 50
90
 51
180
  0
ARC
  8
1
 62
7
 10
-137.2
 20
18.19999999999999
 30
0
 40
0.09999999999999432
 50
0
 51
90
  0
ARC
  8
1
 62
7
 10
-135.3
 20
16.30000000000001
 30
0
 40
0.1000000000000227
 50
0
 51
90
  0
ARC
  8
1
 62
7
 10
-135.3
 20
15.69999999999999
 30
0
 40
0.09999999999997122
 50
270
 51
0
  0
ARC
  8
1
 62
7
 10
-137.8
 20
13.80000000000001
 30
0
 40
0.09999999999999432
 50
180
 51
270
  0
ARC
  8
1
 62
7
 10
-137.2
 20
13.80000000000001
 30
0
 40
0.1000000000000192
 50
270
 51
0
  0
ARC
  8
1
 62
7
 10
-139.7
 20
16.30000000000001
 30
0
 40
0.09999999999996945
 50
90
 51
180
  0
ARC
  8
1
 62
7
 10
-139.7
 20
15.69999999999999
 30
0
 40
0.1000000000000227
 50
180
 51
270
  0
ARC
  8
1
 62
7
 10
-80.89999999999999
 20
17.59999999999997
 30
0
 40
1.199999999999989
 50
180
 51
270
  0
ARC
  8
1
 62
7
 10
-84.09999999999998
 20
17.59999999999997
 30
0
 40
1.199999999999989
 50
270
 51
0
  0
ARC
  8
1
 62
7
 10
-84.09999999999998
 20
14.39999999999998
 30
0
 40
1.199999999999989
 50
0
 51
90
  0
ARC
  8
1
 62
7
 10
-80.89999999999999
 20
14.39999999999998
 30
0
 40
1.200000000000038
 50
90
 51
180
  0
ARC
  8
1
 62
7
 10
-82.79999999999998
 20
18.19999999999999
 30
0
 40
0.09999999999996234
 50
90
 51
180
  0
ARC
  8
1
 62
7
 10
-82.19999999999999
 20
18.19999999999999
 30
0
 40
0.1000000000000085
 50
0
 51
90
  0
ARC
  8
1
 62
7
 10
-80.3
 20
16.30000000000001
 30
0
 40
0.1000000000000085
 50
0
 51
90
  0
ARC
  8
1
 62
7
 10
-80.3
 20
15.69999999999999
 30
0
 40
0.09999999999997122
 50
270
 51
0
  0
ARC
  8
1
 62
7
 10
-82.79999999999998
 20
13.80000000000001
 30
0
 40
0.1000000000000085
 50
180
 51
270
  0
ARC
  8
1
 62
7
 10
-82.19999999999999
 20
13.80000000000001
 30
0
 40
0.1000000000000192
 50
270
 51
0
  0
ARC
  8
1
 62
7
 10
-84.69999999999997
 20
16.30000000000001
 30
0
 40
0.09999999999996945
 50
90
 51
180
  0
ARC
  8
1
 62
7
 10
-84.69999999999997
 20
15.69999999999999
 30
0
 40
0.1000000000000085
 50
180
 51
270
  0
ARC
  8
1
 62
7
 10
-108.4
 20
-30.39999999999998
 30
0
 40
1.199999999999989
 50
180
 51
270
  0
ARC
  8
1
 62
7
 10
-111.6
 20
-30.39999999999998
 30
0
 40
1.200000000000038
 50
270
 51
0
  0
ARC
  8
1
 62
7
 10
-111.6
 20
-33.60000000000002
 30
0
 40
1.199999999999989
 50
0
 51
90
  0
ARC
  8
1
 62
7
 10
-108.4
 20
-33.60000000000002
 30
0
 40
1.200000000000046
 50
90
 51
180
  0
ARC
  8
1
 62
7
 10
-110.3
 20
-29.80000000000001
 30
0
 40
0.1000000000000227
 50
90
 51
180
  0
ARC
  8
1
 62
7
 10
-109.7
 20
-29.80000000000001
 30
0
 40
0.1000000000000085
 50
0
 51
90
  0
ARC
  8
1
 62
7
 10
-107.8
 20
-31.69999999999999
 30
0
 40
0.09999999999999432
 50
0
 51
90
  0
ARC
  8
1
 62
7
 10
-107.8
 20
-32.30000000000001
 30
0
 40
0.09999999999996589
 50
270
 51
0
  0
ARC
  8
1
 62
7
 10
-110.3
 20
-34.19999999999999
 30
0
 40
0.1000000000000085
 50
180
 51
270
  0
ARC
  8
1
 62
7
 10
-109.7
 20
-34.19999999999999
 30
0
 40
0.1000000000000227
 50
270
 51
0
  0
ARC
  8
1
 62
7
 10
-112.2
 20
-31.69999999999999
 30
0
 40
0.09999999999996945
 50
90
 51
180
  0
ARC
  8
1
 62
7
 10
-112.2
 20
-32.30000000000001
 30
0
 40
0.09999999999999432
 50
180
 51
270
  0
ARC
  8
1
 62
7
 10
110.7
 20
1.399999999999977
 30
0
 40
0.100000000000023
 50
90
 51
180
  0
ARC
  8
1
 62
7
 10
111.1
 20
1.399999999999977
 30
0
 40
0.1000000000000085
 50
0
 51
90
  0
ARC
  8
1
 62
7
 10
112.3
 20
0.1999999999999886
 30
0
 40
0.1000000000000085
 50
0
 51
90
  0
ARC
  8
1
 62
7
 10
112.3
 20
-0.2000000000000508
 30
0
 40
0.09999999999995879
 50
270
 51
0
  0
ARC
  8
1
 62
7
 10
111.1
 20
-1.400000000000031
 30
0
 40
0.099999999999969
 50
270
 51
0
  0
ARC
  8
1
 62
7
 10
110.7
 20
-1.400000000000031
 30
0
 40
0.1000000000000085
 50
180
 51
270
  0
ARC
  8
1
 62
7
 10
109.5
 20
-0.2000000000000508
 30
0
 40
0.09999999999999432
 50
180
 51
270
  0
ARC
  8
1
 62
7
 10
109.5
 20
0.1999999999999886
 30
0
 40
0.09999999999996592
 50
90
 51
180
  0
ARC
  8
1
 62
7
 10
126
 20
-19.5
 30
0
 40
10
 50
270
 51
0
  0
ARC
  8
1
 62
7
 10
126
 20
19.5
 30
0
 40
10
 50
0
 51
90
  0
ARC
  8
1
 62
7
 10
137
 20
-13.5
 30
0
 40
1
 50
90
 51
180
  0
ARC
  8
1
 62
7
 10
143.5
 20
-10.5
 30
0
 40
2
 50
270
 51
0
  0
ARC
  8
1
 62
7
 10
137.0154820373594
 20
13.50050386339279
 30
0
 40
1
 50
180
 51
270
  0
ARC
  8
1
 62
7
 10
143.5
 20
10.5
 30
0
 40
2
 50
0
 51
90
  0
ARC
  8
1
 62
7
 10
74.79999999999991
 20
22.19999999999999
 30
0
 40
7.300000000000011
 50
90
 51
180
  0
ARC
  8
1
 62
7
 10
74.7999999999999
 20
-22.20000000000005
 30
0
 40
7.300000000000011
 50
180
 51
270
  0
ARC
  8
1
 62
7
 10
35.49999999999999
 20
39.5
 30
0
 40
0.5
 50
90
 51
180
  0
LINE
  8
1
 62
2
 10
35.70982061369964
 20
-66.34991020425775
 30
0
 11
97.06660838998968
 21
-66.34991020425775
 31
0
  0
LINE
  8
1
 62
2
 10
97.06660838998968
 20
-66.34991020425775
 30
0
 11
117.5
 21
-45.91651859424746
 31
0
  0
SOLID
  8
1
 62
2
 10
115.3509495741618
 20
-48.71721563671505
 30
0
 11
114.6993029575324
 21
-48.0655690200857
 31
0
 12
117.5
 22
-45.91651859424746
 32
0
 13
117.5
 23
-45.91651859424746
 33
0
  0
LINE
  8
1
 62
2
 10
-3.203458857267517
 20
-49.57992455003563
 30
0
 11
11.36174094636576
 21
-49.57992455003563
 31
0
  0
LINE
  8
1
 62
2
 10
11.36174094636576
 20
-49.57992455003563
 30
0
 11
23.19166549640139
 21
-35.75
 31
0
  0
SOLID
  8
1
 62
2
 10
21.26674734662153
 20
-38.70922486018388
 30
0
 11
20.56643358948002
 21
-38.11018624082173
 31
0
 12
23.19166549640139
 22
-35.75
 32
0
 13
23.19166549640139
 23
-35.75
 33
0
  0
LINE
  8
1
 62
2
 10
61.74899190571767
 20
50
 30
0
 11
38.65404299597859
 21
50
 31
0
  0
LINE
  8
1
 62
2
 10
38.65404299597859
 20
50
 30
0
 11
47.49750465902106
 21
41
 31
0
  0
SOLID
  8
1
 62
2
 10
44.71576799628129
 20
43.17353693220328
 30
0
 11
45.37310612783347
 21
43.81944188398524
 31
0
 12
47.49750465902106
 22
41
 32
0
 13
47.49750465902106
 23
41
 33
0
  0
LINE
  8
1
 62
2
 10
112.1579815249747
 20
40
 30
0
 11
87.3256863932927
 21
40
 31
0
  0
LINE
  8
1
 62
2
 10
87.3256863932927
 20
40
 30
0
 11
95.04872971025827
 21
29.5
 31
0
  0
SOLID
  8
1
 62
2
 10
92.60374580049103
 20
32.04644366469426
 30
0
 11
93.34612472465639
 21
32.59248410173535
 31
0
 12
95.04872971025827
 22
29.5
 32
0
 13
95.04872971025827
 23
29.5
 33
0
  0
TEXT
  8
1
 62
2
 10
-144.75
 20
93.5
 30
0
 40
5
  1
DME60S8HF
 41
0.9
 72
1
 73
2
 11
-124.5
 21
96
 31
0
  0
TEXT
  8
1
 62
2
 10
36.9061820409232
 20
-57.95060310440431
 30
0
 40
3.5
  1
LEAD WIRES (RED,BLUE)
 41
0.9
 73
2
 11
36.9061820409232
 21
-56.20060310440431
 31
0
  0
TEXT
  8
1
 62
2
 10
36.9061820409232
 20
-65.11594311103875
 30
0
 40
3.5
  1
UL1015 AWG22
 41
0.9
 73
2
 11
36.9061820409232
 21
-63.36594311103875
 31
0
  0
TEXT
  8
1
 62
2
 10
177.0978460456478
 20
-11.14935934988802
 30
0
 40
3.2
  1
(2.323DIA.)
 50
90
 41
0.6300000000000001
 72
1
 73
2
 11
175.4978460456478
 21
-0.06135934988802028
 31
0
  0
TEXT
  8
1
 62
2
 10
-1.928213355150509
 20
-48.9957628317212
 30
0
 40
3.5
  1
BOLT
 41
0.9
 72
1
 73
2
 11
4.371786644849491
 21
-47.2457628317212
 31
0
  0
TEXT
  8
1
 62
2
 10
176.4978460456478
 20
-57.78965282932603
 30
0
 40
2
  1
%%p1.181
 50
90
 41
0.63
 72
1
 73
2
 11
175.4978460456478
 21
-52.74965282932603
 31
0
  0
TEXT
  8
1
 62
2
 10
165.1547824644678
 20
-81.11516907639204
 30
0
 40
3.2
  1
(0.118)
 50
90
 41
0.6300000000000001
 72
1
 73
2
 11
163.5547824644678
 21
-74.05916907639204
 31
0
  0
TEXT
  8
1
 62
2
 10
177.0978460456478
 20
-67.910960997667
 30
0
 40
3.2
  1
(11.181   )
 50
90
 41
0.6300000000000001
 72
1
 73
2
 11
175.4978460456478
 21
-56.822960997667
 31
0
  0
TEXT
  8
1
 62
2
 10
165.0491926868409
 20
-11.14935934988799
 30
0
 40
3.2
  1
(0.984DIA.)
 50
90
 41
0.6300000000000001
 72
1
 73
2
 11
163.4491926868409
 21
-0.06135934988799008
 31
0
  0
TEXT
  8
1
 62
2
 10
146.3685292089519
 20
69.79472453560031
 30
0
 40
3.2
  1
(0.374)
 41
0.6300000000000001
 72
1
 73
2
 11
153.4245292089519
 21
71.39472453560032
 31
0
  0
TEXT
  8
1
 62
2
 10
-18.79565576757364
 20
36.76268195120073
 30
0
 40
2
  1
 0
 50
90
 41
0.63
  0
TEXT
  8
1
 62
2
 10
-16.39565576757364
 20
36.76268195120073
 30
0
 40
2
  1
-0.000787
 50
90
 41
0.63
  0
TEXT
  8
1
 62
2
 10
-16.99565576757364
 20
21.47670459969279
 30
0
 40
3.2
  1
(0.394DIA.      )
 50
90
 41
0.6300000000000001
 73
2
 11
-18.59565576757364
 21
21.47670459969279
 31
0
  0
TEXT
  8
1
 62
2
 10
-5.80804047979986
 20
21.5857062283638
 30
0
 40
3.2
  1
(0.0984)
 50
90
 41
0.6300000000000001
 72
1
 73
2
 11
-7.40804047979986
 21
29.6497062283638
 31
0
  0
TEXT
  8
1
 62
2
 10
5.598761886628688
 20
45.8
 30
0
 40
3.2
  1
(0.984)
 41
0.6300000000000001
 72
1
 73
2
 11
12.65476188662869
 21
47.4
 31
0
  0
TEXT
  8
1
 62
2
 10
40.87210523109899
 20
50.82551303864307
 30
0
 40
3
  1
NAME PLATE
 41
0.6300000000000001
 72
1
 73
2
 11
50.32210523109899
 21
52.32551303864307
 31
0
  0
TEXT
  8
1
 62
2
 10
16.35664858011809
 20
57.80159638450104
 30
0
 40
3.2
  1
(0.197)
 41
0.6300000000000001
 72
1
 73
2
 11
23.41264858011809
 21
59.40159638450104
 31
0
  0
TEXT
  8
1
 62
2
 10
10.60925518590472
 20
69.8
 30
0
 40
3.2
  1
(1.378)
 41
0.6300000000000001
 72
1
 73
2
 11
17.66525518590472
 21
71.40000000000001
 31
0
  0
TEXT
  8
1
 62
2
 10
-161.4287913706871
 20
46.8
 30
0
 40
2
  1
+0.00118
 41
0.63
  0
TEXT
  8
1
 62
2
 10
-161.4287913706871
 20
44.40000000000001
 30
0
 40
2
  1
 0
 41
0.63
  0
TEXT
  8
1
 62
2
 10
-172.4407687221951
 20
45.00000000000001
 30
0
 40
3.2
  1
(0.157     )
 41
0.6300000000000001
 72
1
 73
2
 11
-160.3447687221951
 21
46.60000000000001
 31
0
  0
TEXT
  8
1
 62
2
 10
-56.65184174389405
 20
-10.74698560329519
 30
0
 40
2
  1
%%p0.0118
 50
90
 41
0.63
 72
1
 73
2
 11
-57.65184174389405
 21
-5.076985603295189
 31
0
  0
TEXT
  8
1
 62
2
 10
-56.05184174389405
 20
-20.4382937716362
 30
0
 40
3.2
  1
(0.591    )
 50
90
 41
0.6300000000000001
 72
1
 73
2
 11
-57.65184174389405
 21
-9.350293771636199
 31
0
  0
TEXT
  8
1
 62
2
 10
-44.36090323453453
 20
-1.34698560329519
 30
0
 40
2
  1
%%p0.0118
 50
90
 41
0.63
 72
1
 73
2
 11
-45.36090323453453
 21
4.32301439670481
 31
0
  0
TEXT
  8
1
 62
2
 10
-43.76090323453453
 20
-11.0382937716362
 30
0
 40
3.2
  1
(2.618    )
 50
90
 41
0.6300000000000001
 72
1
 73
2
 11
-45.36090323453453
 21
0.0497062283638009
 31
0
  0
TEXT
  8
1
 62
2
 10
-111.3322561578473
 20
70.70195954549675
 30
0
 40
2
  1
%%p0.0118
 41
0.63
 72
1
 73
2
 11
-105.6622561578473
 21
71.70195954549675
 31
0
  0
TEXT
  8
1
 62
2
 10
-120.9235643261883
 20
70.10195954549674
 30
0
 40
3.2
  1
(2.618    )
 41
0.6300000000000001
 72
1
 73
2
 11
-109.8355643261883
 21
71.70195954549675
 31
0
  0
TEXT
  8
1
 62
2
 10
-120.9235643261883
 20
58.10195954549674
 30
0
 40
3.2
  1
(1.339DIA.)
 41
0.6300000000000001
 72
1
 73
2
 11
-109.8355643261883
 21
59.70195954549674
 31
0
  0
TEXT
  8
1
 62
2
 10
-119.9212747974318
 20
82.06541599418675
 30
0
 40
3.2
  1
(3.15SQU.)
 41
0.6300000000000001
 72
1
 73
2
 11
-109.8412747974318
 21
83.66541599418676
 31
0
  0
TEXT
  8
1
 62
2
 10
91.477768258564
 20
40.82551303864307
 30
0
 40
3
  1
NAME PLATE
 41
0.6300000000000001
 72
1
 73
2
 11
100.927768258564
 21
42.32551303864307
 31
0
  0
DIMENSION
  8
1
  6
CONTINUOUS
 62
2
  2
*D0
  3
DMST_1
 10
34.99999999999999
 20
74.02505934373551
 30
0
 11
17.49999999999999
 21
76.6250593437355
 31
0
 12
0
 22
0
 32
0
 70
0
 13
-7.549516567451065e-015
 23
19.58257569495584
 33
0
 14
34.99999999999999
 24
39.5
 34
0
 53
0
  0
DIMENSION
  8
1
  6
CONTINUOUS
 62
2
  2
*D1
  3
DMST_1
 10
25
 20
50.00000000000002
 30
0
 11
12.5
 21
52.60000000000002
 31
0
 12
0
 22
0
 32
0
 70
0
 13
-7.549516567451065e-015
 23
19.58257569495584
 33
0
 14
25
 24
17.5
 34
0
 53
0
  0
DIMENSION
  8
1
  6
CONTINUOUS
 62
2
  2
*D2
  3
DMST_1
 10
-10.6105029821582
 20
20
 30
0
 11
-13.2105029821582
 21
29.6586998893089
 31
0
 12
0
 22
0
 32
0
 70
0
 13
-7.549516567451065e-015
 23
17.5
 33
0
 14
29.3301270189222
 24
20
 34
0
 50
90
 53
0
  0
DIMENSION
  8
1
  6
CONTINUOUS
 62
2
  2
*D3
  3
DMST_2
 10
-22.6364339363561
 20
20
 30
0
 11
-26.0364339363561
 21
31.6716200567019
 31
0
 12
0
 22
0
 32
0
 70
0
  1
φ<>
 13
-7.549516567451065e-015
 23
10
 33
0
 14
29.3301270189222
 24
20
 34
0
 50
90
 53
0
  0
DIMENSION
  8
1
  6
CONTINUOUS
 62
2
  2
*D4
  3
DMST_1
 10
67
 20
61.9011212872969
 30
0
 11
51
 21
64.5011212872969
 31
0
 12
0
 22
0
 32
0
 70
0
  1
L2
 13
34.99999999999999
 23
39.5
 33
0
 14
67
 24
40
 34
0
 53
0
  0
DIMENSION
  8
1
  6
CONTINUOUS
 62
2
  2
*D5
  3
DMST_3
 10
136
 20
74.0067188953882
 30
0
 11
85.5
 21
76.6067188953882
 31
0
 12
0
 22
0
 32
0
 70
0
  1
L1
 13
34.99999999999999
 23
39.5
 33
0
 14
136
 24
19.5
 34
0
 53
0
  0
DIMENSION
  8
1
  6
CONTINUOUS
 62
2
  2
*D6
  3
DMST_4
 10
161.006501193659
 20
-81.5
 30
0
 11
158.406501193659
 21
-73.54565334582424
 31
0
 12
0
 22
0
 32
0
 70
0
  1
(<>
 13
121.3612878820809
 23
-84.5
 33
0
 14
122
 24
-81.5
 34
0
 50
90
 53
0
  0
DIMENSION
  8
1
  6
CONTINUOUS
 62
2
  2
*D7
  3
DMST_1
 10
172.979643875196
 20
-29.5
 30
0
 11
170.379643875196
 21
0
 31
0
 12
0
 22
0
 32
0
 70
0
  1
φ<>
 13
126
 23
29.5
 33
0
 14
126
 24
-29.5
 34
0
 50
90
 53
0
  0
DIMENSION
  8
1
  6
CONTINUOUS
 62
2
  2
*D8
  3
DMST_1
 10
161.006501193659
 20
-12.5
 30
0
 11
158.406501193659
 21
0
 31
0
 12
0
 22
0
 32
0
 70
0
  1
φ<>
 13
143.5
 23
12.5
 33
0
 14
143.5
 24
-12.5
 34
0
 50
90
 53
0
  0
DIMENSION
  8
1
  6
CONTINUOUS
 62
2
  2
*D9
  3
DMST_4
 10
145.5
 20
73.98947564688351
 30
0
 11
153.0199490415981
 21
76.5894756468835
 31
0
 12
0
 22
0
 32
0
 70
0
  1
(<>
 13
136
 23
19.5
 33
0
 14
145.5
 24
10.5
 34
0
 53
0
  0
DIMENSION
  8
1
  6
CONTINUOUS
 62
2
  2
*D10
  3
DMST_5
 10
172.979643875196
 20
-84.5
 30
0
 11
170.379643875196
 21
-57
 31
0
 12
0
 22
0
 32
0
 70
0
  1
300
 13
126
 23
-29.5
 33
0
 14
121.3612878820809
 24
-84.5
 34
0
 50
90
 53
0
  0
DIMENSION
  8
1
  6
CONTINUOUS
 62
2
  2
*D11
  3
DMST_3
 10
30
 20
61.90502415052339
 30
0
 11
23.5047851390506
 21
64.5050241505234
 31
0
 12
0
 22
0
 32
0
 70
0
 13
34.99999999999999
 23
39.5
 33
0
 14
30
 24
28.63
 34
0
 53
0
  0
DIMENSION
  8
1
  6
CONTINUOUS
 62
2
  2
*D12
  3
DMST_3
 10
-70.00000000000003
 20
86.111812470225
 30
0
 11
-110
 21
88.711812470225
 31
0
 12
0
 22
0
 32
0
 70
0
  1
□<>
 13
-150.0000000000001
 23
33.25
 33
0
 14
-69.99999999999999
 24
33.25
 34
0
 53
0
  0
DIMENSION
  8
1
  6
CONTINUOUS
 62
2
  2
*D13
  3
DMST_6
 10
-76.75
 20
74.0224804065669
 30
0
 11
-110
 21
76.62248040656689
 31
0
 12
0
 22
0
 32
0
 70
0
 13
-143.2500000000001
 23
40
 33
0
 14
-76.74999999999999
 24
40
 34
0
 53
0
  0
DIMENSION
  8
1
  6
CONTINUOUS
 62
2
  2
*D14
  3
DMST_3
 10
-93
 20
62.1726311147166
 30
0
 11
-110
 21
64.7726311147166
 31
0
 12
0
 22
0
 32
0
 70
0
  1
φ<>
 13
-127
 23
15
 33
0
 14
-93
 24
15
 34
0
 53
0
  0
DIMENSION
  8
1
  6
CONTINUOUS
 62
2
  2
*D15
  3
DMST_7
 10
-112
 20
50.0130544528453
 30
0
 11
-160.46191644028
 21
53.4130544528453
 31
0
 12
0
 22
0
 32
0
 70
0
 13
-108
 23
19.58257569495578
 33
0
 14
-112
 24
19.58257569495578
 34
0
 53
0
  0
DIMENSION
  8
1
  6
CONTINUOUS
 62
2
  2
*D16
  3
DMST_8
 10
-60.1124513184787
 20
0
 30
0
 11
-62.7124513184787
 21
-9.78005112431754
 31
0
 12
0
 22
0
 32
0
 70
0
 13
-93
 23
15
 33
0
 14
-69.99999999999999
 24
0
 34
0
 50
90
 53
0
  0
DIMENSION
  8
1
  6
CONTINUOUS
 62
2
  2
*D17
  3
DMST_6
 10
-47.976633598102
 20
33.25
 30
0
 11
-50.576633598102
 21
0
 31
0
 12
0
 22
0
 32
0
 70
0
 13
-69.99999999999999
 23
-33.25
 33
0
 14
-69.99999999999999
 24
33.25
 34
0
 50
90
 53
0
  0
INSERT
  8
0
  2
___R___O_______R
 10
0.5
 20
-3.75
 30
0
  0
INSERT
  8
0
  2
TOP
 10
358.2751942342005
 20
217.2680463147007
 30
0
  0
ENDSEC
  0
EOF
