  0
SECTION
  2
HEADER
  9
$ACADVER
  1
AC1009
  9
$INSBASE
 10
0
 20
0
  9
$EXTMIN
 10
-194.5
 20
-146
  9
$EXTMAX
 10
194.5
 20
146
  9
$LIMMIN
 10
-194.5
 20
-146
  9
$LIMMAX
 10
194.5
 20
146
  9
$VIEWCTR
 10
10
 20
10
  9
$VIEWSIZE
 40
10
  9
$SNAPMODE
 70
0
  9
$SNAPUNIT
 10
1
 20
1
  9
$SNAPBASE
 10
0
 20
0
  9
$SNAPANG
 50
0
  9
$SNAPSTYLE
 70
0
  9
$SNAPISOPAIR
 70
0
  9
$GRIDMODE
 70
0
  9
$GRIDUNIT
 10
0
 20
0
  9
$ORTHOMODE
 70
0
  9
$REGENMODE
 70
1
  9
$FILLMODE
 70
1
  9
$QTEXTMODE
 70
0
  9
$DRAGMODE
 70
2
  9
$LTSCALE
 40
1
  9
$OSMODE
 70
0
  9
$ATTMODE
 70
1
  9
$TEXTSIZE
 40
3.5
  9
$TRACEWID
 40
0.5
  9
$TEXTSTYLE
  7
STANDARD
  9
$CLAYER
  8
0
  9
$CELTYPE
  6
BYLAYER
  9
$CECOLOR
 62
256
  9
$DIMSCALE
 40
1
  9
$DIMASZ
 40
0.18
  9
$DIMEXO
 40
0.0625
  9
$DIMDLI
 40
0.38
  9
$DIMRND
 40
0
  9
$DIMDLE
 40
0
  9
$DIMEXE
 40
0.18
  9
$DIMTP
 40
0
  9
$DIMTM
 40
0
  9
$DIMTXT
 40
0.18
  9
$DIMCEN
 40
0.09
  9
$DIMTSZ
 40
0
  9
$DIMTOL
 70
0
  9
$DIMLIM
 70
0
  9
$DIMTIH
 70
1
  9
$DIMTOH
 70
1
  9
$DIMSE1
 70
0
  9
$DIMSE2
 70
0
  9
$DIMTAD
 70
0
  9
$DIMZIN
 70
0
  9
$DIMBLK
  1

  9
$DIMASO
 70
1
  9
$DIMSHO
 70
1
  9
$DIMPOST
  1

  9
$DIMAPOST
  1

  9
$DIMALT
 70
0
  9
$DIMALTD
 70
2
  9
$DIMALTF
 40
25.4
  9
$DIMLFAC
 40
1
  9
$DIMTOFL
 70
0
  9
$DIMTVP
 40
0
  9
$DIMTIX
 70
0
  9
$DIMSOXD
 70
0
  9
$DIMSAH
 70
0
  9
$DIMBLK1
  1

  9
$DIMBLK2
  1

  9
$DIMSTYLE
  2
*UNNAMED
  9
$DIMCLRD
 70
0
  9
$DIMCLRE
 70
0
  9
$DIMCLRT
 70
0
  9
$DIMTFAC
 40
1
  9
$DIMGAP
 40
0.09
  9
$LUNITS
 70
2
  9
$LUPREC
 70
4
  9
$AXISMODE
 70
0
  9
$AXISUNIT
 10
0
 20
0
  9
$SKETCHINC
 40
0.1
  9
$FILLETRAD
 40
2
  9
$AUNITS
 70
0
  9
$AUPREC
 70
0
  9
$MENU
  1
ACAD
  9
$ELEVATION
 40
0
  9
$THICKNESS
 40
0
  9
$VIEWDIR
 10
0
 20
0
 30
1
  9
$LIMCHECK
 70
0
  9
$BLIPMODE
 70
1
  9
$CHAMFERA
 40
0
  9
$CHAMFERB
 40
0
  9
$FASTZOOM
 70
1
  9
$SKPOLY
 70
0
  9
$ANGBASE
 50
0
  9
$ANGDIR
 70
0
  9
$PDMODE
 70
0
  9
$PDSIZE
 40
0
  9
$PLINEWID
 40
0
  9
$COORDS
 70
2
  0
ENDSEC
  0
SECTION
  2
TABLES
  0
TABLE
  2
DIMSTYLE
 70
9
  0
DIMSTYLE
  2
DMST_1
 70
0
  3

  4

  5

  6

  7

 40
1
 41
3.2
 42
1
 43
7
 44
1
 45
0
 46
0
 47
0
 48
0
140
3.2
141
0
142
0
143
25.4
144
1
145
0
146
1
147
0.09
 71
0
 72
0
 73
0
 74
0
 75
0
 76
0
 77
1
 78
9
170
0
171
2
172
0
173
0
174
0
175
0
176
2
177
2
178
2
  0
DIMSTYLE
  2
DMST_2
 70
0
  3

  4

  5

  6

  7

 40
1
 41
3.2
 42
1
 43
7
 44
1
 45
0
 46
0
 47
0
 48
0.02
140
3.2
141
0
142
0
143
25.4
144
1
145
0
146
0.6
147
0.09
 71
1
 72
0
 73
0
 74
0
 75
0
 76
0
 77
1
 78
9
170
0
171
2
172
0
173
0
174
0
175
0
176
2
177
2
178
2
  0
DIMSTYLE
  2
DMST_3
 70
0
  3

  4

  5

  6

  7

 40
1
 41
3.2
 42
1
 43
7
 44
1
 45
0
 46
0
 47
0
 48
0
140
3.2
141
0
142
0
143
25.4
144
1
145
0
146
1
147
0.09
 71
0
 72
0
 73
1
 74
1
 75
0
 76
0
 77
1
 78
9
170
0
171
2
172
0
173
0
174
0
175
0
176
2
177
2
178
2
  0
DIMSTYLE
  2
DMST_4
 70
0
  3

  4

  5

  6

  7

 40
1
 41
3.2
 42
1
 43
7
 44
1
 45
0
 46
0
 47
0.3
 48
0.3
140
3.2
141
0
142
0
143
25.4
144
1
145
0
146
0.6
147
0.09
 71
1
 72
0
 73
0
 74
0
 75
0
 76
0
 77
1
 78
9
170
0
171
2
172
0
173
0
174
0
175
0
176
2
177
2
178
2
  0
DIMSTYLE
  2
DMST_5
 70
0
  3

  4

  5

  6

  7

 40
1
 41
3.2
 42
1
 43
7
 44
1
 45
0
 46
0
 47
0.5
 48
0.5
140
3.2
141
0
142
0
143
25.4
144
1
145
0
146
0.6
147
0.09
 71
1
 72
0
 73
0
 74
0
 75
0
 76
0
 77
1
 78
9
170
0
171
2
172
0
173
0
174
0
175
0
176
2
177
2
178
2
  0
DIMSTYLE
  2
DMST_6
 70
0
  3

  4

  5

  6

  7

 40
1
 41
3
 42
1
 43
7
 44
1
 45
0
 46
0
 47
0
 48
0
140
3.2
141
0
142
0
143
25.4
144
1
145
0
146
1
147
0.09
 71
0
 72
0
 73
0
 74
0
 75
0
 76
0
 77
1
 78
9
170
0
171
2
172
0
173
0
174
0
175
0
176
2
177
2
178
2
  0
DIMSTYLE
  2
DMST_7
 70
0
  3
)
  4

  5

  6

  7

 40
1
 41
3
 42
1
 43
7
 44
1
 45
0
 46
0
 47
0
 48
0
140
3.2
141
0
142
0
143
25.4
144
1
145
0
146
1
147
0.09
 71
0
 72
0
 73
0
 74
0
 75
0
 76
0
 77
1
 78
9
170
0
171
2
172
0
173
0
174
0
175
0
176
2
177
2
178
2
  0
DIMSTYLE
  2
DMST_8
 70
0
  3

  4

  5

  6

  7

 40
1
 41
3
 42
1
 43
7
 44
1
 45
0
 46
0
 47
30
 48
30
140
3.2
141
0
142
0
143
25.4
144
1
145
0
146
0.6
147
0.09
 71
1
 72
0
 73
0
 74
0
 75
0
 76
0
 77
1
 78
9
170
0
171
2
172
0
173
0
174
0
175
0
176
2
177
2
178
2
  0
DIMSTYLE
  2
DMST_9
 70
0
  3

  4

  5

  6

  7

 40
1
 41
3
 42
1
 43
7
 44
1
 45
0
 46
0
 47
0.3
 48
0.3
140
3.2
141
0
142
0
143
25.4
144
1
145
0
146
0.6
147
0.09
 71
1
 72
0
 73
0
 74
0
 75
0
 76
0
 77
1
 78
9
170
0
171
2
172
0
173
0
174
0
175
0
176
2
177
2
178
2
  0
ENDTAB
  0
TABLE
  2
LTYPE
 70
9
  0
LTYPE
  2
CONTINUOUS
 70
64
  3
Solid line
 72
65
 73
0
 40
0
  0
LTYPE
  2
BORDER
 70
64
  3
__ __ . __ __ .
 72
65
 73
6
 40
17.91447368421053
 49
5.118421052631579
 49
-2.559210526315789
 49
5.118421052631579
 49
-2.559210526315789
 49
0
 49
-2.559210526315789
  0
LTYPE
  2
CENTER
 70
64
  3
____ _ ____ _
 72
65
 73
4
 40
20.47368421052632
 49
12.79605263157895
 49
-2.559210526315789
 49
2.559210526315789
 49
-2.559210526315789
  0
LTYPE
  2
DASHDOT
 70
64
  3
__ . __ . __ .
 72
65
 73
4
 40
10.23684210526316
 49
5.118421052631579
 49
-2.559210526315789
 49
0
 49
-2.559210526315789
  0
LTYPE
  2
DASHED
 70
64
  3
__ __ __ __ __
 72
65
 73
2
 40
7.677631578947368
 49
5.118421052631579
 49
-2.559210526315789
  0
LTYPE
  2
DIVIDE
 70
64
  3
__ . . __ . . 
 72
65
 73
6
 40
12.79605263157895
 49
5.118421052631579
 49
-2.559210526315789
 49
0
 49
-2.559210526315789
 49
0
 49
-2.559210526315789
  0
LTYPE
  2
DOT
 70
64
  3
..............
 72
65
 73
4
 40
5.118421052631579
 49
0
 49
-2.559210526315789
 49
0
 49
-2.559210526315789
  0
LTYPE
  2
HIDDEN
 70
64
  3
_ _ _ _ _ _ _
 72
65
 73
2
 40
3.838815789473684
 49
2.559210526315789
 49
-1.279605263157895
  0
LTYPE
  2
PHANTOM
 70
64
  3
_____ _ _ _____ _ _ 
 72
65
 73
6
 40
25.59210526315789
 49
12.79605263157895
 49
-2.559210526315789
 49
2.559210526315789
 49
-2.559210526315789
 49
2.559210526315789
 49
-2.559210526315789
  0
ENDTAB
  0
TABLE
  2
LAYER
 70
3
  0
LAYER
  2
1
 70
0
 62
7
  6
CONTINUOUS
  0
LAYER
  2
0
 70
0
 62
7
  6
CONTINUOUS
  0
ENDTAB
  0
TABLE
  2
STYLE
 70
4
  0
STYLE
  2
STANDARD
 70
0
 40
0
 41
1
 50
0
 71
0
 42
3.5
  3
txt
  4

  0
STYLE
  2
SIMPLEX
 70
0
 40
0
 41
1
 50
0
 71
0
 42
3.5
  3
simplex
  4

  0
STYLE
  2
COMPLEX
 70
0
 40
0
 41
1
 50
0
 71
0
 42
3.5
  3
complex
  4

  0
STYLE
  2
ITALIC
 70
0
 40
0
 41
1
 50
0
 71
0
 42
3.5
  3
italic
  4

  0
ENDTAB
  0
TABLE
  2
VIEW
 70
0
  0
ENDTAB
  0
ENDSEC
  0
SECTION
  2
BLOCKS
  0
BLOCK
  8
0
  2
___R___O_______R
 70
0
 10
0.5
 20
-3.75
 30
0
  0
LINE
  8
1
 62
4
  6
PHANTOM
 10
-194.5
 20
-146
 30
0
 11
194.5
 21
-146
 31
0
  0
LINE
  8
1
 62
4
  6
PHANTOM
 10
194.5
 20
146
 30
0
 11
-194.5
 21
146
 31
0
  0
LINE
  8
1
 62
4
  6
PHANTOM
 10
194.5
 20
146
 30
0
 11
194.5
 21
129
 31
0
  0
LINE
  8
1
 62
4
  6
PHANTOM
 10
-194.5
 20
-146
 30
0
 11
-194.5
 21
146
 31
0
  0
LINE
  8
1
 62
4
  6
PHANTOM
 10
194.5
 20
-136.5
 30
0
 11
194.5
 21
-146
 31
0
  0
TEXT
  8
1
 62
4
 10
178.746911898274
 20
-142.6071298819256
 30
0
 40
5
  1
A3
 41
0.9
 72
1
 73
2
 11
183.246911898274
 21
-140.1071298819256
 31
0
  0
ENDBLK
  8
0
  0
BLOCK
  8
0
  2
___
 70
0
 10
-196.1221264909976
 20
-445.6883015227631
 30
0
  0
LINE
  8
1
 62
2
  6
DOT
 10
-39.5
 20
-79.60000000000002
 30
0
 11
-39.5
 21
-93.19999999999999
 31
0
  0
LINE
  8
1
 62
7
 10
-89.5
 20
-76
 30
0
 11
-89.5
 21
-93.19999999999999
 31
0
  0
LINE
  8
1
 62
7
 10
-19.49999999999989
 20
-76
 30
0
 11
-154.5
 21
-76
 31
0
  0
LINE
  8
1
 62
7
 10
-154.5
 20
-88.19999999999999
 30
0
 11
-19.5
 21
-88.19999999999999
 31
0
  0
LINE
  8
1
 62
7
 10
-154.5
 20
-93.19999999999999
 30
0
 11
-19.5
 21
-93.19999999999999
 31
0
  0
LINE
  8
1
 62
7
 10
-19.49999999999989
 20
-76
 30
0
 11
-19.5
 21
-93.19999999999999
 31
0
  0
LINE
  8
1
 62
7
 10
-124.5
 20
-76
 30
0
 11
-124.5
 21
-93.19999999999999
 31
0
  0
LINE
  8
1
 62
7
 10
-154.5
 20
-76
 30
0
 11
-154.5
 21
-93.19999999999999
 31
0
  0
LINE
  8
1
 62
4
  6
PHANTOM
 10
-194.5
 20
-146
 30
0
 11
-194.5
 21
-136
 31
0
  0
LINE
  8
1
 62
4
  6
PHANTOM
 10
-194.5
 20
-146
 30
0
 11
-184.5
 21
-146
 31
0
  0
LINE
  8
1
 62
7
 10
-124.5
 20
-79.60000000000002
 30
0
 11
-19.5
 21
-79.60000000000002
 31
0
  0
LINE
  8
1
 62
7
 10
-54.49999999999989
 20
-76
 30
0
 11
-54.49999999999989
 21
-93.19999999999999
 31
0
  0
LINE
  8
1
 62
2
  6
DOT
 10
-109.5
 20
-79.60000000000002
 30
0
 11
-109.5
 21
-93.19999999999999
 31
0
  0
LINE
  8
1
 62
7
 10
-154.5
 20
-83.19999999999999
 30
0
 11
-19.5
 21
-83.19999999999999
 31
0
  0
LINE
  8
1
 62
2
  6
DOT
 10
-74.5
 20
-79.60000000000002
 30
0
 11
-74.5
 21
-93.19999999999999
 31
0
  0
TEXT
  8
1
 62
2
 10
-43.35040000000013
 20
-79.06000000000002
 30
0
 40
2.520000000000007
  1
ＢＯＬＴ
 41
0.63
 72
1
 73
2
 11
-37
 21
-77.80000000000001
 31
0
  0
TEXT
  8
1
 62
7
 10
-58.25
 20
-91.94999999999999
 30
0
 40
2.5
  1
Ｍ５×６０
 41
0.9
 72
1
 73
2
 11
-47
 21
-90.69999999999999
 31
0
  0
TEXT
  8
1
 62
7
 10
-58.25
 20
-86.94999999999999
 30
0
 40
2.5
  1
Ｍ５×５０
 41
0.9
 72
1
 73
2
 11
-47
 21
-85.69999999999999
 31
0
  0
TEXT
  8
1
 62
2
 10
-51.7628000000001
 20
-82.65999999999998
 30
0
 40
2.520000000000007
  1
(ｍｍ)
 41
0.63
 72
1
 73
2
 11
-47
 21
-81.39999999999998
 31
0
  0
TEXT
  8
1
 62
2
 10
-37.43800000000016
 20
-82.65999999999998
 30
0
 40
2.520000000000007
  1
(ｉｎｃｈ)
 41
0.63
 72
1
 73
2
 11
-29.5
 21
-81.39999999999998
 31
0
  0
TEXT
  8
1
 62
7
 10
-43.9
 20
-91.94999999999999
 30
0
 40
2.5
  1
Ｍ５×２．３６２
 41
0.7200000000000001
 72
1
 73
2
 11
-29.5
 21
-90.69999999999999
 31
0
  0
TEXT
  8
1
 62
7
 10
-43.9
 20
-86.94999999999999
 30
0
 40
2.5
  1
Ｍ５×１．９６９
 41
0.7200000000000001
 72
1
 73
2
 11
-29.5
 21
-85.69999999999999
 31
0
  0
TEXT
  8
1
 62
2
 10
-74.38140000000004
 20
-79.06000000000002
 30
0
 40
2.520000000000007
  1
Ｌ2
 41
0.63
 72
1
 73
2
 11
-72
 21
-77.80000000000001
 31
0
  0
TEXT
  8
1
 62
7
 10
-86.5
 20
-91.94999999999999
 30
0
 40
2.5
  1
４２
 41
0.9
 72
1
 73
2
 11
-82
 21
-90.69999999999999
 31
0
  0
TEXT
  8
1
 62
7
 10
-86.5
 20
-86.94999999999999
 30
0
 40
2.5
  1
３２
 41
0.9
 72
1
 73
2
 11
-82
 21
-85.69999999999999
 31
0
  0
TEXT
  8
1
 62
7
 10
-128.25
 20
-91.94999999999999
 30
0
 40
2.5
  1
１１６．５
 41
0.9
 72
1
 73
2
 11
-117
 21
-90.69999999999999
 31
0
  0
TEXT
  8
1
 62
7
 10
-128.25
 20
-86.94999999999999
 30
0
 40
2.5
  1
１０６．５
 41
0.9
 72
1
 73
2
 11
-117
 21
-85.69999999999999
 31
0
  0
TEXT
  8
1
 62
2
 10
-109.3814
 20
-79.06000000000002
 30
0
 40
2.520000000000007
  1
Ｌ1
 41
0.63
 72
1
 73
2
 11
-107
 21
-77.80000000000001
 31
0
  0
TEXT
  8
1
 62
7
 10
-153.5
 20
-91.94999999999999
 30
0
 40
2.5
  1
１／２２５ ～ １／１８００
 41
0.7200000000000001
 73
2
 11
-153.5
 21
-90.69999999999999
 31
0
  0
TEXT
  8
1
 62
7
 10
-153.5
 20
-86.94999999999999
 30
0
 40
2.5
  1
１／３　　 ～ １／１８０
 41
0.7200000000000001
 73
2
 11
-153.5
 21
-85.69999999999999
 31
0
  0
TEXT
  8
1
 62
2
 10
-163.9944000000005
 20
-80.85999999999997
 30
0
 40
2.520000000000007
  1
ＤＥＣＯＬＥＲＡＴＩＯＮ　ＲＡＴＩＯ
 41
0.5399999999999999
 72
1
 73
2
 11
-139.5
 21
-79.59999999999997
 31
0
  0
TEXT
  8
1
 62
2
 10
-121.7628000000001
 20
-82.65999999999998
 30
0
 40
2.520000000000007
  1
(ｍｍ)
 41
0.63
 72
1
 73
2
 11
-117
 21
-81.39999999999998
 31
0
  0
TEXT
  8
1
 62
2
 10
-86.7628000000001
 20
-82.65999999999998
 30
0
 40
2.520000000000007
  1
(ｍｍ)
 41
0.63
 72
1
 73
2
 11
-82
 21
-81.39999999999998
 31
0
  0
TEXT
  8
1
 62
2
 10
-107.4380000000002
 20
-82.65999999999998
 30
0
 40
2.520000000000007
  1
(ｉｎｃｈ)
 41
0.63
 72
1
 73
2
 11
-99.5
 21
-81.39999999999998
 31
0
  0
TEXT
  8
1
 62
2
 10
-72.43800000000016
 20
-82.65999999999998
 30
0
 40
2.520000000000007
  1
(ｉｎｃｈ)
 41
0.63
 72
1
 73
2
 11
-64.5
 21
-81.39999999999998
 31
0
  0
TEXT
  8
1
 62
7
 10
-110.75
 20
-86.94999999999999
 30
0
 40
2.5
  1
４．１９３
 41
0.9
 72
1
 73
2
 11
-99.5
 21
-85.69999999999999
 31
0
  0
TEXT
  8
1
 62
7
 10
-110.75
 20
-91.94999999999999
 30
0
 40
2.5
  1
４．５８７
 41
0.9
 72
1
 73
2
 11
-99.5
 21
-90.69999999999999
 31
0
  0
TEXT
  8
1
 62
7
 10
-75.75
 20
-91.94999999999999
 30
0
 40
2.5
  1
１．６５４
 41
0.9
 72
1
 73
2
 11
-64.5
 21
-90.69999999999999
 31
0
  0
TEXT
  8
1
 62
7
 10
-73.5
 20
-86.94999999999999
 30
0
 40
2.5
  1
１．２６
 41
0.9
 72
1
 73
2
 11
-64.5
 21
-85.69999999999999
 31
0
  0
ENDBLK
  8
0
  0
BLOCK
  8
1
  2
*D0
 70
1
 10
0
 20
0
 30
0
  0
LINE
  8
1
 62
2
 10
41.39999999999999
 20
61.86901017922351
 30
0
 11
34.99999999999999
 21
61.86901017922351
 31
0
  0
LINE
  8
1
 62
2
 10
29.99999999999999
 20
61.86901017922351
 30
0
 11
34.99999999999999
 21
61.86901017922351
 31
0
  0
LINE
  8
1
 62
2
 10
29.99999999999999
 20
61.86901017922351
 30
0
 11
21.6257619455082
 21
61.86901017922351
 31
0
  0
LINE
  8
1
 62
2
 10
29.99999999999999
 20
29.63000000000002
 30
0
 11
29.99999999999999
 21
62.86901017922351
 31
0
  0
LINE
  8
1
 62
2
 10
34.99999999999999
 20
39.25
 30
0
 11
34.99999999999999
 21
62.86901017922351
 31
0
  0
SOLID
  8
1
 62
2
 10
29.99999999999999
 20
61.86901017922351
 30
0
 11
26.79999999999999
 21
61.45301017922351
 31
0
 12
26.79999999999999
 22
62.28501017922351
 32
0
 13
26.79999999999999
 23
62.28501017922351
 33
0
  0
SOLID
  8
1
 62
2
 10
34.99999999999999
 20
61.86901017922351
 30
0
 11
38.19999999999999
 21
62.28501017922351
 31
0
 12
38.19999999999999
 22
61.45301017922351
 32
0
 13
38.19999999999999
 23
61.45301017922351
 33
0
  0
TEXT
  8
1
 62
2
 10
21.6257619455082
 20
62.8690101792235
 30
0
 40
3.2
  1
5
 41
0.9
  0
ENDBLK
  8
0
  0
BLOCK
  8
1
  2
*D1
 70
1
 10
0
 20
0
 30
0
  0
LINE
  8
1
 62
2
 10
-22.39127610145024
 20
19
 30
0
 11
-22.39127610145024
 21
37.78538319924472
 31
0
  0
LINE
  8
1
 62
2
 10
-22.39127610145024
 20
11
 30
0
 11
-22.39127610145024
 21
19
 31
0
  0
LINE
  8
1
 62
2
 10
-22.39127610145024
 20
4.599999999999998
 30
0
 11
-22.39127610145024
 21
11
 31
0
  0
LINE
  8
1
 62
2
 10
14.12604879978175
 20
19
 30
0
 11
-23.39127610145024
 21
19
 31
0
  0
LINE
  8
1
 62
2
 10
-1.000000000000011
 20
11
 30
0
 11
-23.39127610145024
 21
11
 31
0
  0
SOLID
  8
1
 62
2
 10
-22.39127610145024
 20
11
 30
0
 11
-21.97527610145024
 21
7.799999999999999
 31
0
 12
-22.80727610145024
 22
7.799999999999999
 32
0
 13
-22.80727610145024
 23
7.799999999999999
 33
0
  0
SOLID
  8
1
 62
2
 10
-22.39127610145024
 20
19
 30
0
 11
-22.80727610145024
 21
22.2
 31
0
 12
-21.97527610145025
 22
22.2
 32
0
 13
-21.97527610145025
 23
22.2
 33
0
  0
TEXT
  8
1
 62
2
 10
-24.19127610145024
 20
27.49738319924472
 30
0
 40
3.2
  1
8
 50
90
 41
0.9
  0
TEXT
  8
1
 62
2
 10
-26.27127610145024
 20
31.01738319924472
 30
0
 40
1.92
  1
 0
 50
90
 41
0.9
  0
TEXT
  8
1
 62
2
 10
-23.39127610145024
 20
31.01738319924472
 30
0
 40
1.92
  1
-0.02
 50
90
 41
0.9
  0
TEXT
  8
1
 62
2
 10
-24.19127610145024
 20
23.85293875480028
 30
0
 40
3.2
  1
φ
 50
90
 41
0.9
  0
TEXT
  8
1
 62
2
 10
-25.79127610145024
 20
30.8191609770225
 30
0
 40
3.2
  1

 50
90
 41
0.9
  0
ENDBLK
  8
0
  0
BLOCK
  8
1
  2
*D2
 70
1
 10
0
 20
0
 30
0
  0
LINE
  8
1
 62
2
 10
-127
 20
50.05773237904651
 30
0
 11
-93.00000000000003
 21
50.05773237904651
 31
0
  0
LINE
  8
1
 62
2
 10
-93.00000000000003
 20
16
 30
0
 11
-93.00000000000003
 21
51.05773237904651
 31
0
  0
LINE
  8
1
 62
2
 10
-127
 20
16
 30
0
 11
-127
 21
51.05773237904651
 31
0
  0
SOLID
  8
1
 62
2
 10
-127
 20
50.05773237904651
 30
0
 11
-123.8
 21
50.4737323790465
 31
0
 12
-123.8
 22
49.64173237904651
 32
0
 13
-123.8
 23
49.64173237904651
 33
0
  0
SOLID
  8
1
 62
2
 10
-93.00000000000003
 20
50.05773237904651
 30
0
 11
-96.20000000000003
 21
49.64173237904651
 31
0
 12
-96.20000000000003
 22
50.4737323790465
 32
0
 13
-96.20000000000003
 23
50.4737323790465
 33
0
  0
TEXT
  8
1
 62
2
 10
-110.5777777777778
 20
51.05773237904651
 30
0
 40
3.2
  1
34
 41
0.9
  0
TEXT
  8
1
 62
2
 10
-114.2222222222222
 20
51.05773237904651
 30
0
 40
3.2
  1
φ
 41
0.9
  0
ENDBLK
  8
0
  0
BLOCK
  8
1
  2
*D3
 70
1
 10
0
 20
0
 30
0
  0
LINE
  8
1
 62
2
 10
-10.43313521476974
 20
18
 30
0
 11
-10.43313521476974
 21
34.0463004105215
 31
0
  0
LINE
  8
1
 62
2
 10
-10.43313521476974
 20
11
 30
0
 11
-10.43313521476974
 21
18
 31
0
  0
LINE
  8
1
 62
2
 10
-10.43313521476974
 20
4.599999999999998
 30
0
 11
-10.43313521476974
 21
11
 31
0
  0
LINE
  8
1
 62
2
 10
-1.000000000000009
 20
18
 30
0
 11
-11.43313521476974
 21
18
 31
0
  0
LINE
  8
1
 62
2
 10
-1.000000000000009
 20
11
 30
0
 11
-11.43313521476974
 21
11
 31
0
  0
SOLID
  8
1
 62
2
 10
-10.43313521476974
 20
11
 30
0
 11
-10.01713521476974
 21
7.799999999999999
 31
0
 12
-10.84913521476974
 22
7.799999999999999
 32
0
 13
-10.84913521476974
 23
7.799999999999999
 33
0
  0
SOLID
  8
1
 62
2
 10
-10.43313521476974
 20
18
 30
0
 11
-10.84913521476974
 21
21.2
 31
0
 12
-10.01713521476974
 22
21.2
 32
0
 13
-10.01713521476974
 23
21.2
 33
0
  0
TEXT
  8
1
 62
2
 10
-11.43313521476974
 20
25.6783004105215
 30
0
 40
3.2
  1
7
 50
90
 41
0.9
  0
TEXT
  8
1
 62
2
 10
-12.07313521476974
 20
29.1983004105215
 30
0
 40
1.92
  1
%%p0.3
 50
90
 41
0.9
  0
ENDBLK
  8
0
  0
BLOCK
  8
1
  2
*D4
 70
1
 10
0
 20
0
 30
0
  0
LINE
  8
1
 62
2
 10
-1.06581410364015e-014
 20
74.10918551895651
 30
0
 11
34.99999999999999
 21
74.10918551895651
 31
0
  0
LINE
  8
1
 62
2
 10
34.99999999999999
 20
40.5
 30
0
 11
34.99999999999999
 21
75.10918551895651
 31
0
  0
LINE
  8
1
 62
2
 10
-1.06581410364015e-014
 20
19
 30
0
 11
-1.06581410364015e-014
 21
75.10918551895651
 31
0
  0
SOLID
  8
1
 62
2
 10
-1.06581410364015e-014
 20
74.10918551895651
 30
0
 11
3.19999999999999
 21
74.52518551895651
 31
0
 12
3.19999999999999
 22
73.69318551895651
 32
0
 13
3.19999999999999
 23
73.69318551895651
 33
0
  0
SOLID
  8
1
 62
2
 10
34.99999999999999
 20
74.10918551895651
 30
0
 11
31.79999999999999
 21
73.69318551895651
 31
0
 12
31.79999999999999
 22
74.52518551895651
 32
0
 13
31.79999999999999
 23
74.52518551895651
 33
0
  0
TEXT
  8
1
 62
2
 10
15.09999999999999
 20
75.10918551895651
 30
0
 40
3.2
  1
35
 41
0.9
  0
ENDBLK
  8
0
  0
BLOCK
  8
1
  2
*D5
 70
1
 10
0
 20
0
 30
0
  0
LINE
  8
1
 62
2
 10
-7.105427357601002e-015
 20
61.96892821976351
 30
0
 11
13.99999999999999
 21
61.96892821976351
 31
0
  0
LINE
  8
1
 62
2
 10
13.99999999999999
 20
19
 30
0
 11
13.99999999999999
 21
62.96892821976351
 31
0
  0
LINE
  8
1
 62
2
 10
-7.105427357601002e-015
 20
19
 30
0
 11
-7.105427357601002e-015
 21
62.96892821976351
 31
0
  0
SOLID
  8
1
 62
2
 10
-7.105427357601002e-015
 20
61.96892821976351
 30
0
 11
3.199999999999994
 21
62.3849282197635
 31
0
 12
3.199999999999994
 22
61.55292821976351
 32
0
 13
3.199999999999994
 23
61.55292821976351
 33
0
  0
SOLID
  8
1
 62
2
 10
13.99999999999999
 20
61.96892821976351
 30
0
 11
10.79999999999999
 21
61.55292821976351
 31
0
 12
10.79999999999999
 22
62.3849282197635
 32
0
 13
10.79999999999999
 23
62.3849282197635
 33
0
  0
TEXT
  8
1
 62
2
 10
5.079999999999991
 20
62.96892821976351
 30
0
 40
3.2
  1
14
 41
0.9
  0
ENDBLK
  8
0
  0
BLOCK
  8
1
  2
*D6
 70
1
 10
0
 20
0
 30
0
  0
LINE
  8
1
 62
2
 10
-150
 20
74.10918551895651
 30
0
 11
-70
 21
74.10918551895651
 31
0
  0
LINE
  8
1
 62
2
 10
-70
 20
34.25
 30
0
 11
-70
 21
75.10918551895651
 31
0
  0
LINE
  8
1
 62
2
 10
-150
 20
34.25
 30
0
 11
-150
 21
75.10918551895651
 31
0
  0
SOLID
  8
1
 62
2
 10
-150
 20
74.10918551895651
 30
0
 11
-146.8
 21
74.52518551895651
 31
0
 12
-146.8
 22
73.69318551895651
 32
0
 13
-146.8
 23
73.69318551895651
 33
0
  0
SOLID
  8
1
 62
2
 10
-70
 20
74.10918551895651
 30
0
 11
-73.2
 21
73.69318551895651
 31
0
 12
-73.2
 22
74.52518551895651
 32
0
 13
-73.2
 23
74.52518551895651
 33
0
  0
TEXT
  8
1
 62
2
 10
-110.3111111111111
 20
75.10918551895651
 30
0
 40
3.2
  1
80
 41
0.9
  0
TEXT
  8
1
 62
2
 10
-114.4888888888889
 20
75.10918551895651
 30
0
 40
3.2
  1
□
 41
0.9
  0
ENDBLK
  8
0
  0
BLOCK
  8
1
  2
*D7
 70
1
 10
0
 20
0
 30
0
  0
LINE
  8
1
 62
2
 10
-60.07527287111811
 20
0
 30
0
 11
-60.07527287111811
 21
15
 31
0
  0
LINE
  8
1
 62
2
 10
-60.07527287111811
 20
0
 30
0
 11
-60.07527287111811
 21
-14.67245957710446
 31
0
  0
LINE
  8
1
 62
2
 10
-69.14508717648472
 20
0
 30
0
 11
-59.07527287111811
 21
0
 31
0
  0
LINE
  8
1
 62
2
 10
-92
 20
15
 30
0
 11
-59.07527287111811
 21
15
 31
0
  0
SOLID
  8
1
 62
2
 10
-60.07527287111811
 20
15
 30
0
 11
-59.65927287111811
 21
11.8
 31
0
 12
-60.49127287111811
 22
11.8
 32
0
 13
-60.49127287111811
 23
11.8
 33
0
  0
SOLID
  8
1
 62
2
 10
-60.07527287111811
 20
0
 30
0
 11
-60.49127287111811
 21
3.200000000000001
 31
0
 12
-59.65927287111811
 22
3.200000000000001
 32
0
 13
-59.65927287111811
 23
3.200000000000001
 33
0
  0
TEXT
  8
1
 62
2
 10
-61.0752728711181
 20
-14.67245957710446
 30
0
 40
3.2
  1
15
 50
90
 41
0.9
  0
TEXT
  8
1
 62
2
 10
-61.7152728711181
 20
-9.232459577104461
 30
0
 40
1.92
  1
%%p0.5
 50
90
 41
0.9
  0
ENDBLK
  8
0
  0
BLOCK
  8
1
  2
*D8
 70
1
 10
0
 20
0
 30
0
  0
LINE
  8
1
 62
2
 10
34.99999999999999
 20
61.90023964109231
 30
0
 11
67
 21
61.90023964109231
 31
0
  0
LINE
  8
1
 62
2
 10
67
 20
41
 30
0
 11
67
 21
62.90023964109231
 31
0
  0
LINE
  8
1
 62
2
 10
34.99999999999999
 20
40.5
 30
0
 11
34.99999999999999
 21
62.90023964109231
 31
0
  0
SOLID
  8
1
 62
2
 10
34.99999999999999
 20
61.90023964109231
 30
0
 11
38.2
 21
62.3162396410923
 31
0
 12
38.2
 22
61.48423964109231
 32
0
 13
38.2
 23
61.48423964109231
 33
0
  0
SOLID
  8
1
 62
2
 10
67
 20
61.90023964109231
 30
0
 11
63.8
 21
61.48423964109231
 31
0
 12
63.8
 22
62.3162396410923
 32
0
 13
63.8
 23
62.3162396410923
 33
0
  0
TEXT
  8
1
 62
2
 10
48.59999999999999
 20
62.90023964109231
 30
0
 40
3.2
  1
L2
 41
0.9
  0
ENDBLK
  8
0
  0
BLOCK
  8
1
  2
*D9
 70
1
 10
0
 20
0
 30
0
  0
LINE
  8
1
 62
2
 10
34.99999999999999
 20
74.10791051323301
 30
0
 11
141.4999999999998
 21
74.10791051323301
 31
0
  0
LINE
  8
1
 62
2
 10
141.4999999999998
 20
21
 30
0
 11
141.4999999999998
 21
75.10791051323301
 31
0
  0
LINE
  8
1
 62
2
 10
34.99999999999999
 20
40.5
 30
0
 11
34.99999999999999
 21
75.10791051323301
 31
0
  0
SOLID
  8
1
 62
2
 10
34.99999999999999
 20
74.10791051323301
 30
0
 11
37.99999999999999
 21
74.49791051323301
 31
0
 12
37.99999999999999
 22
73.71791051323301
 32
0
 13
37.99999999999999
 23
73.71791051323301
 33
0
  0
SOLID
  8
1
 62
2
 10
141.4999999999998
 20
74.10791051323301
 30
0
 11
138.4999999999998
 21
73.71791051323301
 31
0
 12
138.4999999999998
 22
74.49791051323301
 32
0
 13
138.4999999999998
 23
74.49791051323301
 33
0
  0
TEXT
  8
1
 62
2
 10
86.32999999999989
 20
75.10791051323301
 30
0
 40
3.2
  1
L1
 41
0.9
  0
ENDBLK
  8
0
  0
BLOCK
  8
1
  2
*D10
 70
1
 10
0
 20
0
 30
0
  0
LINE
  8
1
 62
2
 10
166.5065011936588
 20
-81.5
 30
0
 11
166.5065011936588
 21
-70.50565334582424
 31
0
  0
LINE
  8
1
 62
2
 10
166.5065011936588
 20
-84.5
 30
0
 11
166.5065011936588
 21
-81.5
 31
0
  0
LINE
  8
1
 62
2
 10
166.5065011936588
 20
-90.5
 30
0
 11
166.5065011936588
 21
-84.5
 31
0
  0
LINE
  8
1
 62
2
 10
128.4999999999998
 20
-81.5
 30
0
 11
167.5065011936588
 21
-81.5
 31
0
  0
LINE
  8
1
 62
2
 10
127.8612878820807
 20
-84.5
 30
0
 11
167.5065011936588
 21
-84.5
 31
0
  0
SOLID
  8
1
 62
2
 10
166.5065011936588
 20
-81.5
 30
0
 11
166.1165011936588
 21
-78.5
 31
0
 12
166.8965011936588
 22
-78.5
 32
0
 13
166.8965011936588
 23
-78.5
 33
0
  0
SOLID
  8
1
 62
2
 10
166.5065011936588
 20
-84.5
 30
0
 11
166.8965011936588
 21
-87.5
 31
0
 12
166.1165011936588
 22
-87.5
 32
0
 13
166.1165011936588
 23
-87.5
 33
0
  0
TEXT
  8
1
 62
2
 10
165.5065011936588
 20
-74.50565334582423
 30
0
 40
3.2
  1
3
 50
90
 41
0.9
  0
TEXT
  8
1
 62
2
 10
165.5065011936588
 20
-76.58565334582424
 30
0
 40
3.2
  1
(
 50
90
 41
0.9
  0
TEXT
  8
1
 62
2
 10
165.5065011936588
 20
-70.98565334582423
 30
0
 40
3.2
  1
)
 50
90
 41
0.9
  0
ENDBLK
  8
0
  0
BLOCK
  8
1
  2
*D11
 70
1
 10
0
 20
0
 30
0
  0
LINE
  8
1
 62
2
 10
178.4796438751958
 20
-30
 30
0
 11
178.4796438751958
 21
30
 31
0
  0
LINE
  8
1
 62
2
 10
132.4999999999998
 20
30
 30
0
 11
179.4796438751958
 21
30
 31
0
  0
LINE
  8
1
 62
2
 10
132.4999999999998
 20
-30
 30
0
 11
179.4796438751958
 21
-30
 31
0
  0
SOLID
  8
1
 62
2
 10
178.4796438751958
 20
30
 30
0
 11
178.8696438751958
 21
27
 31
0
 12
178.0896438751958
 22
27
 32
0
 13
178.0896438751958
 23
27
 33
0
  0
SOLID
  8
1
 62
2
 10
178.4796438751958
 20
-30
 30
0
 11
178.0896438751958
 21
-27
 31
0
 12
178.8696438751958
 22
-27
 32
0
 13
178.8696438751958
 23
-27
 33
0
  0
TEXT
  8
1
 62
2
 10
177.4796438751958
 20
-0.577777777777778
 30
0
 40
3.2
  1
60
 50
90
 41
0.9
  0
TEXT
  8
1
 62
2
 10
177.4796438751958
 20
-4.222222222222222
 30
0
 40
3.2
  1
φ
 50
90
 41
0.9
  0
ENDBLK
  8
0
  0
BLOCK
  8
1
  2
*D12
 70
1
 10
0
 20
0
 30
0
  0
LINE
  8
1
 62
2
 10
166.5065011936588
 20
-12.5
 30
0
 11
166.5065011936588
 21
12.5
 31
0
  0
LINE
  8
1
 62
2
 10
149.9999999999998
 20
12.5
 30
0
 11
167.5065011936588
 21
12.5
 31
0
  0
LINE
  8
1
 62
2
 10
149.9999999999998
 20
-12.5
 30
0
 11
167.5065011936588
 21
-12.5
 31
0
  0
SOLID
  8
1
 62
2
 10
166.5065011936588
 20
12.5
 30
0
 11
166.8965011936588
 21
9.5
 31
0
 12
166.1165011936588
 22
9.5
 32
0
 13
166.1165011936588
 23
9.5
 33
0
  0
SOLID
  8
1
 62
2
 10
166.5065011936588
 20
-12.5
 30
0
 11
166.1165011936588
 21
-9.5
 31
0
 12
166.8965011936588
 22
-9.5
 32
0
 13
166.8965011936588
 23
-9.5
 33
0
  0
TEXT
  8
1
 62
2
 10
165.5065011936588
 20
-0.577777777777778
 30
0
 40
3.2
  1
25
 50
90
 41
0.9
  0
TEXT
  8
1
 62
2
 10
165.5065011936588
 20
-4.222222222222222
 30
0
 40
3.2
  1
φ
 50
90
 41
0.9
  0
ENDBLK
  8
0
  0
BLOCK
  8
1
  2
*D13
 70
1
 10
0
 20
0
 30
0
  0
LINE
  8
1
 62
2
 10
150.9999999999998
 20
74.1632415568306
 30
0
 11
165.1971491010969
 21
74.1632415568306
 31
0
  0
LINE
  8
1
 62
2
 10
141.4999999999998
 20
74.1632415568306
 30
0
 11
150.9999999999998
 21
74.1632415568306
 31
0
  0
LINE
  8
1
 62
2
 10
150.9999999999998
 20
11.5
 30
0
 11
150.9999999999998
 21
75.1632415568306
 31
0
  0
LINE
  8
1
 62
2
 10
141.4999999999998
 20
21
 30
0
 11
141.4999999999998
 21
75.1632415568306
 31
0
  0
SOLID
  8
1
 62
2
 10
141.4999999999998
 20
74.1632415568306
 30
0
 11
144.4999999999998
 21
74.5532415568306
 31
0
 12
144.4999999999998
 22
73.7732415568306
 32
0
 13
144.4999999999998
 23
73.7732415568306
 33
0
  0
SOLID
  8
1
 62
2
 10
150.9999999999998
 20
74.1632415568306
 30
0
 11
147.9999999999998
 21
73.7732415568306
 31
0
 12
147.9999999999998
 22
74.5532415568306
 32
0
 13
147.9999999999998
 23
74.5532415568306
 33
0
  0
TEXT
  8
1
 62
2
 10
157.2771491010969
 20
75.1632415568306
 30
0
 40
3.2
  1
9.5
 41
0.9
  0
TEXT
  8
1
 62
2
 10
155.1971491010969
 20
75.1632415568306
 30
0
 40
3.2
  1
(
 41
0.9
  0
TEXT
  8
1
 62
2
 10
164.7171491010969
 20
75.1632415568306
 30
0
 40
3.2
  1
)
 41
0.9
  0
ENDBLK
  8
0
  0
BLOCK
  8
1
  2
*D14
 70
1
 10
0
 20
0
 30
0
  0
LINE
  8
1
 62
2
 10
178.4796438751958
 20
-84.5
 30
0
 11
178.4796438751958
 21
-30
 31
0
  0
LINE
  8
1
 62
2
 10
132.4999999999998
 20
-30
 30
0
 11
179.4796438751958
 21
-30
 31
0
  0
LINE
  8
1
 62
2
 10
127.8612878820807
 20
-84.5
 30
0
 11
179.4796438751958
 21
-84.5
 31
0
  0
SOLID
  8
1
 62
2
 10
178.4796438751958
 20
-84.5
 30
0
 11
178.0896438751958
 21
-81.5
 31
0
 12
178.8696438751958
 22
-81.5
 32
0
 13
178.8696438751958
 23
-81.5
 33
0
  0
SOLID
  8
1
 62
2
 10
178.4796438751958
 20
-30
 30
0
 11
178.8696438751958
 21
-33
 31
0
 12
178.0896438751958
 22
-33
 32
0
 13
178.0896438751958
 23
-33
 33
0
  0
TEXT
  8
1
 62
2
 10
177.4796438751958
 20
-64.002
 30
0
 40
3.2
  1
300
 50
90
 41
0.9
  0
TEXT
  8
1
 62
2
 10
176.8396438751958
 20
-54.722
 30
0
 40
1.92
  1
%%p30
 50
90
 41
0.9
  0
ENDBLK
  8
0
  0
BLOCK
  8
1
  2
*D15
 70
1
 10
0
 20
0
 30
0
  0
LINE
  8
1
 62
2
 10
-48.10938786677159
 20
-33.25
 30
0
 11
-48.10938786677159
 21
33.25
 31
0
  0
LINE
  8
1
 62
2
 10
-68.99999999999999
 20
33.25
 30
0
 11
-47.10938786677159
 21
33.25
 31
0
  0
LINE
  8
1
 62
2
 10
-68.99999999999999
 20
-33.25
 30
0
 11
-47.10938786677159
 21
-33.25
 31
0
  0
SOLID
  8
1
 62
2
 10
-48.10938786677159
 20
33.25
 30
0
 11
-47.71938786677159
 21
30.25
 31
0
 12
-48.49938786677159
 22
30.25
 32
0
 13
-48.49938786677159
 23
30.25
 33
0
  0
SOLID
  8
1
 62
2
 10
-48.10938786677159
 20
-33.25
 30
0
 11
-48.49938786677159
 21
-30.25
 31
0
 12
-47.71938786677159
 22
-30.25
 32
0
 13
-47.71938786677159
 23
-30.25
 33
0
  0
TEXT
  8
1
 62
2
 10
-49.10938786677159
 20
-7.584
 30
0
 40
3.2
  1
66.5
 50
90
 41
0.9
  0
TEXT
  8
1
 62
2
 10
-49.74938786677159
 20
2.736000000000001
 30
0
 40
1.92
  1
%%p0.3
 50
90
 41
0.9
  0
ENDBLK
  8
0
  0
BLOCK
  8
1
  2
*D16
 70
1
 10
0
 20
0
 30
0
  0
LINE
  8
1
 62
2
 10
-143.25
 20
62.20593323868319
 30
0
 11
-76.75
 21
62.20593323868319
 31
0
  0
LINE
  8
1
 62
2
 10
-76.75
 20
41
 30
0
 11
-76.75
 21
63.20593323868319
 31
0
  0
LINE
  8
1
 62
2
 10
-143.25
 20
41
 30
0
 11
-143.25
 21
63.20593323868319
 31
0
  0
SOLID
  8
1
 62
2
 10
-143.25
 20
62.20593323868319
 30
0
 11
-140.25
 21
62.5959332386832
 31
0
 12
-140.25
 22
61.81593323868319
 32
0
 13
-140.25
 23
61.81593323868319
 33
0
  0
SOLID
  8
1
 62
2
 10
-76.75
 20
62.20593323868319
 30
0
 11
-79.75
 21
61.81593323868319
 31
0
 12
-79.75
 22
62.5959332386832
 32
0
 13
-79.75
 23
62.5959332386832
 33
0
  0
TEXT
  8
1
 62
2
 10
-117.584
 20
63.20593323868319
 30
0
 40
3.2
  1
66.5
 41
0.9
  0
TEXT
  8
1
 62
2
 10
-107.264
 20
63.8459332386832
 30
0
 40
1.92
  1
%%p0.3
 41
0.9
  0
ENDBLK
  8
0
  0
ENDSEC
  0
SECTION
  2
ENTITIES
  0
LINE
  8
1
 62
7
 10
35.49999999999999
 20
-32.04999999999998
 30
0
 11
35.49999999999999
 21
32.05000000000001
 31
0
  0
LINE
  8
1
 62
7
 10
41.74999999999999
 20
41.1289247315195
 30
0
 11
58.74999999999999
 21
41.1289247315195
 31
0
  0
LINE
  8
1
 62
7
 10
68.33360848093672
 20
-37.7044140511986
 30
0
 11
67.10871557427468
 21
-37.74999999999997
 31
0
  0
LINE
  8
1
 62
7
 10
68.33360848093672
 20
-28.77368243524998
 30
0
 11
67.10871557427468
 21
-28.72809648644861
 31
0
  0
LINE
  8
1
 62
7
 10
68.33360848093672
 20
28.7955859488014
 30
0
 11
67.10871557427468
 21
28.75
 31
0
  0
LINE
  8
1
 62
7
 10
68.33360848093672
 20
37.72631756475002
 30
0
 11
67.10871557427468
 21
37.77190351355142
 31
0
  0
LINE
  8
1
 62
2
 10
16.99999999999976
 20
-31.24999999999997
 30
0
 11
29.29999999999994
 21
-31.24999999999997
 31
0
  0
LINE
  8
1
 62
7
 10
17.49999999999976
 20
-30.74999999999997
 30
0
 11
16.99999999999976
 21
-31.24999999999997
 31
0
  0
LINE
  8
1
 62
7
 10
17.49999999999976
 20
-30.74999999999997
 30
0
 11
17.49999999999976
 21
-35.74999999999997
 31
0
  0
LINE
  8
1
 62
7
 10
17.49999999999976
 20
-30.74999999999997
 30
0
 11
29.29999999999994
 21
-30.74999999999997
 31
0
  0
LINE
  8
1
 62
7
 10
17.49999999999976
 20
-35.74999999999997
 30
0
 11
16.99999999999976
 21
-35.24999999999997
 31
0
  0
LINE
  8
1
 62
7
 10
16.99999999999976
 20
-31.24999999999997
 30
0
 11
16.99999999999976
 21
-35.24999999999997
 31
0
  0
LINE
  8
1
 62
2
 10
16.99999999999976
 20
-35.24999999999997
 30
0
 11
29.29999999999994
 21
-35.24999999999997
 31
0
  0
LINE
  8
1
 62
7
 10
17.49999999999976
 20
-35.74999999999997
 30
0
 11
29.29999999999994
 21
-35.74999999999997
 31
0
  0
LINE
  8
1
 62
2
 10
16.99999999999976
 20
35.25
 30
0
 11
29.29999999999994
 21
35.25
 31
0
  0
LINE
  8
1
 62
7
 10
17.49999999999976
 20
35.75
 30
0
 11
16.99999999999976
 21
35.25
 31
0
  0
LINE
  8
1
 62
7
 10
17.49999999999976
 20
35.75
 30
0
 11
17.49999999999976
 21
30.75
 31
0
  0
LINE
  8
1
 62
7
 10
17.49999999999976
 20
35.75
 30
0
 11
29.29999999999994
 21
35.75
 31
0
  0
LINE
  8
1
 62
7
 10
17.49999999999976
 20
30.75
 30
0
 11
16.99999999999976
 21
31.25
 31
0
  0
LINE
  8
1
 62
7
 10
16.99999999999976
 20
35.25
 30
0
 11
16.99999999999976
 21
31.25
 31
0
  0
LINE
  8
1
 62
2
 10
16.99999999999976
 20
31.25
 30
0
 11
29.29999999999994
 21
31.25
 31
0
  0
LINE
  8
1
 62
7
 10
17.49999999999976
 20
30.75
 30
0
 11
29.29999999999994
 21
30.75
 31
0
  0
LINE
  8
1
 62
7
 10
33.69657640951879
 20
30.94000000000003
 30
0
 11
29.60342359048092
 21
30.94000000000003
 31
0
  0
LINE
  8
1
 62
7
 10
33.69657640951879
 20
35.56
 30
0
 11
29.60342359048092
 21
35.56
 31
0
  0
LINE
  8
1
 62
7
 10
33.69657640951879
 20
37.87
 30
0
 11
29.60342359048092
 21
37.87
 31
0
  0
LINE
  8
1
 62
7
 10
33.69657640951879
 20
28.63000000000002
 30
0
 11
29.60342359048092
 21
28.63000000000002
 31
0
  0
LINE
  8
1
 62
7
 10
29.29999999999994
 20
36.715
 30
0
 11
29.29999999999994
 21
29.78500000000003
 31
0
  0
LINE
  8
1
 62
7
 10
33.99999999999999
 20
28.25
 30
0
 11
34.99999999999999
 21
28.25
 31
0
  0
LINE
  8
1
 62
7
 10
33.99999999999999
 20
38.25
 30
0
 11
33.99999999999999
 21
28.25
 31
0
  0
LINE
  8
1
 62
7
 10
34.99999999999999
 20
38.25
 30
0
 11
33.99999999999999
 21
38.25
 31
0
  0
LINE
  8
1
 62
7
 10
34.99999999999999
 20
39.5
 30
0
 11
34.99999999999999
 21
27
 31
0
  0
LINE
  8
1
 62
7
 10
33.69657640951879
 20
-35.55999999999997
 30
0
 11
29.60342359048092
 21
-35.55999999999997
 31
0
  0
LINE
  8
1
 62
7
 10
33.69657640951879
 20
-30.93999999999997
 30
0
 11
29.60342359048092
 21
-30.93999999999997
 31
0
  0
LINE
  8
1
 62
7
 10
33.69657640951879
 20
-28.62999999999997
 30
0
 11
29.60342359048092
 21
-28.62999999999997
 31
0
  0
LINE
  8
1
 62
7
 10
33.69657640951879
 20
-37.86999999999998
 30
0
 11
29.60342359048092
 21
-37.86999999999998
 31
0
  0
LINE
  8
1
 62
7
 10
29.29999999999994
 20
-29.785
 30
0
 11
29.29999999999994
 21
-36.715
 31
0
  0
LINE
  8
1
 62
7
 10
33.99999999999999
 20
-38.24999999999997
 30
0
 11
34.99999999999999
 21
-38.24999999999997
 31
0
  0
LINE
  8
1
 62
7
 10
33.99999999999999
 20
-28.24999999999997
 30
0
 11
33.99999999999999
 21
-38.24999999999997
 31
0
  0
LINE
  8
1
 62
7
 10
34.99999999999999
 20
-28.24999999999997
 30
0
 11
33.99999999999999
 21
-28.24999999999997
 31
0
  0
LINE
  8
1
 62
7
 10
34.99999999999999
 20
-26.99999999999997
 30
0
 11
34.99999999999999
 21
-39.5
 31
0
  0
LINE
  8
1
 62
7
 10
-7.105427357601002e-015
 20
18
 30
0
 11
13.99999999999999
 21
18
 31
0
  0
LINE
  8
1
 62
7
 10
29.99999999999999
 20
-2
 30
0
 11
29.99999999999999
 21
28.63000000000002
 31
0
  0
LINE
  8
1
 62
3
 10
-5.865921321095019
 20
15
 30
0
 11
42.13921302499101
 21
15
 31
0
  0
LINE
  8
1
 62
7
 10
-7.105427357601002e-015
 20
11
 30
0
 11
29.99999999999999
 21
11
 31
0
  0
LINE
  8
1
 62
7
 10
-69.99999999999999
 20
33.25
 30
0
 11
-69.99999999999999
 21
-33.25
 31
0
  0
LINE
  8
1
 62
7
 10
-150
 20
-33.25
 30
0
 11
-150
 21
33.25000000000001
 31
0
  0
LINE
  8
1
 62
3
 10
-66.14508717648471
 20
0
 30
0
 11
-70.14508717648471
 21
0
 31
0
  0
LINE
  8
1
 62
7
 10
-7.105427357601002e-015
 20
11
 30
0
 11
-7.105427357601002e-015
 21
18
 31
0
  0
LINE
  8
1
 62
7
 10
29.99999999999999
 20
-2
 30
0
 11
35.49999999999999
 21
-2
 31
0
  0
LINE
  8
1
 62
3
 10
16.33714175124782
 20
33.25
 30
0
 11
73.64127457559674
 21
33.25
 31
0
  0
LINE
  8
1
 62
3
 10
16.09470163550678
 20
-33.24999999999997
 30
0
 11
73.64127457559674
 21
-33.24999999999997
 31
0
  0
LINE
  8
1
 62
7
 10
29.99999999999999
 20
19
 30
0
 11
15.12604879978175
 21
19
 31
0
  0
LINE
  8
1
 62
7
 10
15.01420269664992
 20
19
 30
0
 11
15.12604879978175
 21
19
 31
0
  0
LINE
  8
1
 62
3
 10
-90.37655482744924
 20
15
 30
0
 11
-93
 21
15
 31
0
  0
LINE
  8
1
 62
7
 10
66.99999999999999
 20
40
 30
0
 11
35.49999999999999
 21
40
 31
0
  0
LINE
  8
1
 62
7
 10
64.99999999999999
 20
40
 30
0
 11
64.99999999999999
 21
-39.99999999999997
 31
0
  0
LINE
  8
1
 62
7
 10
66.99999999999999
 20
-39.99999999999997
 30
0
 11
66.99999999999999
 21
40
 31
0
  0
LINE
  8
1
 62
7
 10
35.49999999999999
 20
-40
 30
0
 11
66.99999999999999
 21
-39.99999999999997
 31
0
  0
LINE
  8
1
 62
7
 10
-112.6457513110646
 20
18
 30
0
 11
-107.3542486889354
 21
18
 31
0
  0
LINE
  8
1
 62
3
 10
-93
 20
15
 30
0
 11
-130
 21
15
 31
0
  0
LINE
  8
1
 62
3
 10
-70.14508717648471
 20
0
 30
0
 11
-154.1450871764847
 21
0
 31
0
  0
LINE
  8
1
 62
2
 10
41.70982061369947
 20
-59.3499102042577
 30
0
 11
110.0666083899895
 21
-59.3499102042577
 31
0
  0
LINE
  8
1
 62
7
 10
127.4999999999998
 20
-81.5
 30
0
 11
123.4999999999998
 21
-81.5
 31
0
  0
LINE
  8
1
 62
7
 10
125.9999999999998
 20
-81.5
 30
0
 11
125.9999999999998
 21
-84.5
 31
0
  0
LINE
  8
1
 62
7
 10
126.8612878820807
 20
-84.5
 30
0
 11
126.8612878820807
 21
-81.5
 31
0
  0
LINE
  8
1
 62
7
 10
124.1044096585507
 20
-81.5
 30
0
 11
124.1044096585507
 21
-84.5
 31
0
  0
LINE
  8
1
 62
7
 10
124.9999999999998
 20
-84.5
 30
0
 11
124.9999999999998
 21
-81.5
 31
0
  0
LINE
  8
1
 62
7
 10
127.4999999999998
 20
-56.229729759321
 30
0
 11
127.4999999999998
 21
-81.5
 31
0
  0
LINE
  8
1
 62
7
 10
125.4999999999998
 20
-56.229729759321
 30
0
 11
125.4999999999987
 21
-81.5
 31
0
  0
LINE
  8
1
 62
7
 10
123.4999999999998
 20
-56.20163982705844
 30
0
 11
123.4999999999998
 21
-81.5
 31
0
  0
LINE
  8
1
 62
7
 10
123.4999999999998
 20
-32
 30
0
 11
123.4999999999998
 21
-53.13063980214019
 31
0
  0
LINE
  8
1
 62
7
 10
125.4999999999998
 20
-32
 30
0
 11
125.4999999999998
 21
-53.42466809013314
 31
0
  0
LINE
  8
1
 62
7
 10
127.4999999999998
 20
-32
 30
0
 11
127.4999999999998
 21
-53.49286539778484
 31
0
  0
LINE
  8
1
 62
7
 10
74.79999999999978
 20
30
 30
0
 11
131.4999999999998
 21
30
 31
0
  0
LINE
  8
1
 62
7
 10
116.6999999999998
 20
1.399999999999977
 30
0
 11
116.6999999999998
 21
1
 31
0
  0
LINE
  8
1
 62
7
 10
116.0999999999998
 20
1.399999999999977
 30
0
 11
116.0999999999998
 21
1
 31
0
  0
LINE
  8
1
 62
7
 10
116.0999999999998
 20
-1.400000000000034
 30
0
 11
116.0999999999998
 21
-1
 31
0
  0
LINE
  8
1
 62
7
 10
114.9999999999998
 20
-0.2999999999998977
 30
0
 11
115.3999999999998
 21
-0.3000000000000114
 31
0
  0
LINE
  8
1
 62
7
 10
114.9999999999998
 20
0.2999999999999545
 30
0
 11
115.3999999999998
 21
0.2999999999999545
 31
0
  0
LINE
  8
1
 62
7
 10
114.8999999999998
 20
0.1999999999999886
 30
0
 11
114.8999999999998
 21
-0.2000000000000455
 31
0
  0
LINE
  8
1
 62
7
 10
117.8999999999998
 20
0.1999999999999886
 30
0
 11
117.8999999999998
 21
-0.2000000000000455
 31
0
  0
LINE
  8
1
 62
7
 10
116.1999999999998
 20
-1.5
 30
0
 11
116.5999999999998
 21
-1.5
 31
0
  0
LINE
  8
1
 62
7
 10
116.1999999999998
 20
1.5
 30
0
 11
116.5999999999998
 21
1.5
 31
0
  0
LINE
  8
1
 62
7
 10
116.6999999999998
 20
-1
 30
0
 11
116.6999999999998
 21
-1.400000000000034
 31
0
  0
LINE
  8
1
 62
7
 10
117.3999999999998
 20
-0.3000000000000114
 30
0
 11
117.7999999999998
 21
-0.3000000000000114
 31
0
  0
LINE
  8
1
 62
7
 10
117.3999999999998
 20
0.2999999999999545
 30
0
 11
117.7999999999998
 21
0.2999999999999545
 31
0
  0
LINE
  8
1
 62
3
 10
116.3999999999998
 20
10.49751927958937
 30
0
 11
116.3999999999998
 21
-9.870422382742731
 31
0
  0
LINE
  8
1
 62
7
 10
114.7999999999998
 20
2.236626924634493
 30
0
 11
114.7999999999998
 21
5.899999999999977
 31
0
  0
LINE
  8
1
 62
7
 10
120.9999999999998
 20
30
 30
0
 11
120.9999999999998
 21
-30
 31
0
  0
LINE
  8
1
 62
7
 10
117.9999999999998
 20
5.899999999999977
 30
0
 11
117.9999999999998
 21
2.236626924634493
 31
0
  0
LINE
  8
1
 62
7
 10
141.4999999999998
 20
-20
 30
0
 11
141.4999999999998
 21
20
 31
0
  0
LINE
  8
1
 62
7
 10
148.9999999999998
 20
-12.5
 30
0
 11
142.4999999999998
 21
-12.5
 31
0
  0
LINE
  8
1
 62
7
 10
142.5154082664933
 20
12.5
 30
0
 11
148.9999999999998
 21
12.5
 31
0
  0
LINE
  8
1
 62
7
 10
132.6999999999999
 20
0.7999999999999545
 30
0
 11
128.2999999999998
 21
0.7999999999999545
 31
0
  0
LINE
  8
1
 62
7
 10
128.2999999999998
 20
-0.8000000000000114
 30
0
 11
132.6999999999999
 21
-0.8000000000000114
 31
0
  0
LINE
  8
1
 62
7
 10
130.4999999999998
 20
-7.502581311993708
 30
0
 11
141.4999999999998
 21
-8.002581311993708
 31
0
  0
LINE
  8
1
 62
7
 10
141.4999999999998
 20
8.002581311993765
 30
0
 11
130.4999999999998
 21
7.502581311993765
 31
0
  0
LINE
  8
1
 62
7
 10
135.1723749477707
 20
-5.212380679444095
 30
0
 11
141.4999999999998
 21
-5.5
 31
0
  0
LINE
  8
1
 62
7
 10
135.1723749477707
 20
5.212380679444152
 30
0
 11
141.4999999999998
 21
5.5
 31
0
  0
LINE
  8
1
 62
7
 10
150.9999999999998
 20
-10.5
 30
0
 11
150.9999999999998
 21
10.5
 31
0
  0
LINE
  8
1
 62
3
 10
130.4999999999998
 20
10.53178475720466
 30
0
 11
130.4999999999998
 21
-10.92959420309313
 31
0
  0
LINE
  8
1
 62
7
 10
133.4999999999998
 20
-29.79795897113274
 30
0
 11
133.4999999999998
 21
-32
 31
0
  0
LINE
  8
1
 62
7
 10
133.4999999999998
 20
-32
 30
0
 11
119.4999999999998
 21
-32
 31
0
  0
LINE
  8
1
 62
7
 10
119.4999999999998
 20
-30
 30
0
 11
119.4999999999998
 21
-32
 31
0
  0
LINE
  8
1
 62
7
 10
80.2499999999998
 20
30
 30
0
 11
80.2499999999998
 21
18.87961173149506
 31
0
  0
LINE
  8
1
 62
7
 10
114.7999999999998
 20
-2.23662692463455
 30
0
 11
114.7999999999998
 21
-5.900000000000034
 31
0
  0
LINE
  8
1
 62
7
 10
117.9999999999998
 20
-5.900000000000034
 30
0
 11
117.9999999999998
 21
-2.23662692463455
 31
0
  0
LINE
  8
1
 62
7
 10
114.7999999999998
 20
5
 30
0
 11
117.9999999999998
 21
5.5
 31
0
  0
LINE
  8
1
 62
7
 10
114.7999999999998
 20
-5
 30
0
 11
117.9999999999998
 21
-5.5
 31
0
  0
LINE
  8
1
 62
7
 10
80.2499999999998
 20
18.87961173149506
 30
0
 11
107.7499999999998
 21
18.87961173149506
 31
0
  0
LINE
  8
1
 62
7
 10
107.7499999999998
 20
18.87961173149506
 30
0
 11
107.7499999999998
 21
30
 31
0
  0
LINE
  8
1
 62
7
 10
74.79999999999978
 20
-30
 30
0
 11
131.4999999999998
 21
-30
 31
0
  0
LINE
  8
1
 62
3
 10
26.02166736374598
 20
0
 30
0
 11
154.3345680469482
 21
0
 31
0
  0
LINE
  8
1
 62
3
 10
-69.99999999999999
 20
-33.25
 30
0
 11
-66.99999999999999
 21
-33.25
 31
0
  0
LINE
  8
1
 62
3
 10
-69.99999999999999
 20
33.25
 30
0
 11
-66.99999999999999
 21
33.25
 31
0
  0
LINE
  8
1
 62
3
 10
-143.25
 20
40
 30
0
 11
-143.25
 21
44.25972660357519
 31
0
  0
LINE
  8
1
 62
3
 10
-76.74999999999999
 20
40
 30
0
 11
-76.74999999999999
 21
43.18016123378902
 31
0
  0
LINE
  8
1
 62
7
 10
-112.3
 20
-32.30000000000001
 30
0
 11
-112.3
 21
-31.69999999999999
 31
0
  0
LINE
  8
1
 62
7
 10
-111.6
 20
-32.39999999999998
 30
0
 11
-112.2
 21
-32.39999999999998
 31
0
  0
LINE
  8
1
 62
7
 10
-110.4
 20
-34.19999999999999
 30
0
 11
-110.4
 21
-33.60000000000002
 31
0
  0
LINE
  8
1
 62
7
 10
-109.7
 20
-34.30000000000001
 30
0
 11
-110.3
 21
-34.30000000000001
 31
0
  0
LINE
  8
1
 62
7
 10
-109.6
 20
-33.60000000000002
 30
0
 11
-109.6
 21
-34.19999999999999
 31
0
  0
LINE
  8
1
 62
7
 10
-107.8
 20
-32.39999999999998
 30
0
 11
-108.4
 21
-32.39999999999998
 31
0
  0
LINE
  8
1
 62
7
 10
-107.7
 20
-31.69999999999999
 30
0
 11
-107.7
 21
-32.30000000000001
 31
0
  0
LINE
  8
1
 62
7
 10
-108.4
 20
-31.60000000000002
 30
0
 11
-107.8
 21
-31.60000000000002
 31
0
  0
LINE
  8
1
 62
7
 10
-109.6
 20
-29.80000000000001
 30
0
 11
-109.6
 21
-30.39999999999998
 31
0
  0
LINE
  8
1
 62
7
 10
-110.3
 20
-29.69999999999999
 30
0
 11
-109.7
 21
-29.69999999999999
 31
0
  0
LINE
  8
1
 62
7
 10
-110.4
 20
-30.39999999999998
 30
0
 11
-110.4
 21
-29.80000000000001
 31
0
  0
LINE
  8
1
 62
7
 10
-112.2
 20
-31.60000000000002
 30
0
 11
-111.6
 21
-31.60000000000002
 31
0
  0
LINE
  8
1
 62
7
 10
-84.79999999999998
 20
15.69999999999999
 30
0
 11
-84.79999999999998
 21
16.30000000000001
 31
0
  0
LINE
  8
1
 62
7
 10
-84.09999999999998
 20
15.60000000000002
 30
0
 11
-84.69999999999997
 21
15.60000000000002
 31
0
  0
LINE
  8
1
 62
7
 10
-82.89999999999999
 20
13.80000000000001
 30
0
 11
-82.89999999999999
 21
14.39999999999998
 31
0
  0
LINE
  8
1
 62
7
 10
-82.19999999999999
 20
13.69999999999999
 30
0
 11
-82.79999999999998
 21
13.69999999999999
 31
0
  0
LINE
  8
1
 62
7
 10
-82.09999999999998
 20
14.39999999999998
 30
0
 11
-82.09999999999998
 21
13.80000000000001
 31
0
  0
LINE
  8
1
 62
7
 10
-80.3
 20
15.60000000000002
 30
0
 11
-80.89999999999999
 21
15.60000000000002
 31
0
  0
LINE
  8
1
 62
7
 10
-80.19999999999999
 20
16.30000000000001
 30
0
 11
-80.19999999999999
 21
15.69999999999999
 31
0
  0
LINE
  8
1
 62
7
 10
-80.89999999999999
 20
16.39999999999998
 30
0
 11
-80.3
 21
16.39999999999998
 31
0
  0
LINE
  8
1
 62
7
 10
-82.09999999999998
 20
18.19999999999999
 30
0
 11
-82.09999999999998
 21
17.59999999999997
 31
0
  0
LINE
  8
1
 62
7
 10
-82.79999999999998
 20
18.29999999999995
 30
0
 11
-82.19999999999999
 21
18.29999999999995
 31
0
  0
LINE
  8
1
 62
7
 10
-82.89999999999999
 20
17.59999999999997
 30
0
 11
-82.89999999999999
 21
18.19999999999999
 31
0
  0
LINE
  8
1
 62
7
 10
-84.69999999999997
 20
16.39999999999998
 30
0
 11
-84.09999999999998
 21
16.39999999999998
 31
0
  0
LINE
  8
1
 62
7
 10
-139.8
 20
15.69999999999999
 30
0
 11
-139.8
 21
16.30000000000001
 31
0
  0
LINE
  8
1
 62
7
 10
-139.1
 20
15.60000000000002
 30
0
 11
-139.7
 21
15.60000000000002
 31
0
  0
LINE
  8
1
 62
7
 10
-137.9
 20
13.80000000000001
 30
0
 11
-137.9
 21
14.39999999999998
 31
0
  0
LINE
  8
1
 62
7
 10
-137.2
 20
13.69999999999999
 30
0
 11
-137.8
 21
13.69999999999999
 31
0
  0
LINE
  8
1
 62
7
 10
-137.1
 20
14.39999999999998
 30
0
 11
-137.1
 21
13.80000000000001
 31
0
  0
LINE
  8
1
 62
7
 10
-135.3
 20
15.60000000000002
 30
0
 11
-135.9
 21
15.60000000000002
 31
0
  0
LINE
  8
1
 62
7
 10
-135.2
 20
16.30000000000001
 30
0
 11
-135.2
 21
15.69999999999999
 31
0
  0
LINE
  8
1
 62
7
 10
-135.9
 20
16.39999999999998
 30
0
 11
-135.3
 21
16.39999999999998
 31
0
  0
LINE
  8
1
 62
7
 10
-137.1
 20
18.19999999999999
 30
0
 11
-137.1
 21
17.59999999999997
 31
0
  0
LINE
  8
1
 62
7
 10
-137.8
 20
18.29999999999995
 30
0
 11
-137.2
 21
18.29999999999995
 31
0
  0
LINE
  8
1
 62
7
 10
-137.9
 20
17.59999999999997
 30
0
 11
-137.9
 21
18.19999999999999
 31
0
  0
LINE
  8
1
 62
7
 10
-139.7
 20
16.39999999999998
 30
0
 11
-139.1
 21
16.39999999999998
 31
0
  0
LINE
  8
1
 62
7
 10
-72.74999999999999
 20
-33.25
 30
0
 11
-72.74999999999999
 21
-30.94059892324151
 31
0
  0
LINE
  8
1
 62
7
 10
-72.74999999999999
 20
-35.55940107675849
 30
0
 11
-72.74999999999999
 21
-33.25
 31
0
  0
LINE
  8
1
 62
7
 10
-76.74999999999999
 20
-37.86880215351698
 30
0
 11
-72.74999999999999
 21
-35.55940107675849
 31
0
  0
LINE
  8
1
 62
7
 10
-80.74999999999999
 20
-35.55940107675849
 30
0
 11
-76.74999999999999
 21
-37.86880215351698
 31
0
  0
LINE
  8
1
 62
7
 10
-80.74999999999999
 20
-30.94059892324151
 30
0
 11
-80.74999999999999
 21
-35.55940107675849
 31
0
  0
LINE
  8
1
 62
7
 10
-76.74999999999999
 20
-28.63119784648302
 30
0
 11
-80.74999999999999
 21
-30.94059892324151
 31
0
  0
LINE
  8
1
 62
3
 10
-76.74999999999999
 20
-23.5
 30
0
 11
-76.74999999999999
 21
-43.25972660357519
 31
0
  0
LINE
  8
1
 62
7
 10
-72.74999999999999
 20
-30.94059892324151
 30
0
 11
-76.74999999999999
 21
-28.63119784648302
 31
0
  0
LINE
  8
1
 62
7
 10
-139.25
 20
-35.55940107675849
 30
0
 11
-139.25
 21
-30.94059892324151
 31
0
  0
LINE
  8
1
 62
7
 10
-143.25
 20
-37.86880215351698
 30
0
 11
-139.25
 21
-35.55940107675849
 31
0
  0
LINE
  8
1
 62
7
 10
-147.25
 20
-35.55940107675849
 30
0
 11
-143.25
 21
-37.86880215351698
 31
0
  0
LINE
  8
1
 62
7
 10
-147.25
 20
-30.94059892324151
 30
0
 11
-147.25
 21
-35.55940107675849
 31
0
  0
LINE
  8
1
 62
7
 10
-143.25
 20
-28.63119784648302
 30
0
 11
-147.25
 21
-30.94059892324151
 31
0
  0
LINE
  8
1
 62
7
 10
-139.25
 20
-30.94059892324151
 30
0
 11
-143.25
 21
-28.63119784648302
 31
0
  0
LINE
  8
1
 62
7
 10
-72.74999999999999
 20
33.25
 30
0
 11
-72.74999999999999
 21
35.55940107675849
 31
0
  0
LINE
  8
1
 62
7
 10
-72.74999999999999
 20
30.94059892324151
 30
0
 11
-72.74999999999999
 21
33.25
 31
0
  0
LINE
  8
1
 62
7
 10
-76.74999999999999
 20
28.63119784648302
 30
0
 11
-72.74999999999999
 21
30.94059892324151
 31
0
  0
LINE
  8
1
 62
7
 10
-80.74999999999999
 20
30.94059892324151
 30
0
 11
-76.74999999999999
 21
28.63119784648302
 31
0
  0
LINE
  8
1
 62
7
 10
-80.74999999999999
 20
35.55940107675849
 30
0
 11
-80.74999999999999
 21
30.94059892324151
 31
0
  0
LINE
  8
1
 62
7
 10
-76.74999999999999
 20
37.86880215351698
 30
0
 11
-80.74999999999999
 21
35.55940107675849
 31
0
  0
LINE
  8
1
 62
3
 10
-76.74999999999999
 20
40
 30
0
 11
-76.74999999999999
 21
23.5
 31
0
  0
LINE
  8
1
 62
7
 10
-72.74999999999999
 20
35.55940107675849
 30
0
 11
-76.74999999999999
 21
37.86880215351698
 31
0
  0
LINE
  8
1
 62
7
 10
-147.25
 20
33.25
 30
0
 11
-147.25
 21
30.94059892324151
 31
0
  0
LINE
  8
1
 62
7
 10
-139.25
 20
30.94059892324151
 30
0
 11
-139.25
 21
35.55940107675849
 31
0
  0
LINE
  8
1
 62
7
 10
-143.25
 20
28.63119784648302
 30
0
 11
-139.25
 21
30.94059892324151
 31
0
  0
LINE
  8
1
 62
7
 10
-147.25
 20
30.94059892324151
 30
0
 11
-143.25
 21
28.63119784648302
 31
0
  0
LINE
  8
1
 62
7
 10
-147.25
 20
35.55940107675849
 30
0
 11
-147.25
 21
33.25
 31
0
  0
LINE
  8
1
 62
7
 10
-143.25
 20
37.86880215351698
 30
0
 11
-147.25
 21
35.55940107675849
 31
0
  0
LINE
  8
1
 62
3
 10
-143.25
 20
40
 30
0
 11
-143.25
 21
23.5
 31
0
  0
LINE
  8
1
 62
7
 10
-139.25
 20
35.55940107675849
 30
0
 11
-143.25
 21
37.86880215351698
 31
0
  0
LINE
  8
1
 62
3
 10
-153
 20
33.25
 30
0
 11
-133.5
 21
33.25
 31
0
  0
LINE
  8
1
 62
3
 10
-86.49999999999999
 20
-33.25
 30
0
 11
-69.99999999999999
 21
-33.25
 31
0
  0
LINE
  8
1
 62
3
 10
-110
 20
44
 30
0
 11
-110
 21
-44.14750494785518
 31
0
  0
LINE
  8
1
 62
3
 10
-116
 20
-32
 30
0
 11
-104
 21
-32
 31
0
  0
LINE
  8
1
 62
3
 10
-143.5
 20
16
 30
0
 11
-131.5
 21
16
 31
0
  0
LINE
  8
1
 62
3
 10
-137.5
 20
22
 30
0
 11
-137.5
 21
10
 31
0
  0
LINE
  8
1
 62
3
 10
-88.49999999999999
 20
16
 30
0
 11
-76.49999999999999
 21
16
 31
0
  0
LINE
  8
1
 62
3
 10
-82.49999999999999
 20
22
 30
0
 11
-82.49999999999999
 21
10
 31
0
  0
LINE
  8
1
 62
3
 10
-86.48089730108659
 20
33.25
 30
0
 11
-69.99999999999999
 21
33.25
 31
0
  0
LINE
  8
1
 62
3
 10
-143.25
 20
-23.67332632316857
 30
0
 11
-143.25
 21
-43
 31
0
  0
LINE
  8
1
 62
3
 10
-153
 20
-33.25
 30
0
 11
-133.5
 21
-33.25
 31
0
  0
LINE
  8
1
 62
7
 10
-143.25
 20
-40
 30
0
 11
-76.74999999999999
 21
-40
 31
0
  0
LINE
  8
1
 62
7
 10
-143.25
 20
40
 30
0
 11
-76.74999999999999
 21
40
 31
0
  0
LINE
  8
1
 62
7
 10
67.4999999999998
 20
22.69999999999999
 30
0
 11
67.4999999999998
 21
-22.70000000000005
 31
0
  0
LINE
  8
1
 62
7
 10
67.49999999999979
 20
20.01666666666666
 30
0
 11
66.99999999999979
 21
20.15000000000009
 31
0
  0
LINE
  8
1
 62
7
 10
66.99999999999979
 20
-11
 30
0
 11
67.49999999999979
 21
-11
 31
0
  0
LINE
  8
1
 62
7
 10
67.49999999999979
 20
11
 30
0
 11
66.99999999999979
 21
11
 31
0
  0
LINE
  8
1
 62
7
 10
66.99999999999979
 20
-3.650000000000034
 30
0
 11
67.49999999999979
 21
-3.516666666666595
 31
0
  0
LINE
  8
1
 62
7
 10
67.49999999999979
 20
3.516666666666595
 30
0
 11
66.99999999999979
 21
3.649999999999977
 31
0
  0
LINE
  8
1
 62
7
 10
67.49999999999979
 20
15.04545454545451
 30
0
 11
66.99999999999979
 21
15.04545454545451
 31
0
  0
LINE
  8
1
 62
7
 10
66.99999999999979
 20
-15.0454545454545
 30
0
 11
67.49999999999979
 21
-15.0454545454545
 31
0
  0
LINE
  8
1
 62
7
 10
66.99999999999979
 20
-20.15000000000003
 30
0
 11
67.49999999999979
 21
-20.01666666666659
 31
0
  0
ARC
  8
1
 62
7
 10
62.10895377245787
 20
-33.7260578133826
 30
0
 40
8.292915283595503
 50
337.1227217188463
 51
1.216475414307201
  0
ARC
  8
1
 62
7
 10
68.21636203428203
 20
-35.77838608834671
 30
0
 40
1.929593336156754
 50
273.483566724868
 51
322.6139950970445
  0
ARC
  8
1
 62
7
 10
61.15104111881236
 20
-32.95720062064757
 30
0
 40
9.248961684147945
 50
0.04460665194091472
 51
21.61619621490557
  0
ARC
  8
1
 62
7
 10
68.33843741604868
 20
-30.44430767341149
 30
0
 40
1.670632217155089
 50
32.36499987074419
 51
90.16561274461662
  0
ARC
  8
1
 62
7
 10
71.08929794868151
 20
-33.24999999999997
 30
0
 40
0.7517523941143045
 50
156.4800993873236
 51
203.5199006126764
  0
ARC
  8
1
 62
7
 10
62.10895377245787
 20
32.7739421866174
 30
0
 40
8.292915283595514
 50
337.1227217188461
 51
1.216475414307201
  0
ARC
  8
1
 62
7
 10
68.21636203428203
 20
30.72161391165332
 30
0
 40
1.929593336156786
 50
273.483566724868
 51
322.6139950970432
  0
ARC
  8
1
 62
7
 10
61.15104111881236
 20
33.5427993793524
 30
0
 40
9.248961684147945
 50
0.04460665194091472
 51
21.61619621490542
  0
ARC
  8
1
 62
7
 10
68.33843741604868
 20
36.05569232658851
 30
0
 40
1.670632217155118
 50
32.36499987074212
 51
90.16561274461662
  0
ARC
  8
1
 62
7
 10
71.08929794868151
 20
33.25
 30
0
 40
0.7517523941143045
 50
156.4800993873236
 51
203.5199006126744
  0
ARC
  8
1
 62
7
 10
25.05513538572267
 20
33.25
 30
0
 40
8.944864614277089
 50
345.0338261958146
 51
14.9661738041856
  0
ARC
  8
1
 62
7
 10
31.64999999999997
 20
29.78500000000003
 30
0
 40
2.34999999999978
 50
330.5614799140718
 51
29.43852008592808
  0
ARC
  8
1
 62
7
 10
31.64999999999997
 20
36.715
 30
0
 40
2.349999999999777
 50
330.561479914072
 51
29.43852008592792
  0
ARC
  8
1
 62
7
 10
38.24486461427704
 20
33.25
 30
0
 40
8.944864614277099
 50
165.0338261958144
 51
194.9661738041854
  0
ARC
  8
1
 62
7
 10
31.64999999999997
 20
29.78500000000003
 30
0
 40
2.349999999999977
 50
150.5614799140747
 51
209.4385200859254
  0
ARC
  8
1
 62
7
 10
31.64999999999997
 20
36.715
 30
0
 40
2.349999999999974
 50
150.5614799140749
 51
209.4385200859253
  0
ARC
  8
1
 62
7
 10
25.05513538572267
 20
-33.24999999999997
 30
0
 40
8.944864614277094
 50
345.0338261958144
 51
14.9661738041856
  0
ARC
  8
1
 62
7
 10
31.64999999999997
 20
-36.715
 30
0
 40
2.349999999999766
 50
330.5614799140723
 51
29.43852008592883
  0
ARC
  8
1
 62
7
 10
31.64999999999997
 20
-29.785
 30
0
 40
2.349999999999761
 50
330.5614799140726
 51
29.43852008592868
  0
ARC
  8
1
 62
7
 10
38.24486461427704
 20
-33.24999999999997
 30
0
 40
8.944864614277099
 50
165.0338261958144
 51
194.9661738041855
  0
ARC
  8
1
 62
7
 10
31.64999999999997
 20
-36.715
 30
0
 40
2.349999999999995
 50
150.5614799140739
 51
209.4385200859249
  0
ARC
  8
1
 62
7
 10
31.64999999999997
 20
-29.785
 30
0
 40
2.349999999999992
 50
150.5614799140741
 51
209.4385200859246
  0
ARC
  8
1
 62
7
 10
-110
 20
15
 30
0
 40
17
 50
0
 51
180
  0
ARC
  8
1
 62
7
 10
-110
 20
15
 30
0
 40
17
 50
180
 51
0
  0
ARC
  8
1
 62
7
 10
14.01630140340841
 20
18.99777062765003
 30
0
 40
0.9979037835153347
 50
269.0639947697322
 51
0.1280020528831379
  0
ARC
  8
1
 62
7
 10
115.3970588235292
 20
-1.002941176470642
 30
0
 40
0.7029473295325095
 50
0.2397298960852312
 51
89.76027010391822
  0
ARC
  8
1
 62
7
 10
117.3999999999998
 20
-1.000000000000042
 30
0
 40
0.7000000000000306
 50
90
 51
179.9999999999966
  0
ARC
  8
1
 62
7
 10
117.3999999999998
 20
0.9999999999999861
 30
0
 40
0.7000000000000028
 50
179.9999999999988
 51
270
  0
ARC
  8
1
 62
7
 10
115.3970588235292
 20
1.002941176470586
 30
0
 40
0.7029473295325524
 50
270.2397298960818
 51
359.7602701039193
  0
ARC
  8
1
 62
7
 10
116.3999999999998
 20
-5.900000000000034
 30
0
 40
1.600000000000009
 50
180
 51
0
  0
ARC
  8
1
 62
7
 10
116.3999999999998
 20
5.899999999999977
 30
0
 40
1.599999999999994
 50
0
 51
180
  0
ARC
  8
1
 62
7
 10
132.6999999999999
 20
0
 30
0
 40
0.8000000000000114
 50
270
 51
90
  0
ARC
  8
1
 62
7
 10
128.2999999999998
 20
0
 30
0
 40
0.7999999999999545
 50
90
 51
270
  0
ARC
  8
1
 62
7
 10
130.4999999999998
 20
0
 30
0
 40
7.502581311993765
 50
90
 51
270
  0
ARC
  8
1
 62
7
 10
-76.74999999999999
 20
-33.25
 30
0
 40
6.75
 50
270
 51
0
  0
ARC
  8
1
 62
7
 10
-76.74999999999999
 20
33.25
 30
0
 40
6.75
 50
90
 51
0
  0
ARC
  8
1
 62
7
 10
-76.74999999999999
 20
33.25
 30
0
 40
6.75
 50
0
 51
90
  0
ARC
  8
1
 62
7
 10
-76.74999999999999
 20
-33.25
 30
0
 40
6.75
 50
0
 51
270
  0
CIRCLE
  8
1
 62
7
 10
-110
 20
15
 30
0
 40
4.000000000000006
  0
CIRCLE
  8
1
 62
7
 10
-143.25
 20
-33.25
 30
0
 40
6.75
  0
CIRCLE
  8
1
 62
7
 10
-143.25
 20
33.25
 30
0
 40
6.75
  0
CIRCLE
  8
1
 62
7
 10
116.3999999999998
 20
0
 30
0
 40
2.750000000000114
  0
CIRCLE
  8
1
 62
7
 10
130.4999999999998
 20
0
 30
0
 40
5
  0
CIRCLE
  8
1
 62
7
 10
130.4999999999998
 20
0
 30
0
 40
6.99999999999998
  0
CIRCLE
  8
1
 62
7
 10
-76.74999999999999
 20
-33.25
 30
0
 40
4
  0
CIRCLE
  8
1
 62
7
 10
-143.25
 20
-33.25
 30
0
 40
4
  0
CIRCLE
  8
1
 62
7
 10
-76.74999999999999
 20
33.25
 30
0
 40
4
  0
CIRCLE
  8
1
 62
7
 10
-143.25
 20
33.25
 30
0
 40
4
  0
CIRCLE
  8
1
 62
7
 10
-143.25
 20
-33.25
 30
0
 40
2.5
  0
CIRCLE
  8
1
 62
2
 10
-143.25
 20
-33.25
 30
0
 40
2
  0
CIRCLE
  8
1
 62
7
 10
-76.74999999999999
 20
-33.25
 30
0
 40
2.5
  0
CIRCLE
  8
1
 62
2
 10
-76.74999999999999
 20
-33.25
 30
0
 40
2
  0
CIRCLE
  8
1
 62
7
 10
-76.74999999999999
 20
33.25
 30
0
 40
2.5
  0
CIRCLE
  8
1
 62
2
 10
-76.74999999999999
 20
33.25
 30
0
 40
2
  0
CIRCLE
  8
1
 62
7
 10
-143.25
 20
33.25
 30
0
 40
2.5
  0
CIRCLE
  8
1
 62
2
 10
-143.25
 20
33.25
 30
0
 40
2
  0
CIRCLE
  8
1
 62
7
 10
-110
 20
15
 30
0
 40
9.75
  0
CIRCLE
  8
1
 62
7
 10
-137.5
 20
16
 30
0
 40
3.5
  0
CIRCLE
  8
1
 62
7
 10
-82.49999999999999
 20
16
 30
0
 40
3.5
  0
CIRCLE
  8
1
 62
7
 10
-110
 20
-32
 30
0
 40
3.5
  0
CIRCLE
  8
1
 62
7
 10
-137.5
 20
16
 30
0
 40
4
  0
CIRCLE
  8
1
 62
7
 10
-82.49999999999999
 20
16
 30
0
 40
4
  0
CIRCLE
  8
1
 62
7
 10
-110
 20
-32
 30
0
 40
4
  0
POLYLINE
  8
1
 62
2
 66
1
  0
VERTEX
  8
1
 10
123.4999999999998
 20
-53.13063980214019
 30
0
 42
0.004959364709903039
  0
VERTEX
  8
1
 10
123.6868133059513
 20
-53.45740884583285
 30
0
 42
0.01610760733008856
  0
VERTEX
  8
1
 10
123.8755859599014
 20
-53.75751772761851
 30
0
 42
0.03462765575562892
  0
VERTEX
  8
1
 10
124.0682773098489
 20
-54.00430628559022
 30
0
 42
0.07009415413894825
  0
VERTEX
  8
1
 10
124.2668467037925
 20
-54.171114357841
 30
0
 42
0.1384187450979769
  0
VERTEX
  8
1
 10
124.4732534897308
 20
-54.23128178246384
 30
0
 42
0.1336282076003182
  0
VERTEX
  8
1
 10
124.6645576069006
 20
-54.18097777310877
 30
0
 42
0.02952619964138655
  0
VERTEX
  8
1
 10
124.8632416258941
 20
-54.05028032011647
 30
0
 42
0.04743485283590758
  0
VERTEX
  8
1
 10
125.0689482373296
 20
-53.86407350256864
 30
0
 42
0.006664315072649339
  0
VERTEX
  8
1
 10
125.2813201318254
 20
-53.64724139954697
 30
0
 42
-0.007265733978052085
  0
VERTEX
  8
1
 10
125.4999999999998
 20
-53.42466809013314
 30
0
 42
-0.01594613734132717
  0
VERTEX
  8
1
 10
125.6955370096242
 20
-53.24410091366312
 30
0
 42
-0.02449293246182574
  0
VERTEX
  8
1
 10
125.8941678713909
 20
-53.08811977778769
 30
0
 42
-0.03667587437393765
  0
VERTEX
  8
1
 10
126.0944534474394
 20
-52.96672840990165
 30
0
 42
-0.05374164416470377
  0
VERTEX
  8
1
 10
126.2949545999096
 20
-52.88993053739976
 30
0
 42
-0.07359236239361376
  0
VERTEX
  8
1
 10
126.4942321909408
 20
-52.86772988767683
 30
0
 42
-0.07433083303358919
  0
VERTEX
  8
1
 10
126.6988360974552
 20
-52.90904661869418
 30
0
 42
-0.05003416816815062
  0
VERTEX
  8
1
 10
126.9011397741678
 20
-53.00617026371435
 30
0
 42
-0.03022191285214675
  0
VERTEX
  8
1
 10
127.1017182785292
 20
-53.14514909423666
 30
0
 42
-0.0159644664278949
  0
VERTEX
  8
1
 10
127.3011466679897
 20
-53.3120313817604
 30
0
 42
-0.004980351333154013
  0
VERTEX
  8
1
 10
127.4999999999998
 20
-53.49286539778484
 30
0
  0
SEQEND
  8
1
  0
POLYLINE
  8
1
 62
2
 66
1
  0
VERTEX
  8
1
 10
123.4999999999998
 20
-56.20163982705844
 30
0
 42
0.004743828824775743
  0
VERTEX
  8
1
 10
123.6664199141316
 20
-56.41508556858371
 30
0
 42
0.01507104334731363
  0
VERTEX
  8
1
 10
123.8338102389724
 20
-56.61307131383989
 30
0
 42
0.03007720324093361
  0
VERTEX
  8
1
 10
124.0031413852315
 20
-56.78013706655791
 30
0
 42
0.05372635489990701
  0
VERTEX
  8
1
 10
124.175383763618
 20
-56.90082283046867
 30
0
 42
0.09093657508275753
  0
VERTEX
  8
1
 10
124.3515077848409
 20
-56.95966860930309
 30
0
 42
0.1259786711098244
  0
VERTEX
  8
1
 10
124.5678808765172
 20
-56.93586815102574
 30
0
 42
0.04787193728012254
  0
VERTEX
  8
1
 10
124.7910420411362
 20
-56.82645025264781
 30
0
 42
0.04341530719243148
  0
VERTEX
  8
1
 10
125.0208658814329
 20
-56.65593869841035
 30
0
 42
0.01115428868954544
  0
VERTEX
  8
1
 10
125.2572270001425
 20
-56.44885727255441
 30
0
 42
-0.003374507262152718
  0
VERTEX
  8
1
 10
125.4999999999998
 20
-56.229729759321
 30
0
 42
-0.01455062689464805
  0
VERTEX
  8
1
 10
125.7499597359865
 20
-56.02055748980838
 30
0
 42
-0.0251118193047543
  0
VERTEX
  8
1
 10
126.002496708998
 20
-55.84074632396922
 30
0
 42
-0.0409685804239496
  0
VERTEX
  8
1
 10
126.2538261740883
 20
-55.7070298166016
 30
0
 42
-0.06491345471678535
  0
VERTEX
  8
1
 10
126.5001633863113
 20
-55.63614152250356
 30
0
 42
-0.1617726136711013
  0
VERTEX
  8
1
 10
126.8976045092404
 20
-55.70487485140026
 30
0
 42
-0.04144019963781932
  0
VERTEX
  8
1
 10
127.0525349986508
 20
-55.802883438089
 30
0
 42
-0.02559687134803859
  0
VERTEX
  8
1
 10
127.2037526737293
 20
-55.92935357359899
 30
0
 42
-0.01378851554289946
  0
VERTEX
  8
1
 10
127.3524951392532
 20
-56.07479807498979
 30
0
 42
-0.004346364005262989
  0
VERTEX
  8
1
 10
127.4999999999998
 20
-56.229729759321
 30
0
  0
SEQEND
  8
1
  0
ARC
  8
1
 62
7
 10
67.09999999999991
 20
-28.82771595625778
 30
0
 40
0.09999999999999609
 50
84.99999999999511
 51
180
  0
ARC
  8
1
 62
7
 10
67.09999999999991
 20
-37.6503805301908
 30
0
 40
0.09999999999992326
 50
180
 51
275.0000000000049
  0
ARC
  8
1
 62
7
 10
67.09999999999991
 20
37.67228404374222
 30
0
 40
0.1000000000000244
 50
84.99999999999653
 51
180
  0
ARC
  8
1
 62
7
 10
67.09999999999991
 20
28.84961946980923
 30
0
 40
0.09999999999992326
 50
180
 51
275.0000000000019
  0
ARC
  8
1
 62
7
 10
35.49999999999999
 20
-39.5
 30
0
 40
0.5
 50
180
 51
270
  0
ARC
  8
1
 62
7
 10
35.49999999999999
 20
-26.99999999999997
 30
0
 40
0.5
 50
90
 51
180
  0
ARC
  8
1
 62
7
 10
35.49999999999999
 20
27
 30
0
 40
0.5
 50
180
 51
270
  0
ARC
  8
1
 62
7
 10
116.1999999999998
 20
1.399999999999977
 30
0
 40
0.100000000000023
 50
90
 51
180
  0
ARC
  8
1
 62
7
 10
116.5999999999998
 20
1.399999999999977
 30
0
 40
0.1000000000000085
 50
0
 51
90
  0
ARC
  8
1
 62
7
 10
117.7999999999998
 20
0.1999999999999886
 30
0
 40
0.1000000000000085
 50
0
 51
90
  0
ARC
  8
1
 62
7
 10
117.7999999999998
 20
-0.2000000000000455
 30
0
 40
0.09999999999996592
 50
270
 51
0
  0
ARC
  8
1
 62
7
 10
116.5999999999998
 20
-1.400000000000034
 30
0
 40
0.09999999999996589
 50
270
 51
0
  0
ARC
  8
1
 62
7
 10
116.1999999999998
 20
-1.400000000000034
 30
0
 40
0.1000000000000085
 50
180
 51
270
  0
ARC
  8
1
 62
7
 10
114.9999999999998
 20
-0.2000000000000455
 30
0
 40
0.09999999999999432
 50
180
 51
270
  0
ARC
  8
1
 62
7
 10
114.9999999999998
 20
0.1999999999999886
 30
0
 40
0.09999999999996592
 50
90
 51
180
  0
ARC
  8
1
 62
7
 10
131.4999999999998
 20
-20
 30
0
 40
10
 50
270
 51
0
  0
ARC
  8
1
 62
7
 10
131.4999999999998
 20
20
 30
0
 40
10
 50
0
 51
90
  0
ARC
  8
1
 62
7
 10
142.4999999999998
 20
-13.5
 30
0
 40
1
 50
90
 51
180
  0
ARC
  8
1
 62
7
 10
148.9999999999998
 20
-10.5
 30
0
 40
2
 50
270
 51
0
  0
ARC
  8
1
 62
7
 10
142.5154820373592
 20
13.50050386339279
 30
0
 40
1
 50
180
 51
270
  0
ARC
  8
1
 62
7
 10
148.9999999999998
 20
10.5
 30
0
 40
2
 50
0
 51
90
  0
ARC
  8
1
 62
7
 10
74.79999999999978
 20
22.69999999999999
 30
0
 40
7.300000000000011
 50
90
 51
180
  0
ARC
  8
1
 62
7
 10
74.79999999999978
 20
-22.70000000000005
 30
0
 40
7.299999999999983
 50
180
 51
270
  0
ARC
  8
1
 62
7
 10
35.49999999999999
 20
39.5
 30
0
 40
0.5
 50
90
 51
180
  0
ARC
  8
1
 62
7
 10
-112.2
 20
-32.30000000000001
 30
0
 40
0.09999999999999432
 50
180
 51
270
  0
ARC
  8
1
 62
7
 10
-112.2
 20
-31.69999999999999
 30
0
 40
0.09999999999996945
 50
90
 51
180
  0
ARC
  8
1
 62
7
 10
-109.7
 20
-34.19999999999999
 30
0
 40
0.1000000000000227
 50
270
 51
0
  0
ARC
  8
1
 62
7
 10
-110.3
 20
-34.19999999999999
 30
0
 40
0.1000000000000085
 50
180
 51
270
  0
ARC
  8
1
 62
7
 10
-107.8
 20
-32.30000000000001
 30
0
 40
0.09999999999996589
 50
270
 51
0
  0
ARC
  8
1
 62
7
 10
-107.8
 20
-31.69999999999999
 30
0
 40
0.09999999999999432
 50
0
 51
90
  0
ARC
  8
1
 62
7
 10
-109.7
 20
-29.80000000000001
 30
0
 40
0.1000000000000085
 50
0
 51
90
  0
ARC
  8
1
 62
7
 10
-110.3
 20
-29.80000000000001
 30
0
 40
0.1000000000000227
 50
90
 51
180
  0
ARC
  8
1
 62
7
 10
-108.4
 20
-33.60000000000002
 30
0
 40
1.200000000000046
 50
90
 51
180
  0
ARC
  8
1
 62
7
 10
-111.6
 20
-33.60000000000002
 30
0
 40
1.199999999999989
 50
0
 51
90
  0
ARC
  8
1
 62
7
 10
-111.6
 20
-30.39999999999998
 30
0
 40
1.200000000000038
 50
270
 51
0
  0
ARC
  8
1
 62
7
 10
-108.4
 20
-30.39999999999998
 30
0
 40
1.199999999999989
 50
180
 51
270
  0
ARC
  8
1
 62
7
 10
-84.69999999999997
 20
15.69999999999999
 30
0
 40
0.1000000000000085
 50
180
 51
270
  0
ARC
  8
1
 62
7
 10
-84.69999999999997
 20
16.30000000000001
 30
0
 40
0.09999999999996945
 50
90
 51
180
  0
ARC
  8
1
 62
7
 10
-82.19999999999999
 20
13.80000000000001
 30
0
 40
0.1000000000000192
 50
270
 51
0
  0
ARC
  8
1
 62
7
 10
-82.79999999999998
 20
13.80000000000001
 30
0
 40
0.1000000000000085
 50
180
 51
270
  0
ARC
  8
1
 62
7
 10
-80.3
 20
15.69999999999999
 30
0
 40
0.09999999999997122
 50
270
 51
0
  0
ARC
  8
1
 62
7
 10
-80.3
 20
16.30000000000001
 30
0
 40
0.1000000000000085
 50
0
 51
90
  0
ARC
  8
1
 62
7
 10
-82.19999999999999
 20
18.19999999999999
 30
0
 40
0.1000000000000085
 50
0
 51
90
  0
ARC
  8
1
 62
7
 10
-82.79999999999998
 20
18.19999999999999
 30
0
 40
0.09999999999996234
 50
90
 51
180
  0
ARC
  8
1
 62
7
 10
-80.89999999999999
 20
14.39999999999998
 30
0
 40
1.200000000000038
 50
90
 51
180
  0
ARC
  8
1
 62
7
 10
-84.09999999999998
 20
14.39999999999998
 30
0
 40
1.199999999999989
 50
0
 51
90
  0
ARC
  8
1
 62
7
 10
-84.09999999999998
 20
17.59999999999997
 30
0
 40
1.199999999999989
 50
270
 51
0
  0
ARC
  8
1
 62
7
 10
-80.89999999999999
 20
17.59999999999997
 30
0
 40
1.199999999999989
 50
180
 51
270
  0
ARC
  8
1
 62
7
 10
-139.7
 20
15.69999999999999
 30
0
 40
0.1000000000000227
 50
180
 51
270
  0
ARC
  8
1
 62
7
 10
-139.7
 20
16.30000000000001
 30
0
 40
0.09999999999996945
 50
90
 51
180
  0
ARC
  8
1
 62
7
 10
-137.2
 20
13.80000000000001
 30
0
 40
0.1000000000000192
 50
270
 51
0
  0
ARC
  8
1
 62
7
 10
-137.8
 20
13.80000000000001
 30
0
 40
0.09999999999999432
 50
180
 51
270
  0
ARC
  8
1
 62
7
 10
-135.3
 20
15.69999999999999
 30
0
 40
0.09999999999997122
 50
270
 51
0
  0
ARC
  8
1
 62
7
 10
-135.3
 20
16.30000000000001
 30
0
 40
0.1000000000000227
 50
0
 51
90
  0
ARC
  8
1
 62
7
 10
-137.2
 20
18.19999999999999
 30
0
 40
0.09999999999999432
 50
0
 51
90
  0
ARC
  8
1
 62
7
 10
-137.8
 20
18.19999999999999
 30
0
 40
0.09999999999996234
 50
90
 51
180
  0
ARC
  8
1
 62
7
 10
-135.9
 20
14.39999999999998
 30
0
 40
1.200000000000038
 50
90
 51
180
  0
ARC
  8
1
 62
7
 10
-139.1
 20
14.39999999999998
 30
0
 40
1.199999999999989
 50
0
 51
90
  0
ARC
  8
1
 62
7
 10
-139.1
 20
17.59999999999997
 30
0
 40
1.199999999999989
 50
270
 51
0
  0
ARC
  8
1
 62
7
 10
-135.9
 20
17.59999999999997
 30
0
 40
1.199999999999989
 50
180
 51
270
  0
LINE
  8
1
 62
2
 10
-8.310669097840229
 20
-50.09999999999999
 30
0
 11
7.380729048968751
 21
-50.09999999999999
 31
0
  0
LINE
  8
1
 62
2
 10
7.380729048968751
 20
-50.09999999999999
 30
0
 11
19.73072904896877
 21
-35.74999999999997
 31
0
  0
SOLID
  8
1
 62
2
 10
17.79688643513875
 20
-38.70340048104166
 30
0
 11
17.09838423198346
 21
-38.10225050132265
 31
0
 12
19.73072904896877
 22
-35.74999999999997
 32
0
 13
19.73072904896877
 23
-35.74999999999997
 33
0
  0
LINE
  8
1
 62
2
 10
64.38597565133914
 20
50.1289247315195
 30
0
 11
41.70422799694808
 21
50.1289247315195
 31
0
  0
LINE
  8
1
 62
2
 10
41.70422799694808
 20
50.1289247315195
 30
0
 11
49.06420666495717
 21
41.1289247315195
 31
0
  0
SOLID
  8
1
 62
2
 10
46.49183607231905
 20
43.54661602500856
 30
0
 11
47.20523202667501
 21
44.13001369233121
 31
0
 12
49.06420666495717
 22
41.1289247315195
 32
0
 13
49.06420666495717
 23
41.1289247315195
 33
0
  0
LINE
  8
1
 62
2
 10
112.1579815249745
 20
40
 30
0
 11
87.3256863932925
 21
40
 31
0
  0
LINE
  8
1
 62
2
 10
87.3256863932925
 20
40
 30
0
 11
95.04872971025807
 21
30
 31
0
  0
SOLID
  8
1
 62
2
 10
92.54471121446254
 20
32.48841576694814
 30
0
 11
93.27408296828324
 21
33.05171273184098
 31
0
 12
95.04872971025807
 22
30
 32
0
 13
95.04872971025807
 23
30
 33
0
  0
LINE
  8
1
 62
2
 10
41.70982061369947
 20
-66.3499102042577
 30
0
 11
103.0666083899895
 21
-66.3499102042577
 31
0
  0
LINE
  8
1
 62
2
 10
103.0666083899895
 20
-66.3499102042577
 30
0
 11
123.4999999999998
 21
-45.91651859424741
 31
0
  0
SOLID
  8
1
 62
2
 10
121.3509495741616
 20
-48.717215636715
 30
0
 11
120.6993029575322
 21
-48.06556902008565
 31
0
 12
123.4999999999998
 22
-45.91651859424741
 32
0
 13
123.4999999999998
 23
-45.91651859424741
 33
0
  0
TEXT
  8
1
 62
2
 10
-7.549209650292308
 20
-49.57872273017446
 30
0
 40
3.5
  1
BOLT
 41
0.9
 72
1
 73
2
 11
-1.249209650292308
 21
-47.82872273017446
 31
0
  0
TEXT
  8
1
 62
2
 10
-55.85146400447143
 20
-20.44280485470939
 30
0
 40
3.2
  1
(0.591    )
 50
90
 41
0.6300000000000001
 72
1
 73
2
 11
-57.45146400447143
 21
-9.354804854709386
 31
0
  0
TEXT
  8
1
 62
2
 10
-56.45146400447143
 20
-10.77737408525978
 30
0
 40
2
  1
%%p0.0197
 50
90
 41
0.63
 72
1
 73
2
 11
-57.45146400447143
 21
-5.10737408525978
 31
0
  0
TEXT
  8
1
 62
2
 10
-0.06124468329996979
 20
57.95831729467403
 30
0
 40
3.2
  1
(0.551)
 41
0.6300000000000001
 72
1
 73
2
 11
6.994755316700031
 21
59.55831729467403
 31
0
  0
TEXT
  8
1
 62
2
 10
-6.641695548160868
 20
28.94080602710259
 30
0
 40
2
  1
%%p0.0118
 50
90
 41
0.63
 72
1
 73
2
 11
-7.641695548160868
 21
34.61080602710259
 31
0
  0
TEXT
  8
1
 62
2
 10
-6.155225516231091
 20
18.98446225396089
 30
0
 40
3.2
  1
(0.276    )
 50
90
 41
0.6300000000000001
 72
1
 73
2
 11
-7.755225516231089
 21
30.07246225396089
 31
0
  0
TEXT
  8
1
 62
2
 10
-19.3
 20
35.3408060271026
 30
0
 40
2
  1
 0
 50
90
 41
0.63
  0
TEXT
  8
1
 62
2
 10
-16.9
 20
35.3408060271026
 30
0
 40
2
  1
-0.000787
 50
90
 41
0.63
  0
TEXT
  8
1
 62
2
 10
-17.5
 20
16.73646225396089
 30
0
 40
3.2
  1
(0.315DIA.      )
 50
90
 41
0.6300000000000001
 72
1
 73
2
 11
-19.1
 21
33.87246225396089
 31
0
  0
TEXT
  8
1
 62
2
 10
10.4387553167001
 20
69.9034957603677
 30
0
 40
3.2
  1
(1.378)
 41
0.6300000000000001
 72
1
 73
2
 11
17.4947553167001
 21
71.50349576036771
 31
0
  0
TEXT
  8
1
 62
2
 10
-120.08
 20
69.9088784191941
 30
0
 40
3.2
  1
(3.15SQU.)
 41
0.6300000000000001
 72
1
 73
2
 11
-110
 21
71.5088784191941
 31
0
  0
TEXT
  8
1
 62
2
 10
-121.088
 20
57.9088784191941
 30
0
 40
3.2
  1
(2.618    )
 41
0.6300000000000001
 72
1
 73
2
 11
-110
 21
59.5088784191941
 31
0
  0
TEXT
  8
1
 62
2
 10
-111.4384551780371
 20
58.5088784191941
 30
0
 40
2
  1
%%p0.0118
 41
0.63
 72
1
 73
2
 11
-105.7684551780371
 21
59.5088784191941
 31
0
  0
TEXT
  8
1
 62
2
 10
15.9387553167001
 20
57.97273642008272
 30
0
 40
3.2
  1
(0.197)
 41
0.6300000000000001
 72
1
 73
2
 11
22.9947553167001
 21
59.57273642008272
 31
0
  0
TEXT
  8
1
 62
2
 10
-43.85146400447143
 20
-10.94280485470939
 30
0
 40
3.2
  1
(2.618    )
 50
90
 41
0.6300000000000001
 72
1
 73
2
 11
-45.45146400447143
 21
0.1451951452906144
 31
0
  0
TEXT
  8
1
 62
2
 10
-44.45146400447143
 20
-1.277374085259778
 30
0
 40
2
  1
%%p0.0118
 50
90
 41
0.63
 72
1
 73
2
 11
-45.45146400447143
 21
4.392625914740222
 31
0
  0
TEXT
  8
1
 62
2
 10
45.53875723894929
 20
51.14386179872201
 30
0
 40
3.2
  1
NAME PLATE
 41
0.54
 72
1
 73
2
 11
54.17875723894929
 21
52.74386179872201
 31
0
  0
TEXT
  8
1
 62
2
 10
-121.088
 20
45.9088784191941
 30
0
 40
3.2
  1
(1.339DIA.)
 41
0.6300000000000001
 72
1
 73
2
 11
-110
 21
47.5088784191941
 31
0
  0
TEXT
  8
1
 62
2
 10
91.4777682585638
 20
40.82551303864307
 30
0
 40
3
  1
NAME PLATE
 41
0.6300000000000001
 72
1
 73
2
 11
100.9277682585638
 21
42.32551303864307
 31
0
  0
TEXT
  8
1
 62
2
 10
181.9978460456476
 20
-57.68965282932604
 30
0
 40
2
  1
%%p1.181
 50
90
 41
0.63
 72
1
 73
2
 11
180.9978460456476
 21
-52.64965282932604
 31
0
  0
TEXT
  8
1
 62
2
 10
170.6547824644676
 20
-81.11516907639204
 30
0
 40
3.2
  1
(0.118)
 50
90
 41
0.6300000000000001
 72
1
 73
2
 11
169.0547824644676
 21
-74.05916907639204
 31
0
  0
TEXT
  8
1
 62
2
 10
182.5978460456476
 20
-67.910960997667
 30
0
 40
3.2
  1
(11.181   )
 50
90
 41
0.6300000000000001
 72
1
 73
2
 11
180.9978460456476
 21
-56.822960997667
 31
0
  0
TEXT
  8
1
 62
2
 10
170.5491926868407
 20
-11.149359349888
 30
0
 40
3.2
  1
(0.984DIA.)
 50
90
 41
0.6300000000000001
 72
1
 73
2
 11
168.9491926868407
 21
-0.06135934988799363
 31
0
  0
TEXT
  8
1
 62
2
 10
42.90618204092296
 20
-57.95060310440431
 30
0
 40
3.5
  1
LEAD WIRES (RED,BLUE)
 41
0.9
 73
2
 11
42.90618204092296
 21
-56.20060310440431
 31
0
  0
TEXT
  8
1
 62
2
 10
42.90618204092296
 20
-65.11594311103875
 30
0
 40
3.5
  1
UL1015 AWG22
 41
0.9
 73
2
 11
42.90618204092296
 21
-63.36594311103875
 31
0
  0
TEXT
  8
1
 62
2
 10
182.5978460456476
 20
-11.149359349888
 30
0
 40
3.2
  1
(2.362DIA.)
 50
90
 41
0.6300000000000001
 72
1
 73
2
 11
180.9978460456476
 21
-0.06135934988799363
 31
0
  0
TEXT
  8
1
 62
2
 10
152.8685292089517
 20
69.8
 30
0
 40
3.2
  1
(0.374)
 41
0.6300000000000001
 72
1
 73
2
 11
159.9245292089517
 21
71.40000000000001
 31
0
  0
TEXT
  8
1
 62
2
 10
-142.5
 20
93.5
 30
0
 40
5
  1
DME60B8H
 41
0.9
 72
1
 73
2
 11
-124.5
 21
96
 31
0
  0
DIMENSION
  8
1
  6
CONTINUOUS
 62
2
  2
*D0
  3
DMST_1
 10
29.99999999999999
 20
61.86901017922351
 30
0
 11
22.5857619455082
 21
64.4690101792235
 31
0
 12
0
 22
0
 32
0
 70
0
 13
34.99999999999999
 23
38.25
 33
0
 14
29.99999999999999
 24
28.63000000000002
 34
0
 53
0
  0
DIMENSION
  8
1
  6
CONTINUOUS
 62
2
  2
*D1
  3
DMST_2
 10
-22.39127610145024
 20
19
 30
0
 11
-25.79127610145024
 21
30.8191609770225
 31
0
 12
0
 22
0
 32
0
 70
0
  1
φ<>
 13
-7.105427357601002e-015
 23
11
 33
0
 14
15.12604879978175
 24
19
 34
0
 50
90
 53
0
  0
DIMENSION
  8
1
  6
CONTINUOUS
 62
2
  2
*D2
  3
DMST_3
 10
-93.00000000000003
 20
50.05773237904651
 30
0
 11
-110
 21
52.65773237904651
 31
0
 12
0
 22
0
 32
0
 70
0
  1
φ<>
 13
-127
 23
15
 33
0
 14
-93
 24
15
 34
0
 53
0
  0
DIMENSION
  8
1
  6
CONTINUOUS
 62
2
  2
*D3
  3
DMST_4
 10
-10.43313521476974
 20
18
 30
0
 11
-13.03313521476974
 21
29.8623004105215
 31
0
 12
0
 22
0
 32
0
 70
0
 13
-7.105427357601002e-015
 23
11
 33
0
 14
-7.105427357601002e-015
 24
18
 34
0
 50
90
 53
0
  0
DIMENSION
  8
1
  6
CONTINUOUS
 62
2
  2
*D4
  3
DMST_1
 10
34.99999999999999
 20
74.10918551895651
 30
0
 11
17.49999999999999
 21
76.7091855189565
 31
0
 12
0
 22
0
 32
0
 70
0
 13
-7.105427357601002e-015
 23
18
 33
0
 14
34.99999999999999
 24
39.5
 34
0
 53
0
  0
DIMENSION
  8
1
  6
CONTINUOUS
 62
2
  2
*D5
  3
DMST_1
 10
-7.105427357601002e-015
 20
61.96892821976351
 30
0
 11
6.999999999999991
 21
64.56892821976351
 31
0
 12
0
 22
0
 32
0
 70
0
 13
13.99999999999999
 23
18
 33
0
 14
-7.105427357601002e-015
 24
18
 34
0
 53
0
  0
DIMENSION
  8
1
  6
CONTINUOUS
 62
2
  2
*D6
  3
DMST_1
 10
-70
 20
74.10918551895651
 30
0
 11
-110
 21
76.7091855189565
 31
0
 12
0
 22
0
 32
0
 70
0
  1
□<>
 13
-150
 23
33.25000000000001
 33
0
 14
-69.99999999999999
 24
33.25
 34
0
 53
0
  0
DIMENSION
  8
1
  6
CONTINUOUS
 62
2
  2
*D7
  3
DMST_5
 10
-60.07527287111811
 20
0
 30
0
 11
-62.6752728711181
 21
-9.52845957710446
 31
0
 12
0
 22
0
 32
0
 70
0
 13
-93
 23
15
 33
0
 14
-70.14508717648471
 24
0
 34
0
 50
90
 53
0
  0
DIMENSION
  8
1
  6
CONTINUOUS
 62
2
  2
*D8
  3
DMST_1
 10
67
 20
61.90023964109231
 30
0
 11
50.99999999999999
 21
64.50023964109231
 31
0
 12
0
 22
0
 32
0
 70
0
  1
L2
 13
34.99999999999999
 23
39.5
 33
0
 14
66.99999999999999
 24
40
 34
0
 53
0
  0
DIMENSION
  8
1
  6
CONTINUOUS
 62
2
  2
*D9
  3
DMST_6
 10
141.4999999999998
 20
74.10791051323301
 30
0
 11
88.24999999999989
 21
76.707910513233
 31
0
 12
0
 22
0
 32
0
 70
0
  1
L1
 13
34.99999999999999
 23
39.5
 33
0
 14
141.4999999999998
 24
20
 34
0
 53
0
  0
DIMENSION
  8
1
  6
CONTINUOUS
 62
2
  2
*D10
  3
DMST_7
 10
166.5065011936588
 20
-81.5
 30
0
 11
163.9065011936588
 21
-73.54565334582424
 31
0
 12
0
 22
0
 32
0
 70
0
  1
(<>
 13
126.8612878820807
 23
-84.5
 33
0
 14
127.4999999999998
 24
-81.5
 34
0
 50
90
 53
0
  0
DIMENSION
  8
1
  6
CONTINUOUS
 62
2
  2
*D11
  3
DMST_6
 10
178.4796438751958
 20
30
 30
0
 11
175.8796438751958
 21
0
 31
0
 12
0
 22
0
 32
0
 70
0
  1
φ<>
 13
131.4999999999998
 23
-30
 33
0
 14
131.4999999999998
 24
30
 34
0
 50
90
 53
0
  0
DIMENSION
  8
1
  6
CONTINUOUS
 62
2
  2
*D12
  3
DMST_6
 10
166.5065011936588
 20
12.5
 30
0
 11
163.9065011936588
 21
0
 31
0
 12
0
 22
0
 32
0
 70
0
  1
φ<>
 13
148.9999999999998
 23
-12.5
 33
0
 14
148.9999999999998
 24
12.5
 34
0
 50
90
 53
0
  0
DIMENSION
  8
1
  6
CONTINUOUS
 62
2
  2
*D13
  3
DMST_7
 10
150.9999999999998
 20
74.1632415568306
 30
0
 11
160.1971491010969
 21
76.76324155683059
 31
0
 12
0
 22
0
 32
0
 70
0
  1
(<>
 13
141.4999999999998
 23
20
 33
0
 14
150.9999999999998
 24
10.5
 34
0
 53
0
  0
DIMENSION
  8
1
  6
CONTINUOUS
 62
2
  2
*D14
  3
DMST_8
 10
178.4796438751958
 20
-30
 30
0
 11
175.8796438751958
 21
-57.25
 31
0
 12
0
 22
0
 32
0
 70
0
  1
300
 13
126.8612878820807
 23
-84.5
 33
0
 14
131.4999999999998
 24
-30
 34
0
 50
90
 53
0
  0
DIMENSION
  8
1
  6
CONTINUOUS
 62
2
  2
*D15
  3
DMST_9
 10
-48.10938786677159
 20
33.25
 30
0
 11
-50.70938786677159
 21
0
 31
0
 12
0
 22
0
 32
0
 70
0
 13
-69.99999999999999
 23
-33.25
 33
0
 14
-69.99999999999999
 24
33.25
 34
0
 50
90
 53
0
  0
DIMENSION
  8
1
  6
CONTINUOUS
 62
2
  2
*D16
  3
DMST_9
 10
-76.75
 20
62.20593323868319
 30
0
 11
-110
 21
64.8059332386832
 31
0
 12
0
 22
0
 32
0
 70
0
 13
-143.25
 23
40
 33
0
 14
-76.74999999999999
 24
40
 34
0
 53
0
  0
INSERT
  8
0
  2
___R___O_______R
 10
0.5
 20
-3.75
 30
0
  0
INSERT
  8
0
  2
___
 10
-196.1221264909976
 20
-445.6883015227631
 30
0
  0
ENDSEC
  0
EOF
