  0
SECTION
  2
HEADER
  9
$ACADVER
  1
AC1009
  9
$INSBASE
 10
0
 20
0
  9
$EXTMIN
 10
-194.5
 20
-146
  9
$EXTMAX
 10
194.5
 20
146
  9
$LIMMIN
 10
-194.5
 20
-146
  9
$LIMMAX
 10
194.5
 20
146
  9
$VIEWCTR
 10
10
 20
10
  9
$VIEWSIZE
 40
10
  9
$SNAPMODE
 70
0
  9
$SNAPUNIT
 10
1
 20
1
  9
$SNAPBASE
 10
0
 20
0
  9
$SNAPANG
 50
0
  9
$SNAPSTYLE
 70
0
  9
$SNAPISOPAIR
 70
0
  9
$GRIDMODE
 70
0
  9
$GRIDUNIT
 10
0
 20
0
  9
$ORTHOMODE
 70
0
  9
$REGENMODE
 70
1
  9
$FILLMODE
 70
1
  9
$QTEXTMODE
 70
0
  9
$DRAGMODE
 70
2
  9
$LTSCALE
 40
1
  9
$OSMODE
 70
0
  9
$ATTMODE
 70
1
  9
$TEXTSIZE
 40
3.5
  9
$TRACEWID
 40
0.5
  9
$TEXTSTYLE
  7
STANDARD
  9
$CLAYER
  8
0
  9
$CELTYPE
  6
BYLAYER
  9
$CECOLOR
 62
256
  9
$DIMSCALE
 40
1
  9
$DIMASZ
 40
0.18
  9
$DIMEXO
 40
0.0625
  9
$DIMDLI
 40
0.38
  9
$DIMRND
 40
0
  9
$DIMDLE
 40
0
  9
$DIMEXE
 40
0.18
  9
$DIMTP
 40
0
  9
$DIMTM
 40
0
  9
$DIMTXT
 40
0.18
  9
$DIMCEN
 40
0.09
  9
$DIMTSZ
 40
0
  9
$DIMTOL
 70
0
  9
$DIMLIM
 70
0
  9
$DIMTIH
 70
1
  9
$DIMTOH
 70
1
  9
$DIMSE1
 70
0
  9
$DIMSE2
 70
0
  9
$DIMTAD
 70
0
  9
$DIMZIN
 70
0
  9
$DIMBLK
  1

  9
$DIMASO
 70
1
  9
$DIMSHO
 70
1
  9
$DIMPOST
  1

  9
$DIMAPOST
  1

  9
$DIMALT
 70
0
  9
$DIMALTD
 70
2
  9
$DIMALTF
 40
25.4
  9
$DIMLFAC
 40
1
  9
$DIMTOFL
 70
0
  9
$DIMTVP
 40
0
  9
$DIMTIX
 70
0
  9
$DIMSOXD
 70
0
  9
$DIMSAH
 70
0
  9
$DIMBLK1
  1

  9
$DIMBLK2
  1

  9
$DIMSTYLE
  2
*UNNAMED
  9
$DIMCLRD
 70
0
  9
$DIMCLRE
 70
0
  9
$DIMCLRT
 70
0
  9
$DIMTFAC
 40
1
  9
$DIMGAP
 40
0.09
  9
$LUNITS
 70
2
  9
$LUPREC
 70
4
  9
$AXISMODE
 70
0
  9
$AXISUNIT
 10
0
 20
0
  9
$SKETCHINC
 40
0.1
  9
$FILLETRAD
 40
2
  9
$AUNITS
 70
0
  9
$AUPREC
 70
0
  9
$MENU
  1
ACAD
  9
$ELEVATION
 40
0
  9
$THICKNESS
 40
0
  9
$VIEWDIR
 10
0
 20
0
 30
1
  9
$LIMCHECK
 70
0
  9
$BLIPMODE
 70
1
  9
$CHAMFERA
 40
0
  9
$CHAMFERB
 40
0
  9
$FASTZOOM
 70
1
  9
$SKPOLY
 70
0
  9
$ANGBASE
 50
0
  9
$ANGDIR
 70
0
  9
$PDMODE
 70
0
  9
$PDSIZE
 40
0
  9
$PLINEWID
 40
0
  9
$COORDS
 70
2
  0
ENDSEC
  0
SECTION
  2
TABLES
  0
TABLE
  2
DIMSTYLE
 70
7
  0
DIMSTYLE
  2
DMST_1
 70
0
  3
MAX
  4

  5

  6

  7

 40
1
 41
3.2
 42
1
 43
7
 44
1
 45
0
 46
0
 47
0
 48
0
140
3.2
141
0
142
0
143
25.4
144
1
145
0
146
1
147
0.09
 71
0
 72
0
 73
0
 74
0
 75
0
 76
0
 77
1
 78
9
170
0
171
2
172
0
173
0
174
0
175
0
176
2
177
2
178
2
  0
DIMSTYLE
  2
DMST_2
 70
0
  3

  4

  5

  6

  7

 40
1
 41
3.2
 42
1
 43
7
 44
1
 45
0
 46
0
 47
30
 48
30
140
3.2
141
0
142
0
143
25.4
144
1
145
0
146
0.6
147
0.09
 71
1
 72
0
 73
0
 74
0
 75
0
 76
0
 77
1
 78
9
170
0
171
2
172
0
173
0
174
0
175
0
176
2
177
2
178
2
  0
DIMSTYLE
  2
DMST_3
 70
0
  3

  4

  5

  6

  7

 40
1
 41
3.2
 42
1
 43
7
 44
1
 45
0
 46
0
 47
0
 48
0
140
3.2
141
0
142
0
143
25.4
144
1
145
0
146
1
147
0.09
 71
0
 72
0
 73
0
 74
0
 75
0
 76
0
 77
1
 78
9
170
0
171
2
172
0
173
0
174
0
175
0
176
2
177
2
178
2
  0
DIMSTYLE
  2
DMST_4
 70
0
  3

  4

  5

  6
DOT
  7

 40
1
 41
1.5
 42
1
 43
7
 44
1
 45
0
 46
0
 47
0
 48
0
140
3.2
141
0
142
0
143
25.4
144
1
145
0
146
1
147
0.09
 71
0
 72
0
 73
0
 74
0
 75
0
 76
0
 77
1
 78
9
170
0
171
2
172
0
173
1
174
0
175
0
176
2
177
2
178
2
  0
DIMSTYLE
  2
DMST_5
 70
0
  3

  4

  5

  6

  7

 40
1
 41
3.2
 42
1
 43
7
 44
1
 45
0
 46
0
 47
0
 48
0.03
140
3.2
141
0
142
0
143
25.4
144
1
145
0
146
0.6
147
0.09
 71
1
 72
0
 73
0
 74
0
 75
0
 76
0
 77
1
 78
9
170
0
171
2
172
0
173
0
174
0
175
0
176
2
177
2
178
2
  0
DIMSTYLE
  2
DMST_6
 70
0
  3

  4

  5

  6

  7

 40
1
 41
3.2
 42
1
 43
7
 44
1
 45
0
 46
0
 47
0.3
 48
0.3
140
3.2
141
0
142
0
143
25.4
144
1
145
0
146
0.6
147
0.09
 71
1
 72
0
 73
0
 74
0
 75
0
 76
0
 77
1
 78
9
170
0
171
2
172
0
173
0
174
0
175
0
176
2
177
2
178
2
  0
DIMSTYLE
  2
DMST_7
 70
0
  3
)
  4

  5

  6

  7

 40
1
 41
3.2
 42
1
 43
7
 44
1
 45
0
 46
0
 47
0
 48
0
140
3.2
141
0
142
0
143
25.4
144
1
145
0
146
1
147
0.09
 71
0
 72
0
 73
0
 74
0
 75
0
 76
0
 77
1
 78
9
170
0
171
2
172
0
173
0
174
0
175
0
176
2
177
2
178
2
  0
ENDTAB
  0
TABLE
  2
LTYPE
 70
9
  0
LTYPE
  2
CONTINUOUS
 70
64
  3
Solid line
 72
65
 73
0
 40
0
  0
LTYPE
  2
BORDER
 70
64
  3
__ __ . __ __ .
 72
65
 73
6
 40
17.91447368421053
 49
5.118421052631579
 49
-2.559210526315789
 49
5.118421052631579
 49
-2.559210526315789
 49
0
 49
-2.559210526315789
  0
LTYPE
  2
CENTER
 70
64
  3
____ _ ____ _
 72
65
 73
4
 40
20.47368421052632
 49
12.79605263157895
 49
-2.559210526315789
 49
2.559210526315789
 49
-2.559210526315789
  0
LTYPE
  2
DASHDOT
 70
64
  3
__ . __ . __ .
 72
65
 73
4
 40
10.23684210526316
 49
5.118421052631579
 49
-2.559210526315789
 49
0
 49
-2.559210526315789
  0
LTYPE
  2
DASHED
 70
64
  3
__ __ __ __ __
 72
65
 73
2
 40
7.677631578947368
 49
5.118421052631579
 49
-2.559210526315789
  0
LTYPE
  2
DIVIDE
 70
64
  3
__ . . __ . . 
 72
65
 73
6
 40
12.79605263157895
 49
5.118421052631579
 49
-2.559210526315789
 49
0
 49
-2.559210526315789
 49
0
 49
-2.559210526315789
  0
LTYPE
  2
DOT
 70
64
  3
..............
 72
65
 73
4
 40
5.118421052631579
 49
0
 49
-2.559210526315789
 49
0
 49
-2.559210526315789
  0
LTYPE
  2
HIDDEN
 70
64
  3
_ _ _ _ _ _ _
 72
65
 73
2
 40
3.838815789473684
 49
2.559210526315789
 49
-1.279605263157895
  0
LTYPE
  2
PHANTOM
 70
64
  3
_____ _ _ _____ _ _ 
 72
65
 73
6
 40
25.59210526315789
 49
12.79605263157895
 49
-2.559210526315789
 49
2.559210526315789
 49
-2.559210526315789
 49
2.559210526315789
 49
-2.559210526315789
  0
ENDTAB
  0
TABLE
  2
LAYER
 70
3
  0
LAYER
  2
1
 70
0
 62
7
  6
CONTINUOUS
  0
LAYER
  2
0
 70
0
 62
7
  6
CONTINUOUS
  0
ENDTAB
  0
TABLE
  2
STYLE
 70
4
  0
STYLE
  2
STANDARD
 70
0
 40
0
 41
1
 50
0
 71
0
 42
3.5
  3
txt
  4

  0
STYLE
  2
SIMPLEX
 70
0
 40
0
 41
1
 50
0
 71
0
 42
3.5
  3
simplex
  4

  0
STYLE
  2
COMPLEX
 70
0
 40
0
 41
1
 50
0
 71
0
 42
3.5
  3
complex
  4

  0
STYLE
  2
ITALIC
 70
0
 40
0
 41
1
 50
0
 71
0
 42
3.5
  3
italic
  4

  0
ENDTAB
  0
TABLE
  2
VIEW
 70
0
  0
ENDTAB
  0
ENDSEC
  0
SECTION
  2
BLOCKS
  0
BLOCK
  8
0
  2
___R___O_______R
 70
0
 10
0.5
 20
-3.75
 30
0
  0
LINE
  8
1
 62
4
  6
PHANTOM
 10
-194.5
 20
-146
 30
0
 11
194.5
 21
-146
 31
0
  0
LINE
  8
1
 62
4
  6
PHANTOM
 10
194.5
 20
146
 30
0
 11
-194.5
 21
146
 31
0
  0
LINE
  8
1
 62
4
  6
PHANTOM
 10
194.5
 20
146
 30
0
 11
194.5
 21
129
 31
0
  0
LINE
  8
1
 62
4
  6
PHANTOM
 10
-194.5
 20
-146
 30
0
 11
-194.5
 21
146
 31
0
  0
LINE
  8
1
 62
4
  6
PHANTOM
 10
194.5
 20
-136.5
 30
0
 11
194.5
 21
-146
 31
0
  0
TEXT
  8
1
 62
4
 10
178.746911898274
 20
-142.6071298819256
 30
0
 40
5
  1
A3
 41
0.9
 72
1
 73
2
 11
183.246911898274
 21
-140.1071298819256
 31
0
  0
ENDBLK
  8
0
  0
BLOCK
  8
1
  2
*D0
 70
1
 10
0
 20
0
 30
0
  0
LINE
  8
1
 62
2
 10
-133.8499999999999
 20
64.02743509250902
 30
0
 11
-69.84999999999991
 21
64.02743509250902
 31
0
  0
LINE
  8
1
 62
2
 10
-133.8499999999999
 20
6.050000000000004
 30
0
 11
-133.8499999999999
 21
65.02743509250902
 31
0
  0
LINE
  8
1
 62
2
 10
-69.84999999999991
 20
6.050000000000004
 30
0
 11
-69.84999999999991
 21
65.02743509250902
 31
0
  0
SOLID
  8
1
 62
2
 10
-133.8499999999999
 20
64.02743509250902
 30
0
 11
-130.6499999999999
 21
64.44343509250902
 31
0
 12
-130.6499999999999
 22
63.61143509250903
 32
0
 13
-130.6499999999999
 23
63.61143509250903
 33
0
  0
SOLID
  8
1
 62
2
 10
-69.84999999999991
 20
64.02743509250902
 30
0
 11
-73.04999999999991
 21
63.61143509250903
 31
0
 12
-73.04999999999991
 22
64.44343509250902
 32
0
 13
-73.04999999999991
 23
64.44343509250902
 33
0
  0
TEXT
  8
1
 62
2
 10
-109.5299999999999
 20
65.02743509250902
 30
0
 40
3.2
  1
64
 41
0.9
  0
TEXT
  8
1
 62
2
 10
-103.1299999999999
 20
65.02743509250902
 30
0
 40
3.2
  1
MAX
 41
0.9
  0
ENDBLK
  8
0
  0
BLOCK
  8
1
  2
*D1
 70
1
 10
0
 20
0
 30
0
  0
LINE
  8
1
 62
2
 10
150.479643875196
 20
-84.44999999999999
 30
0
 11
150.479643875196
 21
-29.94999999999999
 31
0
  0
LINE
  8
1
 62
2
 10
104.5
 20
-29.94999999999999
 30
0
 11
151.479643875196
 21
-29.94999999999999
 31
0
  0
LINE
  8
1
 62
2
 10
99.86128788208086
 20
-84.44999999999999
 30
0
 11
151.479643875196
 21
-84.44999999999999
 31
0
  0
SOLID
  8
1
 62
2
 10
150.479643875196
 20
-84.44999999999999
 30
0
 11
150.063643875196
 21
-81.24999999999999
 31
0
 12
150.895643875196
 22
-81.24999999999999
 32
0
 13
150.895643875196
 23
-81.24999999999999
 33
0
  0
SOLID
  8
1
 62
2
 10
150.479643875196
 20
-29.94999999999999
 30
0
 11
150.895643875196
 21
-33.14999999999999
 31
0
 12
150.063643875196
 22
-33.14999999999999
 32
0
 13
150.063643875196
 23
-33.14999999999999
 33
0
  0
TEXT
  8
1
 62
2
 10
149.479643875196
 20
-63.95199999999999
 30
0
 40
3.2
  1
300
 50
90
 41
0.9
  0
TEXT
  8
1
 62
2
 10
148.839643875196
 20
-54.67199999999999
 30
0
 40
1.92
  1
%%p30
 50
90
 41
0.9
  0
ENDBLK
  8
0
  0
BLOCK
  8
1
  2
*D2
 70
1
 10
0
 20
0
 30
0
  0
LINE
  8
1
 62
2
 10
36.99999999999999
 20
52.05027729859981
 30
0
 11
113.5
 21
52.05027729859981
 31
0
  0
LINE
  8
1
 62
2
 10
113.5
 20
21.05
 30
0
 11
113.5
 21
53.05027729859981
 31
0
  0
LINE
  8
1
 62
2
 10
36.99999999999999
 20
31.04999999999999
 30
0
 11
36.99999999999999
 21
53.05027729859981
 31
0
  0
SOLID
  8
1
 62
2
 10
36.99999999999999
 20
52.05027729859981
 30
0
 11
40.2
 21
52.46627729859981
 31
0
 12
40.2
 22
51.63427729859981
 32
0
 13
40.2
 23
51.63427729859981
 33
0
  0
SOLID
  8
1
 62
2
 10
113.5
 20
52.05027729859981
 30
0
 11
110.3
 21
51.63427729859981
 31
0
 12
110.3
 22
52.46627729859981
 32
0
 13
110.3
 23
52.46627729859981
 33
0
  0
TEXT
  8
1
 62
2
 10
70.88999999999999
 20
53.05027729859981
 30
0
 40
3.2
  1
76.5
 41
0.9
  0
ENDBLK
  8
0
  0
BLOCK
  8
1
  2
*D3
 70
1
 10
0
 20
0
 30
0
  0
LINE
  8
1
 62
2
 10
0
 20
52.04991760006531
 30
0
 11
37
 21
52.04991760006531
 31
0
  0
LINE
  8
1
 62
2
 10
0
 20
3.550000000000011
 30
0
 11
0
 21
53.04991760006531
 31
0
  0
LINE
  8
1
 62
2
 10
37
 20
31.05000000000001
 30
0
 11
37
 21
53.04991760006531
 31
0
  0
SOLID
  8
1
 62
2
 10
0
 20
52.04991760006531
 30
0
 11
3.200000000000001
 21
52.4659176000653
 31
0
 12
3.200000000000001
 22
51.63391760006531
 32
0
 13
3.200000000000001
 23
51.63391760006531
 33
0
  0
SOLID
  8
1
 62
2
 10
37
 20
52.04991760006531
 30
0
 11
33.8
 21
51.63391760006531
 31
0
 12
33.8
 22
52.4659176000653
 32
0
 13
33.8
 23
52.4659176000653
 33
0
  0
TEXT
  8
1
 62
2
 10
16.1
 20
53.04991760006531
 30
0
 40
3.2
  1
37
 41
0.9
  0
ENDBLK
  8
0
  0
BLOCK
  8
1
  2
*D4
 70
1
 10
0
 20
0
 30
0
  0
LINE
  8
1
 62
2
 10
39
 20
40.08479191921101
 30
0
 11
46.5205853407167
 21
40.08479191921101
 31
0
  0
LINE
  8
1
 62
2
 10
37
 20
40.08479191921101
 30
0
 11
39
 21
40.08479191921101
 31
0
  0
LINE
  8
1
 62
2
 10
39
 20
31.05000000000001
 30
0
 11
39
 21
41.08479191921101
 31
0
  0
LINE
  8
1
 62
2
 10
37
 20
31.05000000000001
 30
0
 11
37
 21
41.08479191921101
 31
0
  0
CIRCLE
  8
1
 62
2
 10
37
 20
40.08479191921101
 30
0
 40
0.75
  0
SOLID
  8
1
 62
2
 10
39
 20
40.08479191921101
 30
0
 11
42.2
 21
40.500791919211
 31
0
 12
42.2
 22
39.66879191921101
 32
0
 13
42.2
 23
39.66879191921101
 33
0
  0
TEXT
  8
1
 62
2
 10
44.6005853407167
 20
41.08479191921101
 30
0
 40
3.2
  1
2
 41
0.9
  0
ENDBLK
  8
0
  0
BLOCK
  8
1
  2
*D5
 70
1
 10
0
 20
0
 30
0
  0
LINE
  8
1
 62
2
 10
-11.0493686979564
 20
-8.849999999999991
 30
0
 11
-11.0493686979564
 21
-2.449999999999992
 31
0
  0
LINE
  8
1
 62
2
 10
-11.0493686979564
 20
-2.449999999999992
 30
0
 11
-11.0493686979564
 21
2.55000000000001
 31
0
  0
LINE
  8
1
 62
2
 10
-11.0493686979564
 20
2.55000000000001
 30
0
 11
-11.0493686979564
 21
20.59405058969353
 31
0
  0
LINE
  8
1
 62
2
 10
-1
 20
-2.449999999999992
 30
0
 11
-12.0493686979564
 21
-2.449999999999992
 31
0
  0
LINE
  8
1
 62
2
 10
-1
 20
2.55000000000001
 30
0
 11
-12.0493686979564
 21
2.55000000000001
 31
0
  0
SOLID
  8
1
 62
2
 10
-11.0493686979564
 20
2.55000000000001
 30
0
 11
-11.4653686979564
 21
5.750000000000011
 31
0
 12
-10.6333686979564
 22
5.750000000000011
 32
0
 13
-10.6333686979564
 23
5.750000000000011
 33
0
  0
SOLID
  8
1
 62
2
 10
-11.0493686979564
 20
-2.449999999999992
 30
0
 11
-10.6333686979564
 21
-5.649999999999993
 31
0
 12
-11.4653686979564
 22
-5.649999999999993
 32
0
 13
-11.4653686979564
 23
-5.649999999999993
 33
0
  0
TEXT
  8
1
 62
2
 10
-12.8493686979564
 20
10.30605058969353
 30
0
 40
3.2
  1
5
 50
90
 41
0.9
  0
TEXT
  8
1
 62
2
 10
-14.9293686979564
 20
13.82605058969353
 30
0
 40
1.92
  1
 0
 50
90
 41
0.9
  0
TEXT
  8
1
 62
2
 10
-12.0493686979564
 20
13.82605058969353
 30
0
 40
1.92
  1
-0.03
 50
90
 41
0.9
  0
TEXT
  8
1
 62
2
 10
-12.8493686979564
 20
6.661606145249087
 30
0
 40
3.2
  1
âË
 50
90
 41
0.9
  0
ENDBLK
  8
0
  0
BLOCK
  8
1
  2
*D6
 70
1
 10
0
 20
0
 30
0
  0
LINE
  8
1
 62
2
 10
-59.8297637785144
 20
-24.69999999999999
 30
0
 11
-59.8297637785144
 21
24.80000000000002
 31
0
  0
LINE
  8
1
 62
2
 10
-73.76231050693899
 20
24.80000000000002
 30
0
 11
-58.8297637785144
 21
24.80000000000002
 31
0
  0
LINE
  8
1
 62
2
 10
-73.8499999999999
 20
-24.69999999999999
 30
0
 11
-58.8297637785144
 21
-24.69999999999999
 31
0
  0
SOLID
  8
1
 62
2
 10
-59.8297637785144
 20
24.80000000000002
 30
0
 11
-59.4137637785144
 21
21.60000000000002
 31
0
 12
-60.2457637785144
 22
21.60000000000002
 32
0
 13
-60.2457637785144
 23
21.60000000000002
 33
0
  0
SOLID
  8
1
 62
2
 10
-59.8297637785144
 20
-24.69999999999999
 30
0
 11
-60.2457637785144
 21
-21.49999999999999
 31
0
 12
-59.4137637785144
 22
-21.49999999999999
 32
0
 13
-59.4137637785144
 23
-21.49999999999999
 33
0
  0
TEXT
  8
1
 62
2
 10
-60.8297637785144
 20
-7.533999999999995
 30
0
 40
3.2
  1
49.5
 50
90
 41
0.9
  0
TEXT
  8
1
 62
2
 10
-61.4697637785144
 20
2.786000000000005
 30
0
 40
1.92
  1
%%p0.3
 50
90
 41
0.9
  0
ENDBLK
  8
0
  0
BLOCK
  8
1
  2
*D7
 70
1
 10
0
 20
0
 30
0
  0
LINE
  8
1
 62
2
 10
-126.5999999999999
 20
40.04999999999998
 30
0
 11
-77.09999999999992
 21
40.04999999999998
 31
0
  0
LINE
  8
1
 62
2
 10
-77.09999999999992
 20
28.05000000000001
 30
0
 11
-77.09999999999992
 21
41.04999999999998
 31
0
  0
LINE
  8
1
 62
2
 10
-126.5999999999999
 20
28.05
 30
0
 11
-126.5999999999999
 21
41.04999999999998
 31
0
  0
SOLID
  8
1
 62
2
 10
-126.5999999999999
 20
40.04999999999998
 30
0
 11
-123.3999999999999
 21
40.46599999999997
 31
0
 12
-123.3999999999999
 22
39.63399999999998
 32
0
 13
-123.3999999999999
 23
39.63399999999998
 33
0
  0
SOLID
  8
1
 62
2
 10
-77.09999999999992
 20
40.04999999999998
 30
0
 11
-80.29999999999993
 21
39.63399999999998
 31
0
 12
-80.29999999999993
 22
40.46599999999997
 32
0
 13
-80.29999999999993
 23
40.46599999999997
 33
0
  0
TEXT
  8
1
 62
2
 10
-109.4339999999999
 20
41.04999999999998
 30
0
 40
3.2
  1
49.5
 41
0.9
  0
TEXT
  8
1
 62
2
 10
-99.11399999999989
 20
41.68999999999998
 30
0
 40
1.92
  1
%%p0.3
 41
0.9
  0
ENDBLK
  8
0
  0
BLOCK
  8
1
  2
*D8
 70
1
 10
0
 20
0
 30
0
  0
LINE
  8
1
 62
2
 10
-131.8499999999999
 20
52.03390790943221
 30
0
 11
-71.84999999999992
 21
52.03390790943221
 31
0
  0
LINE
  8
1
 62
2
 10
-71.84999999999992
 20
25.55000000000001
 30
0
 11
-71.84999999999992
 21
53.03390790943221
 31
0
  0
LINE
  8
1
 62
2
 10
-131.8499999999999
 20
25.55000000000001
 30
0
 11
-131.8499999999999
 21
53.03390790943221
 31
0
  0
SOLID
  8
1
 62
2
 10
-131.8499999999999
 20
52.03390790943221
 30
0
 11
-128.6499999999999
 21
52.44990790943221
 31
0
 12
-128.6499999999999
 22
51.61790790943221
 32
0
 13
-128.6499999999999
 23
51.61790790943221
 33
0
  0
SOLID
  8
1
 62
2
 10
-71.84999999999992
 20
52.03390790943221
 30
0
 11
-75.04999999999993
 21
51.61790790943221
 31
0
 12
-75.04999999999993
 22
52.44990790943221
 32
0
 13
-75.04999999999993
 23
52.44990790943221
 33
0
  0
TEXT
  8
1
 62
2
 10
-102.161111111111
 20
53.03390790943221
 30
0
 40
3.2
  1
60
 41
0.9
  0
TEXT
  8
1
 62
2
 10
-106.3388888888888
 20
53.03390790943221
 30
0
 40
3.2
  1
üá
 41
0.9
  0
ENDBLK
  8
0
  0
BLOCK
  8
1
  2
*D9
 70
1
 10
0
 20
0
 30
0
  0
LINE
  8
1
 62
2
 10
37
 20
40.04999999999998
 30
0
 11
37
 21
40.04999999999998
 31
0
  0
LINE
  8
1
 62
2
 10
35.5
 20
40.04999999999998
 30
0
 11
37
 21
40.04999999999998
 31
0
  0
LINE
  8
1
 62
2
 10
35.5
 20
40.04999999999998
 30
0
 11
26.8533491625394
 21
40.04999999999998
 31
0
  0
LINE
  8
1
 62
2
 10
35.5
 20
28.04999999999999
 30
0
 11
35.5
 21
41.04999999999998
 31
0
  0
LINE
  8
1
 62
2
 10
37
 20
31.04999999999999
 30
0
 11
37
 21
41.04999999999998
 31
0
  0
SOLID
  8
1
 62
2
 10
35.5
 20
40.04999999999998
 30
0
 11
32.3
 21
39.63399999999998
 31
0
 12
32.3
 22
40.46599999999997
 32
0
 13
32.3
 23
40.46599999999997
 33
0
  0
TEXT
  8
1
 62
2
 10
26.8533491625394
 20
41.04999999999998
 30
0
 40
3.2
  1
1.5
 41
0.9
  0
ENDBLK
  8
0
  0
BLOCK
  8
1
  2
*D10
 70
1
 10
0
 20
0
 30
0
  0
LINE
  8
1
 62
2
 10
-23.9456084856476
 20
-26.94999999999999
 30
0
 11
-23.9456084856476
 21
27.05000000000001
 31
0
  0
LINE
  8
1
 62
2
 10
34.5
 20
27.05000000000001
 30
0
 11
-24.9456084856476
 21
27.05000000000001
 31
0
  0
LINE
  8
1
 62
2
 10
34.5
 20
-26.94999999999999
 30
0
 11
-24.9456084856476
 21
-26.94999999999999
 31
0
  0
SOLID
  8
1
 62
2
 10
-23.9456084856476
 20
27.05000000000001
 30
0
 11
-23.5296084856476
 21
23.85000000000001
 31
0
 12
-24.3616084856476
 22
23.85000000000001
 32
0
 13
-24.3616084856476
 23
23.85000000000001
 33
0
  0
SOLID
  8
1
 62
2
 10
-23.9456084856476
 20
-26.94999999999999
 30
0
 11
-24.3616084856476
 21
-23.74999999999999
 31
0
 12
-23.5296084856476
 22
-23.74999999999999
 32
0
 13
-23.5296084856476
 23
-23.74999999999999
 33
0
  0
TEXT
  8
1
 62
2
 10
-25.7456084856476
 20
-7.591777777777771
 30
0
 40
3.2
  1
54h7
 50
90
 41
0.9
  0
TEXT
  8
1
 62
2
 10
-27.8256084856476
 20
4.568222222222231
 30
0
 40
1.92
  1
 0
 50
90
 41
0.9
  0
TEXT
  8
1
 62
2
 10
-24.9456084856476
 20
4.568222222222231
 30
0
 40
1.92
  1
-0.03
 50
90
 41
0.9
  0
TEXT
  8
1
 62
2
 10
-25.7456084856476
 20
-11.23622222222222
 30
0
 40
3.2
  1
âË
 50
90
 41
0.9
  0
ENDBLK
  8
0
  0
BLOCK
  8
1
  2
*D11
 70
1
 10
0
 20
0
 30
0
  0
LINE
  8
1
 62
2
 10
123
 20
52.0526200476624
 30
0
 11
135.817523867862
 21
52.0526200476624
 31
0
  0
LINE
  8
1
 62
2
 10
113.5
 20
52.0526200476624
 30
0
 11
123
 21
52.0526200476624
 31
0
  0
LINE
  8
1
 62
2
 10
123
 20
11.55000000000001
 30
0
 11
123
 21
53.0526200476624
 31
0
  0
LINE
  8
1
 62
2
 10
113.5
 20
21.05
 30
0
 11
113.5
 21
53.0526200476624
 31
0
  0
SOLID
  8
1
 62
2
 10
113.5
 20
52.0526200476624
 30
0
 11
116.7
 21
52.4686200476624
 31
0
 12
116.7
 22
51.6366200476624
 32
0
 13
116.7
 23
51.6366200476624
 33
0
  0
SOLID
  8
1
 62
2
 10
123
 20
52.0526200476624
 30
0
 11
119.8
 21
51.6366200476624
 31
0
 12
119.8
 22
52.4686200476624
 32
0
 13
119.8
 23
52.4686200476624
 33
0
  0
TEXT
  8
1
 62
2
 10
127.897523867862
 20
53.05262004766241
 30
0
 40
3.2
  1
9.5
 41
0.9
  0
TEXT
  8
1
 62
2
 10
125.817523867862
 20
53.05262004766241
 30
0
 40
3.2
  1
(
 41
0.9
  0
TEXT
  8
1
 62
2
 10
135.337523867862
 20
53.05262004766241
 30
0
 40
3.2
  1
)
 41
0.9
  0
ENDBLK
  8
0
  0
BLOCK
  8
1
  2
*D12
 70
1
 10
0
 20
0
 30
0
  0
LINE
  8
1
 62
2
 10
138.506501193659
 20
-12.45000000000001
 30
0
 11
138.506501193659
 21
12.54999999999999
 31
0
  0
LINE
  8
1
 62
2
 10
122
 20
12.54999999999999
 30
0
 11
139.506501193659
 21
12.54999999999999
 31
0
  0
LINE
  8
1
 62
2
 10
122
 20
-12.45000000000001
 30
0
 11
139.506501193659
 21
-12.45000000000001
 31
0
  0
SOLID
  8
1
 62
2
 10
138.506501193659
 20
12.54999999999999
 30
0
 11
138.922501193659
 21
9.349999999999987
 31
0
 12
138.090501193659
 22
9.349999999999987
 32
0
 13
138.090501193659
 23
9.349999999999987
 33
0
  0
SOLID
  8
1
 62
2
 10
138.506501193659
 20
-12.45000000000001
 30
0
 11
138.090501193659
 21
-9.250000000000011
 31
0
 12
138.922501193659
 22
-9.250000000000011
 32
0
 13
138.922501193659
 23
-9.250000000000011
 33
0
  0
TEXT
  8
1
 62
2
 10
137.506501193659
 20
-0.5277777777777701
 30
0
 40
3.2
  1
25
 50
90
 41
0.9
  0
TEXT
  8
1
 62
2
 10
137.506501193659
 20
-4.172222222222215
 30
0
 40
3.2
  1
âË
 50
90
 41
0.9
  0
ENDBLK
  8
0
  0
BLOCK
  8
1
  2
*D13
 70
1
 10
0
 20
0
 30
0
  0
LINE
  8
1
 62
2
 10
150.479643875196
 20
-29.94999999999999
 30
0
 11
150.479643875196
 21
30.05000000000002
 31
0
  0
LINE
  8
1
 62
2
 10
104.5
 20
30.05000000000002
 30
0
 11
151.479643875196
 21
30.05000000000002
 31
0
  0
LINE
  8
1
 62
2
 10
104.5
 20
-29.94999999999999
 30
0
 11
151.479643875196
 21
-29.94999999999999
 31
0
  0
SOLID
  8
1
 62
2
 10
150.479643875196
 20
30.05000000000002
 30
0
 11
150.895643875196
 21
26.85000000000002
 31
0
 12
150.063643875196
 22
26.85000000000002
 32
0
 13
150.063643875196
 23
26.85000000000002
 33
0
  0
SOLID
  8
1
 62
2
 10
150.479643875196
 20
-29.94999999999999
 30
0
 11
150.063643875196
 21
-26.74999999999999
 31
0
 12
150.895643875196
 22
-26.74999999999999
 32
0
 13
150.895643875196
 23
-26.74999999999999
 33
0
  0
TEXT
  8
1
 62
2
 10
149.479643875196
 20
-0.5277777777777737
 30
0
 40
3.2
  1
60
 50
90
 41
0.9
  0
TEXT
  8
1
 62
2
 10
149.479643875196
 20
-4.172222222222218
 30
0
 40
3.2
  1
âË
 50
90
 41
0.9
  0
ENDBLK
  8
0
  0
BLOCK
  8
1
  2
*D14
 70
1
 10
0
 20
0
 30
0
  0
LINE
  8
1
 62
2
 10
138.506501193659
 20
-81.45000000000002
 30
0
 11
138.506501193659
 21
-70.4556533458242
 31
0
  0
LINE
  8
1
 62
2
 10
138.506501193659
 20
-84.44999999999999
 30
0
 11
138.506501193659
 21
-81.45000000000002
 31
0
  0
LINE
  8
1
 62
2
 10
138.506501193659
 20
-90.84999999999999
 30
0
 11
138.506501193659
 21
-84.44999999999999
 31
0
  0
LINE
  8
1
 62
2
 10
100.5
 20
-81.45000000000002
 30
0
 11
139.506501193659
 21
-81.45000000000002
 31
0
  0
LINE
  8
1
 62
2
 10
99.86128788208086
 20
-84.44999999999999
 30
0
 11
139.506501193659
 21
-84.44999999999999
 31
0
  0
SOLID
  8
1
 62
2
 10
138.506501193659
 20
-81.45000000000002
 30
0
 11
138.090501193659
 21
-78.25000000000001
 31
0
 12
138.922501193659
 22
-78.25000000000001
 32
0
 13
138.922501193659
 23
-78.25000000000001
 33
0
  0
SOLID
  8
1
 62
2
 10
138.506501193659
 20
-84.44999999999999
 30
0
 11
138.922501193659
 21
-87.64999999999999
 31
0
 12
138.090501193659
 22
-87.64999999999999
 32
0
 13
138.090501193659
 23
-87.64999999999999
 33
0
  0
TEXT
  8
1
 62
2
 10
137.506501193659
 20
-74.45565334582419
 30
0
 40
3.2
  1
3
 50
90
 41
0.9
  0
TEXT
  8
1
 62
2
 10
137.506501193659
 20
-76.5356533458242
 30
0
 40
3.2
  1
(
 50
90
 41
0.9
  0
TEXT
  8
1
 62
2
 10
137.506501193659
 20
-70.93565334582419
 30
0
 40
3.2
  1
)
 50
90
 41
0.9
  0
ENDBLK
  8
0
  0
BLOCK
  8
1
  2
*D15
 70
1
 10
0
 20
0
 30
0
  0
LINE
  8
1
 62
2
 10
-114.3530007213565
 20
-51.86123098407699
 30
0
 11
-75.34855627691208
 21
-51.86123098407699
 31
0
  0
LINE
  8
1
 62
2
 10
-125.6751445693721
 20
-26.75113198805907
 30
0
 11
-114.3530007213565
 21
-51.86123098407699
 31
0
  0
SOLID
  8
1
 62
2
 10
-125.6751445693721
 20
-26.75113198805907
 30
0
 11
-123.9805631093537
 21
-29.4973019892356
 31
0
 12
-124.739026137827
 22
-29.83929297513885
 32
0
 13
-124.739026137827
 23
-29.83929297513885
 33
0
  0
TEXT
  8
1
 62
2
 10
-100.0685562769121
 20
-50.86123098407699
 30
0
 40
3.2
  1
4.5
 41
0.9
  0
TEXT
  8
1
 62
2
 10
-109.1530007213565
 20
-50.86123098407699
 30
0
 40
3.2
  1
4-âË
 41
0.9
  0
TEXT
  8
1
 62
2
 10
-92.62855627691207
 20
-50.86123098407699
 30
0
 40
3.2
  1
 HOLES
 41
0.9
  0
ENDBLK
  8
0
  0
ENDSEC
  0
SECTION
  2
ENTITIES
  0
LINE
  8
1
 62
7
 10
-69.8499999999999
 20
-4.949999999999989
 30
0
 11
-70.3499999999999
 21
-4.949999999999931
 31
0
  0
LINE
  8
1
 62
7
 10
-69.84999999999994
 20
5.050000000000011
 30
0
 11
-69.8499999999999
 21
-4.949999999999989
 31
0
  0
LINE
  8
1
 62
7
 10
-71.8499999999999
 20
7.050000000000069
 30
0
 11
-70.3499999999999
 21
7.050000000000048
 31
0
  0
LINE
  8
1
 62
7
 10
-133.8499999999999
 20
-4.95000000000001
 30
0
 11
-133.3499999999999
 21
-4.949999999999952
 31
0
  0
LINE
  8
1
 62
7
 10
-133.8499999999999
 20
5.050000000000011
 30
0
 11
-133.8499999999999
 21
-4.95000000000001
 31
0
  0
LINE
  8
1
 62
7
 10
-131.8499999999999
 20
7.050000000000069
 30
0
 11
-133.3499999999999
 21
7.050000000000069
 31
0
  0
LINE
  8
1
 62
7
 10
-70.3499999999999
 20
7.050000000000048
 30
0
 11
-70.3499999999999
 21
-6.95000000000001
 31
0
  0
LINE
  8
1
 62
7
 10
-70.3499999999999
 20
-6.95000000000001
 30
0
 11
-71.8499999999999
 21
-6.949999999999989
 31
0
  0
LINE
  8
1
 62
7
 10
-70.3499999999999
 20
5.050000000000011
 30
0
 11
-69.84999999999994
 21
5.050000000000011
 31
0
  0
LINE
  8
1
 62
7
 10
-133.3499999999999
 20
7.050000000000069
 30
0
 11
-133.3499999999999
 21
-6.95000000000001
 31
0
  0
LINE
  8
1
 62
7
 10
-133.3499999999999
 20
5.04999999999999
 30
0
 11
-133.8499999999999
 21
5.050000000000011
 31
0
  0
LINE
  8
1
 62
7
 10
-133.3499999999999
 20
-6.95000000000001
 30
0
 11
-131.8499999999999
 21
-6.95000000000001
 31
0
  0
LINE
  8
1
 62
7
 10
39.5
 20
22.74999999999998
 30
0
 11
39.5
 21
-22.65000000000004
 31
0
  0
LINE
  8
1
 62
7
 10
36.29999999999991
 20
-15.15000000000005
 30
0
 11
36.29999999999991
 21
-17.75
 31
0
  0
LINE
  8
1
 62
3
 10
40.2668536222524
 20
-16.45000000000001
 30
0
 11
35.52206268363611
 21
-16.45000000000001
 31
0
  0
LINE
  8
1
 62
7
 10
36.29999999999991
 20
17.84999999999997
 30
0
 11
36.29999999999991
 21
15.24999999999998
 31
0
  0
LINE
  8
1
 62
3
 10
35.52206268363611
 20
16.55000000000001
 30
0
 11
40.2668536222524
 21
16.55000000000001
 31
0
  0
LINE
  8
1
 62
3
 10
-126.5999999999999
 20
-20.38796890006644
 30
0
 11
-126.5999999999999
 21
-28.94999999999999
 31
0
  0
LINE
  8
1
 62
3
 10
-131.0253789861208
 20
-24.70000000000021
 30
0
 11
-122.3499999999999
 21
-24.70000000000021
 31
0
  0
LINE
  8
1
 62
3
 10
-136.9499999999998
 20
0.04999999999999002
 30
0
 11
-66.75000000000001
 21
0.04999999999999002
 31
0
  0
LINE
  8
1
 62
3
 10
-101.8499999999999
 20
34.04999999999981
 30
0
 11
-101.8499999999999
 21
-34.14999999999979
 31
0
  0
LINE
  8
1
 62
7
 10
-101.5499999999999
 20
-15.20000000000001
 30
0
 11
-101.5499999999999
 21
-15.65000000000005
 31
0
  0
LINE
  8
1
 62
7
 10
-102.15
 20
-15.19999999999999
 30
0
 11
-102.15
 21
-15.65000000000003
 31
0
  0
LINE
  8
1
 62
7
 10
-102.15
 20
-17.69999999999999
 30
0
 11
-102.15
 21
-17.2499999999999
 31
0
  0
LINE
  8
1
 62
7
 10
-101.5499999999999
 20
-17.2499999999999
 30
0
 11
-101.5499999999999
 21
-17.69999999999999
 31
0
  0
LINE
  8
1
 62
7
 10
-103.0999999999999
 20
-16.75000000000004
 30
0
 11
-102.65
 21
-16.74999999999988
 31
0
  0
LINE
  8
1
 62
7
 10
-103.0999999999999
 20
-16.15000000000004
 30
0
 11
-102.65
 21
-16.15000000000006
 31
0
  0
LINE
  8
1
 62
7
 10
-101.0499999999999
 20
-16.15000000000006
 30
0
 11
-100.5999999999999
 21
-16.15000000000006
 31
0
  0
LINE
  8
1
 62
7
 10
-101.0499999999999
 20
-16.7499999999999
 30
0
 11
-100.5999999999999
 21
-16.75000000000004
 31
0
  0
LINE
  8
1
 62
7
 10
-103.1999999999999
 20
-16.24999999999988
 30
0
 11
-103.1999999999999
 21
-16.65000000000006
 31
0
  0
LINE
  8
1
 62
7
 10
-100.5
 20
-16.2499999999999
 30
0
 11
-100.5
 21
-16.65000000000004
 31
0
  0
LINE
  8
1
 62
7
 10
-102.0499999999999
 20
-17.79999999999999
 30
0
 11
-101.65
 21
-17.79999999999999
 31
0
  0
LINE
  8
1
 62
7
 10
-102.0499999999999
 20
-15.10000000000004
 30
0
 11
-101.65
 21
-15.10000000000004
 31
0
  0
LINE
  8
1
 62
7
 10
-85.04999999999991
 20
1.300000000000011
 30
0
 11
-85.04999999999991
 21
0.8499999999999444
 31
0
  0
LINE
  8
1
 62
7
 10
-85.65000000000002
 20
1.29999999999999
 30
0
 11
-85.65000000000002
 21
0.8499999999999444
 31
0
  0
LINE
  8
1
 62
7
 10
-85.65000000000002
 20
-1.199999999999989
 30
0
 11
-85.65000000000002
 21
-0.7499999999999076
 31
0
  0
LINE
  8
1
 62
7
 10
-85.04999999999991
 20
-0.7499999999999076
 30
0
 11
-85.04999999999991
 21
-1.199999999999989
 31
0
  0
LINE
  8
1
 62
7
 10
-86.5999999999999
 20
-0.2500000000000355
 30
0
 11
-86.15000000000002
 21
-0.2499999999999077
 31
0
  0
LINE
  8
1
 62
7
 10
-86.5999999999999
 20
0.3499999999999444
 30
0
 11
-86.15000000000002
 21
0.3499999999999657
 31
0
  0
LINE
  8
1
 62
7
 10
-84.54999999999991
 20
0.3499999999999444
 30
0
 11
-84.0999999999999
 21
0.3499999999999444
 31
0
  0
LINE
  8
1
 62
7
 10
-84.54999999999991
 20
-0.2499999999998863
 30
0
 11
-84.0999999999999
 21
-0.2499999999999077
 31
0
  0
LINE
  8
1
 62
7
 10
-86.69999999999992
 20
0.2500000000000923
 30
0
 11
-86.69999999999992
 21
-0.1500000000000341
 31
0
  0
LINE
  8
1
 62
7
 10
-84.00000000000001
 20
0.2500000000001137
 30
0
 11
-84.00000000000001
 21
-0.1500000000000341
 31
0
  0
LINE
  8
1
 62
7
 10
-85.54999999999991
 20
-1.29999999999999
 30
0
 11
-85.15000000000002
 21
-1.29999999999999
 31
0
  0
LINE
  8
1
 62
7
 10
-85.54999999999991
 20
1.399999999999956
 30
0
 11
-85.15000000000002
 21
1.399999999999956
 31
0
  0
LINE
  8
1
 62
7
 10
-101.5499999999999
 20
17.80000000000001
 30
0
 11
-101.5499999999999
 21
17.34999999999995
 31
0
  0
LINE
  8
1
 62
7
 10
-102.15
 20
17.80000000000001
 30
0
 11
-102.15
 21
17.34999999999997
 31
0
  0
LINE
  8
1
 62
7
 10
-102.15
 20
15.30000000000001
 30
0
 11
-102.15
 21
15.7500000000001
 31
0
  0
LINE
  8
1
 62
7
 10
-101.5499999999999
 20
15.7500000000001
 30
0
 11
-101.5499999999999
 21
15.29999999999999
 31
0
  0
LINE
  8
1
 62
7
 10
-103.0999999999999
 20
16.24999999999997
 30
0
 11
-102.65
 21
16.25000000000012
 31
0
  0
LINE
  8
1
 62
7
 10
-103.0999999999999
 20
16.84999999999997
 30
0
 11
-102.65
 21
16.84999999999995
 31
0
  0
LINE
  8
1
 62
7
 10
-101.0499999999999
 20
16.84999999999995
 30
0
 11
-100.5999999999999
 21
16.84999999999995
 31
0
  0
LINE
  8
1
 62
7
 10
-101.0499999999999
 20
16.2500000000001
 30
0
 11
-100.5999999999999
 21
16.24999999999997
 31
0
  0
LINE
  8
1
 62
7
 10
-103.1999999999999
 20
16.75000000000012
 30
0
 11
-103.1999999999999
 21
16.34999999999995
 31
0
  0
LINE
  8
1
 62
7
 10
-100.5
 20
16.7500000000001
 30
0
 11
-100.5
 21
16.34999999999995
 31
0
  0
LINE
  8
1
 62
7
 10
-102.0499999999999
 20
15.19999999999997
 30
0
 11
-101.65
 21
15.19999999999997
 31
0
  0
LINE
  8
1
 62
7
 10
-102.0499999999999
 20
17.89999999999998
 30
0
 11
-101.65
 21
17.89999999999996
 31
0
  0
LINE
  8
1
 62
7
 10
-118.0499999999999
 20
1.300000000000011
 30
0
 11
-118.0499999999999
 21
0.8499999999999444
 31
0
  0
LINE
  8
1
 62
7
 10
-118.6499999999999
 20
1.29999999999999
 30
0
 11
-118.6499999999999
 21
0.8499999999999657
 31
0
  0
LINE
  8
1
 62
7
 10
-118.6499999999999
 20
-1.199999999999989
 30
0
 11
-118.6499999999999
 21
-0.7499999999999076
 31
0
  0
LINE
  8
1
 62
7
 10
-118.0499999999999
 20
-0.7499999999999076
 30
0
 11
-118.0499999999999
 21
-1.199999999999989
 31
0
  0
LINE
  8
1
 62
7
 10
-119.5999999999999
 20
-0.2500000000000355
 30
0
 11
-119.1499999999999
 21
-0.2499999999999077
 31
0
  0
LINE
  8
1
 62
7
 10
-119.5999999999999
 20
0.3499999999999444
 30
0
 11
-119.1499999999999
 21
0.3499999999999657
 31
0
  0
LINE
  8
1
 62
7
 10
-117.5499999999999
 20
0.3499999999999444
 30
0
 11
-117.0999999999999
 21
0.3499999999999444
 31
0
  0
LINE
  8
1
 62
7
 10
-117.5499999999999
 20
-0.2499999999999077
 30
0
 11
-117.0999999999999
 21
-0.2500000000000355
 31
0
  0
LINE
  8
1
 62
7
 10
-119.6999999999998
 20
0.2500000000000923
 30
0
 11
-119.6999999999998
 21
-0.1500000000000341
 31
0
  0
LINE
  8
1
 62
7
 10
-117
 20
0.2500000000000923
 30
0
 11
-117
 21
-0.1500000000000341
 31
0
  0
LINE
  8
1
 62
7
 10
-118.5499999999999
 20
-1.29999999999999
 30
0
 11
-118.1499999999999
 21
-1.29999999999999
 31
0
  0
LINE
  8
1
 62
7
 10
-118.5499999999999
 20
1.399999999999956
 30
0
 11
-118.1499999999999
 21
1.399999999999956
 31
0
  0
LINE
  8
1
 62
7
 10
-131.8499999999999
 20
24.54999999999999
 30
0
 11
-131.8499999999999
 21
-24.44999999999999
 31
0
  0
LINE
  8
1
 62
7
 10
-126.3499999999999
 20
-29.94999999999999
 30
0
 11
-77.3499999999999
 21
-29.94999999999999
 31
0
  0
LINE
  8
1
 62
7
 10
-71.8499999999999
 20
-24.44999999999999
 30
0
 11
-71.84999999999994
 21
24.55000000000001
 31
0
  0
LINE
  8
1
 62
7
 10
-77.3499999999999
 20
30.04999999999999
 30
0
 11
-126.3499999999999
 21
30.04999999999999
 31
0
  0
LINE
  8
1
 62
7
 10
-106.8499999999999
 20
26.58299832284306
 30
0
 11
-106.8499999999999
 21
22.49994432064369
 31
0
  0
LINE
  8
1
 62
7
 10
-96.8499999999999
 20
22.49994432064369
 30
0
 11
-96.8499999999999
 21
26.58299832284306
 31
0
  0
LINE
  8
1
 62
7
 10
-79.40005567935602
 20
-4.95000000000001
 30
0
 11
-75.31700167715691
 21
-4.95000000000001
 31
0
  0
LINE
  8
1
 62
7
 10
-75.31700167715691
 20
5.050000000000011
 30
0
 11
-79.40005567935602
 21
5.050000000000011
 31
0
  0
LINE
  8
1
 62
7
 10
-106.8499999999999
 20
-22.39994432064374
 30
0
 11
-106.8499999999999
 21
-26.48299832284325
 31
0
  0
LINE
  8
1
 62
7
 10
-96.8499999999999
 20
-26.48299832284323
 30
0
 11
-96.8499999999999
 21
-22.39994432064374
 31
0
  0
LINE
  8
1
 62
7
 10
-128.3829983228429
 20
5.04999999999999
 30
0
 11
-124.2999443206438
 21
5.04999999999999
 31
0
  0
LINE
  8
1
 62
7
 10
-124.2999443206438
 20
-4.95000000000001
 30
0
 11
-128.3829983228429
 21
-4.95000000000001
 31
0
  0
LINE
  8
1
 62
3
 10
-130.8499999999999
 20
24.79999999999999
 30
0
 11
-122.2623105069397
 21
24.79999999999999
 31
0
  0
LINE
  8
1
 62
3
 10
-126.5999999999999
 20
27.04999999999999
 30
0
 11
-126.5999999999999
 21
20.29995588002248
 31
0
  0
LINE
  8
1
 62
3
 10
-81.3499999999999
 20
-24.70000000000001
 30
0
 11
-74.8499999999999
 21
-24.69999999999999
 31
0
  0
LINE
  8
1
 62
3
 10
-77.0999999999999
 20
-20.73872687230854
 30
0
 11
-77.0999999999999
 21
-28.95000000000001
 31
0
  0
LINE
  8
1
 62
3
 10
-81.3499999999999
 20
24.79999999999999
 30
0
 11
-74.76231050693899
 21
24.80000000000001
 31
0
  0
LINE
  8
1
 62
3
 10
-77.09999999999991
 20
27.05000000000001
 30
0
 11
-77.0999999999999
 21
20.47533486614365
 31
0
  0
LINE
  8
1
 62
7
 10
35.5
 20
-4.95000000000001
 30
0
 11
37
 21
-4.95000000000001
 31
0
  0
LINE
  8
1
 62
7
 10
37
 20
5.04999999999999
 30
0
 11
35.5
 21
5.050000000000011
 31
0
  0
LINE
  8
1
 62
7
 10
35.5
 20
5.050000000000011
 30
0
 11
35.5
 21
-4.95000000000001
 31
0
  0
LINE
  8
1
 62
7
 10
39
 20
-29.94999999999999
 30
0
 11
39
 21
30.05000000000001
 31
0
  0
LINE
  8
1
 62
7
 10
37
 20
-29.94999999999999
 30
0
 11
37
 21
30.04999999999999
 31
0
  0
LINE
  8
1
 62
7
 10
37
 20
27.05000000000001
 30
0
 11
35.5
 21
27.04999999999999
 31
0
  0
LINE
  8
1
 62
7
 10
35.5
 20
27.04999999999999
 30
0
 11
35.5
 21
23.04999999999999
 31
0
  0
LINE
  8
1
 62
7
 10
35.5
 20
23.04999999999999
 30
0
 11
37
 21
23.04999999999999
 31
0
  0
LINE
  8
1
 62
7
 10
37
 20
-22.95000000000001
 30
0
 11
35.5
 21
-22.95000000000001
 31
0
  0
LINE
  8
1
 62
7
 10
35.5
 20
-22.95000000000001
 30
0
 11
35.5
 21
-26.95000000000001
 31
0
  0
LINE
  8
1
 62
7
 10
35.5
 20
-26.95000000000001
 30
0
 11
37
 21
-26.95000000000012
 31
0
  0
LINE
  8
1
 62
7
 10
0
 20
-2.449999999999989
 30
0
 11
35.5
 21
-2.45000000000001
 31
0
  0
LINE
  8
1
 62
7
 10
0
 20
2.550000000000011
 30
0
 11
0
 21
-2.449999999999989
 31
0
  0
LINE
  8
1
 62
7
 10
35.5
 20
2.550000000000011
 30
0
 11
0
 21
2.550000000000011
 31
0
  0
LINE
  8
1
 62
7
 10
46.8
 20
-29.95
 30
0
 11
103.5
 21
-29.94999999999999
 31
0
  0
LINE
  8
1
 62
7
 10
86.79999999999996
 20
-4.95000000000001
 30
0
 11
89.99999999999996
 21
-5.45000000000001
 31
0
  0
LINE
  8
1
 62
7
 10
86.79999999999996
 20
5.04999999999999
 30
0
 11
89.99999999999996
 21
5.550000000000011
 31
0
  0
LINE
  8
1
 62
7
 10
89.99999999999996
 20
-5.850000000000023
 30
0
 11
89.99999999999996
 21
-2.18662692463456
 31
0
  0
LINE
  8
1
 62
7
 10
86.79999999999996
 20
-2.18662692463456
 30
0
 11
86.79999999999996
 21
-5.850000000000023
 31
0
  0
LINE
  8
1
 62
7
 10
91.49999999999996
 20
-29.95
 30
0
 11
91.49999999999996
 21
-31.94999999999998
 31
0
  0
LINE
  8
1
 62
7
 10
105.5
 20
-31.94999999999998
 30
0
 11
91.49999999999996
 21
-31.94999999999998
 31
0
  0
LINE
  8
1
 62
7
 10
105.5
 20
-29.74795897113274
 30
0
 11
105.5
 21
-31.94999999999998
 31
0
  0
LINE
  8
1
 62
3
 10
102.5
 20
10.58178475720466
 30
0
 11
102.5
 21
-10.87959420309314
 31
0
  0
LINE
  8
1
 62
7
 10
123
 20
-10.44999999999999
 30
0
 11
123
 21
10.55000000000001
 31
0
  0
LINE
  8
1
 62
7
 10
107.1723749477709
 20
5.262380679444163
 30
0
 11
113.5
 21
5.54999999999999
 31
0
  0
LINE
  8
1
 62
7
 10
107.1723749477709
 20
-5.162380679444106
 30
0
 11
113.5
 21
-5.45000000000001
 31
0
  0
LINE
  8
1
 62
7
 10
113.5
 20
8.052581311993777
 30
0
 11
102.5
 21
7.552581311993755
 31
0
  0
LINE
  8
1
 62
7
 10
102.5
 20
-7.452581311993718
 30
0
 11
113.5
 21
-7.952581311993718
 31
0
  0
LINE
  8
1
 62
7
 10
100.3
 20
-0.7500000000000213
 30
0
 11
104.7000000000001
 21
-0.75
 31
0
  0
LINE
  8
1
 62
7
 10
104.7000000000001
 20
0.8499999999999657
 30
0
 11
100.3
 21
0.8499999999999657
 31
0
  0
LINE
  8
1
 62
7
 10
114.5154082664935
 20
12.55000000000001
 30
0
 11
121
 21
12.54999999999999
 31
0
  0
LINE
  8
1
 62
7
 10
121
 20
-12.45000000000001
 30
0
 11
114.5
 21
-12.45000000000001
 31
0
  0
LINE
  8
1
 62
7
 10
113.5
 20
-19.95
 30
0
 11
113.5
 21
20.05
 31
0
  0
LINE
  8
1
 62
7
 10
89.99999999999996
 20
5.949999999999967
 30
0
 11
89.99999999999996
 21
2.286626924634482
 31
0
  0
LINE
  8
1
 62
7
 10
92.99999999999996
 20
29.55000000000001
 30
0
 11
92.99999999999996
 21
-29.94999999999997
 31
0
  0
LINE
  8
1
 62
7
 10
86.79999999999996
 20
2.286626924634503
 30
0
 11
86.79999999999996
 21
5.949999999999989
 31
0
  0
LINE
  8
1
 62
3
 10
125.9735500491311
 20
0.05000000000001137
 30
0
 11
-3.999999999999915
 21
0.05000000000001137
 31
0
  0
LINE
  8
1
 62
3
 10
88.39999999999996
 20
10.54751927958936
 30
0
 11
88.39999999999996
 21
-9.82042238274272
 31
0
  0
LINE
  8
1
 62
7
 10
89.40588235294116
 20
0.3499999999999657
 30
0
 11
89.79999999999996
 21
0.3499999999999444
 31
0
  0
LINE
  8
1
 62
7
 10
89.40588235294116
 20
-0.25
 30
0
 11
89.79999999999996
 21
-0.2500000000000214
 31
0
  0
LINE
  8
1
 62
7
 10
88.69999999999996
 20
-0.95000000000001
 30
0
 11
88.69999999999996
 21
-1.350000000000023
 31
0
  0
LINE
  8
1
 62
7
 10
88.19999999999996
 20
1.54999999999999
 30
0
 11
88.59999999999997
 21
1.54999999999999
 31
0
  0
LINE
  8
1
 62
7
 10
88.19999999999996
 20
-1.45000000000001
 30
0
 11
88.59999999999997
 21
-1.45000000000001
 31
0
  0
LINE
  8
1
 62
7
 10
89.89999999999996
 20
0.2499999999999786
 30
0
 11
89.89999999999996
 21
-0.1500000000000341
 31
0
  0
LINE
  8
1
 62
7
 10
86.89999999999996
 20
0.2499999999999786
 30
0
 11
86.89999999999996
 21
-0.1500000000000555
 31
0
  0
LINE
  8
1
 62
7
 10
86.99999999999996
 20
0.3499999999999444
 30
0
 11
87.39999999999996
 21
0.3499999999999657
 31
0
  0
LINE
  8
1
 62
7
 10
86.99999999999996
 20
-0.2499999999998863
 30
0
 11
87.39999999999996
 21
-0.2500000000000214
 31
0
  0
LINE
  8
1
 62
7
 10
88.09999999999997
 20
-1.350000000000023
 30
0
 11
88.09999999999997
 21
-0.95000000000001
 31
0
  0
LINE
  8
1
 62
7
 10
88.09999999999997
 20
1.449999999999967
 30
0
 11
88.09999999999997
 21
1.050000000000011
 31
0
  0
LINE
  8
1
 62
7
 10
88.69999999999996
 20
1.449999999999988
 30
0
 11
88.69999999999996
 21
1.050000000000011
 31
0
  0
LINE
  8
0
 62
7
 10
37
 20
30.04999999999999
 30
0
 11
39
 21
30.05000000000001
 31
0
  0
LINE
  8
0
 62
7
 10
39
 20
-29.94999999999999
 30
0
 11
37
 21
-29.94999999999999
 31
0
  0
LINE
  8
1
 62
7
 10
37
 20
30.04999999999999
 30
0
 11
39
 21
30.05000000000001
 31
0
  0
LINE
  8
1
 62
7
 10
39
 20
-29.94999999999999
 30
0
 11
37
 21
-29.94999999999999
 31
0
  0
LINE
  8
1
 62
7
 10
46.8
 20
30.05
 30
0
 11
103.5
 21
30.05000000000002
 31
0
  0
LINE
  8
1
 62
7
 10
99.49999999999996
 20
-31.94999999999998
 30
0
 11
99.49999999999996
 21
-53.44286539778484
 31
0
  0
LINE
  8
1
 62
7
 10
97.49999999999996
 20
-31.94999999999998
 30
0
 11
97.49999999999996
 21
-53.37466809013316
 31
0
  0
LINE
  8
1
 62
7
 10
95.49999999999996
 20
-31.95
 30
0
 11
95.49999999999996
 21
-53.0806398021402
 31
0
  0
LINE
  8
1
 62
7
 10
95.49999999999996
 20
-56.15163982705845
 30
0
 11
95.49999999999996
 21
-81.44999999999999
 31
0
  0
LINE
  8
1
 62
7
 10
97.49999999999996
 20
-56.17972975932101
 30
0
 11
97.49999999999886
 21
-81.44999999999999
 31
0
  0
LINE
  8
1
 62
7
 10
99.49999999999996
 20
-56.17972975932101
 30
0
 11
99.49999999999996
 21
-81.45000000000002
 31
0
  0
LINE
  8
1
 62
7
 10
96.99999999999996
 20
-84.45000000000002
 30
0
 11
96.99999999999996
 21
-81.45000000000002
 31
0
  0
LINE
  8
1
 62
7
 10
96.10440965855086
 20
-81.45000000000002
 30
0
 11
96.10440965855086
 21
-84.44999999999999
 31
0
  0
LINE
  8
1
 62
7
 10
98.86128788208086
 20
-84.44999999999999
 30
0
 11
98.86128788208086
 21
-81.44999999999999
 31
0
  0
LINE
  8
1
 62
7
 10
97.99999999999996
 20
-81.45000000000002
 30
0
 11
97.99999999999996
 21
-84.44999999999999
 31
0
  0
LINE
  8
1
 62
7
 10
99.49999999999996
 20
-81.45000000000002
 30
0
 11
95.49999999999996
 21
-81.44999999999999
 31
0
  0
LINE
  8
1
 62
2
 10
-113.702587416798
 20
-59.04999999999999
 30
0
 11
-75.05489243951537
 21
-59.04999999999999
 31
0
  0
LINE
  8
1
 62
7
 10
39.50000000000001
 20
20.06666666666665
 30
0
 11
39.00000000000001
 21
20.20000000000008
 31
0
  0
LINE
  8
1
 62
7
 10
39.00000000000001
 20
-10.95000000000001
 30
0
 11
39.50000000000001
 21
-10.95000000000001
 31
0
  0
LINE
  8
1
 62
7
 10
39.50000000000001
 20
11.05000000000001
 30
0
 11
39.00000000000001
 21
11.05000000000001
 31
0
  0
LINE
  8
1
 62
7
 10
39.00000000000001
 20
-3.600000000000023
 30
0
 11
39.50000000000001
 21
-3.466666666666605
 31
0
  0
LINE
  8
1
 62
7
 10
39.50000000000001
 20
3.566666666666585
 30
0
 11
39.00000000000001
 21
3.699999999999967
 31
0
  0
LINE
  8
1
 62
7
 10
39.50000000000001
 20
15.0954545454545
 30
0
 11
39.00000000000001
 21
15.0954545454545
 31
0
  0
LINE
  8
1
 62
7
 10
39.00000000000001
 20
-14.99545454545451
 30
0
 11
39.50000000000001
 21
-14.99545454545449
 31
0
  0
LINE
  8
1
 62
7
 10
39.00000000000001
 20
-20.10000000000002
 30
0
 11
39.50000000000001
 21
-19.96666666666658
 31
0
  0
LINE
  8
1
 62
3
 10
-77.09999999999991
 20
27.05000000000001
 30
0
 11
-77.09999999999991
 21
29.04999999999999
 31
0
  0
LINE
  8
1
 62
3
 10
-126.5999999999999
 20
27.04999999999999
 30
0
 11
-126.5999999999999
 21
29.04999999999999
 31
0
  0
LINE
  8
1
 62
3
 10
-74.8499999999999
 20
-24.69999999999999
 30
0
 11
-72.8499999999999
 21
-24.69999999999999
 31
0
  0
LINE
  8
1
 62
3
 10
-74.76231050693899
 20
24.80000000000001
 30
0
 11
-72.8499999999999
 21
24.80000000000001
 31
0
  0
LINE
  8
1
 62
7
 10
-112.8499999999999
 20
-4.94999999999999
 30
0
 11
-112.8499999999999
 21
5.05000000000001
 31
0
  0
LINE
  8
1
 62
7
 10
-96.8499999999999
 20
-10.94999999999999
 30
0
 11
-106.8499999999999
 21
-10.94999999999999
 31
0
  0
LINE
  8
1
 62
7
 10
-90.8499999999999
 20
5.05000000000001
 30
0
 11
-90.8499999999999
 21
-4.94999999999999
 31
0
  0
LINE
  8
1
 62
7
 10
-106.8499999999999
 20
11.05000000000001
 30
0
 11
-96.8499999999999
 21
11.05000000000001
 31
0
  0
LINE
  8
1
 62
7
 10
79.74999999999996
 20
18.92961173149507
 30
0
 11
79.74999999999996
 21
30.05000000000001
 31
0
  0
LINE
  8
1
 62
7
 10
52.25
 20
18.92961173149507
 30
0
 11
79.74999999999996
 21
18.92961173149507
 31
0
  0
LINE
  8
1
 62
7
 10
52.25
 20
30.05000000000001
 30
0
 11
52.25
 21
18.92961173149507
 31
0
  0
LINE
  8
1
 62
2
 10
13.70982061369968
 20
-59.29991020425769
 30
0
 11
82.06660838998967
 21
-59.29991020425769
 31
0
  0
ARC
  8
1
 62
7
 10
-101.0499999999999
 20
-15.65000000000005
 30
0
 40
0.5
 50
180
 51
270
  0
ARC
  8
1
 62
7
 10
-102.65
 20
-15.65000000000005
 30
0
 40
0.5000000000000089
 50
270
 51
0
  0
ARC
  8
1
 62
7
 10
-102.65
 20
-17.24999999999988
 30
0
 40
0.5
 50
0
 51
90
  0
ARC
  8
1
 62
7
 10
-101.0499999999999
 20
-17.24999999999988
 30
0
 40
0.4999999999999787
 50
90
 51
180
  0
ARC
  8
1
 62
7
 10
-84.54999999999991
 20
0.8499999999999657
 30
0
 40
0.5
 50
180.0000000000024
 51
270
  0
ARC
  8
1
 62
7
 10
-86.15000000000002
 20
0.8499999999999444
 30
0
 40
0.4999999999999786
 50
270
 51
0
  0
ARC
  8
1
 62
7
 10
-86.15000000000002
 20
-0.7499999999998863
 30
0
 40
0.5
 50
359.9999999999976
 51
90
  0
ARC
  8
1
 62
7
 10
-84.54999999999991
 20
-0.7499999999998863
 30
0
 40
0.5
 50
90
 51
180.0000000000024
  0
ARC
  8
1
 62
7
 10
-101.0499999999999
 20
17.34999999999995
 30
0
 40
0.5
 50
180
 51
270
  0
ARC
  8
1
 62
7
 10
-102.65
 20
17.34999999999995
 30
0
 40
0.5
 50
270
 51
0
  0
ARC
  8
1
 62
7
 10
-102.65
 20
15.75000000000012
 30
0
 40
0.5
 50
0
 51
90
  0
ARC
  8
1
 62
7
 10
-101.0499999999999
 20
15.7500000000001
 30
0
 40
0.5
 50
90
 51
180
  0
ARC
  8
1
 62
7
 10
-117.5499999999999
 20
0.8499999999999444
 30
0
 40
0.5
 50
180
 51
270
  0
ARC
  8
1
 62
7
 10
-119.1499999999999
 20
0.8499999999999444
 30
0
 40
0.4999999999999786
 50
270
 51
2.442665995363981e-012
  0
ARC
  8
1
 62
7
 10
-119.1499999999999
 20
-0.7499999999998863
 30
0
 40
0.5
 50
359.9999999999976
 51
90
  0
ARC
  8
1
 62
7
 10
-117.5499999999999
 20
-0.7499999999998863
 30
0
 40
0.4999999999999786
 50
90
 51
180.0000000000024
  0
ARC
  8
1
 62
7
 10
-101.8499999999999
 20
0.05000000000001137
 30
0
 40
23.00000000000003
 50
77.44414220141404
 51
102.555857798586
  0
ARC
  8
1
 62
7
 10
-101.8499999999999
 20
0.05000000000001137
 30
0
 40
26.99999999999985
 50
79.3280707142378
 51
100.6719292857622
  0
ARC
  8
1
 62
7
 10
-101.8499999999999
 20
0.05000000000001137
 30
0
 40
23.00000000000023
 50
347.4441422014141
 51
12.55585779858585
  0
ARC
  8
1
 62
7
 10
-101.8499999999999
 20
0.05000000000001137
 30
0
 40
26.99999999999979
 50
349.3280707142378
 51
10.67192928576223
  0
ARC
  8
1
 62
7
 10
-101.8499999999999
 20
0.05000000000001137
 30
0
 40
27.00000000000006
 50
259.3280707142379
 51
280.6719292857621
  0
ARC
  8
1
 62
7
 10
-101.8499999999999
 20
0.05000000000001137
 30
0
 40
23.0000000000001
 50
257.4441422014141
 51
282.5558577985859
  0
ARC
  8
1
 62
7
 10
-101.8499999999999
 20
0.05000000000001137
 30
0
 40
23.00000000000025
 50
167.4441422014142
 51
192.5558577985859
  0
ARC
  8
1
 62
7
 10
-101.8499999999999
 20
0.05000000000001137
 30
0
 40
26.9999999999998
 50
169.3280707142378
 51
190.6719292857623
  0
ARC
  8
1
 62
3
  6
CENTER
 10
-101.8499999999999
 20
0.05000000000001137
 30
0
 40
16.49999999999961
 50
342.3602986057636
 51
17.6397013942364
  0
ARC
  8
1
 62
3
  6
CENTER
 10
-101.8499999999999
 20
0.05000000000001137
 30
0
 40
16.49999999999989
 50
72.36029860576383
 51
107.6397013942362
  0
ARC
  8
1
 62
3
  6
CENTER
 10
-101.8499999999999
 20
0.05000000000001137
 30
0
 40
16.50000000000057
 50
162.3602986057659
 51
197.6397013942365
  0
ARC
  8
1
 62
3
  6
CENTER
 10
-101.8499999999999
 20
0.05000000000001137
 30
0
 40
16.50000000000072
 50
252.3602986057648
 51
287.6397013942353
  0
ARC
  8
1
 62
7
 10
102.5
 20
0.04999999999999002
 30
0
 40
7.502581311993765
 50
90
 51
270
  0
ARC
  8
1
 62
7
 10
100.3
 20
0.04999999999999002
 30
0
 40
0.7999999999999756
 50
90
 51
270
  0
ARC
  8
1
 62
7
 10
104.7000000000001
 20
0.04999999999999002
 30
0
 40
0.7999999999999901
 50
270
 51
90
  0
ARC
  8
1
 62
7
 10
88.39999999999996
 20
5.949999999999989
 30
0
 40
1.599999999999994
 50
0
 51
180
  0
ARC
  8
1
 62
7
 10
88.39999999999996
 20
-5.850000000000023
 30
0
 40
1.600000000000009
 50
180
 51
0
  0
ARC
  8
1
 62
7
 10
87.39705882352936
 20
1.052941176470575
 30
0
 40
0.7029473295325301
 50
270.2397298960818
 51
359.7602701039211
  0
ARC
  8
1
 62
7
 10
89.40294117647056
 20
1.052941176470596
 30
0
 40
0.7029473295325234
 50
180.2397298960806
 51
270.2397298960818
  0
ARC
  8
1
 62
7
 10
89.40294117647056
 20
-0.9529411764706306
 30
0
 40
0.7029473295325515
 50
89.76027010391822
 51
179.7602701039165
  0
ARC
  8
1
 62
7
 10
87.39705882352936
 20
-0.9529411764706306
 30
0
 40
0.7029473295325235
 50
0.2397298960834889
 51
89.76027010391822
  0
CIRCLE
  8
1
 62
7
 10
-126.5999999999999
 20
-24.70000000000021
 30
0
 40
2.25
  0
CIRCLE
  8
1
 62
7
 10
-101.8499999999999
 20
-16.45000000000001
 30
0
 40
2.25
  0
CIRCLE
  8
1
 62
7
 10
-85.3499999999999
 20
0.04999999999999002
 30
0
 40
2.25
  0
CIRCLE
  8
1
 62
7
 10
-101.8499999999999
 20
16.55000000000001
 30
0
 40
2.25
  0
CIRCLE
  8
1
 62
7
 10
-118.3499999999999
 20
0.04999999999999002
 30
0
 40
2.25
  0
CIRCLE
  8
1
 62
7
 10
-126.5999999999999
 20
24.80000000000001
 30
0
 40
2.249999999999979
  0
CIRCLE
  8
1
 62
7
 10
-77.0999999999999
 20
24.80000000000001
 30
0
 40
2.25
  0
CIRCLE
  8
1
 62
7
 10
-77.0999999999999
 20
-24.69999999999999
 30
0
 40
2.25
  0
CIRCLE
  8
1
 62
7
 10
-101.8499999999999
 20
16.55000000000001
 30
0
 40
3
  0
CIRCLE
  8
1
 62
7
 10
-118.3499999999999
 20
0.04999999999999002
 30
0
 40
3
  0
CIRCLE
  8
1
 62
7
 10
-101.8499999999999
 20
-16.45000000000001
 30
0
 40
3
  0
CIRCLE
  8
1
 62
7
 10
-85.3499999999999
 20
0.04999999999999002
 30
0
 40
3
  0
CIRCLE
  8
1
 62
7
 10
102.5
 20
0.04999999999999002
 30
0
 40
7.000000000000005
  0
CIRCLE
  8
1
 62
7
 10
102.5
 20
0.04999999999999002
 30
0
 40
5
  0
CIRCLE
  8
1
 62
7
 10
88.39999999999996
 20
0.04999999999999002
 30
0
 40
2.7500000000001
  0
CIRCLE
  8
1
 62
7
 10
-101.8499999999999
 20
0.05000000000001137
 30
0
 40
4.5
  0
CIRCLE
  8
1
 62
7
 10
-101.8499999999999
 20
0.05000000000001137
 30
0
 40
2.5
  0
POLYLINE
  8
1
 62
2
 66
1
  0
VERTEX
  8
1
 10
95.49999999999996
 20
-56.15163982705845
 30
0
 42
0.00474382882470205
  0
VERTEX
  8
1
 10
95.66641991413169
 20
-56.36508556858372
 30
0
 42
0.01507104334744938
  0
VERTEX
  8
1
 10
95.83381023897258
 20
-56.5630713138399
 30
0
 42
0.03007720324074609
  0
VERTEX
  8
1
 10
96.00314138523166
 20
-56.73013706655792
 30
0
 42
0.05372635490007127
  0
VERTEX
  8
1
 10
96.17538376361813
 20
-56.85082283046868
 30
0
 42
0.09093657508264173
  0
VERTEX
  8
1
 10
96.35150778484106
 20
-56.9096686093031
 30
0
 42
0.1259786711099311
  0
VERTEX
  8
1
 10
96.56788087651736
 20
-56.88586815102575
 30
0
 42
0.04787193727998272
  0
VERTEX
  8
1
 10
96.79104204113637
 20
-56.77645025264782
 30
0
 42
0.04341530719262469
  0
VERTEX
  8
1
 10
97.02086588143308
 20
-56.60593869841036
 30
0
 42
0.0111542886895421
  0
VERTEX
  8
1
 10
97.25722700014261
 20
-56.39885727255442
 30
0
 42
-0.003374507262094542
  0
VERTEX
  8
1
 10
97.49999999999996
 20
-56.17972975932101
 30
0
 42
-0.01455062689461362
  0
VERTEX
  8
1
 10
97.74995973598662
 20
-55.97055748980839
 30
0
 42
-0.02511181930476652
  0
VERTEX
  8
1
 10
98.00249670899817
 20
-55.79074632396923
 30
0
 42
-0.04096858042396473
  0
VERTEX
  8
1
 10
98.25382617408847
 20
-55.65702981660162
 30
0
 42
-0.06491345471682347
  0
VERTEX
  8
1
 10
98.50016338631144
 20
-55.58614152250357
 30
0
 42
-0.161772613671061
  0
VERTEX
  8
1
 10
98.89760450924058
 20
-55.65487485140027
 30
0
 42
-0.04144019963793609
  0
VERTEX
  8
1
 10
99.05253499865097
 20
-55.75288343808901
 30
0
 42
-0.02559687134802581
  0
VERTEX
  8
1
 10
99.20375267372947
 20
-55.879353573599
 30
0
 42
-0.01378851554285282
  0
VERTEX
  8
1
 10
99.35249513925336
 20
-56.0247980749898
 30
0
 42
-0.004346364005263877
  0
VERTEX
  8
1
 10
99.49999999999996
 20
-56.17972975932101
 30
0
  0
SEQEND
  8
1
  0
POLYLINE
  8
1
 62
2
 66
1
  0
VERTEX
  8
1
 10
95.49999999999996
 20
-53.0806398021402
 30
0
 42
0.004959364709931767
  0
VERTEX
  8
1
 10
95.68681330595143
 20
-53.40740884583285
 30
0
 42
0.0161076073300497
  0
VERTEX
  8
1
 10
95.87558595990159
 20
-53.70751772761852
 30
0
 42
0.03462765575569817
  0
VERTEX
  8
1
 10
96.06827730984909
 20
-53.95430628559022
 30
0
 42
0.07009415413886451
  0
VERTEX
  8
1
 10
96.26684670379268
 20
-54.121114357841
 30
0
 42
0.1384187450980298
  0
VERTEX
  8
1
 10
96.47325348973097
 20
-54.18128178246384
 30
0
 42
0.133628207600284
  0
VERTEX
  8
1
 10
96.66455760690074
 20
-54.13097777310877
 30
0
 42
0.02952619964140256
  0
VERTEX
  8
1
 10
96.86324162589423
 20
-54.00028032011648
 30
0
 42
0.04743485283591036
  0
VERTEX
  8
1
 10
97.06894823732975
 20
-53.81407350256866
 30
0
 42
0.006664315072667657
  0
VERTEX
  8
1
 10
97.28132013182557
 20
-53.597241399547
 30
0
 42
-0.007265733978019221
  0
VERTEX
  8
1
 10
97.49999999999996
 20
-53.37466809013316
 30
0
 42
-0.01594613734136026
  0
VERTEX
  8
1
 10
97.69553700962435
 20
-53.19410091366314
 30
0
 42
-0.02449293246198215
  0
VERTEX
  8
1
 10
97.89416787139102
 20
-53.0381197777877
 30
0
 42
-0.03667587437392698
  0
VERTEX
  8
1
 10
98.09445344743961
 20
-52.91672840990165
 30
0
 42
-0.05374164416486032
  0
VERTEX
  8
1
 10
98.29495459990972
 20
-52.83993053739977
 30
0
 42
-0.07359236239368765
  0
VERTEX
  8
1
 10
98.49423219094096
 20
-52.81772988767682
 30
0
 42
-0.07433083303352936
  0
VERTEX
  8
1
 10
98.69883609745533
 20
-52.85904661869416
 30
0
 42
-0.05003416816815016
  0
VERTEX
  8
1
 10
98.90113977416797
 20
-52.95617026371434
 30
0
 42
-0.0302219128521043
  0
VERTEX
  8
1
 10
99.10171827852935
 20
-53.09514909423665
 30
0
 42
-0.01596446642792777
  0
VERTEX
  8
1
 10
99.30114666798986
 20
-53.26203138176039
 30
0
 42
-0.00498035133313525
  0
VERTEX
  8
1
 10
99.49999999999996
 20
-53.44286539778484
 30
0
  0
SEQEND
  8
1
  0
ARC
  8
1
 62
7
 10
46.8
 20
-22.65000000000004
 30
0
 40
7.299999999999997
 50
180
 51
270
  0
ARC
  8
1
 62
7
 10
46.8
 20
22.75
 30
0
 40
7.300000000000001
 50
90
 51
180
  0
ARC
  8
1
 62
7
 10
37.29999999999991
 20
-15.15000000000005
 30
0
 40
1.000000000000073
 50
107.4576031237155
 51
180
  0
ARC
  8
1
 62
7
 10
37.29999999999991
 20
-17.75
 30
0
 40
1
 50
180
 51
252.5423968762821
  0
ARC
  8
1
 62
7
 10
37.29999999999991
 20
15.24999999999998
 30
0
 40
1
 50
180
 51
252.5423968762839
  0
ARC
  8
1
 62
7
 10
37.29999999999991
 20
17.84999999999995
 30
0
 40
0.9999999999999377
 50
107.4576031237179
 51
180
  0
ARC
  8
1
 62
7
 10
-102.0499999999999
 20
-15.20000000000002
 30
0
 40
0.09999999999998011
 50
90
 51
180
  0
ARC
  8
1
 62
7
 10
-101.65
 20
-15.20000000000002
 30
0
 40
0.100000000000108
 50
0
 51
90
  0
ARC
  8
1
 62
7
 10
-100.5999999999999
 20
-16.25000000000004
 30
0
 40
0.09999999999989484
 50
7.938664484941286e-011
 51
90
  0
ARC
  8
1
 62
7
 10
-100.5999999999999
 20
-16.65000000000006
 30
0
 40
0.09999999999998011
 50
270
 51
0
  0
ARC
  8
1
 62
7
 10
-101.65
 20
-17.70000000000001
 30
0
 40
0.09999999999998011
 50
270
 51
0
  0
ARC
  8
1
 62
7
 10
-102.0499999999999
 20
-17.70000000000001
 30
0
 40
0.100000000000108
 50
180
 51
270
  0
ARC
  8
1
 62
7
 10
-103.0999999999999
 20
-16.65000000000006
 30
0
 40
0.1000000000000085
 50
180
 51
270
  0
ARC
  8
1
 62
7
 10
-103.0999999999999
 20
-16.2499999999999
 30
0
 40
0.09999999999985931
 50
90
 51
180
  0
ARC
  8
1
 62
7
 10
-85.54999999999991
 20
1.299999999999976
 30
0
 40
0.09999999999997988
 50
90
 51
179.999999999992
  0
ARC
  8
1
 62
7
 10
-85.15000000000002
 20
1.299999999999976
 30
0
 40
0.100000000000108
 50
1.997388339956932e-011
 51
90
  0
ARC
  8
1
 62
7
 10
-84.0999999999999
 20
0.2499999999999643
 30
0
 40
0.09999999999988063
 50
8.558872647828541e-011
 51
90
  0
ARC
  8
1
 62
7
 10
-84.0999999999999
 20
-0.1500000000000555
 30
0
 40
0.09999999999985221
 50
270
 51
1.226103829705649e-011
  0
ARC
  8
1
 62
7
 10
-85.15000000000002
 20
-1.20000000000001
 30
0
 40
0.09999999999998011
 50
270
 51
1.195888560228991e-011
  0
ARC
  8
1
 62
7
 10
-85.54999999999991
 20
-1.20000000000001
 30
0
 40
0.100000000000108
 50
179.999999999988
 51
270
  0
ARC
  8
1
 62
7
 10
-86.5999999999999
 20
-0.1500000000000555
 30
0
 40
0.1000000000000227
 50
179.9999999999878
 51
270
  0
ARC
  8
1
 62
7
 10
-86.5999999999999
 20
0.2500000000000923
 30
0
 40
0.0999999999998521
 50
90
 51
180
  0
ARC
  8
1
 62
7
 10
-102.0499999999999
 20
17.79999999999998
 30
0
 40
0.1000000000000014
 50
90
 51
180
  0
ARC
  8
1
 62
7
 10
-101.65
 20
17.79999999999999
 30
0
 40
0.100000000000108
 50
0
 51
90
  0
ARC
  8
1
 62
7
 10
-100.5999999999999
 20
16.74999999999997
 30
0
 40
0.09999999999989484
 50
7.327997986099649e-011
 51
90
  0
ARC
  8
1
 62
7
 10
-100.5999999999999
 20
16.34999999999995
 30
0
 40
0.09999999999998011
 50
270
 51
0
  0
ARC
  8
1
 62
7
 10
-101.65
 20
15.29999999999999
 30
0
 40
0.1000000000000192
 50
270
 51
0
  0
ARC
  8
1
 62
7
 10
-102.0499999999999
 20
15.29999999999999
 30
0
 40
0.100000000000108
 50
180
 51
270
  0
ARC
  8
1
 62
7
 10
-103.0999999999999
 20
16.34999999999995
 30
0
 40
0.1000000000000085
 50
180
 51
270
  0
ARC
  8
1
 62
7
 10
-103.0999999999999
 20
16.7500000000001
 30
0
 40
0.09999999999986997
 50
90
 51
180
  0
ARC
  8
1
 62
7
 10
-118.5499999999999
 20
1.299999999999976
 30
0
 40
0.09999999999997988
 50
90
 51
179.999999999992
  0
ARC
  8
1
 62
7
 10
-118.1499999999999
 20
1.299999999999976
 30
0
 40
0.1000000000000085
 50
1.997388339958918e-011
 51
90
  0
ARC
  8
1
 62
7
 10
-117.0999999999999
 20
0.2500000000000923
 30
0
 40
0.09999999999989484
 50
0
 51
90
  0
ARC
  8
1
 62
7
 10
-117.0999999999999
 20
-0.1500000000000555
 30
0
 40
0.09999999999998002
 50
270
 51
1.226103829705475e-011
  0
ARC
  8
1
 62
7
 10
-118.1499999999999
 20
-1.20000000000001
 30
0
 40
0.09999999999998011
 50
270
 51
1.19588856023018e-011
  0
ARC
  8
1
 62
7
 10
-118.5499999999999
 20
-1.20000000000001
 30
0
 40
0.1000000000000085
 50
179.999999999988
 51
270
  0
ARC
  8
1
 62
7
 10
-119.5999999999999
 20
-0.1500000000000555
 30
0
 40
0.09999999999990905
 50
179.9999999999878
 51
270
  0
ARC
  8
1
 62
7
 10
-119.5999999999999
 20
0.2500000000000923
 30
0
 40
0.0999999999998521
 50
90
 51
180
  0
ARC
  8
1
 62
7
 10
-126.3499999999999
 20
24.55000000000001
 30
0
 40
5.499999999999979
 50
90
 51
180
  0
ARC
  8
1
 62
7
 10
-126.3499999999999
 20
-24.45000000000001
 30
0
 40
5.500000000000014
 50
180
 51
270
  0
ARC
  8
1
 62
7
 10
-77.3499999999999
 20
-24.45000000000001
 30
0
 40
5.499999999999979
 50
270
 51
0
  0
ARC
  8
1
 62
7
 10
-77.34999999999991
 20
24.55
 30
0
 40
5.499999999999972
 50
0
 51
90
  0
ARC
  8
1
 62
7
 10
121
 20
10.55000000000001
 30
0
 40
2
 50
0
 51
90
  0
ARC
  8
1
 62
7
 10
114.5154820373594
 20
13.55050386339279
 30
0
 40
1
 50
180
 51
270
  0
ARC
  8
1
 62
7
 10
121
 20
-10.45000000000001
 30
0
 40
2
 50
270
 51
0
  0
ARC
  8
1
 62
7
 10
114.5
 20
-13.45000000000001
 30
0
 40
1
 50
90
 51
180
  0
ARC
  8
1
 62
7
 10
103.5
 20
20.05000000000002
 30
0
 40
10
 50
0
 51
90
  0
ARC
  8
1
 62
7
 10
103.5
 20
-19.95000000000001
 30
0
 40
9.999999999999979
 50
270
 51
0
  0
ARC
  8
1
 62
7
 10
86.99999999999996
 20
0.2499999999999786
 30
0
 40
0.09999999999996581
 50
90
 51
180
  0
ARC
  8
1
 62
7
 10
86.99999999999996
 20
-0.1500000000000555
 30
0
 40
0.09999999999999432
 50
180
 51
270
  0
ARC
  8
1
 62
7
 10
88.19999999999996
 20
-1.350000000000044
 30
0
 40
0.09999999999999432
 50
179.9999999999879
 51
270
  0
ARC
  8
1
 62
7
 10
88.59999999999997
 20
-1.350000000000044
 30
0
 40
0.09999999999996589
 50
270
 51
1.208610778956205e-011
  0
ARC
  8
1
 62
7
 10
89.79999999999996
 20
-0.1500000000000555
 30
0
 40
0.09999999999996592
 50
270
 51
1.226103829704081e-011
  0
ARC
  8
1
 62
7
 10
89.79999999999996
 20
0.2499999999999786
 30
0
 40
0.1000000000000085
 50
0
 51
90
  0
ARC
  8
1
 62
7
 10
88.59999999999997
 20
1.449999999999988
 30
0
 40
0.09999999999999432
 50
0
 51
90
  0
ARC
  8
1
 62
7
 10
88.19999999999996
 20
1.449999999999988
 30
0
 40
0.1000000000000021
 50
90
 51
180.0000000000119
  0
ARC
  8
1
 62
7
 10
-106.8499999999999
 20
-4.94999999999999
 30
0
 40
6
 50
180
 51
270
  0
ARC
  8
1
 62
7
 10
-96.8499999999999
 20
-4.94999999999999
 30
0
 40
6
 50
270
 51
0
  0
ARC
  8
1
 62
7
 10
-96.8499999999999
 20
5.05000000000001
 30
0
 40
6
 50
0
 51
90
  0
ARC
  8
1
 62
7
 10
-106.8499999999999
 20
5.05000000000001
 30
0
 40
6
 50
90
 51
180
  0
LINE
  8
1
 62
2
 10
13.70982061369968
 20
-66.29991020425769
 30
0
 11
75.06660838998968
 21
-66.29991020425769
 31
0
  0
LINE
  8
1
 62
2
 10
75.06660838998968
 20
-66.29991020425769
 30
0
 11
95.49999999999996
 21
-45.8665185942474
 31
0
  0
SOLID
  8
1
 62
2
 10
93.35094957416172
 20
-48.667215636715
 30
0
 11
92.69930295753237
 21
-48.01556902008564
 31
0
 12
95.49999999999996
 22
-45.8665185942474
 32
0
 13
95.49999999999996
 23
-45.8665185942474
 33
0
  0
LINE
  8
1
 62
2
 10
84.15798152497466
 20
40.05000000000001
 30
0
 11
59.3256863932927
 21
40.05000000000001
 31
0
  0
LINE
  8
1
 62
2
 10
59.3256863932927
 20
40.05000000000001
 30
0
 11
67.04872971025827
 21
30.05000000000001
 31
0
  0
SOLID
  8
1
 62
2
 10
64.54471121446274
 20
32.53841576694815
 30
0
 11
65.27408296828344
 21
33.10171273184099
 31
0
 12
67.04872971025827
 22
30.05000000000001
 32
0
 13
67.04872971025827
 23
30.05000000000001
 33
0
  0
TEXT
  8
1
 62
2
 10
123.8685292089519
 20
47.94472453560028
 30
0
 40
3.2
  1
(0.374)
 41
0.6300000000000001
 72
1
 73
2
 11
130.9245292089519
 21
49.54472453560028
 31
0
  0
TEXT
  8
1
 62
2
 10
142.5491926868409
 20
-11.09935934988801
 30
0
 40
3.2
  1
(0.984DIA.)
 50
90
 41
0.6300000000000001
 72
1
 73
2
 11
140.9491926868409
 21
-0.01135934988801068
 31
0
  0
TEXT
  8
1
 62
2
 10
154.6080808981699
 20
-67.86096099766701
 30
0
 40
3.2
  1
(11.811   )
 50
90
 41
0.6300000000000001
 72
1
 73
2
 11
153.0080808981699
 21
-56.77296099766701
 31
0
  0
TEXT
  8
1
 62
2
 10
142.6547824644678
 20
-80.56516907639202
 30
0
 40
3.2
  1
(0.118)
 50
90
 41
0.6300000000000001
 72
1
 73
2
 11
141.0547824644678
 21
-73.50916907639203
 31
0
  0
TEXT
  8
1
 62
2
 10
154.0080808981699
 20
-57.539652829326
 30
0
 40
2
  1
%%p1.181
 50
90
 41
0.63
 72
1
 73
2
 11
153.0080808981699
 21
-52.499652829326
 31
0
  0
TEXT
  8
1
 62
2
 10
20.62432113022699
 20
35.9596735949635
 30
0
 40
3.2
  1
(0.0591)
 41
0.6300000000000001
 72
1
 73
2
 11
28.68832113022699
 21
37.5596735949635
 31
0
  0
TEXT
  8
1
 62
2
 10
-55.740850894044
 20
-11.14784212061399
 30
0
 40
3.2
  1
(1.949    )
 50
90
 41
0.6300000000000001
 72
1
 73
2
 11
-57.340850894044
 21
-0.05984212061398608
 31
0
  0
TEXT
  8
1
 62
2
 10
-56.340850894044
 20
-1.273864769106034
 30
0
 40
2
  1
%%p0.0118
 50
90
 41
0.63
 72
1
 73
2
 11
-57.340850894044
 21
4.396135230893966
 31
0
  0
TEXT
  8
1
 62
2
 10
-103.0799633032615
 20
36.25583207551798
 30
0
 40
2
  1
%%p0.0118
 41
0.63
 72
1
 73
2
 11
-97.40996330326153
 21
37.25583207551798
 31
0
  0
TEXT
  8
1
 62
2
 10
-110.5766559915745
 20
59.82966422655558
 30
0
 40
3.2
  1
(2.52MAX)
 41
0.6300000000000001
 72
1
 73
2
 11
-101.5046559915745
 21
61.42966422655558
 31
0
  0
TEXT
  8
1
 62
2
 10
-112.5926559915745
 20
47.84885509507658
 30
0
 40
3.2
  1
(2.362SQU.)
 41
0.6300000000000001
 72
1
 73
2
 11
-101.5046559915745
 21
49.44885509507658
 31
0
  0
TEXT
  8
1
 62
2
 10
-112.5926559915745
 20
35.65583207551798
 30
0
 40
3.2
  1
(1.949    )
 41
0.6300000000000001
 72
1
 73
2
 11
-101.5046559915745
 21
37.25583207551798
 31
0
  0
TEXT
  8
1
 62
2
 10
-109.7058975468381
 20
-58.62149208177713
 30
0
 40
3.5
  1
(4-0.177DIA. HOLES)
 41
0.6030000000000001
 73
2
 11
-109.7058975468381
 21
-56.87149208177713
 31
0
  0
TEXT
  8
1
 62
2
 10
11.23827595343627
 20
47.94472453560028
 30
0
 40
3.2
  1
(1.457)
 41
0.6300000000000001
 72
1
 73
2
 11
18.29427595343627
 21
49.54472453560028
 31
0
  0
TEXT
  8
1
 62
2
 10
-19.0369960067764
 20
-18.09399999999999
 30
0
 40
3.2
  1
(2.126DIA.       )
 50
90
 41
0.6300000000000001
 72
1
 73
2
 11
-20.6369960067764
 21
0.05000000000001137
 31
0
  0
TEXT
  8
1
 62
2
 10
-6.000000000000004
 20
-1.387842120613995
 30
0
 40
3.2
  1
(0.197DIA.ü@   )
 50
90
 41
0.6300000000000001
 72
1
 73
2
 11
-7.600000000000003
 21
14.74015787938601
 31
0
  0
TEXT
  8
1
 62
2
 10
38.124321130227
 20
35.9596735949635
 30
0
 40
3.2
  1
(0.0787)
 41
0.6300000000000001
 72
1
 73
2
 11
46.188321130227
 21
37.5596735949635
 31
0
  0
TEXT
  8
1
 62
2
 10
-20.8369960067764
 20
3.965977351507962
 30
0
 40
2
  1
 0
 50
90
 41
0.63
  0
TEXT
  8
1
 62
2
 10
-18.4369960067764
 20
3.965977351507962
 30
0
 40
2
  1
-0.00118
 50
90
 41
0.63
  0
TEXT
  8
1
 62
2
 10
-7.800000000000004
 20
16.85613523089398
 30
0
 40
2
  1
 0
 50
90
 41
0.63
  0
TEXT
  8
1
 62
2
 10
-5.400000000000004
 20
16.85613523089398
 30
0
 40
2
  1
-0.00118
 50
90
 41
0.63
  0
TEXT
  8
1
 62
2
 10
154.5978460456478
 20
-11.09935934988798
 30
0
 40
3.2
  1
(2.362DIA.)
 50
90
 41
0.6300000000000001
 72
1
 73
2
 11
152.9978460456478
 21
-0.01135934988798225
 31
0
  0
TEXT
  8
1
 62
2
 10
14.90618204092317
 20
-65.06594311103874
 30
0
 40
3.5
  1
UL1015 AWG22
 41
0.9
 73
2
 11
14.90618204092317
 21
-63.31594311103874
 31
0
  0
TEXT
  8
1
 62
2
 10
14.90618204092317
 20
-57.90060310440429
 30
0
 40
3.5
  1
LEAD WIRES (RED,BLUE)
 41
0.9
 73
2
 11
14.90618204092317
 21
-56.15060310440429
 31
0
  0
TEXT
  8
1
 62
2
 10
68.36852920895187
 20
47.94472453560028
 30
0
 40
3.2
  1
(3.012)
 41
0.6300000000000001
 72
1
 73
2
 11
75.42452920895187
 21
49.54472453560028
 31
0
  0
TEXT
  8
1
 62
2
 10
-138
 20
93.59999999999999
 30
0
 40
5
  1
DME60B
 41
0.9
 72
1
 73
2
 11
-124.5
 21
96.09999999999999
 31
0
  0
TEXT
  8
1
 62
2
 10
63.47776825856398
 20
40.87551303864308
 30
0
 40
3
  1
NAME PLATE
 41
0.6300000000000001
 72
1
 73
2
 11
72.92776825856399
 21
42.37551303864308
 31
0
  0
DIMENSION
  8
1
  6
CONTINUOUS
 62
2
  2
*D0
  3
DMST_1
 10
-133.8499999999999
 20
64.02743509250902
 30
0
 11
-101.8499999999999
 21
66.62743509250902
 31
0
 12
0
 22
0
 32
0
 70
0
 13
-69.84999999999994
 23
5.050000000000011
 33
0
 14
-133.8499999999999
 24
5.050000000000011
 34
0
 53
0
  0
DIMENSION
  8
1
  6
CONTINUOUS
 62
2
  2
*D1
  3
DMST_2
 10
150.479643875196
 20
-29.94999999999999
 30
0
 11
147.879643875196
 21
-57.19999999999999
 31
0
 12
0
 22
0
 32
0
 70
0
  1
300
 13
98.86128788208086
 23
-84.44999999999999
 33
0
 14
103.5
 24
-29.94999999999999
 34
0
 50
90
 53
0
  0
DIMENSION
  8
1
  6
CONTINUOUS
 62
2
  2
*D2
  3
DMST_3
 10
36.99999999999999
 20
52.05027729859981
 30
0
 11
75.24999999999999
 21
54.65027729859981
 31
0
 12
0
 22
0
 32
0
 70
0
 13
113.5
 23
20.05
 33
0
 14
37
 24
30.04999999999999
 34
0
 53
0
  0
DIMENSION
  8
1
  6
CONTINUOUS
 62
2
  2
*D3
  3
DMST_3
 10
0
 20
52.04991760006531
 30
0
 11
18.5
 21
54.64991760006531
 31
0
 12
0
 22
0
 32
0
 70
0
 13
37
 23
30.04999999999999
 33
0
 14
0
 24
2.550000000000011
 34
0
 53
0
  0
DIMENSION
  8
1
  6
CONTINUOUS
 62
2
  2
*D4
  3
DMST_4
 10
39
 20
40.08479191921101
 30
0
 11
45.5605853407167
 21
42.68479191921101
 31
0
 12
0
 22
0
 32
0
 70
0
 13
37
 23
30.04999999999999
 33
0
 14
39
 24
30.05000000000001
 34
0
 53
0
  0
DIMENSION
  8
1
  6
CONTINUOUS
 62
2
  2
*D5
  3
DMST_5
 10
-11.0493686979564
 20
2.550000000000011
 30
0
 11
-14.4493686979564
 21
13.62782836747131
 31
0
 12
0
 22
0
 32
0
 70
0
  1
âË<>
 13
0
 23
-2.449999999999989
 33
0
 14
0
 24
2.550000000000011
 34
0
 50
90
 53
0
  0
DIMENSION
  8
1
  6
CONTINUOUS
 62
2
  2
*D6
  3
DMST_6
 10
-59.8297637785144
 20
-24.69999999999999
 30
0
 11
-62.4297637785144
 21
0.05000000000000426
 31
0
 12
0
 22
0
 32
0
 70
0
 13
-74.76231050693899
 23
24.80000000000001
 33
0
 14
-74.8499999999999
 24
-24.69999999999999
 34
0
 50
90
 53
0
  0
DIMENSION
  8
1
  6
CONTINUOUS
 62
2
  2
*D7
  3
DMST_6
 10
-77.09999999999992
 20
40.04999999999998
 30
0
 11
-101.8499999999999
 21
42.64999999999998
 31
0
 12
0
 22
0
 32
0
 70
0
 13
-126.5999999999999
 23
27.04999999999999
 33
0
 14
-77.09999999999991
 24
27.05000000000001
 34
0
 53
0
  0
DIMENSION
  8
1
  6
CONTINUOUS
 62
2
  2
*D8
  3
DMST_3
 10
-71.84999999999992
 20
52.03390790943221
 30
0
 11
-101.8499999999999
 21
54.63390790943221
 31
0
 12
0
 22
0
 32
0
 70
0
  1
üá<>
 13
-131.8499999999999
 23
24.54999999999999
 33
0
 14
-71.84999999999994
 24
24.55000000000001
 34
0
 53
0
  0
DIMENSION
  8
1
  6
CONTINUOUS
 62
2
  2
*D10
  3
DMST_5
 10
-23.9456084856476
 20
27.05000000000001
 30
0
 11
-27.3456084856476
 21
0.05000000000001004
 31
0
 12
0
 22
0
 32
0
 70
0
  1
54h7
 13
35.5
 23
-26.95000000000001
 33
0
 14
35.5
 24
27.04999999999999
 34
0
 50
90
 53
0
  0
DIMENSION
  8
1
  6
CONTINUOUS
 62
2
  2
*D11
  3
DMST_7
 10
123
 20
52.0526200476624
 30
0
 11
130.817523867862
 21
54.65262004766241
 31
0
 12
0
 22
0
 32
0
 70
0
  1
(<>
 13
113.5
 23
20.05
 33
0
 14
123
 24
10.55000000000001
 34
0
 53
0
  0
DIMENSION
  8
1
  6
CONTINUOUS
 62
2
  2
*D12
  3
DMST_3
 10
138.506501193659
 20
12.54999999999999
 30
0
 11
135.906501193659
 21
0.05000000000000782
 31
0
 12
0
 22
0
 32
0
 70
0
  1
âË<>
 13
121
 23
-12.45000000000001
 33
0
 14
121
 24
12.54999999999999
 34
0
 50
90
 53
0
  0
DIMENSION
  8
1
  6
CONTINUOUS
 62
2
  2
*D13
  3
DMST_3
 10
150.479643875196
 20
-29.94999999999999
 30
0
 11
147.879643875196
 21
0.05000000000000426
 31
0
 12
0
 22
0
 32
0
 70
0
  1
âË<>
 13
103.5
 23
30.05000000000002
 33
0
 14
103.5
 24
-29.94999999999999
 34
0
 50
90
 53
0
  0
DIMENSION
  8
1
  6
CONTINUOUS
 62
2
  2
*D14
  3
DMST_7
 10
138.506501193659
 20
-81.45000000000002
 30
0
 11
135.906501193659
 21
-73.4956533458242
 31
0
 12
0
 22
0
 32
0
 70
0
  1
(<>
 13
98.86128788208086
 23
-84.44999999999999
 33
0
 14
99.49999999999996
 24
-81.45000000000002
 34
0
 50
90
 53
0
  0
INSERT
  8
0
  2
___R___O_______R
 10
0.5
 20
-3.75
 30
0
  0
INSERT
  8
1
  2
*D9
 10
0
 20
0
 30
0
  0
INSERT
  8
1
  2
*D15
 10
0
 20
0
 30
0
  0
ENDSEC
  0
EOF
