  0
SECTION
  2
HEADER
  9
$ACADVER
  1
AC1009
  9
$INSBASE
 10
0
 20
0
  9
$EXTMIN
 10
-194.5
 20
-146
  9
$EXTMAX
 10
194.5
 20
146
  9
$LIMMIN
 10
-194.5
 20
-146
  9
$LIMMAX
 10
194.5
 20
146
  9
$VIEWCTR
 10
10
 20
10
  9
$VIEWSIZE
 40
10
  9
$SNAPMODE
 70
0
  9
$SNAPUNIT
 10
1
 20
1
  9
$SNAPBASE
 10
0
 20
0
  9
$SNAPANG
 50
0
  9
$SNAPSTYLE
 70
0
  9
$SNAPISOPAIR
 70
0
  9
$GRIDMODE
 70
0
  9
$GRIDUNIT
 10
0
 20
0
  9
$ORTHOMODE
 70
0
  9
$REGENMODE
 70
1
  9
$FILLMODE
 70
1
  9
$QTEXTMODE
 70
0
  9
$DRAGMODE
 70
2
  9
$LTSCALE
 40
1
  9
$OSMODE
 70
0
  9
$ATTMODE
 70
1
  9
$TEXTSIZE
 40
3.5
  9
$TRACEWID
 40
0.5
  9
$TEXTSTYLE
  7
STANDARD
  9
$CLAYER
  8
0
  9
$CELTYPE
  6
BYLAYER
  9
$CECOLOR
 62
256
  9
$DIMSCALE
 40
1
  9
$DIMASZ
 40
0.18
  9
$DIMEXO
 40
0.0625
  9
$DIMDLI
 40
0.38
  9
$DIMRND
 40
0
  9
$DIMDLE
 40
0
  9
$DIMEXE
 40
0.18
  9
$DIMTP
 40
0
  9
$DIMTM
 40
0
  9
$DIMTXT
 40
0.18
  9
$DIMCEN
 40
0.09
  9
$DIMTSZ
 40
0
  9
$DIMTOL
 70
0
  9
$DIMLIM
 70
0
  9
$DIMTIH
 70
1
  9
$DIMTOH
 70
1
  9
$DIMSE1
 70
0
  9
$DIMSE2
 70
0
  9
$DIMTAD
 70
0
  9
$DIMZIN
 70
0
  9
$DIMBLK
  1

  9
$DIMASO
 70
1
  9
$DIMSHO
 70
1
  9
$DIMPOST
  1

  9
$DIMAPOST
  1

  9
$DIMALT
 70
0
  9
$DIMALTD
 70
2
  9
$DIMALTF
 40
25.4
  9
$DIMLFAC
 40
1
  9
$DIMTOFL
 70
0
  9
$DIMTVP
 40
0
  9
$DIMTIX
 70
0
  9
$DIMSOXD
 70
0
  9
$DIMSAH
 70
0
  9
$DIMBLK1
  1

  9
$DIMBLK2
  1

  9
$DIMSTYLE
  2
*UNNAMED
  9
$DIMCLRD
 70
0
  9
$DIMCLRE
 70
0
  9
$DIMCLRT
 70
0
  9
$DIMTFAC
 40
1
  9
$DIMGAP
 40
0.09
  9
$LUNITS
 70
2
  9
$LUPREC
 70
4
  9
$AXISMODE
 70
0
  9
$AXISUNIT
 10
0
 20
0
  9
$SKETCHINC
 40
0.1
  9
$FILLETRAD
 40
2
  9
$AUNITS
 70
0
  9
$AUPREC
 70
0
  9
$MENU
  1
ACAD
  9
$ELEVATION
 40
0
  9
$THICKNESS
 40
0
  9
$VIEWDIR
 10
0
 20
0
 30
1
  9
$LIMCHECK
 70
0
  9
$BLIPMODE
 70
1
  9
$CHAMFERA
 40
0
  9
$CHAMFERB
 40
0
  9
$FASTZOOM
 70
1
  9
$SKPOLY
 70
0
  9
$ANGBASE
 50
0
  9
$ANGDIR
 70
0
  9
$PDMODE
 70
0
  9
$PDSIZE
 40
0
  9
$PLINEWID
 40
0
  9
$COORDS
 70
2
  0
ENDSEC
  0
SECTION
  2
TABLES
  0
TABLE
  2
DIMSTYLE
 70
7
  0
DIMSTYLE
  2
DMST_1
 70
0
  3

  4

  5

  6

  7

 40
1
 41
3.2
 42
1
 43
7
 44
1
 45
0
 46
0
 47
0
 48
0
140
3.2
141
0
142
0
143
25.4
144
1
145
0
146
1
147
0.09
 71
0
 72
0
 73
0
 74
0
 75
0
 76
0
 77
1
 78
9
170
0
171
2
172
0
173
0
174
0
175
0
176
2
177
2
178
2
  0
DIMSTYLE
  2
DMST_2
 70
0
  3

  4

  5

  6

  7

 40
1
 41
3
 42
1
 43
7
 44
1
 45
0
 46
0
 47
0
 48
0
140
3.2
141
0
142
0
143
25.4
144
1
145
0
146
1
147
0.09
 71
0
 72
0
 73
0
 74
0
 75
0
 76
0
 77
1
 78
9
170
0
171
2
172
0
173
0
174
0
175
0
176
2
177
2
178
2
  0
DIMSTYLE
  2
DMST_3
 70
0
  3

  4

  5

  6

  7

 40
1
 41
3
 42
1
 43
7
 44
1
 45
0
 46
0
 47
0.3
 48
0.3
140
3.2
141
0
142
0
143
25.4
144
1
145
0
146
0.6
147
0.09
 71
1
 72
0
 73
0
 74
0
 75
0
 76
0
 77
1
 78
9
170
0
171
2
172
0
173
0
174
0
175
0
176
2
177
2
178
2
  0
DIMSTYLE
  2
DMST_4
 70
0
  3

  4

  5

  6

  7

 40
1
 41
3
 42
1
 43
7
 44
1
 45
0
 46
0
 47
0.5
 48
0.5
140
3.2
141
0
142
0
143
25.4
144
1
145
0
146
0.6
147
0.09
 71
1
 72
0
 73
0
 74
0
 75
0
 76
0
 77
1
 78
9
170
0
171
2
172
0
173
0
174
0
175
0
176
2
177
2
178
2
  0
DIMSTYLE
  2
DMST_5
 70
0
  3

  4

  5

  6

  7

 40
1
 41
3.2
 42
1
 43
7
 44
1
 45
0
 46
0
 47
0.3
 48
0.3
140
3.2
141
0
142
0
143
25.4
144
1
145
0
146
0.6
147
0.09
 71
1
 72
0
 73
0
 74
0
 75
0
 76
0
 77
1
 78
9
170
0
171
2
172
0
173
0
174
0
175
0
176
2
177
2
178
2
  0
DIMSTYLE
  2
DMST_6
 70
0
  3

  4

  5

  6

  7

 40
1
 41
3.2
 42
1
 43
7
 44
1
 45
0
 46
0
 47
0
 48
0.02
140
3.2
141
0
142
0
143
25.4
144
1
145
0
146
0.6
147
0.09
 71
1
 72
0
 73
0
 74
0
 75
0
 76
0
 77
1
 78
9
170
0
171
2
172
0
173
0
174
0
175
0
176
2
177
2
178
2
  0
DIMSTYLE
  2
DMST_7
 70
0
  3
)
  4

  5

  6

  7

 40
1
 41
3.2
 42
1
 43
7
 44
1
 45
0
 46
0
 47
0
 48
0
140
3.2
141
0
142
0
143
25.4
144
1
145
0
146
1
147
0.09
 71
0
 72
0
 73
0
 74
0
 75
0
 76
0
 77
1
 78
9
170
0
171
2
172
0
173
0
174
0
175
0
176
2
177
2
178
2
  0
ENDTAB
  0
TABLE
  2
LTYPE
 70
9
  0
LTYPE
  2
CONTINUOUS
 70
64
  3
Solid line
 72
65
 73
0
 40
0
  0
LTYPE
  2
BORDER
 70
64
  3
__ __ . __ __ .
 72
65
 73
6
 40
17.91447368421053
 49
5.118421052631579
 49
-2.559210526315789
 49
5.118421052631579
 49
-2.559210526315789
 49
0
 49
-2.559210526315789
  0
LTYPE
  2
CENTER
 70
64
  3
____ _ ____ _
 72
65
 73
4
 40
20.47368421052632
 49
12.79605263157895
 49
-2.559210526315789
 49
2.559210526315789
 49
-2.559210526315789
  0
LTYPE
  2
DASHDOT
 70
64
  3
__ . __ . __ .
 72
65
 73
4
 40
10.23684210526316
 49
5.118421052631579
 49
-2.559210526315789
 49
0
 49
-2.559210526315789
  0
LTYPE
  2
DASHED
 70
64
  3
__ __ __ __ __
 72
65
 73
2
 40
7.677631578947368
 49
5.118421052631579
 49
-2.559210526315789
  0
LTYPE
  2
DIVIDE
 70
64
  3
__ . . __ . . 
 72
65
 73
6
 40
12.79605263157895
 49
5.118421052631579
 49
-2.559210526315789
 49
0
 49
-2.559210526315789
 49
0
 49
-2.559210526315789
  0
LTYPE
  2
DOT
 70
64
  3
..............
 72
65
 73
4
 40
5.118421052631579
 49
0
 49
-2.559210526315789
 49
0
 49
-2.559210526315789
  0
LTYPE
  2
HIDDEN
 70
64
  3
_ _ _ _ _ _ _
 72
65
 73
2
 40
3.838815789473684
 49
2.559210526315789
 49
-1.279605263157895
  0
LTYPE
  2
PHANTOM
 70
64
  3
_____ _ _ _____ _ _ 
 72
65
 73
6
 40
25.59210526315789
 49
12.79605263157895
 49
-2.559210526315789
 49
2.559210526315789
 49
-2.559210526315789
 49
2.559210526315789
 49
-2.559210526315789
  0
ENDTAB
  0
TABLE
  2
LAYER
 70
3
  0
LAYER
  2
1
 70
0
 62
7
  6
CONTINUOUS
  0
LAYER
  2
0
 70
0
 62
7
  6
CONTINUOUS
  0
ENDTAB
  0
TABLE
  2
STYLE
 70
4
  0
STYLE
  2
STANDARD
 70
0
 40
0
 41
1
 50
0
 71
0
 42
3.5
  3
txt
  4

  0
STYLE
  2
SIMPLEX
 70
0
 40
0
 41
1
 50
0
 71
0
 42
3.5
  3
simplex
  4

  0
STYLE
  2
COMPLEX
 70
0
 40
0
 41
1
 50
0
 71
0
 42
3.5
  3
complex
  4

  0
STYLE
  2
ITALIC
 70
0
 40
0
 41
1
 50
0
 71
0
 42
3.5
  3
italic
  4

  0
ENDTAB
  0
TABLE
  2
VIEW
 70
0
  0
ENDTAB
  0
ENDSEC
  0
SECTION
  2
BLOCKS
  0
BLOCK
  8
0
  2
___R___O_______R
 70
0
 10
0.5
 20
-3.75
 30
0
  0
LINE
  8
1
 62
4
  6
PHANTOM
 10
-194.5
 20
-146
 30
0
 11
194.5
 21
-146
 31
0
  0
LINE
  8
1
 62
4
  6
PHANTOM
 10
194.5
 20
146
 30
0
 11
-194.5
 21
146
 31
0
  0
LINE
  8
1
 62
4
  6
PHANTOM
 10
194.5
 20
146
 30
0
 11
194.5
 21
129
 31
0
  0
LINE
  8
1
 62
4
  6
PHANTOM
 10
-194.5
 20
-146
 30
0
 11
-194.5
 21
146
 31
0
  0
LINE
  8
1
 62
4
  6
PHANTOM
 10
194.5
 20
-136.5
 30
0
 11
194.5
 21
-146
 31
0
  0
TEXT
  8
1
 62
4
 10
178.746911898274
 20
-142.6071298819256
 30
0
 40
5
  1
A3
 41
0.9
 72
1
 73
2
 11
183.246911898274
 21
-140.1071298819256
 31
0
  0
ENDBLK
  8
0
  0
BLOCK
  8
1
  2
*D0
 70
1
 10
0
 20
0
 30
0
  0
LINE
  8
1
 62
2
 10
31.40000000000026
 20
52.5038631127894
 30
0
 11
25.00000000000026
 21
52.5038631127894
 31
0
  0
LINE
  8
1
 62
2
 10
20
 20
52.5038631127894
 30
0
 11
25.00000000000026
 21
52.5038631127894
 31
0
  0
LINE
  8
1
 62
2
 10
20
 20
52.5038631127894
 30
0
 11
13.6
 21
52.5038631127894
 31
0
  0
LINE
  8
1
 62
2
 10
20
 20
20.00000000000012
 30
0
 11
20
 21
53.5038631127894
 31
0
  0
LINE
  8
1
 62
2
 10
25.00000000000026
 20
30.5
 30
0
 11
25.00000000000026
 21
53.5038631127894
 31
0
  0
SOLID
  8
1
 62
2
 10
20
 20
52.5038631127894
 30
0
 11
16.8
 21
52.0878631127894
 31
0
 12
16.8
 22
52.91986311278939
 32
0
 13
16.8
 23
52.91986311278939
 33
0
  0
SOLID
  8
1
 62
2
 10
25.00000000000026
 20
52.5038631127894
 30
0
 11
28.20000000000026
 21
52.91986311278939
 31
0
 12
28.20000000000026
 22
52.0878631127894
 32
0
 13
28.20000000000026
 23
52.0878631127894
 33
0
  0
TEXT
  8
1
 62
2
 10
14.5085847534209
 20
53.5038631127894
 30
0
 40
3.2
  1
5
 41
0.9
  0
ENDBLK
  8
0
  0
BLOCK
  8
1
  2
*D1
 70
1
 10
0
 20
0
 30
0
  0
LINE
  8
1
 62
2
 10
-130.5
 20
52.3174890833463
 30
0
 11
-69.49999999999989
 21
52.3174890833463
 31
0
  0
LINE
  8
1
 62
2
 10
-69.49999999999989
 20
25.75
 30
0
 11
-69.49999999999989
 21
53.3174890833463
 31
0
  0
LINE
  8
1
 62
2
 10
-130.5
 20
25.75
 30
0
 11
-130.5
 21
53.3174890833463
 31
0
  0
SOLID
  8
1
 62
2
 10
-130.5
 20
52.3174890833463
 30
0
 11
-127.5
 21
52.7074890833463
 31
0
 12
-127.5
 22
51.9274890833463
 32
0
 13
-127.5
 23
51.9274890833463
 33
0
  0
SOLID
  8
1
 62
2
 10
-69.49999999999989
 20
52.3174890833463
 30
0
 11
-72.49999999999989
 21
51.9274890833463
 31
0
 12
-72.49999999999989
 22
52.7074890833463
 32
0
 13
-72.49999999999989
 23
52.7074890833463
 33
0
  0
TEXT
  8
1
 62
2
 10
-99.83111111111101
 20
53.3174890833463
 30
0
 40
3.2
  1
61
 41
0.9
  0
TEXT
  8
1
 62
2
 10
-104.0088888888888
 20
53.3174890833463
 30
0
 40
3.2
  1
üá
 41
0.9
  0
ENDBLK
  8
0
  0
BLOCK
  8
1
  2
*D2
 70
1
 10
0
 20
0
 30
0
  0
LINE
  8
1
 62
2
 10
-124.7499999999999
 20
40.4603039403511
 30
0
 11
-75.24999999999989
 21
40.4603039403511
 31
0
  0
LINE
  8
1
 62
2
 10
-75.24999999999989
 20
31.5
 30
0
 11
-75.24999999999989
 21
41.4603039403511
 31
0
  0
LINE
  8
1
 62
2
 10
-124.7499999999999
 20
31.5
 30
0
 11
-124.7499999999999
 21
41.4603039403511
 31
0
  0
SOLID
  8
1
 62
2
 10
-124.7499999999999
 20
40.4603039403511
 30
0
 11
-121.7499999999999
 21
40.8503039403511
 31
0
 12
-121.7499999999999
 22
40.0703039403511
 32
0
 13
-121.7499999999999
 23
40.0703039403511
 33
0
  0
SOLID
  8
1
 62
2
 10
-75.24999999999989
 20
40.4603039403511
 30
0
 11
-78.24999999999989
 21
40.0703039403511
 31
0
 12
-78.24999999999989
 22
40.8503039403511
 32
0
 13
-78.24999999999989
 23
40.8503039403511
 33
0
  0
TEXT
  8
1
 62
2
 10
-107.5839999999999
 20
41.4603039403511
 30
0
 40
3.2
  1
49.5
 41
0.9
  0
TEXT
  8
1
 62
2
 10
-97.2639999999999
 20
42.1003039403511
 30
0
 40
1.92
  1
%%p0.3
 41
0.9
  0
ENDBLK
  8
0
  0
BLOCK
  8
1
  2
*D3
 70
1
 10
0
 20
0
 30
0
  0
LINE
  8
1
 62
2
 10
-47.38099567361081
 20
-24.75
 30
0
 11
-47.38099567361081
 21
24.75
 31
0
  0
LINE
  8
1
 62
2
 10
-68.4999999999999
 20
24.75
 30
0
 11
-46.38099567361081
 21
24.75
 31
0
  0
LINE
  8
1
 62
2
 10
-68.4999999999999
 20
-24.75
 30
0
 11
-46.38099567361081
 21
-24.75
 31
0
  0
SOLID
  8
1
 62
2
 10
-47.38099567361081
 20
24.75
 30
0
 11
-46.99099567361081
 21
21.75
 31
0
 12
-47.77099567361081
 22
21.75
 32
0
 13
-47.77099567361081
 23
21.75
 33
0
  0
SOLID
  8
1
 62
2
 10
-47.38099567361081
 20
-24.75
 30
0
 11
-47.77099567361081
 21
-21.75
 31
0
 12
-46.99099567361081
 22
-21.75
 32
0
 13
-46.99099567361081
 23
-21.75
 33
0
  0
TEXT
  8
1
 62
2
 10
-48.38099567361081
 20
-7.584
 30
0
 40
3.2
  1
49.5
 50
90
 41
0.9
  0
TEXT
  8
1
 62
2
 10
-49.02099567361081
 20
2.736000000000001
 30
0
 40
1.92
  1
%%p0.3
 50
90
 41
0.9
  0
ENDBLK
  8
0
  0
BLOCK
  8
1
  2
*D4
 70
1
 10
0
 20
0
 30
0
  0
LINE
  8
1
 62
2
 10
-59.4462016085883
 20
0
 30
0
 11
-59.4462016085883
 21
-13.67285247127719
 31
0
  0
LINE
  8
1
 62
2
 10
-59.4462016085883
 20
0
 30
0
 11
-59.4462016085883
 21
10
 31
0
  0
LINE
  8
1
 62
2
 10
-89.9999999999999
 20
10
 30
0
 11
-58.4462016085883
 21
10
 31
0
  0
LINE
  8
1
 62
2
 10
-68.49999999999989
 20
0
 30
0
 11
-58.4462016085883
 21
0
 31
0
  0
SOLID
  8
1
 62
2
 10
-59.4462016085883
 20
10
 30
0
 11
-59.0562016085883
 21
7
 31
0
 12
-59.8362016085883
 22
7
 32
0
 13
-59.8362016085883
 23
7
 33
0
  0
SOLID
  8
1
 62
2
 10
-59.4462016085883
 20
0
 30
0
 11
-59.8362016085883
 21
3
 31
0
 12
-59.0562016085883
 22
3
 32
0
 13
-59.0562016085883
 23
3
 33
0
  0
TEXT
  8
1
 62
2
 10
-60.44620160858829
 20
-13.67285247127719
 30
0
 40
3.2
  1
10
 50
90
 41
0.9
  0
TEXT
  8
1
 62
2
 10
-61.08620160858829
 20
-8.232852471277191
 30
0
 40
1.92
  1
%%p0.5
 50
90
 41
0.9
  0
ENDBLK
  8
0
  0
BLOCK
  8
1
  2
*D5
 70
1
 10
0
 20
0
 30
0
  0
LINE
  8
1
 62
2
 10
0
 20
64.449904520602
 30
0
 11
25
 21
64.449904520602
 31
0
  0
LINE
  8
1
 62
2
 10
0
 20
13.5
 30
0
 11
0
 21
65.449904520602
 31
0
  0
LINE
  8
1
 62
2
 10
25
 20
30.49999999999999
 30
0
 11
25
 21
65.449904520602
 31
0
  0
SOLID
  8
1
 62
2
 10
0
 20
64.449904520602
 30
0
 11
3.200000000000001
 21
64.865904520602
 31
0
 12
3.200000000000001
 22
64.03390452060201
 32
0
 13
3.200000000000001
 23
64.03390452060201
 33
0
  0
SOLID
  8
1
 62
2
 10
25
 20
64.449904520602
 30
0
 11
21.8
 21
64.03390452060201
 31
0
 12
21.8
 22
64.865904520602
 32
0
 13
21.8
 23
64.865904520602
 33
0
  0
TEXT
  8
1
 62
2
 10
10.1
 20
65.449904520602
 30
0
 40
3.2
  1
25
 41
0.9
  0
ENDBLK
  8
0
  0
BLOCK
  8
1
  2
*D6
 70
1
 10
0
 20
0
 30
0
  0
LINE
  8
1
 62
2
 10
-33.49820191931385
 20
1.000183990690921
 30
0
 11
-33.49820191931385
 21
19.00000000000012
 31
0
  0
LINE
  8
1
 62
2
 10
-33.49820191931385
 20
19.00000000000012
 30
0
 11
-33.49820191931385
 21
32.57069692846512
 31
0
  0
LINE
  8
1
 62
2
 10
19
 20
1.000183990690921
 30
0
 11
-34.49820191931385
 21
1.000183990690921
 31
0
  0
LINE
  8
1
 62
2
 10
19
 20
19.00000000000012
 30
0
 11
-34.49820191931385
 21
19.00000000000012
 31
0
  0
SOLID
  8
1
 62
2
 10
-33.49820191931385
 20
19.00000000000012
 30
0
 11
-33.08220191931385
 21
15.80000000000012
 31
0
 12
-33.91420191931385
 22
15.80000000000012
 32
0
 13
-33.91420191931385
 23
15.80000000000012
 33
0
  0
SOLID
  8
1
 62
2
 10
-33.49820191931385
 20
1.000183990690921
 30
0
 11
-33.91420191931385
 21
4.200183990690922
 31
0
 12
-33.08220191931385
 22
4.200183990690922
 32
0
 13
-33.08220191931385
 23
4.200183990690922
 33
0
  0
TEXT
  8
1
 62
2
 10
-34.49820191931385
 20
28.73069692846512
 30
0
 40
3.2
  1
18
 50
90
 41
0.9
  0
TEXT
  8
1
 62
2
 10
-34.49820191931385
 20
25.08625248402068
 30
0
 40
3.2
  1
âË
 50
90
 41
0.9
  0
ENDBLK
  8
0
  0
BLOCK
  8
1
  2
*D7
 70
1
 10
0
 20
0
 30
0
  0
LINE
  8
1
 62
2
 10
-9.462236904234031
 20
0.6000000000001187
 30
0
 11
-9.462236904234031
 21
7.000000000000121
 31
0
  0
LINE
  8
1
 62
2
 10
-9.462236904234031
 20
7.000000000000121
 30
0
 11
-9.462236904234031
 21
12.5
 31
0
  0
LINE
  8
1
 62
2
 10
-9.462236904234031
 20
12.5
 30
0
 11
-9.462236904234031
 21
35.8056550740146
 31
0
  0
LINE
  8
1
 62
2
 10
-1
 20
7.000000000000121
 30
0
 11
-10.46223690423403
 21
7.000000000000121
 31
0
  0
LINE
  8
1
 62
2
 10
-1
 20
12.5
 30
0
 11
-10.46223690423403
 21
12.5
 31
0
  0
SOLID
  8
1
 62
2
 10
-9.462236904234031
 20
12.5
 30
0
 11
-9.878236904234031
 21
15.7
 31
0
 12
-9.046236904234032
 22
15.7
 32
0
 13
-9.046236904234032
 23
15.7
 33
0
  0
SOLID
  8
1
 62
2
 10
-9.462236904234031
 20
7.000000000000121
 30
0
 11
-9.046236904234032
 21
3.80000000000012
 31
0
 12
-9.878236904234031
 22
3.80000000000012
 32
0
 13
-9.878236904234031
 23
3.80000000000012
 33
0
  0
TEXT
  8
1
 62
2
 10
-10.46223690423394
 20
23.5176550740146
 30
0
 40
3.2
  1
5.5
 50
90
 41
0.9
  0
TEXT
  8
1
 62
2
 10
-11.10223690423394
 20
30.9576550740146
 30
0
 40
1.92
  1
%%p0.3
 50
90
 41
0.9
  0
ENDBLK
  8
0
  0
BLOCK
  8
1
  2
*D8
 70
1
 10
0
 20
0
 30
0
  0
LINE
  8
1
 62
2
 10
0
 20
52.5337219705081
 30
0
 11
11.99999999999989
 21
52.5337219705081
 31
0
  0
LINE
  8
1
 62
2
 10
0
 20
13.5
 30
0
 11
0
 21
53.5337219705081
 31
0
  0
LINE
  8
1
 62
2
 10
11.99999999999989
 20
13.5
 30
0
 11
11.99999999999989
 21
53.5337219705081
 31
0
  0
SOLID
  8
1
 62
2
 10
0
 20
52.5337219705081
 30
0
 11
3.200000000000001
 21
52.94972197050809
 31
0
 12
3.200000000000001
 22
52.1177219705081
 32
0
 13
3.200000000000001
 23
52.1177219705081
 33
0
  0
SOLID
  8
1
 62
2
 10
11.99999999999989
 20
52.5337219705081
 30
0
 11
8.799999999999889
 21
52.1177219705081
 31
0
 12
8.799999999999889
 22
52.94972197050809
 32
0
 13
8.799999999999889
 23
52.94972197050809
 33
0
  0
TEXT
  8
1
 62
2
 10
4.079999999999945
 20
53.5337219705081
 30
0
 40
3.2
  1
12
 41
0.9
  0
ENDBLK
  8
0
  0
BLOCK
  8
1
  2
*D9
 70
1
 10
0
 20
0
 30
0
  0
LINE
  8
1
 62
2
 10
-21.5906949178695
 20
0.6000000000001187
 30
0
 11
-21.5906949178695
 21
7.000000000000117
 31
0
  0
LINE
  8
1
 62
2
 10
-21.5906949178695
 20
7.000000000000117
 30
0
 11
-21.5906949178695
 21
13.00000000000023
 31
0
  0
LINE
  8
1
 62
2
 10
-21.5906949178695
 20
13.00000000000023
 30
0
 11
-21.5906949178695
 21
39.31877310665042
 31
0
  0
LINE
  8
1
 62
2
 10
-1
 20
7.000000000000117
 30
0
 11
-22.5906949178695
 21
7.000000000000117
 31
0
  0
LINE
  8
1
 62
2
 10
14.84057287393535
 20
13.00000000000023
 30
0
 11
-22.5906949178695
 21
13.00000000000023
 31
0
  0
SOLID
  8
1
 62
2
 10
-21.5906949178695
 20
7.000000000000117
 30
0
 11
-21.1746949178695
 21
3.800000000000117
 31
0
 12
-22.0066949178695
 22
3.800000000000117
 32
0
 13
-22.0066949178695
 23
3.800000000000117
 33
0
  0
SOLID
  8
1
 62
2
 10
-21.5906949178695
 20
13.00000000000023
 30
0
 11
-22.0066949178695
 21
16.20000000000023
 31
0
 12
-21.17469491786951
 22
16.20000000000023
 32
0
 13
-21.17469491786951
 23
16.20000000000023
 33
0
  0
TEXT
  8
1
 62
2
 10
-23.3906949178695
 20
29.03077310665042
 30
0
 40
3.2
  1
6
 50
90
 41
0.9
  0
TEXT
  8
1
 62
2
 10
-25.4706949178695
 20
32.55077310665042
 30
0
 40
1.92
  1
 0
 50
90
 41
0.9
  0
TEXT
  8
1
 62
2
 10
-22.5906949178695
 20
32.55077310665042
 30
0
 40
1.92
  1
-0.02
 50
90
 41
0.9
  0
TEXT
  8
1
 62
2
 10
-23.3906949178695
 20
25.38632866220598
 30
0
 40
3.2
  1
âË
 50
90
 41
0.9
  0
ENDBLK
  8
0
  0
BLOCK
  8
1
  2
*D10
 70
1
 10
0
 20
0
 30
0
  0
LINE
  8
1
 62
2
 10
24.99999999999999
 20
64.62443220687901
 30
0
 11
111.6000000000001
 21
64.62443220687901
 31
0
  0
LINE
  8
1
 62
2
 10
111.6000000000001
 20
11
 30
0
 11
111.6000000000001
 21
65.62443220687901
 31
0
  0
LINE
  8
1
 62
2
 10
24.99999999999999
 20
30.5
 30
0
 11
24.99999999999999
 21
65.62443220687901
 31
0
  0
SOLID
  8
1
 62
2
 10
24.99999999999999
 20
64.62443220687901
 30
0
 11
28.19999999999999
 21
65.040432206879
 31
0
 12
28.19999999999999
 22
64.20843220687901
 32
0
 13
28.19999999999999
 23
64.20843220687901
 33
0
  0
SOLID
  8
1
 62
2
 10
111.6000000000001
 20
64.62443220687901
 30
0
 11
108.4000000000001
 21
64.20843220687901
 31
0
 12
108.4000000000001
 22
65.040432206879
 32
0
 13
108.4000000000001
 23
65.040432206879
 33
0
  0
TEXT
  8
1
 62
2
 10
60.35197863029828
 20
65.62443220687901
 30
0
 40
3.2
  1
86.6
 41
0.9
  0
ENDBLK
  8
0
  0
BLOCK
  8
1
  2
*D11
 70
1
 10
0
 20
0
 30
0
  0
LINE
  8
1
 62
2
 10
25
 20
52.484356262941
 30
0
 11
54.00000000000011
 21
52.484356262941
 31
0
  0
LINE
  8
1
 62
2
 10
54.00000000000011
 20
31
 30
0
 11
54.00000000000011
 21
53.484356262941
 31
0
  0
LINE
  8
1
 62
2
 10
25
 20
30.5
 30
0
 11
25
 21
53.484356262941
 31
0
  0
SOLID
  8
1
 62
2
 10
25
 20
52.484356262941
 30
0
 11
28.2
 21
52.900356262941
 31
0
 12
28.2
 22
52.068356262941
 32
0
 13
28.2
 23
52.068356262941
 33
0
  0
SOLID
  8
1
 62
2
 10
54.00000000000011
 20
52.484356262941
 30
0
 11
50.80000000000011
 21
52.068356262941
 31
0
 12
50.80000000000011
 22
52.900356262941
 32
0
 13
50.80000000000011
 23
52.900356262941
 33
0
  0
TEXT
  8
1
 62
2
 10
37.10000000000006
 20
53.484356262941
 30
0
 40
3.2
  1
29
 41
0.9
  0
ENDBLK
  8
0
  0
BLOCK
  8
1
  2
*D12
 70
1
 10
0
 20
0
 30
0
  0
LINE
  8
1
 62
2
 10
119.5121336719101
 20
-69.7823380118422
 30
0
 11
119.5121336719101
 21
-58.50993385985932
 31
0
  0
LINE
  8
1
 62
2
 10
119.5121336719101
 20
-72.7823380118422
 30
0
 11
119.5121336719101
 21
-69.7823380118422
 31
0
  0
LINE
  8
1
 62
2
 10
119.5121336719101
 20
-79.18233801184221
 30
0
 11
119.5121336719101
 21
-72.7823380118422
 31
0
  0
LINE
  8
1
 62
2
 10
103.3943369725352
 20
-69.7823380118422
 30
0
 11
120.5121336719101
 21
-69.7823380118422
 31
0
  0
LINE
  8
1
 62
2
 10
103.0968821351011
 20
-72.7823380118422
 30
0
 11
120.5121336719101
 21
-72.7823380118422
 31
0
  0
SOLID
  8
1
 62
2
 10
119.5121336719101
 20
-69.7823380118422
 30
0
 11
119.0961336719101
 21
-66.5823380118422
 31
0
 12
119.9281336719101
 22
-66.5823380118422
 32
0
 13
119.9281336719101
 23
-66.5823380118422
 33
0
  0
SOLID
  8
1
 62
2
 10
119.5121336719101
 20
-72.7823380118422
 30
0
 11
119.9281336719101
 21
-75.9823380118422
 31
0
 12
119.0961336719101
 22
-75.9823380118422
 32
0
 13
119.0961336719101
 23
-75.9823380118422
 33
0
  0
TEXT
  8
1
 62
2
 10
118.5121336719101
 20
-62.50993385985932
 30
0
 40
3.2
  1
3
 50
90
 41
0.9
  0
TEXT
  8
1
 62
2
 10
118.5121336719101
 20
-64.58993385985933
 30
0
 40
3.2
  1
(
 50
90
 41
0.9
  0
TEXT
  8
1
 62
2
 10
118.5121336719101
 20
-58.98993385985932
 30
0
 40
3.2
  1
)
 50
90
 41
0.9
  0
ENDBLK
  8
0
  0
BLOCK
  8
1
  2
*D13
 70
1
 10
0
 20
0
 30
0
  0
LINE
  8
1
 62
2
 10
131.5107268404731
 20
-22
 30
0
 11
131.5107268404731
 21
22
 31
0
  0
LINE
  8
1
 62
2
 10
106.0000000000016
 20
22
 30
0
 11
132.5107268404731
 21
22
 31
0
  0
LINE
  8
1
 62
2
 10
106.0000000000001
 20
-22
 30
0
 11
132.5107268404731
 21
-22
 31
0
  0
SOLID
  8
1
 62
2
 10
131.5107268404731
 20
22
 30
0
 11
131.9267268404731
 21
18.8
 31
0
 12
131.0947268404731
 22
18.8
 32
0
 13
131.0947268404731
 23
18.8
 33
0
  0
SOLID
  8
1
 62
2
 10
131.5107268404731
 20
-22
 30
0
 11
131.0947268404731
 21
-18.8
 31
0
 12
131.9267268404731
 22
-18.8
 32
0
 13
131.9267268404731
 23
-18.8
 33
0
  0
TEXT
  8
1
 62
2
 10
130.5107268404731
 20
-0.5777777777777811
 30
0
 40
3.2
  1
44
 50
90
 41
0.9
  0
TEXT
  8
1
 62
2
 10
130.5107268404731
 20
-4.222222222222225
 30
0
 40
3.2
  1
âË
 50
90
 41
0.9
  0
ENDBLK
  8
0
  0
BLOCK
  8
1
  2
*D14
 70
1
 10
0
 20
0
 30
0
  0
LINE
  8
1
 62
2
 10
131.5212244519401
 20
-72.7823380118422
 30
0
 11
131.5212244519401
 21
-43.46933908768862
 31
0
  0
LINE
  8
1
 62
2
 10
103.0968821351011
 20
-72.7823380118422
 30
0
 11
132.5212244519401
 21
-72.7823380118422
 31
0
  0
SOLID
  8
1
 62
2
 10
131.5212244519401
 20
-72.7823380118422
 30
0
 11
131.1052244519401
 21
-69.5823380118422
 31
0
 12
131.9372244519401
 22
-69.5823380118422
 32
0
 13
131.9372244519401
 23
-69.5823380118422
 33
0
  0
TEXT
  8
1
 62
2
 10
130.5212244519401
 20
-56.01333908768862
 30
0
 40
3.2
  1
150
 50
90
 41
0.9
  0
TEXT
  8
1
 62
2
 10
129.8812244519401
 20
-47.69333908768862
 30
0
 40
1.92
  1
%%p20
 50
90
 41
0.9
  0
ENDBLK
  8
0
  0
BLOCK
  8
1
  2
*D15
 70
1
 10
0
 20
0
 30
0
  0
LINE
  8
1
 62
2
 10
-74.01181377609426
 20
-26.32063518199814
 30
0
 11
-62.81610602716101
 21
-40.5223539043864
 31
0
  0
LINE
  8
1
 62
2
 10
-62.81610602716101
 20
-40.5223539043864
 30
0
 11
-11.856106027161
 21
-40.5223539043864
 31
0
  0
SOLID
  8
1
 62
2
 10
-74.01181377609426
 20
-26.32063518199814
 30
0
 11
-71.84826057974618
 21
-28.43514164133375
 31
0
 12
-72.46080830072546
 22
-28.91803426865694
 32
0
 13
-72.46080830072546
 23
-28.91803426865694
 33
0
  0
TEXT
  8
1
 62
2
 10
-48.336106027161
 20
-39.5223539043864
 30
0
 40
3.2
  1
4
 41
0.9
  0
TEXT
  8
1
 62
2
 10
-57.616106027161
 20
-39.5223539043864
 30
0
 40
3.2
  1
4-M
 41
0.9
  0
TEXT
  8
1
 62
2
 10
-44.816106027161
 20
-39.5223539043864
 30
0
 40
3.2
  1
 DEPTH 6MAX
 41
0.9
  0
ENDBLK
  8
0
  0
ENDSEC
  0
SECTION
  2
ENTITIES
  0
LINE
  8
1
 62
7
 10
15.84057287393535
 20
13.00000000000023
 30
0
 11
19.99999999999989
 21
13.0000000000004
 31
0
  0
LINE
  8
1
 62
7
 10
-99.7
 20
-22.09999999999999
 30
0
 11
-99.7
 21
-22.5
 31
0
  0
LINE
  8
1
 62
7
 10
-100.3
 20
-22.09999999999999
 30
0
 11
-100.3
 21
-22.5
 31
0
  0
LINE
  8
1
 62
7
 10
-100.3
 20
-24.90000000000001
 30
0
 11
-100.3
 21
-24.5
 31
0
  0
LINE
  8
1
 62
7
 10
-101.4
 20
-23.80000000000001
 30
0
 11
-101
 21
-23.80000000000001
 31
0
  0
LINE
  8
1
 62
7
 10
-101.4
 20
-23.20000000000002
 30
0
 11
-101
 21
-23.20000000000002
 31
0
  0
LINE
  8
1
 62
7
 10
-101.5
 20
-23.30000000000001
 30
0
 11
-101.5
 21
-23.70000000000002
 31
0
  0
LINE
  8
1
 62
7
 10
-98.5
 20
-23.30000000000001
 30
0
 11
-98.5
 21
-23.70000000000002
 31
0
  0
LINE
  8
1
 62
7
 10
-100.2
 20
-25
 30
0
 11
-99.8
 21
-25
 31
0
  0
LINE
  8
1
 62
7
 10
-100.2
 20
-22
 30
0
 11
-99.8
 21
-22
 31
0
  0
LINE
  8
1
 62
7
 10
-99.7
 20
-24.5
 30
0
 11
-99.7
 21
-24.90000000000001
 31
0
  0
LINE
  8
1
 62
7
 10
-98.9941176470588
 20
-23.80000000000001
 30
0
 11
-98.59999999999999
 21
-23.80000000000001
 31
0
  0
LINE
  8
1
 62
7
 10
-98.9941176470588
 20
-23.20000000000002
 30
0
 11
-98.59999999999999
 21
-23.20000000000002
 31
0
  0
LINE
  8
1
 62
7
 10
-120.1999999999999
 20
13.90000000000001
 30
0
 11
-120.1999999999999
 21
13.5
 31
0
  0
LINE
  8
1
 62
7
 10
-120.7999999999998
 20
13.90000000000001
 30
0
 11
-120.7999999999998
 21
13.5
 31
0
  0
LINE
  8
1
 62
7
 10
-120.7999999999998
 20
11.09999999999999
 30
0
 11
-120.7999999999998
 21
11.5
 31
0
  0
LINE
  8
1
 62
7
 10
-121.8999999999999
 20
12.19999999999999
 30
0
 11
-121.4999999999999
 21
12.19999999999999
 31
0
  0
LINE
  8
1
 62
7
 10
-121.8999999999999
 20
12.79999999999998
 30
0
 11
-121.4999999999999
 21
12.79999999999998
 31
0
  0
LINE
  8
1
 62
7
 10
-121.9999999999999
 20
12.69999999999999
 30
0
 11
-121.9999999999999
 21
12.29999999999998
 31
0
  0
LINE
  8
1
 62
7
 10
-118.9999999999999
 20
12.69999999999999
 30
0
 11
-118.9999999999999
 21
12.29999999999998
 31
0
  0
LINE
  8
1
 62
7
 10
-120.6999999999999
 20
11
 30
0
 11
-120.2999999999998
 21
11
 31
0
  0
LINE
  8
1
 62
7
 10
-120.6999999999999
 20
14
 30
0
 11
-120.2999999999998
 21
14
 31
0
  0
LINE
  8
1
 62
7
 10
-120.1999999999999
 20
11.5
 30
0
 11
-120.1999999999999
 21
11.09999999999999
 31
0
  0
LINE
  8
1
 62
7
 10
-119.4941176470587
 20
12.19999999999999
 30
0
 11
-119.0999999999999
 21
12.19999999999999
 31
0
  0
LINE
  8
1
 62
7
 10
-119.4941176470587
 20
12.79999999999998
 30
0
 11
-119.0999999999999
 21
12.79999999999998
 31
0
  0
LINE
  8
1
 62
7
 10
-79.1999999999999
 20
13.90000000000001
 30
0
 11
-79.1999999999999
 21
13.5
 31
0
  0
LINE
  8
1
 62
7
 10
-79.7999999999999
 20
13.90000000000001
 30
0
 11
-79.7999999999999
 21
13.5
 31
0
  0
LINE
  8
1
 62
7
 10
-79.7999999999999
 20
11.09999999999999
 30
0
 11
-79.7999999999999
 21
11.5
 31
0
  0
LINE
  8
1
 62
7
 10
-80.89999999999991
 20
12.19999999999999
 30
0
 11
-80.4999999999999
 21
12.19999999999999
 31
0
  0
LINE
  8
1
 62
7
 10
-80.89999999999991
 20
12.79999999999998
 30
0
 11
-80.4999999999999
 21
12.79999999999998
 31
0
  0
LINE
  8
1
 62
7
 10
-80.9999999999999
 20
12.69999999999999
 30
0
 11
-80.9999999999999
 21
12.29999999999998
 31
0
  0
LINE
  8
1
 62
7
 10
-77.9999999999999
 20
12.69999999999999
 30
0
 11
-77.9999999999999
 21
12.29999999999998
 31
0
  0
LINE
  8
1
 62
7
 10
-79.6999999999999
 20
11
 30
0
 11
-79.29999999999984
 21
11
 31
0
  0
LINE
  8
1
 62
7
 10
-79.6999999999999
 20
14
 30
0
 11
-79.2999999999999
 21
14
 31
0
  0
LINE
  8
1
 62
7
 10
-79.1999999999999
 20
11.5
 30
0
 11
-79.20000000000005
 21
11.09999999999999
 31
0
  0
LINE
  8
1
 62
7
 10
-78.4941176470587
 20
12.19999999999999
 30
0
 11
-78.09999999999991
 21
12.19999999999999
 31
0
  0
LINE
  8
1
 62
7
 10
-78.4941176470587
 20
12.79999999999998
 30
0
 11
-78.09999999999991
 21
12.79999999999998
 31
0
  0
LINE
  8
1
 62
7
 10
-124.7499999999999
 20
30.5
 30
0
 11
-75.24999999999989
 21
30.5
 31
0
  0
LINE
  8
1
 62
3
 10
-75.24999999999989
 20
16
 30
0
 11
-75.24999999999989
 21
30.5
 31
0
  0
LINE
  8
1
 62
3
 10
-75.24999999999989
 20
-30.5
 30
0
 11
-75.24999999999989
 21
-33.5
 31
0
  0
LINE
  8
1
 62
3
 10
-124.7499999999999
 20
-30.5
 30
0
 11
-124.7499999999999
 21
-33.5
 31
0
  0
LINE
  8
1
 62
7
 10
-124.7499999999999
 20
-30.5
 30
0
 11
-75.24999999999989
 21
-30.5
 31
0
  0
LINE
  8
1
 62
3
 10
-103.9999999999998
 20
-23.5
 30
0
 11
-96.0000000000002
 21
-23.5
 31
0
  0
LINE
  8
1
 62
3
 10
-100
 20
34.5
 30
0
 11
-100
 21
-34.5
 31
0
  0
LINE
  8
1
 62
3
 10
-83.5
 20
12.5
 30
0
 11
-75.49999999999984
 21
12.5
 31
0
  0
LINE
  8
1
 62
3
 10
-79.49999999999989
 20
16.50000000000005
 30
0
 11
-79.49999999999989
 21
8.499999999999954
 31
0
  0
LINE
  8
1
 62
3
 10
-124.5
 20
12.5
 30
0
 11
-116.5
 21
12.5
 31
0
  0
LINE
  8
1
 62
3
 10
-120.4999999999999
 20
16.50000000000005
 30
0
 11
-120.4999999999999
 21
8.499999999999954
 31
0
  0
LINE
  8
1
 62
7
 10
-101.6583123951776
 20
12.5
 30
0
 11
-98.3416876048223
 21
12.5
 31
0
  0
LINE
  8
1
 62
3
 10
-83.99999999999989
 20
24.75
 30
0
 11
-69.49999999999989
 21
24.75
 31
0
  0
LINE
  8
1
 62
3
 10
-83.99999999999989
 20
-24.75
 30
0
 11
-69.49999999999989
 21
-24.75
 31
0
  0
LINE
  8
1
 62
3
 10
-133.683979702465
 20
-24.75
 30
0
 11
-115.9999999999999
 21
-24.75
 31
0
  0
LINE
  8
1
 62
3
 10
-124.7499999999999
 20
-16
 30
0
 11
-124.7499999999999
 21
-30.5
 31
0
  0
LINE
  8
1
 62
3
 10
-75.24999999999989
 20
-16
 30
0
 11
-75.24999999999989
 21
-30.5
 31
0
  0
LINE
  8
1
 62
3
 10
-111.8108407155454
 20
10
 30
0
 11
-90.9999999999999
 21
10
 31
0
  0
LINE
  8
1
 62
3
 10
-116.1839797024649
 20
24.75
 30
0
 11
-130.5
 21
24.75
 31
0
  0
LINE
  8
1
 62
3
 10
-124.7499999999999
 20
32.40783652817061
 30
0
 11
-124.7499999999999
 21
30.5
 31
0
  0
LINE
  8
1
 62
3
 10
-134.5
 20
0
 30
0
 11
-69.49999999999989
 21
0
 31
0
  0
LINE
  8
1
 62
7
 10
-69.49999999999989
 20
24.75
 30
0
 11
-69.49999999999989
 21
-24.75
 31
0
  0
LINE
  8
1
 62
7
 10
-130.5
 20
24.75
 30
0
 11
-130.5
 21
-24.75
 31
0
  0
LINE
  8
1
 62
2
 10
-62.4622431925531
 20
-47.5
 30
0
 11
-12.19197273139051
 21
-47.5
 31
0
  0
LINE
  8
1
 62
3
 10
-69.49999999999989
 20
0
 30
0
 11
-65.49999999999989
 21
0
 31
0
  0
LINE
  8
1
 62
3
 10
-90.9999999999999
 20
10
 30
0
 11
-88.44541850249914
 21
10
 31
0
  0
LINE
  8
1
 62
3
 10
-69.49999999999989
 20
24.75
 30
0
 11
-67.65571212396208
 21
24.75
 31
0
  0
LINE
  8
1
 62
3
 10
-75.24999999999989
 20
30.5
 30
0
 11
-75.24999999999989
 21
32.77579593310037
 31
0
  0
LINE
  8
1
 62
3
 10
-130.5
 20
24.75
 30
0
 11
-133.5
 21
24.75
 31
0
  0
LINE
  8
1
 62
3
 10
-124.7499999999999
 20
30.5
 30
0
 11
-124.7499999999999
 21
16
 31
0
  0
LINE
  8
1
 62
3
 10
-69.49999999999989
 20
-24.75
 30
0
 11
-66.91979331410232
 21
-24.75
 31
0
  0
LINE
  8
1
 62
7
 10
55.33360848093707
 20
-28.20403352100783
 30
0
 11
54.10871557427504
 21
-28.2496194698092
 31
0
  0
LINE
  8
1
 62
7
 10
55.33360848093707
 20
-21.29596647899217
 30
0
 11
54.10871557427504
 21
-21.25038053019079
 31
0
  0
LINE
  8
1
 62
7
 10
55.33360848093707
 20
21.29596647899229
 30
0
 11
54.10871557427487
 21
21.2503805301908
 31
0
  0
LINE
  8
1
 62
7
 10
55.33360848093658
 20
28.20403352100766
 30
0
 11
54.10871557427504
 21
28.24961946980921
 31
0
  0
LINE
  8
1
 62
7
 10
20
 20
1.000183990690921
 30
0
 11
25.99999999999989
 21
1.000183990690921
 31
0
  0
LINE
  8
1
 62
7
 10
25.99999999999989
 20
19.00000000000012
 30
0
 11
20
 21
19.00000000000012
 31
0
  0
LINE
  8
1
 62
7
 10
20
 20
19.00000000000012
 30
0
 11
20
 21
1.000183990690921
 31
0
  0
LINE
  8
1
 62
7
 10
11.99999999999989
 20
12.5
 30
0
 11
0
 21
12.5
 31
0
  0
LINE
  8
1
 62
7
 10
0
 20
7.000000000000121
 30
0
 11
20
 21
7
 31
0
  0
LINE
  8
1
 62
7
 10
0
 20
12.5
 30
0
 11
0
 21
7.000000000000121
 31
0
  0
LINE
  8
1
 62
3
 10
29.08282950123635
 20
10
 30
0
 11
-3.327281133558809
 21
10
 31
0
  0
LINE
  8
1
 62
7
 10
25
 20
-29.5
 30
0
 11
25
 21
-20
 31
0
  0
LINE
  8
1
 62
7
 10
52
 20
30.5
 30
0
 11
26
 21
30.5
 31
0
  0
LINE
  8
1
 62
7
 10
52
 20
-30.5
 30
0
 11
26
 21
-30.5
 31
0
  0
LINE
  8
0
 62
7
 10
54.00000000000011
 20
-30
 30
0
 11
52
 21
-30
 31
0
  0
LINE
  8
0
 62
7
 10
52
 20
30
 30
0
 11
54.00000000000011
 21
30
 31
0
  0
LINE
  8
0
 62
7
 10
52
 20
30.5
 30
0
 11
52
 21
-30.5
 31
0
  0
LINE
  8
1
 62
7
 10
32.76859531800505
 20
31.5
 30
0
 11
45.89800658932018
 21
31.5
 31
0
  0
LINE
  8
0
 62
3
 10
59
 20
24.75000000000012
 30
0
 11
20.88337355630608
 21
24.74999999999989
 31
0
  0
LINE
  8
0
 62
3
 10
21.53217701381914
 20
-24.75
 30
0
 11
59
 21
-24.75
 31
0
  0
LINE
  8
1
 62
7
 10
25.99999999999989
 20
-20
 30
0
 11
25.99999999999989
 21
20
 31
0
  0
LINE
  8
1
 62
7
 10
54.50000000000011
 20
-21.20000000000005
 30
0
 11
54.40000000000012
 21
-21.20000000000005
 31
0
  0
LINE
  8
1
 62
7
 10
54.40000000000012
 20
21.20000000000005
 30
0
 11
54.50000000000011
 21
21.20000000000005
 31
0
  0
LINE
  8
1
 62
7
 10
-143.3741833272931
 20
-42.66215078858107
 30
0
 11
-128.6734288569232
 21
-28.95347546735564
 31
0
  0
LINE
  8
1
 62
7
 10
-144.4790206705943
 20
-41.47735779195796
 30
0
 11
-129.6923835970049
 21
-27.6885956475935
 31
0
  0
LINE
  8
1
 62
7
 10
-145.5838580138956
 20
-40.2925647953349
 30
0
 11
-130.3438286550129
 21
-26.08100750499591
 31
0
  0
LINE
  8
0
 62
7
 10
54.00000000000011
 20
-30
 30
0
 11
54.00000000000011
 21
30
 31
0
  0
LINE
  8
1
 62
7
 10
55.00000000000011
 20
-20.69999999999999
 30
0
 11
55.00000000000011
 21
20.70000000000005
 31
0
  0
LINE
  8
1
 62
7
 10
24.99999999999989
 20
20
 30
0
 11
24.99999999999999
 21
29.5
 31
0
  0
LINE
  8
1
 62
7
 10
66.22002336582781
 20
22
 30
0
 11
66.22002336582781
 21
13.54455245716452
 31
0
  0
LINE
  8
1
 62
7
 10
66.22002336582781
 20
13.54455245716452
 30
0
 11
86.22002336582777
 21
13.54455245716452
 31
0
  0
LINE
  8
1
 62
7
 10
86.22002336582777
 20
13.54455245716452
 30
0
 11
86.22002336582777
 21
22
 31
0
  0
LINE
  8
1
 62
2
 10
131.5000000000001
 20
-27.10002334769979
 30
0
 11
131.5000000000001
 21
-46.40321556867804
 31
0
  0
LINE
  8
1
 62
2
 10
17.61034870426507
 20
-52.34991020425775
 30
0
 11
85.96713648055517
 21
-52.34991020425775
 31
0
  0
LINE
  8
1
 62
7
 10
111.1000000000001
 20
-10.50000000000011
 30
0
 11
109.5000000000001
 21
-10.50000000000011
 31
0
  0
LINE
  8
1
 62
7
 10
101.4103066593209
 20
-69.7823380118422
 30
0
 11
101.4103066593209
 21
-72.7823380118422
 31
0
  0
LINE
  8
1
 62
7
 10
102.0968821351011
 20
-72.7823380118422
 30
0
 11
102.0968821351011
 21
-69.7823380118422
 31
0
  0
LINE
  8
1
 62
7
 10
99.80175840178106
 20
-69.7823380118422
 30
0
 11
99.80175840178106
 21
-72.7823380118422
 31
0
  0
LINE
  8
1
 62
7
 10
100.5667996462211
 20
-72.7823380118422
 30
0
 11
100.5667996462211
 21
-69.7823380118422
 31
0
  0
LINE
  8
1
 62
7
 10
102.3943369725352
 20
-53.50414249122189
 30
0
 11
102.3943369725352
 21
-69.7823380118422
 31
0
  0
LINE
  8
1
 62
7
 10
100.8943369725352
 20
-53.50414249122189
 30
0
 11
100.8943369725352
 21
-69.7823380118422
 31
0
  0
LINE
  8
1
 62
7
 10
99.39433697253517
 20
-53.50414249122189
 30
0
 11
99.39433697253517
 21
-69.7823380118422
 31
0
  0
LINE
  8
1
 62
3
 10
115.928308559621
 20
0
 30
0
 11
17.17371598660729
 21
0
 31
0
  0
LINE
  8
1
 62
7
 10
58.00000000000011
 20
-22
 30
0
 11
105.0000000000001
 21
-22
 31
0
  0
LINE
  8
1
 62
7
 10
99.39433697253517
 20
-69.7823380118422
 30
0
 11
102.3943369725352
 21
-69.7823380118422
 31
0
  0
LINE
  8
1
 62
7
 10
102.3943369725352
 20
-69.7823380118422
 30
0
 11
99.39433697253517
 21
-69.7823380118422
 31
0
  0
LINE
  8
1
 62
7
 10
106.3636038969322
 20
-12.66366416655807
 30
0
 11
106.2221825406951
 21
-12.52224281032101
 31
0
  0
LINE
  8
1
 62
7
 10
106.6464466094073
 20
-12.45153213220203
 30
0
 11
106.4343145750512
 21
-12.66366416655807
 31
0
  0
LINE
  8
1
 62
7
 10
107.5656854249476
 20
-12.6636641665581
 30
0
 11
107.3535533905932
 21
-12.45153213220203
 31
0
  0
LINE
  8
1
 62
7
 10
107.7778174593053
 20
-12.52224281032101
 30
0
 11
107.6363961030682
 21
-12.66366416655807
 31
0
  0
LINE
  8
1
 62
7
 10
107.5656854249476
 20
-12.2394000978449
 30
0
 11
107.7778174593053
 21
-12.45153213220203
 31
0
  0
LINE
  8
1
 62
7
 10
107.7778174593053
 20
-11.32016128230412
 30
0
 11
107.5656854249476
 21
-11.53229331665912
 31
0
  0
LINE
  8
1
 62
7
 10
107.6363961030682
 20
-11.10802924794802
 30
0
 11
107.7778174593052
 21
-11.2494506041838
 31
0
  0
LINE
  8
1
 62
7
 10
107.3535533905932
 20
-11.32016128230412
 30
0
 11
107.5656854249476
 21
-11.10802924794811
 31
0
  0
LINE
  8
1
 62
7
 10
106.4343145750512
 20
-11.10802924794802
 30
0
 11
106.6464466094073
 21
-11.32016128230412
 31
0
  0
LINE
  8
1
 62
7
 10
106.2221825406936
 20
-11.2494506041838
 30
0
 11
106.3636038969322
 21
-11.10802924794802
 31
0
  0
LINE
  8
1
 62
7
 10
106.4343145750512
 20
-11.53229331666
 30
0
 11
106.2221825406943
 21
-11.32016128230412
 31
0
  0
LINE
  8
1
 62
7
 10
106.2221825406943
 20
-12.45153213220203
 30
0
 11
106.4343145750511
 21
-12.2394000978449
 31
0
  0
LINE
  8
1
 62
7
 10
105.0000000000001
 20
-5.423402264367922
 30
0
 11
105.0000000000001
 21
22
 31
0
  0
LINE
  8
1
 62
7
 10
105.0000000000012
 20
22
 30
0
 11
105.0000000000001
 21
22
 31
0
  0
LINE
  8
1
 62
7
 10
105.0000000000001
 20
-22
 30
0
 11
105.0000000000001
 21
-18.7372649163681
 31
0
  0
LINE
  8
1
 62
7
 10
109.5000000000001
 20
-19
 30
0
 11
109.4999999999992
 21
19
 31
0
  0
LINE
  8
1
 62
3
 10
107.0000000000001
 20
-9.373806877512999
 30
0
 11
107.0000000000001
 21
-14.373806877513
 31
0
  0
LINE
  8
1
 62
3
 10
104.5000362397035
 20
-11.8858467072531
 30
0
 11
109.4999999999999
 21
-11.8858467072531
 31
0
  0
LINE
  8
1
 62
7
 10
109.5000000000001
 20
-19.00020593517101
 30
0
 11
109.5000000000001
 21
-19
 31
0
  0
LINE
  8
1
 62
7
 10
105.0000000000001
 20
-21
 30
0
 11
107.5000000000001
 21
-21
 31
0
  0
LINE
  8
1
 62
7
 10
105.0000000000001
 20
-18.7372649163681
 30
0
 11
107.9357753639381
 21
-18.7372649163681
 31
0
  0
LINE
  8
1
 62
7
 10
98.00000000000006
 20
-17.517136682867
 30
0
 11
109.5000000000001
 21
-17.517136682867
 31
0
  0
LINE
  8
1
 62
7
 10
98.00000000000006
 20
-19.00020593517101
 30
0
 11
105.0000000000001
 21
-19.00020593517101
 31
0
  0
LINE
  8
1
 62
7
 10
105.0000000000001
 20
-5.190748865208093
 30
0
 11
108.3056131734832
 21
-5.190748865207212
 31
0
  0
LINE
  8
1
 62
7
 10
98.00000000000006
 20
-5.423402264367922
 30
0
 11
105.0000000000001
 21
-5.423402264367922
 31
0
  0
LINE
  8
1
 62
7
 10
109.5000000000001
 20
10.5
 30
0
 11
111.1000000000001
 21
10.5
 31
0
  0
LINE
  8
1
 62
7
 10
98.00000000000006
 20
22
 30
0
 11
98.00000000000006
 21
-22
 31
0
  0
LINE
  8
1
 62
7
 10
105.0000000000001
 20
21
 30
0
 11
107.5030955590147
 21
21
 31
0
  0
LINE
  8
1
 62
7
 10
111.6000000000001
 20
9.999999999999996
 30
0
 11
111.6000000000001
 21
-10.00000000000011
 31
0
  0
LINE
  8
1
 62
7
 10
102.3943369725352
 20
-22
 30
0
 11
102.3943369725352
 21
-49.15219535232989
 31
0
  0
LINE
  8
1
 62
7
 10
99.39433697253517
 20
-49.15219535232989
 30
0
 11
99.39433697253517
 21
-22
 31
0
  0
LINE
  8
1
 62
7
 10
100.8943369725352
 20
-49.15219535232989
 30
0
 11
100.8943369725352
 21
-22
 31
0
  0
LINE
  8
1
 62
3
 10
95.10000000000058
 20
-23.87634983292821
 30
0
 11
95.10000000000058
 21
-21.52513152805792
 31
0
  0
LINE
  8
1
 62
7
 10
96.60000000000058
 20
20.896686010581
 30
0
 11
96.60000000000058
 21
22
 31
0
  0
LINE
  8
1
 62
7
 10
93.60000000000007
 20
22
 30
0
 11
93.60000000000058
 21
20.896686010581
 31
0
  0
LINE
  8
1
 62
7
 10
98.04999999999856
 20
22.2509802037651
 30
0
 11
98.04999999999856
 21
22
 31
0
  0
LINE
  8
1
 62
7
 10
92.14999999999976
 20
22.2509802037651
 30
0
 11
92.15000000000008
 21
22
 31
0
  0
LINE
  8
1
 62
3
 10
95.10000000000058
 20
24.16117345456984
 30
0
 11
95.10000000000058
 21
19.06946085579091
 31
0
  0
LINE
  8
1
 62
7
 10
105.0000000000001
 20
22
 30
0
 11
58.00000000000011
 21
22
 31
0
  0
ARC
  8
1
 62
7
 10
11.99999999999989
 20
27.5
 30
0
 40
15
 50
270
 51
284.8351115819802
  0
ARC
  8
1
 62
7
 10
-101.0029411764706
 20
-24.50294117647061
 30
0
 40
0.7029473295325235
 50
0.2397298960826564
 51
89.76027010391822
  0
ARC
  8
1
 62
7
 10
-98.9970588235294
 20
-24.50294117647061
 30
0
 40
0.7029473295325199
 50
89.76027010391822
 51
179.7602701039173
  0
ARC
  8
1
 62
7
 10
-98.9970588235294
 20
-22.49705882352941
 30
0
 40
0.7029473295325234
 50
180.2397298960809
 51
270.2397298960818
  0
ARC
  8
1
 62
7
 10
-101.0029411764706
 20
-22.49705882352941
 30
0
 40
0.7029473295325306
 50
270.2397298960818
 51
359.760270103919
  0
ARC
  8
1
 62
7
 10
-121.5029411764705
 20
11.49705882352939
 30
0
 40
0.702947329532623
 50
0.2397298960826225
 51
89.76027010391822
  0
ARC
  8
1
 62
7
 10
-119.4970588235293
 20
11.49705882352939
 30
0
 40
0.7029473295325217
 50
89.76027010391822
 51
179.7602701039173
  0
ARC
  8
1
 62
7
 10
-119.4970588235293
 20
13.50294117647059
 30
0
 40
0.7029473295325234
 50
180.2397298960809
 51
270.2397298960818
  0
ARC
  8
1
 62
7
 10
-121.5029411764705
 20
13.50294117647059
 30
0
 40
0.7029473295325306
 50
270.2397298960818
 51
359.7602701039191
  0
ARC
  8
1
 62
7
 10
-80.50294117647047
 20
11.49705882352939
 30
0
 40
0.7029473295324951
 50
0.2397298960826661
 51
89.76027010392053
  0
ARC
  8
1
 62
7
 10
-78.4970588235293
 20
11.49705882352939
 30
0
 40
0.7029473295325217
 50
89.76027010391822
 51
179.7602701039173
  0
ARC
  8
1
 62
7
 10
-78.4970588235293
 20
13.50294117647059
 30
0
 40
0.7029473295325234
 50
180.2397298960809
 51
270.2397298960818
  0
ARC
  8
1
 62
7
 10
-80.50294117647047
 20
13.50294117647059
 30
0
 40
0.7029473295325305
 50
270.2397298960795
 51
359.760270103919
  0
ARC
  8
1
 62
7
 10
57.47500000000014
 20
-24.75
 30
0
 40
0.9250000000000037
 50
161.0753555839481
 51
198.9246444160519
  0
ARC
  8
1
 62
7
 10
48.60507042253516
 20
-24.76521753674313
 30
0
 40
8.00000000000014
 50
338.4952052003301
 51
357.9599648354469
  0
ARC
  8
1
 62
7
 10
48.60507042253516
 20
-24.73478246325697
 30
0
 40
8.000000000000199
 50
2.040035164553866
 51
21.50479479967068
  0
ARC
  8
1
 62
7
 10
57.47500000000014
 20
24.75000000000012
 30
0
 40
0.9250000000000025
 50
161.0753555839483
 51
198.9246444160519
  0
ARC
  8
1
 62
7
 10
48.60507042253516
 20
24.73478246325698
 30
0
 40
8.00000000000014
 50
338.4952052003301
 51
357.959964835447
  0
ARC
  8
1
 62
7
 10
48.60507042253516
 20
24.76521753674314
 30
0
 40
8.000000000000199
 50
2.040035164553916
 51
21.50479479966954
  0
ARC
  8
1
 62
7
 10
54.50000000000011
 20
-20.70000000000005
 30
0
 40
0.5
 50
270
 51
0
  0
ARC
  8
1
 62
7
 10
54.50000000000011
 20
20.70000000000005
 30
0
 40
0.5
 50
0
 51
90
  0
ARC
  8
1
 62
7
 10
54.40000000000012
 20
21.60000000000002
 30
0
 40
0.3999999999999729
 50
239.9494502970939
 51
270
  0
ARC
  8
1
 62
7
 10
95.10000000000058
 20
-19.045586756618
 30
0
 40
3.900000000001191
 50
229.2479700672899
 51
310.7520299326901
  0
ARC
  8
1
 62
7
 10
95.10000000000058
 20
20.896686010581
 30
0
 40
1.5
 50
180
 51
0
  0
ARC
  8
1
 62
7
 10
95.10000000000058
 20
19.70000000000005
 30
0
 40
3.899999999998626
 50
40.85125210332778
 51
139.1487478966994
  0
ARC
  8
1
 62
7
 10
54.40000000000012
 20
-21.60000000000002
 30
0
 40
0.3999999999999702
 50
90
 51
120.0505497029259
  0
CIRCLE
  8
1
 62
7
 10
-79.4999999999999
 20
12.5
 30
0
 40
3.000000000000036
  0
CIRCLE
  8
1
 62
7
 10
-120.4999999999999
 20
12.5
 30
0
 40
3.000000000000005
  0
CIRCLE
  8
1
 62
3
 10
-75.24999999999989
 20
24.75
 30
0
 40
2
  0
CIRCLE
  8
1
 62
7
 10
-75.24999999999989
 20
24.75
 30
0
 40
1.624999999999986
  0
CIRCLE
  8
1
 62
3
 10
-124.7499999999999
 20
24.75
 30
0
 40
2
  0
CIRCLE
  8
1
 62
7
 10
-124.7499999999999
 20
24.75
 30
0
 40
1.625
  0
CIRCLE
  8
1
 62
3
 10
-124.7499999999999
 20
-24.75
 30
0
 40
2
  0
CIRCLE
  8
1
 62
7
 10
-124.7499999999999
 20
-24.75
 30
0
 40
1.625
  0
CIRCLE
  8
1
 62
7
 10
-75.24999999999989
 20
-24.75
 30
0
 40
1.625
  0
CIRCLE
  8
1
 62
3
 10
-75.24999999999989
 20
-24.75
 30
0
 40
2
  0
CIRCLE
  8
1
 62
7
 10
-124.7499999999999
 20
24.75
 30
0
 40
5.75
  0
CIRCLE
  8
1
 62
7
 10
-75.24999999999989
 20
24.75
 30
0
 40
5.75
  0
CIRCLE
  8
1
 62
7
 10
-75.24999999999989
 20
-24.75
 30
0
 40
5.75
  0
CIRCLE
  8
1
 62
7
 10
-124.7499999999999
 20
-24.75
 30
0
 40
5.75
  0
CIRCLE
  8
1
 62
7
 10
-100
 20
10
 30
0
 40
9.0000000000001
  0
CIRCLE
  8
1
 62
7
 10
-100
 20
10
 30
0
 40
5.249999999999901
  0
CIRCLE
  8
1
 62
7
 10
-100
 20
10
 30
0
 40
3
  0
CIRCLE
  8
1
 62
7
 10
-100
 20
-23.5
 30
0
 40
2.999999999999816
  0
CIRCLE
  8
1
 62
7
 10
107.0000000000001
 20
-11.873806877513
 30
0
 40
2
  0
POLYLINE
  8
1
 62
2
 66
1
  0
VERTEX
  8
1
 10
-145.5838580138956
 20
-40.2925647953349
 30
0
 42
0.00510212242527534
  0
VERTEX
  8
1
 10
-145.5749348646696
 20
-40.51349353263147
 30
0
 42
0.01606637972595409
  0
VERTEX
  8
1
 10
-145.5573193652592
 20
-40.72600873188381
 30
0
 42
0.03108709041799795
  0
VERTEX
  8
1
 10
-145.5223191654803
 20
-40.92169685504765
 30
0
 42
0.05251856945916016
  0
VERTEX
  8
1
 10
-145.4612419151486
 20
-41.09214436407876
 30
0
 42
0.08125437472148957
  0
VERTEX
  8
1
 10
-145.3653952640796
 20
-41.22893772093289
 30
0
 42
0.08485033053568498
  0
VERTEX
  8
1
 10
-145.2356393637704
 20
-41.32318242631143
 30
0
 42
0.04133592999715131
  0
VERTEX
  8
1
 10
-145.0740861941994
 20
-41.3870083099897
 30
0
 42
0.03655890767481184
  0
VERTEX
  8
1
 10
-144.8887735154346
 20
-41.42855384808122
 30
0
 42
0.005990695831979544
  0
VERTEX
  8
1
 10
-144.6877390875436
 20
-41.45595751669947
 30
0
 42
0.01066155707622715
  0
VERTEX
  8
1
 10
-144.4790206705943
 20
-41.47735779195796
 30
0
 42
-0.00728382320758722
  0
VERTEX
  8
1
 10
-144.2660945405438
 20
-41.50122994267451
 30
0
 42
-0.01781062613259013
  0
VERTEX
  8
1
 10
-144.0617399433194
 20
-41.53443308939876
 30
0
 42
-0.0317817254526418
  0
VERTEX
  8
1
 10
-143.874158974831
 20
-41.58406859832832
 30
0
 42
-0.05138225866239748
  0
VERTEX
  8
1
 10
-143.7115537309884
 20
-41.65723783566082
 30
0
 42
-0.07533925343493882
  0
VERTEX
  8
1
 10
-143.5821263077014
 20
-41.76104216759393
 30
0
 42
-0.07368280993748483
  0
VERTEX
  8
1
 10
-143.4925461411775
 20
-41.89749792580275
 30
0
 42
-0.04967281548813628
  0
VERTEX
  8
1
 10
-143.4349603549484
 20
-42.06313099467064
 30
0
 42
-0.03006130296737245
  0
VERTEX
  8
1
 10
-143.4013703539405
 20
-42.25064704653285
 30
0
 42
-0.01590120516232816
  0
VERTEX
  8
1
 10
-143.3837775430799
 20
-42.45275175372457
 30
0
 42
-0.004963902395050976
  0
VERTEX
  8
1
 10
-143.3741833272931
 20
-42.66215078858107
 30
0
  0
SEQEND
  8
1
  0
POLYLINE
  8
1
 62
2
 66
1
  0
VERTEX
  8
1
 10
99.39433697253517
 20
-53.50414249122189
 30
0
 42
-0.00493407863608597
  0
VERTEX
  8
1
 10
99.54534707276247
 20
-53.31823622454745
 30
0
 42
-0.01634587272616078
  0
VERTEX
  8
1
 10
99.69628661568423
 20
-53.14741098073307
 30
0
 42
-0.03331015729447358
  0
VERTEX
  8
1
 10
99.84708504399495
 20
-53.00674778263883
 30
0
 42
-0.06243861218587243
  0
VERTEX
  8
1
 10
99.99767180038911
 20
-52.91132765312479
 30
0
 42
-0.1069941638610483
  0
VERTEX
  8
1
 10
100.1479763275612
 20
-52.87623161505101
 30
0
 42
-0.1070085680457071
  0
VERTEX
  8
1
 10
100.29712195733
 20
-52.91116350201636
 30
0
 42
-0.06296447185961977
  0
VERTEX
  8
1
 10
100.4461248200802
 20
-53.00603272771701
 30
0
 42
-0.03373007877707639
  0
VERTEX
  8
1
 10
100.5951909324435
 20
-53.14622709755209
 30
0
 42
-0.01666255219670704
  0
VERTEX
  8
1
 10
100.7445263110513
 20
-53.31713441692068
 30
0
 42
-0.005266270715066847
  0
VERTEX
  8
1
 10
100.8943369725352
 20
-53.50414249122189
 30
0
 42
0.004633674951970739
  0
VERTEX
  8
1
 10
101.0540326012401
 20
-53.70404846438353
 30
0
 42
0.01574387385484645
  0
VERTEX
  8
1
 10
101.2138212384853
 20
-53.88815817456892
 30
0
 42
0.03306298376915772
  0
VERTEX
  8
1
 10
101.3730274954931
 20
-54.03899649986509
 30
0
 42
0.06382794567274806
  0
VERTEX
  8
1
 10
101.5309759834855
 20
-54.13908831835911
 30
0
 42
0.118471525269154
  0
VERTEX
  8
1
 10
101.6869913136847
 20
-54.17095850813802
 30
0
 42
0.1277305739102971
  0
VERTEX
  8
1
 10
101.8312173763402
 20
-54.12816682116954
 30
0
 42
0.0422888638324686
  0
VERTEX
  8
1
 10
101.9736054850721
 20
-54.02499412325788
 30
0
 42
0.04982109643838837
  0
VERTEX
  8
1
 10
102.1146151283613
 20
-53.87653566713887
 30
0
 42
0.01598923890360042
  0
VERTEX
  8
1
 10
102.2547057946887
 20
-53.69788670554828
 30
0
 42
0.004276663101367902
  0
VERTEX
  8
1
 10
102.3943369725352
 20
-53.50414249122189
 30
0
  0
SEQEND
  8
1
  0
POLYLINE
  8
1
 62
2
 66
1
  0
VERTEX
  8
1
 10
99.39433697253517
 20
-49.15219535232989
 30
0
 42
-0.00478620219691082
  0
VERTEX
  8
1
 10
99.54644107364794
 20
-48.95217829990288
 30
0
 42
-0.01597734592664967
  0
VERTEX
  8
1
 10
99.69820111723379
 20
-48.76850803998668
 30
0
 42
-0.0331632914344905
  0
VERTEX
  8
1
 10
99.8492730457659
 20
-48.61753136509211
 30
0
 42
-0.06442596484468897
  0
VERTEX
  8
1
 10
99.99931280171732
 20
-48.51559506772998
 30
0
 42
-0.1161597955860992
  0
VERTEX
  8
1
 10
100.1479763275612
 20
-48.47904594041111
 30
0
 42
-0.1160531622144446
  0
VERTEX
  8
1
 10
100.2944518364142
 20
-48.51829660005613
 30
0
 42
-0.06337138659155879
  0
VERTEX
  8
1
 10
100.4407755535122
 20
-48.62182207936405
 30
0
 42
-0.03075748353551854
  0
VERTEX
  8
1
 10
100.5884975806811
 20
-48.77303717004135
 30
0
 42
-0.01233166728914808
  0
VERTEX
  8
1
 10
100.7391680197468
 20
-48.95535666379448
 30
0
 42
0.0002860134758724578
  0
VERTEX
  8
1
 10
100.8943369725352
 20
-49.15219535232989
 30
0
 42
0.01116960156997278
  0
VERTEX
  8
1
 10
101.0725677995876
 20
-49.36793396265935
 30
0
 42
0.02014715011183083
  0
VERTEX
  8
1
 10
101.2544784425238
 20
-49.56198936906959
 30
0
 42
0.03859983460162977
  0
VERTEX
  8
1
 10
101.4363106297701
 20
-49.71521898029261
 30
0
 42
0.07034189392703415
  0
VERTEX
  8
1
 10
101.614306089753
 20
-49.80848020506041
 30
0
 42
0.1303926716602282
  0
VERTEX
  8
1
 10
101.7847065508987
 20
-49.82263045210493
 30
0
 42
0.1148326588782018
  0
VERTEX
  8
1
 10
101.9156381703368
 20
-49.76647921041382
 30
0
 42
0.03979547205361649
  0
VERTEX
  8
1
 10
102.040566099701
 20
-49.65837078321344
 30
0
 42
0.04593415206519172
  0
VERTEX
  8
1
 10
102.1609912615098
 20
-49.51129446688113
 30
0
 42
0.01530954315334996
  0
VERTEX
  8
1
 10
102.2784145782817
 20
-49.33823955779416
 30
0
 42
0.00416525448586198
  0
VERTEX
  8
1
 10
102.3943369725352
 20
-49.15219535232989
 30
0
  0
SEQEND
  8
1
  0
POLYLINE
  8
1
 62
7
 66
1
  0
VERTEX
  8
1
 10
107.9357753639381
 20
-18.7372649163681
 30
0
 42
0.0006469231333529638
  0
VERTEX
  8
1
 10
108.1178106954388
 20
-18.71329038042011
 30
0
 42
0.001939430959938933
  0
VERTEX
  8
1
 10
108.299814705339
 20
-18.68836152534767
 30
0
 42
0.003224838912290203
  0
VERTEX
  8
1
 10
108.4817560720382
 20
-18.66152403202632
 30
0
 42
0.00449848459864417
  0
VERTEX
  8
1
 10
108.6636034739358
 20
-18.63182358133162
 30
0
 42
0.00575073977339808
  0
VERTEX
  8
1
 10
108.8453255894314
 20
-18.59830585413911
 30
0
 42
0.00440953847042188
  0
VERTEX
  8
1
 10
108.9359975193968
 20
-18.579669273836
 30
0
 42
0.008155476055363181
  0
VERTEX
  8
1
 10
109.0260890328572
 20
-18.55877963030342
 30
0
 42
0.01073214353243953
  0
VERTEX
  8
1
 10
109.1150588284074
 20
-18.53457563490177
 30
0
 42
0.01463651226168731
  0
VERTEX
  8
1
 10
109.2023656046419
 20
-18.50599599899149
 30
0
 42
0.01731903604988047
  0
VERTEX
  8
1
 10
109.2874680601555
 20
-18.471979433933
 30
0
 42
0.01021451201363648
  0
VERTEX
  8
1
 10
109.3308721841294
 20
-18.45179312381414
 30
0
 42
0.005813929581895367
  0
VERTEX
  8
1
 10
109.3736778174333
 20
-18.43019033227921
 30
0
 42
0.006163535980178381
  0
VERTEX
  8
1
 10
109.4160345827347
 20
-18.40752517968224
 30
0
 42
0.001793105058834391
  0
VERTEX
  8
1
 10
109.4580921027012
 20
-18.38415178637723
 30
0
 42
0.002175212296132207
  0
VERTEX
  8
1
 10
109.5000000000001
 20
-18.36042427271821
 30
0
  0
SEQEND
  8
1
  0
POLYLINE
  8
1
 62
7
 66
1
  0
VERTEX
  8
1
 10
108.3056131734832
 20
-5.190748865207212
 30
0
 42
0.002271026600336526
  0
VERTEX
  8
1
 10
108.4183173729505
 20
-5.182240875692047
 30
0
 42
0.006843212418000705
  0
VERTEX
  8
1
 10
108.5304832881812
 20
-5.171714218711219
 30
0
 42
0.01154903310226038
  0
VERTEX
  8
1
 10
108.6415726349389
 20
-5.157150226799063
 30
0
 42
0.01636043009976901
  0
VERTEX
  8
1
 10
108.7510471289869
 20
-5.136530232489913
 30
0
 42
0.02118775621017097
  0
VERTEX
  8
1
 10
108.8583684860888
 20
-5.107835568318109
 30
0
 42
0.01333203921690302
  0
VERTEX
  8
1
 10
108.917862521291
 20
-5.087437974912731
 30
0
 42
0.009175496568951447
  0
VERTEX
  8
1
 10
108.9765634975527
 20
-5.064311037455672
 30
0
 42
0.009389970364556029
  0
VERTEX
  8
1
 10
109.0345371101251
 20
-5.038945902167503
 30
0
 42
0.005326531553683626
  0
VERTEX
  8
1
 10
109.0918490542593
 20
-5.011833715268791
 30
0
 42
0.005635101820994489
  0
VERTEX
  8
1
 10
109.1485650252064
 20
-4.983465622980106
 30
0
 42
0.002934225036254072
  0
VERTEX
  8
1
 10
109.2198793713739
 20
-4.946254382151619
 30
0
 42
0.004491887137804841
  0
VERTEX
  8
1
 10
109.2905088167355
 20
-4.908055387287312
 30
0
 42
0.00109398551392857
  0
VERTEX
  8
1
 10
109.3606245864928
 20
-4.869115576896141
 30
0
 42
0.002636924427372741
  0
VERTEX
  8
1
 10
109.4303979058472
 20
-4.82968188948706
 30
0
 42
0.0004670070721720599
  0
VERTEX
  8
1
 10
109.5000000000001
 20
-4.790001263569025
 30
0
  0
SEQEND
  8
1
  0
ARC
  8
1
 62
7
 10
-100.2
 20
-22.09999999999999
 30
0
 40
0.09999999999999076
 50
90
 51
180
  0
ARC
  8
1
 62
7
 10
-99.8
 20
-22.09999999999999
 30
0
 40
0.09999999999999432
 50
0
 51
90
  0
ARC
  8
1
 62
7
 10
-98.59999999999999
 20
-23.30000000000001
 30
0
 40
0.09999999999999432
 50
0
 51
90
  0
ARC
  8
1
 62
7
 10
-98.59999999999999
 20
-23.70000000000002
 30
0
 40
0.09999999999999076
 50
270
 51
0
  0
ARC
  8
1
 62
7
 10
-99.8
 20
-24.90000000000001
 30
0
 40
0.09999999999999076
 50
270
 51
0
  0
ARC
  8
1
 62
7
 10
-100.2
 20
-24.90000000000001
 30
0
 40
0.09999999999999432
 50
180
 51
270
  0
ARC
  8
1
 62
7
 10
-101.4
 20
-23.70000000000002
 30
0
 40
0.09999999999999432
 50
180
 51
270
  0
ARC
  8
1
 62
7
 10
-101.4
 20
-23.30000000000001
 30
0
 40
0.09999999999999076
 50
90
 51
180
  0
ARC
  8
1
 62
7
 10
-120.6999999999999
 20
13.90000000000001
 30
0
 40
0.09999999999999076
 50
90
 51
180
  0
ARC
  8
1
 62
7
 10
-120.2999999999998
 20
13.90000000000001
 30
0
 40
0.09999999999989484
 50
0
 51
90
  0
ARC
  8
1
 62
7
 10
-119.0999999999999
 20
12.69999999999999
 30
0
 40
0.09999999999999432
 50
0
 51
90
  0
ARC
  8
1
 62
7
 10
-119.0999999999999
 20
12.29999999999998
 30
0
 40
0.09999999999998899
 50
270
 51
0
  0
ARC
  8
1
 62
7
 10
-120.2999999999998
 20
11.09999999999999
 30
0
 40
0.09999999999999076
 50
270
 51
0
  0
ARC
  8
1
 62
7
 10
-120.6999999999999
 20
11.09999999999999
 30
0
 40
0.09999999999989484
 50
180
 51
270
  0
ARC
  8
1
 62
7
 10
-121.8999999999999
 20
12.29999999999998
 30
0
 40
0.09999999999999432
 50
180
 51
270
  0
ARC
  8
1
 62
7
 10
-121.8999999999999
 20
12.69999999999999
 30
0
 40
0.09999999999998899
 50
90
 51
180
  0
ARC
  8
1
 62
7
 10
-79.6999999999999
 20
13.90000000000001
 30
0
 40
0.09999999999999076
 50
90
 51
180
  0
ARC
  8
1
 62
7
 10
-79.2999999999999
 20
13.90000000000001
 30
0
 40
0.09999999999999432
 50
0
 51
90
  0
ARC
  8
1
 62
7
 10
-78.09999999999991
 20
12.69999999999999
 30
0
 40
0.1000000000000085
 50
0
 51
90
  0
ARC
  8
1
 62
7
 10
-78.09999999999991
 20
12.29999999999998
 30
0
 40
0.09999999999998899
 50
270
 51
0
  0
ARC
  8
1
 62
7
 10
-79.29999999999996
 20
11.09999999999999
 30
0
 40
0.09999999999999076
 50
270
 51
0
  0
ARC
  8
1
 62
7
 10
-79.6999999999999
 20
11.09999999999999
 30
0
 40
0.09999999999999432
 50
180
 51
270
  0
ARC
  8
1
 62
7
 10
-80.89999999999991
 20
12.29999999999998
 30
0
 40
0.09999999999999432
 50
180
 51
270
  0
ARC
  8
1
 62
7
 10
-80.89999999999991
 20
12.69999999999999
 30
0
 40
0.09999999999998899
 50
90
 51
180
  0
ARC
  8
1
 62
7
 10
54.10000000000014
 20
-21.34999999999996
 30
0
 40
0.1000000000000066
 50
84.99999999992616
 51
180
  0
ARC
  8
1
 62
7
 10
54.10000000000014
 20
-28.15000000000003
 30
0
 40
0.1000000000001435
 50
180
 51
275.0000000000738
  0
ARC
  8
1
 62
7
 10
55.3038560597231
 20
-27.40458696655156
 30
0
 40
0.8000000000000604
 50
272.1313517246225
 51
338.4952052003255
  0
ARC
  8
1
 62
7
 10
55.3038560597231
 20
-22.09541303344843
 30
0
 40
0.7999999999999472
 50
21.50479479967444
 51
87.86864827537748
  0
ARC
  8
1
 62
7
 10
54.10000000000014
 20
28.15000000000009
 30
0
 40
0.09999999999995707
 50
84.99999999992369
 51
180
  0
ARC
  8
1
 62
7
 10
54.10000000000014
 20
21.35000000000008
 30
0
 40
0.1000000000001435
 50
180
 51
274.999999999971
  0
ARC
  8
1
 62
7
 10
55.3038560597231
 20
22.0954130334485
 30
0
 40
0.7999999999999999
 50
272.1313517246227
 51
338.4952052003289
  0
ARC
  8
1
 62
7
 10
55.3038560597231
 20
27.40458696655157
 30
0
 40
0.799999999999925
 50
21.50479479967041
 51
87.86864827541213
  0
ARC
  8
1
 62
7
 10
26
 20
29.5
 30
0
 40
1
 50
90
 51
180
  0
ARC
  8
1
 62
7
 10
26
 20
-29.5
 30
0
 40
1
 50
180
 51
270
  0
ARC
  8
1
 62
7
 10
25.99999999999989
 20
-20
 30
0
 40
1
 50
90
 51
180
  0
ARC
  8
1
 62
7
 10
25.99999999999989
 20
20
 30
0
 40
1
 50
180
 51
270
  0
ARC
  8
1
 62
7
 10
58.00000000000011
 20
-19
 30
0
 40
3
 50
180
 51
270
  0
ARC
  8
1
 62
7
 10
58.00000000000011
 20
19
 30
0
 40
3
 50
90
 51
180
  0
ARC
  8
1
 62
7
 10
106.2575378797542
 20
-12.48688747126209
 30
0
 40
0.05000000000091683
 50
134.9999999998618
 51
224.9999999998589
  0
ARC
  8
1
 62
7
 10
106.3989592359911
 20
-12.62830882749898
 30
0
 40
0.04999999999952635
 50
225.0000000001569
 51
315.0000000008218
  0
ARC
  8
1
 62
7
 10
107.7424621202462
 20
-12.48688747126209
 30
0
 40
0.04999999999954771
 50
315.0000000001411
 51
45.00000000078301
  0
ARC
  8
1
 62
7
 10
107.6010407640082
 20
-12.62830882749898
 30
0
 40
0.05000000000075355
 50
224.9999999987996
 51
315.0000000007298
  0
ARC
  8
1
 62
7
 10
107.7424621202462
 20
-11.28480594324503
 30
0
 40
0.0499999999996683
 50
315.0000000000029
 51
45.00000000181071
  0
ARC
  8
1
 62
7
 10
107.6010407640082
 20
-11.143384587007
 30
0
 40
0.05000000000022348
 50
44.99999999918245
 51
135.0000000013861
  0
ARC
  8
1
 62
7
 10
106.3989592359911
 20
-11.143384587007
 30
0
 40
0.05000000000030386
 50
44.99999999909033
 51
134.9999999999309
  0
ARC
  8
1
 62
7
 10
106.2575378797542
 20
-11.28480594324503
 30
0
 40
0.05000000000224576
 50
134.9999999994905
 51
224.9999999993523
  0
ARC
  8
1
 62
7
 10
107.9192388155418
 20
-11.8858467072531
 30
0
 40
0.5000000000011545
 50
135.0000000000179
 51
224.9999999998056
  0
ARC
  8
1
 62
7
 10
107.0000000000001
 20
-12.80508552279604
 30
0
 40
0.5000000000004021
 50
45.00000000007326
 51
134.9999999999014
  0
ARC
  8
1
 62
7
 10
106.0807611844571
 20
-11.8858467072531
 30
0
 40
0.4999999999994727
 50
315.0000000001783
 51
44.99999999991882
  0
ARC
  8
1
 62
7
 10
107.0000000000001
 20
-10.96660789171002
 30
0
 40
0.5000000000002451
 50
225.000000000106
 51
314.9999999999194
  0
ARC
  8
1
 62
7
 10
111.1000000000001
 20
-10.00000000000011
 30
0
 40
0.5
 50
270
 51
0
  0
ARC
  8
1
 62
7
 10
107.5000000000001
 20
-19
 30
0
 40
2
 50
270
 51
0
  0
ARC
  8
1
 62
7
 10
107.5015477795069
 20
19.00154777950775
 30
0
 40
1.998452819861418
 50
359.9556250508417
 51
89.95562505084023
  0
ARC
  8
1
 62
7
 10
111.1000000000001
 20
9.999999999999996
 30
0
 40
0.5
 50
0
 51
90
  0
LINE
  8
1
 62
2
 10
51.23246015591621
 20
40.5
 30
0
 11
28.55071250152514
 21
40.5
 31
0
  0
LINE
  8
1
 62
2
 10
28.55071250152514
 20
40.5
 30
0
 11
36.2782321438101
 21
31.5
 31
0
  0
SOLID
  8
1
 62
2
 10
33.6486132462084
 20
33.85529745676809
 30
0
 11
34.34781117601194
 21
34.45563809414607
 31
0
 12
36.2782321438101
 22
31.5
 32
0
 13
36.2782321438101
 23
31.5
 33
0
  0
LINE
  8
1
 62
2
 10
92.05231849750977
 20
31.99999999999999
 30
0
 11
68.22002336582781
 21
31.99999999999999
 31
0
  0
LINE
  8
1
 62
2
 10
68.22002336582781
 20
31.99999999999999
 30
0
 11
78.22002336582777
 21
22
 31
0
  0
SOLID
  8
1
 62
2
 10
75.41932632336018
 20
24.14905042583825
 30
0
 11
76.07097293998953
 21
24.8006970424676
 31
0
 12
78.22002336582777
 22
22
 32
0
 13
78.22002336582777
 23
22
 33
0
  0
LINE
  8
1
 62
2
 10
17.61034870426507
 20
-59.34991020425775
 30
0
 11
78.96713648055507
 21
-59.34991020425775
 31
0
  0
LINE
  8
1
 62
2
 10
78.96713648055507
 20
-59.34991020425775
 30
0
 11
99.40052809056536
 21
-38.91651859424746
 31
0
  0
SOLID
  8
1
 62
2
 10
97.25147766472712
 20
-41.71721563671505
 30
0
 11
96.59983104809777
 21
-41.0655690200857
 31
0
 12
99.40052809056536
 22
-38.91651859424746
 32
0
 13
99.40052809056536
 23
-38.91651859424746
 33
0
  0
TEXT
  8
1
 62
2
 10
-43.68589412299282
 20
-1.422569230550421
 30
0
 40
2
  1
%%p0.0118
 50
90
 41
0.63
 72
1
 73
2
 11
-44.68589412299282
 21
4.247430769449579
 31
0
  0
TEXT
  8
1
 62
2
 10
-43.08589412299282
 20
-11.088
 30
0
 40
3.2
  1
(1.949    )
 50
90
 41
0.6300000000000001
 72
1
 73
2
 11
-44.68589412299282
 21
0
 31
0
  0
TEXT
  8
1
 62
2
 10
-101.4384551780371
 20
36.86368327390348
 30
0
 40
2
  1
%%p0.0118
 41
0.63
 72
1
 73
2
 11
-95.7684551780371
 21
37.86368327390348
 31
0
  0
TEXT
  8
1
 62
2
 10
-111.088
 20
36.26368327390348
 30
0
 40
3.2
  1
(1.949    )
 41
0.6300000000000001
 72
1
 73
2
 11
-100
 21
37.86368327390348
 31
0
  0
TEXT
  8
1
 62
2
 10
-111.088
 20
48.26368327390348
 30
0
 40
3.2
  1
(2.402SQU.)
 41
0.6300000000000001
 72
1
 73
2
 11
-100
 21
49.86368327390348
 31
0
  0
TEXT
  8
1
 62
2
 10
-57.7597364447559
 20
-46.48481685313686
 30
0
 40
3.5
  1
(4-M4 DEPTH 0.236MAX)
 41
0.6570000000000001
 73
2
 11
-57.7597364447559
 21
-44.73481685313686
 31
0
  0
TEXT
  8
1
 62
2
 10
-55.68589412299282
 20
-10.42256923055042
 30
0
 40
2
  1
%%p0.0197
 50
90
 41
0.63
 72
1
 73
2
 11
-56.68589412299282
 21
-4.752569230550419
 31
0
  0
TEXT
  8
1
 62
2
 10
-55.08589412299282
 20
-20.588
 30
0
 40
3.2
  1
(0.394    )
 50
90
 41
0.6300000000000001
 72
1
 73
2
 11
-56.68589412299282
 21
-9.499999999999998
 31
0
  0
TEXT
  8
1
 62
2
 10
30.57524174352606
 20
41.6149370672025
 30
0
 40
3
  1
NAME PLATE
 41
0.6300000000000001
 72
1
 73
2
 11
40.02524174352607
 21
43.1149370672025
 31
0
  0
TEXT
  8
1
 62
2
 10
-29.29497474686596
 20
18.0407427540474
 30
0
 40
3.2
  1
(0.709DIA.)
 50
90
 41
0.6300000000000001
 72
1
 73
2
 11
-30.89497474686596
 21
29.1287427540474
 31
0
  0
TEXT
  8
1
 62
2
 10
5.080996675841139
 20
60.30000000000001
 30
0
 40
3.2
  1
(0.984)
 41
0.6300000000000001
 72
1
 73
2
 11
12.13699667584114
 21
61.90000000000001
 31
0
  0
TEXT
  8
1
 62
2
 10
-1.119003324158902
 20
48.30000000000001
 30
0
 40
3.2
  1
(0.472)
 41
0.6300000000000001
 72
1
 73
2
 11
5.936996675841099
 21
49.90000000000001
 31
0
  0
TEXT
  8
1
 62
2
 10
10.8969966758411
 20
48.1492510903264
 30
0
 40
3.2
  1
(0.197)
 41
0.45
 72
1
 73
2
 11
15.9369966758411
 21
49.7492510903264
 31
0
  0
TEXT
  8
1
 62
2
 10
-5.91844320358587
 20
27.16765118319298
 30
0
 40
2
  1
 %%p0.0118
 50
90
 41
0.63
 72
1
 73
2
 11
-6.91844320358587
 21
33.46765118319298
 31
0
  0
TEXT
  8
1
 62
2
 10
-5.318443203585871
 20
19.1849450575193
 30
0
 40
3.2
  1
(0.217    )
 50
90
 41
0.6300000000000001
 72
1
 73
2
 11
-6.91844320358587
 21
30.2729450575193
 31
0
  0
TEXT
  8
1
 62
2
 10
-18.29999999999991
 20
35.64128883066108
 30
0
 40
2
  1
 0
 50
90
 41
0.63
  0
TEXT
  8
1
 62
2
 10
-15.89999999999991
 20
35.64128883066108
 30
0
 40
2
  1
-0.000787
 50
90
 41
0.63
  0
TEXT
  8
1
 62
2
 10
-16.49999999999991
 20
16.63694505751928
 30
0
 40
3.2
  1
(0.236DIA.      )
 50
90
 41
0.6300000000000001
 72
1
 73
2
 11
-18.09999999999991
 21
33.77294505751929
 31
0
  0
TEXT
  8
1
 62
2
 10
-142.5
 20
93.5
 30
0
 40
5
  1
DME44S6H
 41
0.9
 72
1
 73
2
 11
-124.5
 21
96
 31
0
  0
TEXT
  8
1
 62
2
 10
71.37210523109907
 20
32.82551303864307
 30
0
 40
3
  1
NAME PLATE
 41
0.6300000000000001
 72
1
 73
2
 11
80.82210523109907
 21
34.32551303864307
 31
0
  0
TEXT
  8
1
 62
2
 10
57.26286618148701
 20
60.30275744857979
 30
0
 40
3.2
  1
(3.409)
 41
0.6300000000000001
 72
1
 73
2
 11
64.31886618148701
 21
61.90275744857979
 31
0
  0
TEXT
  8
1
 62
2
 10
134.9929951484043
 20
-49.84885064204369
 30
0
 40
2
  1
%%p0.787
 50
90
 41
0.63
 72
1
 73
2
 11
133.9929951484043
 21
-44.80885064204369
 31
0
  0
TEXT
  8
1
 62
2
 10
123.6096923065294
 20
-69.11516907639204
 30
0
 40
3.2
  1
(0.118)
 50
90
 41
0.6300000000000001
 72
1
 73
2
 11
122.0096923065294
 21
-62.05916907639204
 31
0
  0
TEXT
  8
1
 62
2
 10
135.4929951484043
 20
-59.37715881038471
 30
0
 40
3
  1
(5.906    )
 50
90
 41
0.6300000000000001
 72
1
 73
2
 11
133.9929951484043
 21
-48.9821588103847
 31
0
  0
TEXT
  8
1
 62
2
 10
135.4929951484043
 20
-10.395
 30
0
 40
3
  1
(1.732DIA.)
 50
90
 41
0.6300000000000001
 72
1
 73
2
 11
133.9929951484043
 21
0
 31
0
  0
TEXT
  8
1
 62
2
 10
18.80671013148863
 20
-50.9506031044043
 30
0
 40
3.5
  1
LEAD WIRES (RED,BLACK)
 41
0.9
 73
2
 11
18.80671013148863
 21
-49.2006031044043
 31
0
  0
TEXT
  8
1
 62
2
 10
18.80671013148863
 20
-58.11594311103875
 30
0
 40
3.5
  1
UL1007 AWG22
 41
0.9
 73
2
 11
18.80671013148863
 21
-56.36594311103875
 31
0
  0
TEXT
  8
1
 62
2
 10
139.8243394475086
 20
-66.1181588103847
 30
0
 40
3.2
  1
(FROM MOTOR CASE)
 50
90
 41
0.6300000000000001
 72
1
 73
2
 11
138.2243394475086
 21
-48.9821588103847
 31
0
  0
TEXT
  8
1
 62
2
 10
32.19828808234679
 20
48.1492510903264
 30
0
 40
3.2
  1
(1.142)
 41
0.6300000000000001
 72
1
 73
2
 11
39.25428808234679
 21
49.7492510903264
 31
0
  0
DIMENSION
  8
1
  6
CONTINUOUS
 62
2
  2
*D0
  3
DMST_1
 10
20
 20
52.5038631127894
 30
0
 11
15.4685847534209
 21
55.1038631127894
 31
0
 12
0
 22
0
 32
0
 70
0
 13
24.99999999999999
 23
29.5
 33
0
 14
20
 24
19.00000000000012
 34
0
 53
0
  0
DIMENSION
  8
1
  6
CONTINUOUS
 62
2
  2
*D1
  3
DMST_2
 10
-69.49999999999989
 20
52.3174890833463
 30
0
 11
-99.9999999999999
 21
54.9174890833463
 31
0
 12
0
 22
0
 32
0
 70
0
  1
üá<>
 13
-130.5
 23
24.75
 33
0
 14
-69.49999999999989
 24
24.75
 34
0
 53
0
  0
DIMENSION
  8
1
  6
CONTINUOUS
 62
2
  2
*D2
  3
DMST_3
 10
-124.7499999999999
 20
40.4603039403511
 30
0
 11
-99.9999999999999
 21
43.0603039403511
 31
0
 12
0
 22
0
 32
0
 70
0
 13
-75.24999999999989
 23
30.5
 33
0
 14
-124.7499999999999
 24
30.5
 34
0
 53
0
  0
DIMENSION
  8
1
  6
CONTINUOUS
 62
2
  2
*D3
  3
DMST_3
 10
-47.38099567361081
 20
24.75
 30
0
 11
-49.98099567361081
 21
-2.775557561562891e-016
 31
0
 12
0
 22
0
 32
0
 70
0
 13
-69.49999999999989
 23
-24.75
 33
0
 14
-69.49999999999989
 24
24.75
 34
0
 50
90
 53
0
  0
DIMENSION
  8
1
  6
CONTINUOUS
 62
2
  2
*D4
  3
DMST_4
 10
-59.4462016085883
 20
0
 30
0
 11
-62.04620160858829
 21
-8.52885247127719
 31
0
 12
0
 22
0
 32
0
 70
0
 13
-90.9999999999999
 23
10
 33
0
 14
-69.49999999999989
 24
0
 34
0
 50
90
 53
0
  0
DIMENSION
  8
1
  6
CONTINUOUS
 62
2
  2
*D5
  3
DMST_1
 10
0
 20
64.449904520602
 30
0
 11
12.5
 21
67.049904520602
 31
0
 12
0
 22
0
 32
0
 70
0
 13
24.99999999999999
 23
29.5
 33
0
 14
0
 24
12.5
 34
0
 53
0
  0
DIMENSION
  8
1
  6
CONTINUOUS
 62
2
  2
*D6
  3
DMST_1
 10
-33.49820191931385
 20
19.00000000000012
 30
0
 11
-36.09820191931385
 21
28.8284747062429
 31
0
 12
0
 22
0
 32
0
 70
0
  1
âË<>
 13
20
 23
1.000183990690921
 33
0
 14
20
 24
19.00000000000012
 34
0
 50
90
 53
0
  0
DIMENSION
  8
1
  6
CONTINUOUS
 62
2
  2
*D7
  3
DMST_5
 10
-9.462236904234031
 20
12.5
 30
0
 11
-12.06223690423394
 21
29.6616550740146
 31
0
 12
0
 22
0
 32
0
 70
0
 13
0
 23
7.000000000000121
 33
0
 14
0
 24
12.5
 34
0
 50
90
 53
0
  0
DIMENSION
  8
1
  6
CONTINUOUS
 62
2
  2
*D8
  3
DMST_1
 10
0
 20
52.5337219705081
 30
0
 11
5.999999999999945
 21
55.1337219705081
 31
0
 12
0
 22
0
 32
0
 70
0
 13
11.99999999999989
 23
12.5
 33
0
 14
0
 24
12.5
 34
0
 53
0
  0
DIMENSION
  8
1
  6
CONTINUOUS
 62
2
  2
*D9
  3
DMST_6
 10
-21.5906949178695
 20
13.00000000000023
 30
0
 11
-24.9906949178695
 21
32.3525508844282
 31
0
 12
0
 22
0
 32
0
 70
0
  1
âË<>
 13
0
 23
7.000000000000121
 33
0
 14
15.84057287393535
 24
13.00000000000023
 34
0
 50
90
 53
0
  0
DIMENSION
  8
1
  6
CONTINUOUS
 62
2
  2
*D10
  3
DMST_1
 10
24.99999999999999
 20
64.62443220687901
 30
0
 11
64.71197863029828
 21
67.224432206879
 31
0
 12
0
 22
0
 32
0
 70
0
  1
86.6
 13
111.6000000000001
 23
9.999999999999996
 33
0
 14
24.99999999999999
 24
29.5
 34
0
 53
0
  0
DIMENSION
  8
1
  6
CONTINUOUS
 62
2
  2
*D11
  3
DMST_1
 10
54.00000000000011
 20
52.484356262941
 30
0
 11
39.50000000000006
 21
55.084356262941
 31
0
 12
0
 22
0
 32
0
 70
0
 13
24.99999999999999
 23
29.5
 33
0
 14
54.00000000000011
 24
30
 34
0
 53
0
  0
DIMENSION
  8
1
  6
CONTINUOUS
 62
2
  2
*D12
  3
DMST_7
 10
119.5121336719101
 20
-69.7823380118422
 30
0
 11
116.9121336719101
 21
-61.54993385985932
 31
0
 12
0
 22
0
 32
0
 70
0
  1
(<>
 13
102.0968821351011
 23
-72.7823380118422
 33
0
 14
102.3943369725352
 24
-69.7823380118422
 34
0
 50
90
 53
0
  0
DIMENSION
  8
1
  6
CONTINUOUS
 62
2
  2
*D13
  3
DMST_1
 10
131.5107268404731
 20
22
 30
0
 11
128.9107268404731
 21
-3.108624468950438e-015
 31
0
 12
0
 22
0
 32
0
 70
0
  1
âË<>
 13
105.0000000000001
 23
-22
 33
0
 14
105.0000000000012
 24
22
 34
0
 50
90
 53
0
  0
INSERT
  8
0
  2
___R___O_______R
 10
0.5
 20
-3.75
 30
0
  0
INSERT
  8
1
  2
*D14
 10
0
 20
0
 30
0
  0
INSERT
  8
1
  2
*D15
 10
0
 20
0
 30
0
  0
ENDSEC
  0
EOF
