  0
SECTION
  2
HEADER
  9
$ACADVER
  1
AC1009
  9
$INSBASE
 10
0
 20
0
  9
$EXTMIN
 10
-194.5
 20
-146
  9
$EXTMAX
 10
194.5
 20
146
  9
$LIMMIN
 10
-194.5
 20
-146
  9
$LIMMAX
 10
194.5
 20
146
  9
$VIEWCTR
 10
10
 20
10
  9
$VIEWSIZE
 40
10
  9
$SNAPMODE
 70
0
  9
$SNAPUNIT
 10
1
 20
1
  9
$SNAPBASE
 10
0
 20
0
  9
$SNAPANG
 50
0
  9
$SNAPSTYLE
 70
0
  9
$SNAPISOPAIR
 70
0
  9
$GRIDMODE
 70
0
  9
$GRIDUNIT
 10
0
 20
0
  9
$ORTHOMODE
 70
0
  9
$REGENMODE
 70
1
  9
$FILLMODE
 70
1
  9
$QTEXTMODE
 70
0
  9
$DRAGMODE
 70
2
  9
$LTSCALE
 40
1
  9
$OSMODE
 70
0
  9
$ATTMODE
 70
1
  9
$TEXTSIZE
 40
3.5
  9
$TRACEWID
 40
0.5
  9
$TEXTSTYLE
  7
STANDARD
  9
$CLAYER
  8
0
  9
$CELTYPE
  6
BYLAYER
  9
$CECOLOR
 62
256
  9
$DIMSCALE
 40
1
  9
$DIMASZ
 40
0.18
  9
$DIMEXO
 40
0.0625
  9
$DIMDLI
 40
0.38
  9
$DIMRND
 40
0
  9
$DIMDLE
 40
0
  9
$DIMEXE
 40
0.18
  9
$DIMTP
 40
0
  9
$DIMTM
 40
0
  9
$DIMTXT
 40
0.18
  9
$DIMCEN
 40
0.09
  9
$DIMTSZ
 40
0
  9
$DIMTOL
 70
0
  9
$DIMLIM
 70
0
  9
$DIMTIH
 70
1
  9
$DIMTOH
 70
1
  9
$DIMSE1
 70
0
  9
$DIMSE2
 70
0
  9
$DIMTAD
 70
0
  9
$DIMZIN
 70
0
  9
$DIMBLK
  1

  9
$DIMASO
 70
1
  9
$DIMSHO
 70
1
  9
$DIMPOST
  1

  9
$DIMAPOST
  1

  9
$DIMALT
 70
0
  9
$DIMALTD
 70
2
  9
$DIMALTF
 40
25.4
  9
$DIMLFAC
 40
1
  9
$DIMTOFL
 70
0
  9
$DIMTVP
 40
0
  9
$DIMTIX
 70
0
  9
$DIMSOXD
 70
0
  9
$DIMSAH
 70
0
  9
$DIMBLK1
  1

  9
$DIMBLK2
  1

  9
$DIMSTYLE
  2
*UNNAMED
  9
$DIMCLRD
 70
0
  9
$DIMCLRE
 70
0
  9
$DIMCLRT
 70
0
  9
$DIMTFAC
 40
1
  9
$DIMGAP
 40
0.09
  9
$LUNITS
 70
2
  9
$LUPREC
 70
4
  9
$AXISMODE
 70
0
  9
$AXISUNIT
 10
0
 20
0
  9
$SKETCHINC
 40
0.1
  9
$FILLETRAD
 40
2
  9
$AUNITS
 70
0
  9
$AUPREC
 70
0
  9
$MENU
  1
ACAD
  9
$ELEVATION
 40
0
  9
$THICKNESS
 40
0
  9
$VIEWDIR
 10
0
 20
0
 30
1
  9
$LIMCHECK
 70
0
  9
$BLIPMODE
 70
1
  9
$CHAMFERA
 40
0
  9
$CHAMFERB
 40
0
  9
$FASTZOOM
 70
1
  9
$SKPOLY
 70
0
  9
$ANGBASE
 50
0
  9
$ANGDIR
 70
0
  9
$PDMODE
 70
0
  9
$PDSIZE
 40
0
  9
$PLINEWID
 40
0
  9
$COORDS
 70
2
  0
ENDSEC
  0
SECTION
  2
TABLES
  0
TABLE
  2
DIMSTYLE
 70
5
  0
DIMSTYLE
  2
DMST_1
 70
0
  3

  4

  5

  6

  7

 40
1
 41
3.2
 42
1
 43
7
 44
1
 45
0
 46
0
 47
0
 48
0
140
3.2
141
0
142
0
143
25.4
144
1
145
0
146
1
147
0.09
 71
0
 72
0
 73
0
 74
0
 75
0
 76
0
 77
1
 78
9
170
0
171
2
172
0
173
0
174
0
175
0
176
2
177
2
178
2
  0
DIMSTYLE
  2
DMST_2
 70
0
  3
)
  4

  5

  6

  7

 40
1
 41
3.2
 42
1
 43
7
 44
1
 45
0
 46
0
 47
0
 48
0
140
3.2
141
0
142
0
143
25.4
144
1
145
0
146
1
147
0.09
 71
0
 72
0
 73
0
 74
0
 75
0
 76
0
 77
1
 78
9
170
0
171
2
172
0
173
0
174
0
175
0
176
2
177
2
178
2
  0
DIMSTYLE
  2
DMST_3
 70
0
  3

  4

  5

  6

  7

 40
1
 41
3.2
 42
1
 43
7
 44
1
 45
0
 46
0
 47
0
 48
0
140
3.2
141
0
142
0
143
25.4
144
1
145
0
146
0.6
147
0.09
 71
1
 72
0
 73
0
 74
0
 75
0
 76
0
 77
1
 78
9
170
0
171
2
172
0
173
0
174
0
175
0
176
2
177
2
178
2
  0
DIMSTYLE
  2
DMST_4
 70
0
  3

  4

  5

  6

  7

 40
1
 41
3.2
 42
1
 43
7
 44
1
 45
0
 46
0
 47
0.2
 48
0.2
140
3.2
141
0
142
0
143
25.4
144
1
145
0
146
0.6
147
0.09
 71
1
 72
0
 73
0
 74
0
 75
0
 76
0
 77
1
 78
9
170
0
171
2
172
0
173
0
174
0
175
0
176
2
177
2
178
2
  0
DIMSTYLE
  2
DMST_5
 70
0
  3

  4

  5

  6

  7

 40
1
 41
3.2
 42
1
 43
7
 44
1
 45
0
 46
0
 47
0
 48
0.01
140
3.2
141
0
142
0
143
25.4
144
1
145
0
146
0.6
147
0.09
 71
1
 72
0
 73
0
 74
0
 75
0
 76
0
 77
1
 78
9
170
0
171
2
172
0
173
0
174
0
175
0
176
2
177
2
178
2
  0
ENDTAB
  0
TABLE
  2
LTYPE
 70
9
  0
LTYPE
  2
CONTINUOUS
 70
64
  3
Solid line
 72
65
 73
0
 40
0
  0
LTYPE
  2
BORDER
 70
64
  3
__ __ . __ __ .
 72
65
 73
6
 40
17.91447368421053
 49
5.118421052631579
 49
-2.559210526315789
 49
5.118421052631579
 49
-2.559210526315789
 49
0
 49
-2.559210526315789
  0
LTYPE
  2
CENTER
 70
64
  3
____ _ ____ _
 72
65
 73
4
 40
20.47368421052632
 49
12.79605263157895
 49
-2.559210526315789
 49
2.559210526315789
 49
-2.559210526315789
  0
LTYPE
  2
DASHDOT
 70
64
  3
__ . __ . __ .
 72
65
 73
4
 40
10.23684210526316
 49
5.118421052631579
 49
-2.559210526315789
 49
0
 49
-2.559210526315789
  0
LTYPE
  2
DASHED
 70
64
  3
__ __ __ __ __
 72
65
 73
2
 40
7.677631578947368
 49
5.118421052631579
 49
-2.559210526315789
  0
LTYPE
  2
DIVIDE
 70
64
  3
__ . . __ . . 
 72
65
 73
6
 40
12.79605263157895
 49
5.118421052631579
 49
-2.559210526315789
 49
0
 49
-2.559210526315789
 49
0
 49
-2.559210526315789
  0
LTYPE
  2
DOT
 70
64
  3
..............
 72
65
 73
4
 40
5.118421052631579
 49
0
 49
-2.559210526315789
 49
0
 49
-2.559210526315789
  0
LTYPE
  2
HIDDEN
 70
64
  3
_ _ _ _ _ _ _
 72
65
 73
2
 40
3.838815789473684
 49
2.559210526315789
 49
-1.279605263157895
  0
LTYPE
  2
PHANTOM
 70
64
  3
_____ _ _ _____ _ _ 
 72
65
 73
6
 40
25.59210526315789
 49
12.79605263157895
 49
-2.559210526315789
 49
2.559210526315789
 49
-2.559210526315789
 49
2.559210526315789
 49
-2.559210526315789
  0
ENDTAB
  0
TABLE
  2
LAYER
 70
3
  0
LAYER
  2
1
 70
0
 62
7
  6
CONTINUOUS
  0
LAYER
  2
0
 70
0
 62
7
  6
CONTINUOUS
  0
ENDTAB
  0
TABLE
  2
STYLE
 70
4
  0
STYLE
  2
STANDARD
 70
0
 40
0
 41
1
 50
0
 71
0
 42
3.5
  3
txt
  4

  0
STYLE
  2
SIMPLEX
 70
0
 40
0
 41
1
 50
0
 71
0
 42
3.5
  3
simplex
  4

  0
STYLE
  2
COMPLEX
 70
0
 40
0
 41
1
 50
0
 71
0
 42
3.5
  3
complex
  4

  0
STYLE
  2
ITALIC
 70
0
 40
0
 41
1
 50
0
 71
0
 42
3.5
  3
italic
  4

  0
ENDTAB
  0
TABLE
  2
VIEW
 70
0
  0
ENDTAB
  0
ENDSEC
  0
SECTION
  2
BLOCKS
  0
BLOCK
  8
0
  2
___R___O_______R
 70
0
 10
0.5
 20
-3.75
 30
0
  0
LINE
  8
1
 62
4
  6
PHANTOM
 10
194.5
 20
-136.5
 30
0
 11
194.5
 21
-146
 31
0
  0
LINE
  8
1
 62
4
  6
PHANTOM
 10
-194.5
 20
-146
 30
0
 11
-194.5
 21
146
 31
0
  0
LINE
  8
1
 62
4
  6
PHANTOM
 10
194.5
 20
146
 30
0
 11
194.5
 21
129
 31
0
  0
LINE
  8
1
 62
4
  6
PHANTOM
 10
194.5
 20
146
 30
0
 11
-194.5
 21
146
 31
0
  0
LINE
  8
1
 62
4
  6
PHANTOM
 10
-194.5
 20
-146
 30
0
 11
194.5
 21
-146
 31
0
  0
TEXT
  8
1
 62
4
 10
178.746911898274
 20
-142.6071298819256
 30
0
 40
5
  1
A3
 41
0.9
 72
1
 73
2
 11
183.246911898274
 21
-140.1071298819256
 31
0
  0
ENDBLK
  8
0
  0
BLOCK
  8
1
  2
*D0
 70
1
 10
0
 20
0
 30
0
  0
LINE
  8
1
 62
2
 10
0
 20
50.9428638566688
 30
0
 11
29.5
 21
50.9428638566688
 31
0
  0
LINE
  8
1
 62
2
 10
29.5
 20
18
 30
0
 11
29.5
 21
51.9428638566688
 31
0
  0
LINE
  8
1
 62
2
 10
0
 20
16.5
 30
0
 11
0
 21
51.9428638566688
 31
0
  0
SOLID
  8
1
 62
2
 10
0
 20
50.9428638566688
 30
0
 11
3.200000000000001
 21
51.3588638566688
 31
0
 12
3.200000000000001
 22
50.5268638566688
 32
0
 13
3.200000000000001
 23
50.5268638566688
 33
0
  0
SOLID
  8
1
 62
2
 10
29.5
 20
50.9428638566688
 30
0
 11
26.3
 21
50.5268638566688
 31
0
 12
26.3
 22
51.3588638566688
 32
0
 13
26.3
 23
51.3588638566688
 33
0
  0
TEXT
  8
1
 62
2
 10
10.39
 20
51.9428638566688
 30
0
 40
3.2
  1
29.5
 41
0.9
  0
ENDBLK
  8
0
  0
BLOCK
  8
1
  2
*D1
 70
1
 10
0
 20
0
 30
0
  0
LINE
  8
1
 62
2
 10
0
 20
39.0780346737479
 30
0
 11
7.818332684606162
 21
39.0780346737479
 31
0
  0
LINE
  8
1
 62
2
 10
-2.000000000000001
 20
39.0780346737479
 30
0
 11
0
 21
39.0780346737479
 31
0
  0
LINE
  8
1
 62
2
 10
-8.399999999999999
 20
39.0780346737479
 30
0
 11
-2.000000000000001
 21
39.0780346737479
 31
0
  0
LINE
  8
1
 62
2
 10
0
 20
16.5
 30
0
 11
0
 21
40.0780346737479
 31
0
  0
LINE
  8
1
 62
2
 10
-2.000000000000001
 20
4.5
 30
0
 11
-2.000000000000001
 21
40.0780346737479
 31
0
  0
SOLID
  8
1
 62
2
 10
-2.000000000000001
 20
39.0780346737479
 30
0
 11
-5.200000000000001
 21
38.6620346737479
 31
0
 12
-5.200000000000001
 22
39.4940346737479
 32
0
 13
-5.200000000000001
 23
39.4940346737479
 33
0
  0
SOLID
  8
1
 62
2
 10
0
 20
39.0780346737479
 30
0
 11
3.200000000000001
 21
39.4940346737479
 31
0
 12
3.200000000000001
 22
38.6620346737479
 32
0
 13
3.200000000000001
 23
38.6620346737479
 33
0
  0
TEXT
  8
1
 62
2
 10
5.89833268460616
 20
40.0780346737479
 30
0
 40
3.2
  1
2
 41
0.9
  0
ENDBLK
  8
0
  0
BLOCK
  8
1
  2
*D2
 70
1
 10
0
 20
0
 30
0
  0
LINE
  8
1
 62
2
 10
23.09999999999999
 20
38.98563714832
 30
0
 11
29.49999999999999
 21
38.98563714832
 31
0
  0
LINE
  8
1
 62
2
 10
29.49999999999999
 20
38.98563714832
 30
0
 11
31.10000000000014
 21
38.98563714832
 31
0
  0
LINE
  8
1
 62
2
 10
31.10000000000014
 20
38.98563714832
 30
0
 11
44.24252320589901
 21
38.98563714832
 31
0
  0
LINE
  8
1
 62
2
 10
29.49999999999999
 20
18
 30
0
 11
29.49999999999999
 21
39.98563714832
 31
0
  0
LINE
  8
1
 62
2
 10
31.10000000000014
 20
4.245566037735905
 30
0
 11
31.10000000000014
 21
39.98563714832
 31
0
  0
SOLID
  8
1
 62
2
 10
29.49999999999999
 20
38.98563714832
 30
0
 11
26.29999999999999
 21
38.56963714832
 31
0
 12
26.29999999999999
 22
39.40163714831999
 32
0
 13
26.29999999999999
 23
39.40163714831999
 33
0
  0
SOLID
  8
1
 62
2
 10
31.10000000000014
 20
38.98563714832
 30
0
 11
34.30000000000015
 21
39.40163714831999
 31
0
 12
34.30000000000015
 22
38.56963714832
 32
0
 13
34.30000000000015
 23
38.56963714832
 33
0
  0
TEXT
  8
1
 62
2
 10
37.282523205899
 20
39.98563714832
 30
0
 40
3.2
  1
1.6
 41
0.9
  0
TEXT
  8
1
 62
2
 10
35.202523205899
 20
39.98563714832
 30
0
 40
3.2
  1
(
 41
0.9
  0
TEXT
  8
1
 62
2
 10
43.762523205899
 20
39.98563714832
 30
0
 40
3.2
  1
)
 41
0.9
  0
ENDBLK
  8
0
  0
BLOCK
  8
1
  2
*D3
 70
1
 10
0
 20
0
 30
0
  0
LINE
  8
1
 62
2
 10
29.5
 20
-33.9727376299534
 30
0
 11
92.09745483673396
 21
-33.9727376299534
 31
0
  0
LINE
  8
1
 62
2
 10
29.5
 20
-18
 30
0
 11
29.5
 21
-34.9727376299534
 31
0
  0
LINE
  8
1
 62
2
 10
92.09745483673396
 20
-2.100000000000023
 30
0
 11
92.09745483673396
 21
-34.9727376299534
 31
0
  0
SOLID
  8
1
 62
2
 10
29.5
 20
-33.9727376299534
 30
0
 11
32.7
 21
-33.5567376299534
 31
0
 12
32.7
 22
-34.3887376299534
 32
0
 13
32.7
 23
-34.3887376299534
 33
0
  0
SOLID
  8
1
 62
2
 10
92.09745483673396
 20
-33.9727376299534
 30
0
 11
88.89745483673396
 21
-34.3887376299534
 31
0
 12
88.89745483673396
 22
-33.5567376299534
 32
0
 13
88.89745483673396
 23
-33.5567376299534
 33
0
  0
TEXT
  8
1
 62
2
 10
53.95072741836698
 20
-32.1727376299534
 30
0
 40
3.2
  1
300
 41
0.9
  0
TEXT
  8
1
 62
2
 10
63.23072741836698
 20
-30.0927376299534
 30
0
 40
1.92
  1
+30
 41
0.9
  0
TEXT
  8
1
 62
2
 10
64.95872741836698
 20
-32.9727376299534
 30
0
 40
1.92
  1
 0
 41
0.9
  0
ENDBLK
  8
0
  0
BLOCK
  8
1
  2
*D4
 70
1
 10
0
 20
0
 30
0
  0
LINE
  8
1
 62
2
 10
98.49745483673397
 20
-22.0327318479398
 30
0
 11
92.09745483673396
 21
-22.0327318479398
 31
0
  0
LINE
  8
1
 62
2
 10
89.09745483673396
 20
-22.0327318479398
 30
0
 11
92.09745483673396
 21
-22.0327318479398
 31
0
  0
LINE
  8
1
 62
2
 10
89.09745483673396
 20
-22.0327318479398
 30
0
 11
78.43121415436571
 21
-22.0327318479398
 31
0
  0
LINE
  8
1
 62
2
 10
89.09745483673396
 20
-2.660000000000018
 30
0
 11
89.09745483673396
 21
-23.0327318479398
 31
0
  0
LINE
  8
1
 62
2
 10
92.09745483673396
 20
-2.100000000000019
 30
0
 11
92.09745483673396
 21
-23.0327318479398
 31
0
  0
SOLID
  8
1
 62
2
 10
92.09745483673396
 20
-22.0327318479398
 30
0
 11
95.29745483673396
 21
-21.6167318479398
 31
0
 12
95.29745483673396
 22
-22.4487318479398
 32
0
 13
95.29745483673396
 23
-22.4487318479398
 33
0
  0
SOLID
  8
1
 62
2
 10
89.09745483673396
 20
-22.0327318479398
 30
0
 11
85.89745483673396
 21
-22.4487318479398
 31
0
 12
85.89745483673396
 22
-21.6167318479398
 32
0
 13
85.89745483673396
 23
-21.6167318479398
 33
0
  0
TEXT
  8
1
 62
2
 10
80.5112141543657
 20
-21.0327318479398
 30
0
 40
3.2
  1
3
 41
0.9
  0
TEXT
  8
1
 62
2
 10
78.43121415436569
 20
-21.0327318479398
 30
0
 40
3.2
  1
(
 41
0.9
  0
TEXT
  8
1
 62
2
 10
84.0312141543657
 20
-21.0327318479398
 30
0
 40
3.2
  1
)
 41
0.9
  0
ENDBLK
  8
0
  0
BLOCK
  8
1
  2
*D5
 70
1
 10
0
 20
0
 30
0
  0
LINE
  8
1
 62
2
 10
-37.07259062875521
 20
4.100000000000019
 30
0
 11
-37.07259062875521
 21
27.96531402538342
 31
0
  0
LINE
  8
1
 62
2
 10
-37.07259062875521
 20
-4.100000000000019
 30
0
 11
-37.07259062875521
 21
4.100000000000019
 31
0
  0
LINE
  8
1
 62
2
 10
-37.07259062875521
 20
-10.50000000000002
 30
0
 11
-37.07259062875521
 21
-4.100000000000019
 31
0
  0
LINE
  8
1
 62
2
 10
-2.899999999999864
 20
4.100000000000019
 30
0
 11
-38.07259062875521
 21
4.100000000000019
 31
0
  0
LINE
  8
1
 62
2
 10
-2.899999999999864
 20
-4.100000000000019
 30
0
 11
-38.07259062875521
 21
-4.100000000000019
 31
0
  0
SOLID
  8
1
 62
2
 10
-37.07259062875521
 20
4.100000000000019
 30
0
 11
-37.48859062875521
 21
7.30000000000002
 31
0
 12
-36.65659062875521
 22
7.30000000000002
 32
0
 13
-36.65659062875521
 23
7.30000000000002
 33
0
  0
SOLID
  8
1
 62
2
 10
-37.07259062875521
 20
-4.100000000000019
 30
0
 11
-36.65659062875521
 21
-7.30000000000002
 31
0
 12
-37.48859062875521
 22
-7.30000000000002
 32
0
 13
-37.48859062875521
 23
-7.30000000000002
 33
0
  0
TEXT
  8
1
 62
2
 10
-38.0725906287552
 20
15.67731402538342
 30
0
 40
3.2
  1
8.2
 50
90
 41
0.9
  0
TEXT
  8
1
 62
2
 10
-38.7125906287552
 20
23.11731402538342
 30
0
 40
1.92
  1
%%p0.2
 50
90
 41
0.9
  0
TEXT
  8
1
 62
2
 10
-38.0725906287552
 20
12.03286958093898
 30
0
 40
3.2
  1
ƒÓ
 50
90
 41
0.9
  0
ENDBLK
  8
0
  0
BLOCK
  8
1
  2
*D6
 70
1
 10
0
 20
0
 30
0
  0
LINE
  8
1
 62
2
 10
-25.016690669123
 20
1.25
 30
0
 11
-25.016690669123
 21
29.40094360202063
 31
0
  0
LINE
  8
1
 62
2
 10
-25.016690669123
 20
-1.25
 30
0
 11
-25.016690669123
 21
1.25
 31
0
  0
LINE
  8
1
 62
2
 10
-25.016690669123
 20
-7.649999999999999
 30
0
 11
-25.016690669123
 21
-1.25
 31
0
  0
LINE
  8
1
 62
2
 10
-13
 20
1.25
 30
0
 11
-26.016690669123
 21
1.25
 31
0
  0
LINE
  8
1
 62
2
 10
-13
 20
-1.25
 30
0
 11
-26.016690669123
 21
-1.25
 31
0
  0
SOLID
  8
1
 62
2
 10
-25.016690669123
 20
1.25
 30
0
 11
-25.432690669123
 21
4.450000000000001
 31
0
 12
-24.600690669123
 22
4.450000000000001
 32
0
 13
-24.600690669123
 23
4.450000000000001
 33
0
  0
SOLID
  8
1
 62
2
 10
-25.016690669123
 20
-1.25
 30
0
 11
-24.600690669123
 21
-4.450000000000001
 31
0
 12
-25.432690669123
 22
-4.450000000000001
 32
0
 13
-25.432690669123
 23
-4.450000000000001
 33
0
  0
TEXT
  8
1
 62
2
 10
-26.816690669123
 20
15.76894360202062
 30
0
 40
3.2
  1
2.5
 50
90
 41
0.9
  0
TEXT
  8
1
 62
2
 10
-28.896690669123
 20
23.20894360202062
 30
0
 40
1.92
  1
 0
 50
90
 41
0.9
  0
TEXT
  8
1
 62
2
 10
-26.016690669123
 20
23.20894360202062
 30
0
 40
1.92
  1
-0.01
 50
90
 41
0.9
  0
TEXT
  8
1
 62
2
 10
-26.816690669123
 20
12.12449915757618
 30
0
 40
3.2
  1
ƒÓ
 50
90
 41
0.9
  0
ENDBLK
  8
0
  0
BLOCK
  8
1
  2
*D7
 70
1
 10
0
 20
0
 30
0
  0
LINE
  8
1
 62
2
 10
51.4995276561971
 20
-17
 30
0
 11
51.4995276561971
 21
17
 31
0
  0
LINE
  8
1
 62
2
 10
30.5
 20
-17
 30
0
 11
52.4995276561971
 21
-17
 31
0
  0
LINE
  8
1
 62
2
 10
30.5
 20
17
 30
0
 11
52.4995276561971
 21
17
 31
0
  0
SOLID
  8
1
 62
2
 10
51.4995276561971
 20
17
 30
0
 11
51.9155276561971
 21
13.8
 31
0
 12
51.08352765619711
 22
13.8
 32
0
 13
51.08352765619711
 23
13.8
 33
0
  0
SOLID
  8
1
 62
2
 10
51.4995276561971
 20
-17
 30
0
 11
51.0835276561971
 21
-13.8
 31
0
 12
51.9155276561971
 22
-13.8
 32
0
 13
51.9155276561971
 23
-13.8
 33
0
  0
TEXT
  8
1
 62
2
 10
50.4995276561971
 20
-0.577777777777778
 30
0
 40
3.2
  1
34
 50
90
 41
0.9
  0
TEXT
  8
1
 62
2
 10
50.4995276561971
 20
-4.222222222222222
 30
0
 40
3.2
  1
ƒÓ
 50
90
 41
0.9
  0
ENDBLK
  8
0
  0
BLOCK
  8
1
  2
*D8
 70
1
 10
0
 20
0
 30
0
  0
LINE
  8
1
 62
2
 10
-12
 20
50.9718475420598
 30
0
 11
0
 21
50.9718475420598
 31
0
  0
LINE
  8
1
 62
2
 10
0
 20
16.5
 30
0
 11
0
 21
51.9718475420598
 31
0
  0
LINE
  8
1
 62
2
 10
-12
 20
2.25
 30
0
 11
-12
 21
51.9718475420598
 31
0
  0
SOLID
  8
1
 62
2
 10
-12
 20
50.9718475420598
 30
0
 11
-8.799999999999999
 21
51.3878475420598
 31
0
 12
-8.799999999999999
 22
50.5558475420598
 32
0
 13
-8.799999999999999
 23
50.5558475420598
 33
0
  0
SOLID
  8
1
 62
2
 10
0
 20
50.9718475420598
 30
0
 11
-3.200000000000001
 21
50.5558475420598
 31
0
 12
-3.200000000000001
 22
51.3878475420598
 32
0
 13
-3.200000000000001
 23
51.3878475420598
 33
0
  0
TEXT
  8
1
 62
2
 10
-7.92
 20
51.9718475420598
 30
0
 40
3.2
  1
12
 41
0.9
  0
ENDBLK
  8
0
  0
BLOCK
  8
1
  2
*D9
 70
1
 10
0
 20
0
 30
0
  0
LINE
  8
1
 62
2
 10
-118.9967951928026
 20
-26.92153505639543
 30
0
 11
-63.07679519280261
 21
-26.92153505639543
 31
0
  0
LINE
  8
1
 62
2
 10
-106.9463578201029
 20
-7.60300410773241
 30
0
 11
-118.9967951928026
 21
-26.92153505639543
 31
0
  0
SOLID
  8
1
 62
2
 10
-106.9463578201029
 20
-7.60300410773241
 30
0
 11
-108.2870028340099
 21
-10.53825996484033
 31
0
 12
-108.9929254629587
 22
-10.09792231946117
 32
0
 13
-108.9929254629587
 23
-10.09792231946117
 33
0
  0
TEXT
  8
1
 62
2
 10
-104.5167951928026
 20
-25.92153505639543
 30
0
 40
3.2
  1
2.6
 41
0.9
  0
TEXT
  8
1
 62
2
 10
-113.7967951928026
 20
-25.92153505639543
 30
0
 40
3.2
  1
3-M
 41
0.9
  0
TEXT
  8
1
 62
2
 10
-97.07679519280261
 20
-25.92153505639543
 30
0
 40
3.2
  1
 DEPTH 3MAX.
 41
0.9
  0
ENDBLK
  8
0
  0
ENDSEC
  0
SECTION
  2
ENTITIES
  0
LINE
  8
1
 62
7
 10
39.2739466980529
 20
1.660000000000082
 30
0
 11
45.34776343188287
 21
1.660000000000082
 31
0
  0
LINE
  8
1
 62
7
 10
6.25
 20
10.81332974472218
 30
0
 11
23.25
 21
10.81332974472218
 31
0
  0
LINE
  8
1
 62
7
 10
23.25
 20
10.81332974472218
 30
0
 11
23.25
 21
17.00000000000022
 31
0
  0
LINE
  8
1
 62
7
 10
6.25
 20
17.00000000000022
 30
0
 11
6.25
 21
10.81332974472218
 31
0
  0
LINE
  8
1
 62
7
 10
39.2739466980529
 20
-1.659999999999854
 30
0
 11
39.79559716916992
 21
-1.659999999999854
 31
0
  0
LINE
  8
1
 62
7
 10
34.82614829352497
 20
-9.63498100969764
 30
0
 11
38.81106902780084
 21
-1.970938469322732
 31
0
  0
LINE
  8
1
 62
7
 10
29.5
 20
-10.56779641766627
 30
0
 11
33.43751528276789
 21
-10.56779641766627
 31
0
  0
LINE
  8
1
 62
7
 10
34.82614829352497
 20
9.634981009693664
 30
0
 11
38.81106902780084
 21
1.970938469323073
 31
0
  0
LINE
  8
1
 62
7
 10
29.5
 20
10.56779641766252
 30
0
 11
33.43751528276789
 21
10.56779641766252
 31
0
  0
LINE
  8
1
 62
7
 10
42.29559716916992
 20
-1.659999999999854
 30
0
 11
45.34776343188287
 21
-1.659999999999854
 31
0
  0
LINE
  8
1
 62
7
 10
42.29559716916992
 20
2.273736754432321e-013
 30
0
 11
45.34776343188287
 21
2.273736754432321e-013
 31
0
  0
LINE
  8
1
 62
7
 10
33.51903437114288
 20
-8.70821395595226
 30
0
 11
37.81398915369391
 21
-0.2851178024482124
 31
0
  0
LINE
  8
1
 62
7
 10
29.5
 20
-8.907796417666418
 30
0
 11
33.02956293441185
 21
-8.907796417666418
 31
0
  0
LINE
  8
1
 62
7
 10
38.51323406330994
 20
2.273736754432321e-013
 30
0
 11
39.79559716916992
 21
2.273736754432321e-013
 31
0
  0
LINE
  8
1
 62
7
 10
33.51903437114288
 20
8.708213955948736
 30
0
 11
37.81398915369391
 21
0.2851178024484398
 31
0
  0
LINE
  8
1
 62
7
 10
29.5
 20
8.907796417662439
 30
0
 11
33.02956293441185
 21
8.907796417662439
 31
0
  0
LINE
  8
1
 62
7
 10
39.79559716916992
 20
-2.667939847309754
 30
0
 11
42.29559716916992
 21
-2.667939847309754
 31
0
  0
LINE
  8
1
 62
7
 10
43.18548966995399
 20
1.872715535701559
 30
0
 11
43.05667166229
 21
4.583731477860738
 31
0
  0
LINE
  8
1
 62
7
 10
42.55723516286389
 20
5.060000000000173
 30
0
 11
39.53395917547596
 21
5.060000000000173
 31
0
  0
LINE
  8
1
 62
7
 10
39.03452267604985
 20
4.583731477860738
 30
0
 11
38.90570466838494
 21
1.872715535701559
 31
0
  0
LINE
  8
1
 62
7
 10
42.29559716916992
 20
-2.667939847309754
 30
0
 11
42.29559716916992
 21
1.660000000000082
 31
0
  0
LINE
  8
1
 62
7
 10
39.79559716916992
 20
1.660000000000082
 30
0
 11
39.79559716916992
 21
-2.667939847309754
 31
0
  0
LINE
  8
1
 62
3
 10
-108.447355102018
 20
-7.763834088038999
 30
0
 11
-104.174652760124
 21
-5.296988240779621
 31
0
  0
LINE
  8
1
 62
7
 10
-1.89999999999986
 20
-4.100000000000021
 30
0
 11
-1.89999999999986
 21
4.100000000000019
 31
0
  0
LINE
  8
1
 62
7
 10
-2
 20
-3.5
 30
0
 11
-1.89999999999986
 21
-3.5
 31
0
  0
LINE
  8
1
 62
7
 10
-2
 20
3.5
 30
0
 11
-1.89999999999986
 21
3.5
 31
0
  0
LINE
  8
1
 62
7
 10
-2
 20
3.5
 30
0
 11
-2
 21
-3.5
 31
0
  0
LINE
  8
1
 62
7
 10
-2
 20
-1.25
 30
0
 11
-12
 21
-1.25
 31
0
  0
LINE
  8
1
 62
7
 10
-2
 20
1.25
 30
0
 11
-12
 21
1.25
 31
0
  0
LINE
  8
1
 62
7
 10
-1.89999999999986
 20
-4.100000000000021
 30
0
 11
0
 21
-4.100000000000021
 31
0
  0
LINE
  8
1
 62
7
 10
0
 20
-15.5
 30
0
 11
0
 21
15.5
 31
0
  0
LINE
  8
1
 62
7
 10
1.5
 20
-17
 30
0
 11
29.5
 21
-17
 31
0
  0
LINE
  8
1
 62
7
 10
1.5
 20
17
 30
0
 11
29.5
 21
17
 31
0
  0
LINE
  8
1
 62
7
 10
0
 20
4.100000000000019
 30
0
 11
-1.89999999999986
 21
4.100000000000019
 31
0
  0
LINE
  8
1
 62
7
 10
-12
 20
1.25
 30
0
 11
-12
 21
-1.25
 31
0
  0
LINE
  8
1
 62
3
 10
-16.78347812163884
 20
0
 30
0
 11
32.89458842742715
 21
0
 31
0
  0
LINE
  8
1
 62
3
 10
-115.0000000000004
 20
0
 30
0
 11
-74.99999999999959
 21
0
 31
0
  0
LINE
  8
1
 62
3
 10
-95
 20
20.00000000000041
 30
0
 11
-95
 21
-20.00000000000041
 31
0
  0
LINE
  8
1
 62
3
 10
-86.12877021797794
 20
-5.12180690269361
 30
0
 11
-81.65739715564405
 21
-7.703355343879309
 31
0
  0
LINE
  8
1
 62
7
 10
58.595483301885
 20
0
 30
0
 11
89.09745483673396
 21
0
 31
0
  0
LINE
  8
1
 62
7
 10
29.5
 20
17
 30
0
 11
29.5
 21
-17
 31
0
  0
LINE
  8
1
 62
7
 10
89.09745483673396
 20
1.659999999999968
 30
0
 11
89.09745483673396
 21
-1.660000000000021
 31
0
  0
LINE
  8
1
 62
7
 10
89.09745483673396
 20
1.100000000000019
 30
0
 11
92.09745483673396
 21
1.100000000000019
 31
0
  0
LINE
  8
1
 62
7
 10
89.09745483673396
 20
0.3999999999999808
 30
0
 11
92.09745483673396
 21
0.3999999999999808
 31
0
  0
LINE
  8
1
 62
7
 10
89.09745483673396
 20
-0.3999999999999808
 30
0
 11
92.09745483673396
 21
-0.3999999999999808
 31
0
  0
LINE
  8
1
 62
7
 10
89.09745483673396
 20
-1.100000000000019
 30
0
 11
92.09745483673396
 21
-1.100000000000019
 31
0
  0
LINE
  8
1
 62
7
 10
58.595483301885
 20
1.659999999999968
 30
0
 11
89.09745483673396
 21
1.659999999999968
 31
0
  0
LINE
  8
1
 62
7
 10
58.595483301885
 20
-1.660000000000021
 30
0
 11
89.09745483673396
 21
-1.660000000000021
 31
0
  0
LINE
  8
1
 62
7
 10
30.34511721223498
 20
4.21505948911442
 30
0
 11
29.5
 21
4.606399233376351
 31
0
  0
LINE
  8
1
 62
7
 10
31.10000000000014
 20
-3.2455660377359
 30
0
 11
31.10000000000014
 21
3.245566037735902
 31
0
  0
LINE
  8
1
 62
7
 10
30.34511721223498
 20
-4.215059489114539
 30
0
 11
29.5
 21
-4.606399233376409
 31
0
  0
LINE
  8
1
 62
2
 10
-119.1978991616291
 20
-42
 30
0
 11
-63.08613110016992
 21
-42
 31
0
  0
LINE
  8
1
 62
2
 10
73.33398547653016
 20
19.56463769237626
 30
0
 11
146.2587056195052
 21
19.56463769237626
 31
0
  0
LINE
  8
1
 62
2
 10
-119.1978991616291
 20
-34
 30
0
 11
-63.08613110016992
 21
-34
 31
0
  0
LINE
  8
1
 62
2
 10
-119.1978991616291
 20
-49
 30
0
 11
-63.08613110016992
 21
-49
 31
0
  0
CIRCLE
  8
1
 62
7
 10
-106.258330249198
 20
-6.5
 30
0
 40
0.7999999999991019
  0
CIRCLE
  8
1
 62
2
 10
-106.258330249198
 20
-6.5
 30
0
 40
1.299999999999898
  0
CIRCLE
  8
1
 62
7
 10
-95
 20
0
 30
0
 40
17.00000000000041
  0
CIRCLE
  8
1
 62
7
 10
-95
 20
0
 30
0
 40
1.25
  0
CIRCLE
  8
1
 62
7
 10
-95
 20
0
 30
0
 40
3.5
  0
CIRCLE
  8
1
 62
7
 10
-95
 20
0
 30
0
 40
4.099999999999909
  0
CIRCLE
  8
1
 62
7
 10
-95
 20
13
 30
0
 40
0.7999999999999972
  0
CIRCLE
  8
1
 62
7
 10
-83.74166975080198
 20
-6.5
 30
0
 40
0.7999999999999545
  0
CIRCLE
  8
1
 62
2
 10
-95
 20
13
 30
0
 40
1.299999999999997
  0
CIRCLE
  8
1
 62
2
 10
-83.74166975080198
 20
-6.5
 30
0
 40
1.299999999999955
  0
CIRCLE
  8
1
 62
3
  6
CENTER
 10
-95
 20
0
 30
0
 40
13
  0
POLYLINE
  8
1
 62
2
 66
1
  0
VERTEX
  8
1
 10
45.34776343188287
 20
1.660000000000082
 30
0
 42
0.004627892300615351
  0
VERTEX
  8
1
 10
45.23563631948659
 20
1.491616220198893
 30
0
 42
0.01432161089925493
  0
VERTEX
  8
1
 10
45.13238211421619
 20
1.3230440211523
 30
0
 42
0.02620784398764642
  0
VERTEX
  8
1
 10
45.04687372319752
 20
1.154094983614902
 30
0
 42
0.04090712517615917
  0
VERTEX
  8
1
 10
44.9879840535565
 20
0.984580688341296
 30
0
 42
0.05807845058495496
  0
VERTEX
  8
1
 10
44.96458601241898
 20
0.8143127160860786
 30
0
 42
0.06215230223756689
  0
VERTEX
  8
1
 10
44.98181761994762
 20
0.6485926597161403
 30
0
 42
0.04094631376541254
  0
VERTEX
  8
1
 10
45.03474223691291
 20
0.4831443937137875
 30
0
 42
0.03762017696376663
  0
VERTEX
  8
1
 10
45.11736879206026
 20
0.3191248842878188
 30
0
 42
0.02031018658717828
  0
VERTEX
  8
1
 10
45.22370621413511
 20
0.1576910976470327
 30
0
 42
0.02175284297846453
  0
VERTEX
  8
1
 10
45.34776343188287
 20
2.273736754432321e-013
 30
0
 42
0.00589923699552659
  0
VERTEX
  8
1
 10
45.49193641393514
 20
-0.1637579280636163
 30
0
 42
-0.006290958371931636
  0
VERTEX
  8
1
 10
45.63391346168766
 20
-0.3235371166082205
 30
0
 42
-0.0239148850122717
  0
VERTEX
  8
1
 10
45.75807431619705
 20
-0.4809668155033031
 30
0
 42
-0.04938818170595187
  0
VERTEX
  8
1
 10
45.84879871851992
 20
-0.6376762746185818
 30
0
 42
-0.08501367003318121
  0
VERTEX
  8
1
 10
45.89046640971287
 20
-0.7952947438237743
 30
0
 42
-0.09457323444283336
  0
VERTEX
  8
1
 10
45.86918479507076
 20
-0.9648112997997602
 30
0
 42
-0.05996756665691441
  0
VERTEX
  8
1
 10
45.78973052647938
 20
-1.136610852615233
 30
0
 42
-0.03390202050798843
  0
VERTEX
  8
1
 10
45.66664676742607
 20
-1.310122653060321
 30
0
 42
-0.017148414138146
  0
VERTEX
  8
1
 10
45.51447668139812
 20
-1.484775951925152
 30
0
 42
-0.005242237567723363
  0
VERTEX
  8
1
 10
45.34776343188287
 20
-1.659999999999854
 30
0
  0
SEQEND
  8
1
  0
POLYLINE
  8
1
 62
2
 66
1
  0
VERTEX
  8
1
 10
58.595483301885
 20
1.659999999999968
 30
0
 42
0.004627892300643995
  0
VERTEX
  8
1
 10
58.48335618948872
 20
1.491616220198779
 30
0
 42
0.01432161089919675
  0
VERTEX
  8
1
 10
58.38010198421831
 20
1.323044021152187
 30
0
 42
0.02620784398775464
  0
VERTEX
  8
1
 10
58.29459359319966
 20
1.154094983614789
 30
0
 42
0.04090712517599947
  0
VERTEX
  8
1
 10
58.23570392355864
 20
0.9845806883411814
 30
0
 42
0.05807845058513387
  0
VERTEX
  8
1
 10
58.21230588242111
 20
0.8143127160859613
 30
0
 42
0.0621523022373587
  0
VERTEX
  8
1
 10
58.22953748994975
 20
0.6485926597160013
 30
0
 42
0.04094631376560864
  0
VERTEX
  8
1
 10
58.28246210691503
 20
0.4831443937136257
 30
0
 42
0.0376201769635643
  0
VERTEX
  8
1
 10
58.36508866206238
 20
0.3191248842876341
 30
0
 42
0.02031018658742468
  0
VERTEX
  8
1
 10
58.47142608413724
 20
0.1576910976468259
 30
0
 42
0.02175284297818699
  0
VERTEX
  8
1
 10
58.595483301885
 20
0
 30
0
 42
0.005899236995832218
  0
VERTEX
  8
1
 10
58.73965628393727
 20
-0.1637579280638459
 30
0
 42
-0.006290958371930637
  0
VERTEX
  8
1
 10
58.88163333168978
 20
-0.323537116608451
 30
0
 42
-0.02391488501227137
  0
VERTEX
  8
1
 10
59.00579418619918
 20
-0.4809668155035335
 30
0
 42
-0.04938818170595143
  0
VERTEX
  8
1
 10
59.09651858852205
 20
-0.6376762746188111
 30
0
 42
-0.08501367003326699
  0
VERTEX
  8
1
 10
59.138186279715
 20
-0.7952947438240017
 30
0
 42
-0.09457323444292252
  0
VERTEX
  8
1
 10
59.11690466507289
 20
-0.9648112997999767
 30
0
 42
-0.05996756665695051
  0
VERTEX
  8
1
 10
59.0374503964815
 20
-1.136610852615438
 30
0
 42
-0.03390202050804379
  0
VERTEX
  8
1
 10
58.91436663742819
 20
-1.310122653060513
 30
0
 42
-0.01714841413817077
  0
VERTEX
  8
1
 10
58.76219655140025
 20
-1.484775951925331
 30
0
 42
-0.005242237567722142
  0
VERTEX
  8
1
 10
58.595483301885
 20
-1.660000000000021
 30
0
  0
SEQEND
  8
1
  0
ARC
  8
1
 62
7
 10
39.2739466980529
 20
2.160000000000082
 30
0
 40
0.4999999999999107
 50
202.2174691218227
 51
270
  0
ARC
  8
1
 62
7
 10
39.2739466980529
 20
-2.159999999999854
 30
0
 40
0.5
 50
90
 51
157.7825308781654
  0
ARC
  8
1
 62
7
 10
33.43751528276789
 20
-9.067796417666273
 30
0
 40
1.499999999999998
 50
270
 51
337.7825308781783
  0
ARC
  8
1
 62
7
 10
33.43751528276789
 20
9.067796417662521
 30
0
 40
1.500000000000605
 50
22.21746912181385
 51
90
  0
ARC
  8
1
 62
7
 10
33.02956293441185
 20
8.207796417662394
 30
0
 40
0.7000000000000725
 50
45.63354565636961
 51
90
  0
ARC
  8
1
 62
7
 10
33.02956293441185
 20
-8.207796417666373
 30
0
 40
0.7000000000000455
 50
270
 51
314.3664543436564
  0
ARC
  8
1
 62
7
 10
38.51323406330994
 20
1.000000000000228
 30
0
 40
1.0000000000002
 50
225.6335456563534
 51
270
  0
ARC
  8
1
 62
7
 10
38.51323406330994
 20
-0.9999999999997726
 30
0
 40
1
 50
90
 51
134.3664543436558
  0
ARC
  8
1
 62
7
 10
42.98589429137087
 20
1.860000000000128
 30
0
 40
0.2000000000000459
 50
270
 51
3.645191185446467
  0
ARC
  8
1
 62
7
 10
39.53395917547596
 20
4.560000000000173
 30
0
 40
0.5
 50
90
 51
177.2795508940706
  0
ARC
  8
1
 62
7
 10
42.55723516286389
 20
4.560000000000173
 30
0
 40
0.5000000000004538
 50
2.720449105929386
 51
90
  0
ARC
  8
1
 62
7
 10
39.10530004696898
 20
1.860000000000128
 30
0
 40
0.2000000000006972
 50
176.3548088145702
 51
192.3470653506285
  0
ARC
  8
1
 62
7
 10
1.5
 20
-15.5
 30
0
 40
1.5
 50
180
 51
270
  0
ARC
  8
1
 62
7
 10
1.5
 20
15.5
 30
0
 40
1.5
 50
90
 51
180
  0
ARC
  8
1
 62
7
 10
30.10000000000014
 20
3.245566037735902
 30
0
 40
1
 50
0
 51
75.81123928937701
  0
ARC
  8
1
 62
7
 10
30.10000000000014
 20
-3.2455660377359
 30
0
 40
0.9999999999999232
 50
284.1887607106212
 51
0
  0
LINE
  8
1
 62
2
 10
25.45422801210498
 20
27
 30
0
 11
3.77248035771413
 21
27
 31
0
  0
LINE
  8
1
 62
2
 10
3.77248035771413
 20
27
 30
0
 11
12.74832531488596
 21
17.00000000000022
 31
0
  0
SOLID
  8
1
 62
2
 10
10.06751742886451
 20
19.29686541502293
 30
0
 11
10.75333625590362
 21
19.91244576104419
 31
0
 12
12.74832531488596
 22
17.00000000000022
 32
0
 13
12.74832531488596
 23
17.00000000000022
 33
0
  0
LINE
  8
1
 62
2
 10
146.2587056195051
 20
26.56463769237626
 30
0
 11
76.33038431519321
 21
26.56463769237626
 31
0
  0
LINE
  8
1
 62
2
 10
76.33038431519321
 20
26.56463769237626
 30
0
 11
65.63873748996821
 21
1.659999999999968
 31
0
  0
SOLID
  8
1
 62
2
 10
66.59602895526352
 20
5.05792800202635
 30
0
 11
67.44285852039464
 21
4.69438115009554
 31
0
 12
65.63873748996821
 22
1.659999999999968
 32
0
 13
65.63873748996821
 23
1.659999999999968
 33
0
  0
TEXT
  8
1
 62
2
 10
7.94400000000114
 20
46.8160189045415
 30
0
 40
3.2
  1
(1.161)
 41
0.6300000000000001
 72
1
 73
2
 11
15.00000000000114
 21
48.4160189045415
 31
0
  0
TEXT
  8
1
 62
2
 10
-138
 20
93.5
 30
0
 40
5
  1
DME34S
 41
0.9
 72
1
 73
2
 11
-124.5
 21
96
 31
0
  0
TEXT
  8
1
 62
2
 10
6.60700959971506
 20
28.01493706720249
 30
0
 40
3.2
  1
NAME PLATE
 41
0.54
 72
1
 73
2
 11
15.24700959971506
 21
29.61493706720249
 31
0
  0
TEXT
  8
1
 62
2
 10
-20
 20
2.478462253960796
 30
0
 40
3.2
  1
(0.0984DIA.      )
 50
90
 41
0.6300000000000001
 72
1
 73
2
 11
-21.6
 21
20.6224622539608
 31
0
  0
TEXT
  8
1
 62
2
 10
-21.8
 20
23.39080602710261
 30
0
 40
2
  1
 0
 50
90
 41
0.63
  0
TEXT
  8
1
 62
2
 10
-19.4
 20
23.39080602710261
 30
0
 40
2
  1
-0.000394
 50
90
 41
0.63
  0
TEXT
  8
1
 62
2
 10
-32.79777068274702
 20
4.494462253960798
 30
0
 40
3.2
  1
(0.323DIA.     )
 50
90
 41
0.6300000000000001
 72
1
 73
2
 11
-34.39777068274702
 21
20.6224622539608
 31
0
  0
TEXT
  8
1
 62
2
 10
-33.39777068274702
 20
20.3308060271026
 30
0
 40
2
  1
 %%p0.00787
 50
90
 41
0.63
 72
1
 73
2
 11
-34.39777068274702
 21
27.2608060271026
 31
0
  0
TEXT
  8
1
 62
2
 10
55.69229171368595
 20
-11.088
 30
0
 40
3.2
  1
(1.339DIA.)
 50
90
 41
0.6300000000000001
 72
1
 73
2
 11
54.09229171368595
 21
0
 31
0
  0
TEXT
  8
1
 62
2
 10
-13.056
 20
46.8160189045415
 30
0
 40
3.2
  1
(0.472)
 41
0.6300000000000001
 72
1
 73
2
 11
-6
 21
48.4160189045415
 31
0
  0
TEXT
  8
1
 62
2
 10
-0.863999999999951
 20
34.7896193441085
 30
0
 40
3.2
  1
(0.0787)
 41
0.6300000000000001
 72
1
 73
2
 11
7.200000000000051
 21
36.3896193441085
 31
0
  0
TEXT
  8
1
 62
2
 10
32.64400000000005
 20
34.7896193441085
 30
0
 40
3.2
  1
(0.063)
 41
0.6300000000000001
 72
1
 73
2
 11
39.70000000000005
 21
36.3896193441085
 31
0
  0
TEXT
  8
1
 62
2
 10
74.64400000000005
 20
-26.2195935692656
 30
0
 40
3.2
  1
(0.118)
 41
0.6300000000000001
 72
1
 73
2
 11
81.70000000000005
 21
-24.6195935692656
 31
0
  0
TEXT
  8
1
 62
2
 10
50.12149852911508
 20
-39
 30
0
 40
3.2
  1
(11.811   )
 41
0.6300000000000001
 72
1
 73
2
 11
61.20949852911508
 21
-37.4
 31
0
  0
TEXT
  8
1
 62
2
 10
61.66784230225704
 20
-37.2
 30
0
 40
2
  1
+1.181
 41
0.63
  0
TEXT
  8
1
 62
2
 10
61.66784230225704
 20
-39.59999999999999
 30
0
 40
2
  1
 0
 41
0.63
  0
TEXT
  8
1
 62
2
 10
-113.392341623507
 20
-40.99932045948471
 30
0
 40
3.5
  1
P=120%%d P.C.D=ƒÓ26
 41
0.8100000000000001
 73
2
 11
-113.392341623507
 21
-39.24932045948471
 31
0
  0
TEXT
  8
1
 62
2
 10
-114.892341623507
 20
-32.9848168531369
 30
0
 40
3.5
  1
(3-M2.6 DEPTH 0.118MAX)
 41
0.72
 73
2
 11
-114.892341623507
 21
-31.2348168531369
 31
0
  0
TEXT
  8
1
 62
2
 10
78.74669839265016
 20
20.75309253258666
 30
0
 40
3.5
  1
UL1007 AWG22
 41
0.9
 73
2
 11
78.74669839265016
 21
22.50309253258666
 31
0
  0
TEXT
  8
1
 62
2
 10
78.74669839265016
 20
27.84971452164847
 30
0
 40
3.5
  1
LEAD WIRES (RED,BLACK)
 41
0.9
 73
2
 11
78.74669839265016
 21
29.59971452164847
 31
0
  0
TEXT
  8
1
 62
2
 10
-114.892341623507
 20
-47.9982903482229
 30
0
 40
3.5
  1
(P.C.D=1.024DIA.     )
 41
0.8550000000000001
 73
2
 11
-114.892341623507
 21
-46.2482903482229
 31
0
  0
TEXT
  8
1
 62
2
 10
-75.72184769038711
 20
-40.49932045948471
 30
0
 40
2.5
  1
%%p0.2
 41
0.7200000000000001
 72
1
 73
2
 11
-70.3218476903871
 21
-39.24932045948471
 31
0
  0
TEXT
  8
1
 62
2
 10
-80.3293272987289
 20
-47.4982903482229
 30
0
 40
2.5
  1
%%p0.00787
 41
0.7200000000000001
 72
1
 73
2
 11
-71.3293272987289
 21
-46.2482903482229
 31
0
  0
DIMENSION
  8
1
  6
CONTINUOUS
 62
2
  2
*D0
  3
DMST_1
 10
29.5
 20
50.9428638566688
 30
0
 11
14.75
 21
53.5428638566688
 31
0
 12
0
 22
0
 32
0
 70
0
 13
0
 23
15.5
 33
0
 14
29.5
 24
17
 34
0
 53
0
  0
DIMENSION
  8
1
  6
CONTINUOUS
 62
2
  2
*D1
  3
DMST_1
 10
0
 20
39.0780346737479
 30
0
 11
6.85833268460616
 21
41.6780346737479
 31
0
 12
0
 22
0
 32
0
 70
0
 13
-2
 23
3.5
 33
0
 14
0
 24
15.5
 34
0
 53
0
  0
DIMENSION
  8
1
  6
CONTINUOUS
 62
2
  2
*D2
  3
DMST_2
 10
31.10000000000014
 20
38.98563714832
 30
0
 11
39.722523205899
 21
41.58563714832
 31
0
 12
0
 22
0
 32
0
 70
0
  1
(<>
 13
29.5
 23
17
 33
0
 14
31.10000000000014
 24
3.245566037735902
 34
0
 53
0
  0
DIMENSION
  8
1
  6
CONTINUOUS
 62
2
  2
*D3
  3
DMST_3
 10
29.5
 20
-33.9727376299534
 30
0
 11
60.79872741836698
 21
-30.5727376299534
 31
0
 12
0
 22
0
 32
0
 70
0
  1
300
 13
92.09745483673396
 23
-1.100000000000019
 33
0
 14
29.5
 24
-17
 34
0
 53
0
  0
DIMENSION
  8
1
  6
CONTINUOUS
 62
2
  2
*D4
  3
DMST_2
 10
89.09745483673396
 20
-22.0327318479398
 30
0
 11
81.4712141543657
 21
-19.4327318479398
 31
0
 12
0
 22
0
 32
0
 70
0
  1
(<>
 13
92.09745483673396
 23
-1.100000000000019
 33
0
 14
89.09745483673396
 24
-1.660000000000021
 34
0
 53
0
  0
DIMENSION
  8
1
  6
CONTINUOUS
 62
2
  2
*D5
  3
DMST_4
 10
-37.07259062875521
 20
4.100000000000019
 30
0
 11
-39.6725906287552
 21
19.9990918031612
 31
0
 12
0
 22
0
 32
0
 70
0
  1
ƒÓ<>
 13
-1.89999999999986
 23
-4.100000000000021
 33
0
 14
-1.89999999999986
 24
4.100000000000019
 34
0
 50
90
 53
0
  0
DIMENSION
  8
1
  6
CONTINUOUS
 62
2
  2
*D6
  3
DMST_5
 10
-25.016690669123
 20
1.25
 30
0
 11
-28.416690669123
 21
20.7627213797984
 31
0
 12
0
 22
0
 32
0
 70
0
  1
ƒÓ<>
 13
-12
 23
-1.25
 33
0
 14
-12
 24
1.25
 34
0
 50
90
 53
0
  0
DIMENSION
  8
1
  6
CONTINUOUS
 62
2
  2
*D7
  3
DMST_1
 10
51.4995276561971
 20
-17
 30
0
 11
48.8995276561971
 21
0
 31
0
 12
0
 22
0
 32
0
 70
0
  1
ƒÓ<>
 13
29.5
 23
17
 33
0
 14
29.5
 24
-17
 34
0
 50
90
 53
0
  0
DIMENSION
  8
1
  6
CONTINUOUS
 62
2
  2
*D8
  3
DMST_1
 10
0
 20
50.9718475420598
 30
0
 11
-6
 21
53.5718475420598
 31
0
 12
0
 22
0
 32
0
 70
0
 13
-12
 23
1.25
 33
0
 14
0
 24
15.5
 34
0
 53
0
  0
INSERT
  8
0
  2
___R___O_______R
 10
0.5
 20
-3.75
 30
0
  0
INSERT
  8
1
  2
*D9
 10
0
 20
0
 30
0
  0
ENDSEC
  0
EOF
