  0
SECTION
  2
HEADER
  9
$ACADVER
  1
AC1009
  9
$INSBASE
 10
0
 20
0
  9
$EXTMIN
 10
-194.5
 20
-146
  9
$EXTMAX
 10
194.5
 20
146
  9
$LIMMIN
 10
-194.5
 20
-146
  9
$LIMMAX
 10
194.5
 20
146
  9
$VIEWCTR
 10
10
 20
10
  9
$VIEWSIZE
 40
10
  9
$SNAPMODE
 70
0
  9
$SNAPUNIT
 10
1
 20
1
  9
$SNAPBASE
 10
0
 20
0
  9
$SNAPANG
 50
0
  9
$SNAPSTYLE
 70
0
  9
$SNAPISOPAIR
 70
0
  9
$GRIDMODE
 70
0
  9
$GRIDUNIT
 10
0
 20
0
  9
$ORTHOMODE
 70
0
  9
$REGENMODE
 70
1
  9
$FILLMODE
 70
1
  9
$QTEXTMODE
 70
0
  9
$DRAGMODE
 70
2
  9
$LTSCALE
 40
1
  9
$OSMODE
 70
0
  9
$ATTMODE
 70
1
  9
$TEXTSIZE
 40
3.5
  9
$TRACEWID
 40
0.5
  9
$TEXTSTYLE
  7
STANDARD
  9
$CLAYER
  8
0
  9
$CELTYPE
  6
BYLAYER
  9
$CECOLOR
 62
256
  9
$DIMSCALE
 40
1
  9
$DIMASZ
 40
0.18
  9
$DIMEXO
 40
0.0625
  9
$DIMDLI
 40
0.38
  9
$DIMRND
 40
0
  9
$DIMDLE
 40
0
  9
$DIMEXE
 40
0.18
  9
$DIMTP
 40
0
  9
$DIMTM
 40
0
  9
$DIMTXT
 40
0.18
  9
$DIMCEN
 40
0.09
  9
$DIMTSZ
 40
0
  9
$DIMTOL
 70
0
  9
$DIMLIM
 70
0
  9
$DIMTIH
 70
1
  9
$DIMTOH
 70
1
  9
$DIMSE1
 70
0
  9
$DIMSE2
 70
0
  9
$DIMTAD
 70
0
  9
$DIMZIN
 70
0
  9
$DIMBLK
  1

  9
$DIMASO
 70
1
  9
$DIMSHO
 70
1
  9
$DIMPOST
  1

  9
$DIMAPOST
  1

  9
$DIMALT
 70
0
  9
$DIMALTD
 70
2
  9
$DIMALTF
 40
25.4
  9
$DIMLFAC
 40
1
  9
$DIMTOFL
 70
0
  9
$DIMTVP
 40
0
  9
$DIMTIX
 70
0
  9
$DIMSOXD
 70
0
  9
$DIMSAH
 70
0
  9
$DIMBLK1
  1

  9
$DIMBLK2
  1

  9
$DIMSTYLE
  2
*UNNAMED
  9
$DIMCLRD
 70
0
  9
$DIMCLRE
 70
0
  9
$DIMCLRT
 70
0
  9
$DIMTFAC
 40
1
  9
$DIMGAP
 40
0.09
  9
$LUNITS
 70
2
  9
$LUPREC
 70
4
  9
$AXISMODE
 70
0
  9
$AXISUNIT
 10
0
 20
0
  9
$SKETCHINC
 40
0.1
  9
$FILLETRAD
 40
2
  9
$AUNITS
 70
0
  9
$AUPREC
 70
0
  9
$MENU
  1
ACAD
  9
$ELEVATION
 40
0
  9
$THICKNESS
 40
0
  9
$VIEWDIR
 10
0
 20
0
 30
1
  9
$LIMCHECK
 70
0
  9
$BLIPMODE
 70
1
  9
$CHAMFERA
 40
0
  9
$CHAMFERB
 40
0
  9
$FASTZOOM
 70
1
  9
$SKPOLY
 70
0
  9
$ANGBASE
 50
0
  9
$ANGDIR
 70
0
  9
$PDMODE
 70
0
  9
$PDSIZE
 40
0
  9
$PLINEWID
 40
0
  9
$COORDS
 70
2
  0
ENDSEC
  0
SECTION
  2
TABLES
  0
TABLE
  2
DIMSTYLE
 70
6
  0
DIMSTYLE
  2
DMST_1
 70
0
  3

  4

  5

  6

  7

 40
1
 41
3.2
 42
1
 43
7
 44
1
 45
0
 46
0
 47
0
 48
0
140
3.2
141
0
142
0
143
25.4
144
1
145
0
146
1
147
0.09
 71
0
 72
0
 73
0
 74
0
 75
0
 76
0
 77
1
 78
9
170
0
171
2
172
0
173
0
174
0
175
0
176
2
177
2
178
2
  0
DIMSTYLE
  2
DMST_2
 70
0
  3
)
  4

  5

  6

  7

 40
1
 41
3.2
 42
1
 43
7
 44
1
 45
0
 46
0
 47
0
 48
0
140
3.2
141
0
142
0
143
25.4
144
1
145
0
146
1
147
0.09
 71
0
 72
0
 73
0
 74
0
 75
0
 76
0
 77
1
 78
9
170
0
171
2
172
0
173
0
174
0
175
0
176
2
177
2
178
2
  0
DIMSTYLE
  2
DMST_3
 70
0
  3

  4

  5

  6

  7

 40
1
 41
3.2
 42
1
 43
7
 44
1
 45
0
 46
0
 47
0.3
 48
0.3
140
3.2
141
0
142
0
143
25.4
144
1
145
0
146
0.6
147
0.09
 71
1
 72
0
 73
0
 74
0
 75
0
 76
0
 77
1
 78
9
170
0
171
2
172
0
173
0
174
0
175
0
176
2
177
2
178
2
  0
DIMSTYLE
  2
DMST_4
 70
0
  3

  4

  5

  6

  7

 40
1
 41
3.2
 42
1
 43
7
 44
1
 45
0
 46
0
 47
0
 48
0
140
3.2
141
0
142
0
143
25.4
144
1
145
0
146
0.6
147
0.09
 71
1
 72
0
 73
0
 74
0
 75
0
 76
0
 77
1
 78
9
170
0
171
2
172
0
173
0
174
0
175
0
176
2
177
2
178
2
  0
DIMSTYLE
  2
DMST_5
 70
0
  3

  4

  5

  6

  7

 40
1
 41
3.2
 42
1
 43
7
 44
1
 45
0
 46
0
 47
0
 48
0.02
140
3.2
141
0
142
0
143
25.4
144
1
145
0
146
0.6
147
0.09
 71
1
 72
0
 73
0
 74
0
 75
0
 76
0
 77
1
 78
9
170
0
171
2
172
0
173
0
174
0
175
0
176
2
177
2
178
2
  0
DIMSTYLE
  2
DMST_6
 70
0
  3
HOLE
  4

  5

  6

  7

 40
1
 41
3.2
 42
1
 43
7
 44
1
 45
0
 46
0
 47
0.1
 48
0
140
3.2
141
0
142
0
143
25.4
144
1
145
0
146
0.6
147
0.09
 71
1
 72
0
 73
1
 74
1
 75
0
 76
0
 77
1
 78
9
170
0
171
2
172
0
173
0
174
0
175
0
176
2
177
2
178
2
  0
ENDTAB
  0
TABLE
  2
LTYPE
 70
9
  0
LTYPE
  2
CONTINUOUS
 70
64
  3
Solid line
 72
65
 73
0
 40
0
  0
LTYPE
  2
BORDER
 70
64
  3
__ __ . __ __ .
 72
65
 73
6
 40
17.91447368421053
 49
5.118421052631579
 49
-2.559210526315789
 49
5.118421052631579
 49
-2.559210526315789
 49
0
 49
-2.559210526315789
  0
LTYPE
  2
CENTER
 70
64
  3
____ _ ____ _
 72
65
 73
4
 40
20.47368421052632
 49
12.79605263157895
 49
-2.559210526315789
 49
2.559210526315789
 49
-2.559210526315789
  0
LTYPE
  2
DASHDOT
 70
64
  3
__ . __ . __ .
 72
65
 73
4
 40
10.23684210526316
 49
5.118421052631579
 49
-2.559210526315789
 49
0
 49
-2.559210526315789
  0
LTYPE
  2
DASHED
 70
64
  3
__ __ __ __ __
 72
65
 73
2
 40
7.677631578947368
 49
5.118421052631579
 49
-2.559210526315789
  0
LTYPE
  2
DIVIDE
 70
64
  3
__ . . __ . . 
 72
65
 73
6
 40
12.79605263157895
 49
5.118421052631579
 49
-2.559210526315789
 49
0
 49
-2.559210526315789
 49
0
 49
-2.559210526315789
  0
LTYPE
  2
DOT
 70
64
  3
..............
 72
65
 73
4
 40
5.118421052631579
 49
0
 49
-2.559210526315789
 49
0
 49
-2.559210526315789
  0
LTYPE
  2
HIDDEN
 70
64
  3
_ _ _ _ _ _ _
 72
65
 73
2
 40
3.838815789473684
 49
2.559210526315789
 49
-1.279605263157895
  0
LTYPE
  2
PHANTOM
 70
64
  3
_____ _ _ _____ _ _ 
 72
65
 73
6
 40
25.59210526315789
 49
12.79605263157895
 49
-2.559210526315789
 49
2.559210526315789
 49
-2.559210526315789
 49
2.559210526315789
 49
-2.559210526315789
  0
ENDTAB
  0
TABLE
  2
LAYER
 70
3
  0
LAYER
  2
1
 70
0
 62
7
  6
CONTINUOUS
  0
LAYER
  2
0
 70
0
 62
7
  6
CONTINUOUS
  0
ENDTAB
  0
TABLE
  2
STYLE
 70
4
  0
STYLE
  2
STANDARD
 70
0
 40
0
 41
1
 50
0
 71
0
 42
3.5
  3
txt
  4

  0
STYLE
  2
SIMPLEX
 70
0
 40
0
 41
1
 50
0
 71
0
 42
3.5
  3
simplex
  4

  0
STYLE
  2
COMPLEX
 70
0
 40
0
 41
1
 50
0
 71
0
 42
3.5
  3
complex
  4

  0
STYLE
  2
ITALIC
 70
0
 40
0
 41
1
 50
0
 71
0
 42
3.5
  3
italic
  4

  0
ENDTAB
  0
TABLE
  2
VIEW
 70
0
  0
ENDTAB
  0
ENDSEC
  0
SECTION
  2
BLOCKS
  0
BLOCK
  8
0
  2
___R___O_______R
 70
0
 10
0.5
 20
-3.75
 30
0
  0
LINE
  8
1
 62
4
  6
PHANTOM
 10
-194.5
 20
-146
 30
0
 11
194.5
 21
-146
 31
0
  0
LINE
  8
1
 62
4
  6
PHANTOM
 10
194.5
 20
146
 30
0
 11
-194.5
 21
146
 31
0
  0
LINE
  8
1
 62
4
  6
PHANTOM
 10
194.5
 20
146
 30
0
 11
194.5
 21
129
 31
0
  0
LINE
  8
1
 62
4
  6
PHANTOM
 10
-194.5
 20
-146
 30
0
 11
-194.5
 21
146
 31
0
  0
LINE
  8
1
 62
4
  6
PHANTOM
 10
194.5
 20
-136.5
 30
0
 11
194.5
 21
-146
 31
0
  0
TEXT
  8
1
 62
4
 10
178.746911898274
 20
-142.6071298819256
 30
0
 40
5
  1
A3
 41
0.9
 72
1
 73
2
 11
183.246911898274
 21
-140.1071298819256
 31
0
  0
ENDBLK
  8
0
  0
BLOCK
  8
1
  2
*D0
 70
1
 10
0
 20
0
 30
0
  0
LINE
  8
1
 62
2
 10
83.45454943187161
 20
-84.04455028567179
 30
0
 11
121.4545494318716
 21
-84.04455028567179
 31
0
  0
LINE
  8
1
 62
2
 10
83.45454943187161
 20
-49.5
 30
0
 11
83.45454943187161
 21
-85.04455028567179
 31
0
  0
LINE
  8
1
 62
2
 10
121.4545494318716
 20
-49.5
 30
0
 11
121.4545494318716
 21
-85.04455028567179
 31
0
  0
SOLID
  8
1
 62
2
 10
83.45454943187161
 20
-84.04455028567179
 30
0
 11
86.65454943187162
 21
-83.62855028567179
 31
0
 12
86.65454943187162
 22
-84.46055028567179
 32
0
 13
86.65454943187162
 23
-84.46055028567179
 33
0
  0
SOLID
  8
1
 62
2
 10
121.4545494318716
 20
-84.04455028567179
 30
0
 11
118.2545494318716
 21
-84.46055028567179
 31
0
 12
118.2545494318716
 22
-83.62855028567179
 32
0
 13
118.2545494318716
 23
-83.62855028567179
 33
0
  0
TEXT
  8
1
 62
2
 10
100.0545494318716
 20
-83.04455028567179
 30
0
 40
3.2
  1
38
 41
0.9
  0
ENDBLK
  8
0
  0
BLOCK
  8
1
  2
*D1
 70
1
 10
0
 20
0
 30
0
  0
LINE
  8
1
 62
2
 10
91.45454943187161
 20
-60.1502088032148
 30
0
 11
113.4545494318716
 21
-60.1502088032148
 31
0
  0
LINE
  8
1
 62
2
 10
91.45454943187161
 20
-51
 30
0
 11
91.45454943187161
 21
-61.1502088032148
 31
0
  0
LINE
  8
1
 62
2
 10
113.4545494318716
 20
-51
 30
0
 11
113.4545494318716
 21
-61.1502088032148
 31
0
  0
SOLID
  8
1
 62
2
 10
91.45454943187161
 20
-60.1502088032148
 30
0
 11
94.65454943187162
 21
-59.73420880321481
 31
0
 12
94.65454943187162
 22
-60.5662088032148
 32
0
 13
94.65454943187162
 23
-60.5662088032148
 33
0
  0
SOLID
  8
1
 62
2
 10
113.4545494318716
 20
-60.1502088032148
 30
0
 11
110.2545494318716
 21
-60.5662088032148
 31
0
 12
110.2545494318716
 22
-59.73420880321481
 32
0
 13
110.2545494318716
 23
-59.73420880321481
 33
0
  0
TEXT
  8
1
 62
2
 10
100.0545494318716
 20
-59.1502088032148
 30
0
 40
3.2
  1
22
 41
0.9
  0
TEXT
  8
1
 62
2
 10
97.97454943187159
 20
-59.1502088032148
 30
0
 40
3.2
  1
(
 41
0.9
  0
TEXT
  8
1
 62
2
 10
106.4545494318716
 20
-59.1502088032148
 30
0
 40
3.2
  1
)
 41
0.9
  0
ENDBLK
  8
0
  0
BLOCK
  8
1
  2
*D2
 70
1
 10
0
 20
0
 30
0
  0
LINE
  8
1
 62
2
 10
61.4207864305562
 20
-34
 30
0
 11
61.4207864305562
 21
32.5
 31
0
  0
LINE
  8
1
 62
2
 10
88.75454943187151
 20
32.5
 30
0
 11
60.4207864305562
 21
32.5
 31
0
  0
LINE
  8
1
 62
2
 10
95.1545494318716
 20
-34
 30
0
 11
60.4207864305562
 21
-34
 31
0
  0
SOLID
  8
1
 62
2
 10
61.4207864305562
 20
32.5
 30
0
 11
61.8367864305562
 21
29.3
 31
0
 12
61.00478643055619
 22
29.3
 32
0
 13
61.00478643055619
 23
29.3
 33
0
  0
SOLID
  8
1
 62
2
 10
61.4207864305562
 20
-34
 30
0
 11
61.00478643055619
 21
-30.8
 31
0
 12
61.8367864305562
 22
-30.8
 32
0
 13
61.8367864305562
 23
-30.8
 33
0
  0
TEXT
  8
1
 62
2
 10
60.4207864305562
 20
-5.11
 30
0
 40
3.2
  1
66.5
 50
90
 41
0.9
  0
TEXT
  8
1
 62
2
 10
60.4207864305562
 20
-7.19
 30
0
 40
3.2
  1
(
 50
90
 41
0.9
  0
TEXT
  8
1
 62
2
 10
60.4207864305562
 20
5.21
 30
0
 40
3.2
  1
)
 50
90
 41
0.9
  0
ENDBLK
  8
0
  0
BLOCK
  8
1
  2
*D3
 70
1
 10
0
 20
0
 30
0
  0
LINE
  8
1
 62
2
 10
61.4207864305562
 20
-50
 30
0
 11
61.4207864305562
 21
-34
 31
0
  0
LINE
  8
1
 62
2
 10
83.95454943187161
 20
-50
 30
0
 11
60.4207864305562
 21
-50
 31
0
  0
LINE
  8
1
 62
2
 10
95.1545494318716
 20
-34
 30
0
 11
60.4207864305562
 21
-34
 31
0
  0
SOLID
  8
1
 62
2
 10
61.4207864305562
 20
-34
 30
0
 11
61.8367864305562
 21
-37.2
 31
0
 12
61.00478643055619
 22
-37.2
 32
0
 13
61.00478643055619
 23
-37.2
 33
0
  0
SOLID
  8
1
 62
2
 10
61.4207864305562
 20
-50
 30
0
 11
61.00478643055619
 21
-46.8
 31
0
 12
61.8367864305562
 22
-46.8
 32
0
 13
61.8367864305562
 23
-46.8
 33
0
  0
TEXT
  8
1
 62
2
 10
60.4207864305562
 20
-43.92
 30
0
 40
3.2
  1
16
 50
90
 41
0.9
  0
TEXT
  8
1
 62
2
 10
60.4207864305562
 20
-46
 30
0
 40
3.2
  1
(
 50
90
 41
0.9
  0
TEXT
  8
1
 62
2
 10
60.4207864305562
 20
-38.48
 30
0
 40
3.2
  1
)
 50
90
 41
0.9
  0
ENDBLK
  8
0
  0
BLOCK
  8
1
  2
*D4
 70
1
 10
0
 20
0
 30
0
  0
LINE
  8
1
 62
2
 10
73.3842531645668
 20
-46
 30
0
 11
73.3842531645668
 21
-34
 31
0
  0
LINE
  8
1
 62
2
 10
73.3842531645668
 20
-34
 30
0
 11
73.3842531645668
 21
-25.8990469901436
 31
0
  0
LINE
  8
1
 62
2
 10
88.45454943187161
 20
-46
 30
0
 11
72.3842531645668
 21
-46
 31
0
  0
LINE
  8
1
 62
2
 10
95.1545494318716
 20
-34
 30
0
 11
72.3842531645668
 21
-34
 31
0
  0
SOLID
  8
1
 62
2
 10
73.3842531645668
 20
-34
 30
0
 11
73.8002531645668
 21
-37.2
 31
0
 12
72.9682531645668
 22
-37.2
 32
0
 13
72.9682531645668
 23
-37.2
 33
0
  0
SOLID
  8
1
 62
2
 10
73.3842531645668
 20
-46
 30
0
 11
72.9682531645668
 21
-42.8
 31
0
 12
73.8002531645668
 22
-42.8
 32
0
 13
73.8002531645668
 23
-42.8
 33
0
  0
TEXT
  8
1
 62
2
 10
72.3842531645668
 20
-29.7390469901436
 30
0
 40
3.2
  1
12
 50
90
 41
0.9
  0
ENDBLK
  8
0
  0
BLOCK
  8
1
  2
*D5
 70
1
 10
0
 20
0
 30
0
  0
LINE
  8
1
 62
2
 10
131.483623414956
 20
-42
 30
0
 11
131.483623414956
 21
-28
 31
0
  0
LINE
  8
1
 62
2
 10
122.4545494318716
 20
-42
 30
0
 11
132.483623414956
 21
-42
 31
0
  0
LINE
  8
1
 62
2
 10
122.4545494318716
 20
-28
 30
0
 11
132.483623414956
 21
-28
 31
0
  0
SOLID
  8
1
 62
2
 10
131.483623414956
 20
-28
 30
0
 11
131.899623414956
 21
-31.2
 31
0
 12
131.067623414956
 22
-31.2
 32
0
 13
131.067623414956
 23
-31.2
 33
0
  0
SOLID
  8
1
 62
2
 10
131.483623414956
 20
-42
 30
0
 11
131.067623414956
 21
-38.8
 31
0
 12
131.899623414956
 22
-38.8
 32
0
 13
131.899623414956
 23
-38.8
 33
0
  0
TEXT
  8
1
 62
2
 10
130.483623414956
 20
-36.92
 30
0
 40
3.2
  1
14
 50
90
 41
0.9
  0
TEXT
  8
1
 62
2
 10
130.483623414956
 20
-39
 30
0
 40
3.2
  1
(
 50
90
 41
0.9
  0
TEXT
  8
1
 62
2
 10
130.483623414956
 20
-31.48
 30
0
 40
3.2
  1
)
 50
90
 41
0.9
  0
ENDBLK
  8
0
  0
BLOCK
  8
1
  2
*D6
 70
1
 10
0
 20
0
 30
0
  0
LINE
  8
1
 62
2
 10
143.439812126686
 20
-46
 30
0
 11
143.439812126686
 21
-24
 31
0
  0
LINE
  8
1
 62
2
 10
120.4545494318717
 20
-46
 30
0
 11
144.439812126686
 21
-46
 31
0
  0
LINE
  8
1
 62
2
 10
120.4545494318717
 20
-24
 30
0
 11
144.439812126686
 21
-24
 31
0
  0
SOLID
  8
1
 62
2
 10
143.439812126686
 20
-24
 30
0
 11
143.855812126686
 21
-27.2
 31
0
 12
143.023812126686
 22
-27.2
 32
0
 13
143.023812126686
 23
-27.2
 33
0
  0
SOLID
  8
1
 62
2
 10
143.439812126686
 20
-46
 30
0
 11
143.023812126686
 21
-42.8
 31
0
 12
143.855812126686
 22
-42.8
 32
0
 13
143.855812126686
 23
-42.8
 33
0
  0
TEXT
  8
1
 62
2
 10
142.439812126686
 20
-40.624
 30
0
 40
3.2
  1
22
 50
90
 41
0.9
  0
TEXT
  8
1
 62
2
 10
141.799812126686
 20
-34.224
 30
0
 40
1.92
  1
%%p0.3
 50
90
 41
0.9
  0
ENDBLK
  8
0
  0
BLOCK
  8
1
  2
*D7
 70
1
 10
0
 20
0
 30
0
  0
LINE
  8
1
 62
2
 10
155.340275668329
 20
-50
 30
0
 11
155.340275668329
 21
-20
 31
0
  0
LINE
  8
1
 62
2
 10
120.9545494318717
 20
-50
 30
0
 11
156.340275668329
 21
-50
 31
0
  0
LINE
  8
1
 62
2
 10
122.4545494318716
 20
-20
 30
0
 11
156.340275668329
 21
-20
 31
0
  0
SOLID
  8
1
 62
2
 10
155.340275668329
 20
-20
 30
0
 11
155.756275668329
 21
-23.2
 31
0
 12
154.924275668329
 22
-23.2
 32
0
 13
154.924275668329
 23
-23.2
 33
0
  0
SOLID
  8
1
 62
2
 10
155.340275668329
 20
-50
 30
0
 11
154.924275668329
 21
-46.8
 31
0
 12
155.756275668329
 22
-46.8
 32
0
 13
155.756275668329
 23
-46.8
 33
0
  0
TEXT
  8
1
 62
2
 10
154.340275668329
 20
-37.4
 30
0
 40
3.2
  1
30
 50
90
 41
0.9
  0
TEXT
  8
1
 62
2
 10
154.340275668329
 20
-39.48
 30
0
 40
3.2
  1
(
 50
90
 41
0.9
  0
TEXT
  8
1
 62
2
 10
154.340275668329
 20
-31
 30
0
 40
3.2
  1
)
 50
90
 41
0.9
  0
ENDBLK
  8
0
  0
BLOCK
  8
1
  2
*D8
 70
1
 10
0
 20
0
 30
0
  0
LINE
  8
1
 62
2
 10
143.430794156185
 20
-39.59999999999999
 30
0
 11
143.430794156185
 21
-46
 31
0
  0
LINE
  8
1
 62
2
 10
143.430794156185
 20
-50
 30
0
 11
143.430794156185
 21
-46
 31
0
  0
LINE
  8
1
 62
2
 10
143.430794156185
 20
-50
 30
0
 11
143.430794156185
 21
-61.4952974957321
 31
0
  0
LINE
  8
1
 62
2
 10
120.9545494318717
 20
-50
 30
0
 11
144.430794156185
 21
-50
 31
0
  0
LINE
  8
1
 62
2
 10
120.4545494318717
 20
-46
 30
0
 11
144.430794156185
 21
-46
 31
0
  0
SOLID
  8
1
 62
2
 10
143.430794156185
 20
-46
 30
0
 11
143.014794156185
 21
-42.8
 31
0
 12
143.846794156185
 22
-42.8
 32
0
 13
143.846794156185
 23
-42.8
 33
0
  0
SOLID
  8
1
 62
2
 10
143.430794156185
 20
-50
 30
0
 11
143.846794156185
 21
-53.2
 31
0
 12
143.014794156185
 22
-53.2
 32
0
 13
143.014794156185
 23
-53.2
 33
0
  0
TEXT
  8
1
 62
2
 10
142.430794156185
 20
-59.4152974957321
 30
0
 40
3.2
  1
4
 50
90
 41
0.9
  0
TEXT
  8
1
 62
2
 10
142.430794156185
 20
-61.4952974957321
 30
0
 40
3.2
  1
(
 50
90
 41
0.9
  0
TEXT
  8
1
 62
2
 10
142.430794156185
 20
-55.8952974957321
 30
0
 40
3.2
  1
)
 50
90
 41
0.9
  0
ENDBLK
  8
0
  0
BLOCK
  8
1
  2
*D9
 70
1
 10
0
 20
0
 30
0
  0
LINE
  8
1
 62
2
 10
93.85454943187162
 20
-70.98098862596869
 30
0
 11
87.45454943187161
 21
-70.98098862596869
 31
0
  0
LINE
  8
1
 62
2
 10
83.45454943187161
 20
-70.98098862596869
 30
0
 11
87.45454943187161
 21
-70.98098862596869
 31
0
  0
LINE
  8
1
 62
2
 10
83.45454943187161
 20
-70.98098862596869
 30
0
 11
69.03023380912089
 21
-70.98098862596869
 31
0
  0
LINE
  8
1
 62
2
 10
83.45454943187161
 20
-49.5
 30
0
 11
83.45454943187161
 21
-71.98098862596869
 31
0
  0
LINE
  8
1
 62
2
 10
87.45454943187161
 20
-49
 30
0
 11
87.45454943187161
 21
-71.98098862596869
 31
0
  0
SOLID
  8
1
 62
2
 10
83.45454943187161
 20
-70.98098862596869
 30
0
 11
80.25454943187161
 21
-71.39698862596869
 31
0
 12
80.25454943187161
 22
-70.5649886259687
 32
0
 13
80.25454943187161
 23
-70.5649886259687
 33
0
  0
SOLID
  8
1
 62
2
 10
87.45454943187161
 20
-70.98098862596869
 30
0
 11
90.65454943187162
 21
-70.5649886259687
 31
0
 12
90.65454943187162
 22
-71.39698862596869
 32
0
 13
90.65454943187162
 23
-71.39698862596869
 33
0
  0
TEXT
  8
1
 62
2
 10
71.1102338091209
 20
-69.98098862596869
 30
0
 40
3.2
  1
4
 41
0.9
  0
TEXT
  8
1
 62
2
 10
69.03023380912089
 20
-69.98098862596869
 30
0
 40
3.2
  1
(
 41
0.9
  0
TEXT
  8
1
 62
2
 10
74.6302338091209
 20
-69.98098862596869
 30
0
 40
3.2
  1
)
 41
0.9
  0
ENDBLK
  8
0
  0
BLOCK
  8
1
  2
*D10
 70
1
 10
0
 20
0
 30
0
  0
LINE
  8
1
 62
2
 10
87.45454943187161
 20
-70.98098862596869
 30
0
 11
117.4545494318717
 21
-70.98098862596869
 31
0
  0
LINE
  8
1
 62
2
 10
87.45454943187161
 20
-49
 30
0
 11
87.45454943187161
 21
-71.98098862596869
 31
0
  0
LINE
  8
1
 62
2
 10
117.4545494318717
 20
-49
 30
0
 11
117.4545494318717
 21
-71.98098862596869
 31
0
  0
SOLID
  8
1
 62
2
 10
87.45454943187161
 20
-70.98098862596869
 30
0
 11
90.65454943187162
 21
-70.5649886259687
 31
0
 12
90.65454943187162
 22
-71.39698862596869
 32
0
 13
90.65454943187162
 23
-71.39698862596869
 33
0
  0
SOLID
  8
1
 62
2
 10
117.4545494318717
 20
-70.98098862596869
 30
0
 11
114.2545494318717
 21
-71.39698862596869
 31
0
 12
114.2545494318717
 22
-70.5649886259687
 32
0
 13
114.2545494318717
 23
-70.5649886259687
 33
0
  0
TEXT
  8
1
 62
2
 10
96.8305494318717
 20
-69.98098862596869
 30
0
 40
3.2
  1
30
 41
0.9
  0
TEXT
  8
1
 62
2
 10
103.2305494318717
 20
-69.34098862596869
 30
0
 40
1.92
  1
%%p0.3
 41
0.9
  0
ENDBLK
  8
0
  0
BLOCK
  8
1
  2
*D11
 70
1
 10
0
 20
0
 30
0
  0
LINE
  8
1
 62
2
 10
-112.381606091637
 20
-50
 30
0
 11
-112.381606091637
 21
50
 31
0
  0
LINE
  8
1
 62
2
 10
-101.8454505681283
 20
50
 30
0
 11
-113.381606091637
 21
50
 31
0
  0
LINE
  8
1
 62
2
 10
-101.8454505681283
 20
-50
 30
0
 11
-113.381606091637
 21
-50
 31
0
  0
SOLID
  8
1
 62
2
 10
-112.381606091637
 20
50
 30
0
 11
-111.965606091637
 21
46.8
 31
0
 12
-112.797606091637
 22
46.8
 32
0
 13
-112.797606091637
 23
46.8
 33
0
  0
SOLID
  8
1
 62
2
 10
-112.381606091637
 20
-50
 30
0
 11
-112.797606091637
 21
-46.8
 31
0
 12
-111.965606091637
 22
-46.8
 32
0
 13
-111.965606091637
 23
-46.8
 33
0
  0
TEXT
  8
1
 62
2
 10
-113.381606091637
 20
-3.359999999999999
 30
0
 40
3.2
  1
100
 50
90
 41
0.9
  0
ENDBLK
  8
0
  0
BLOCK
  8
1
  2
*D12
 70
1
 10
0
 20
0
 30
0
  0
LINE
  8
1
 62
2
 10
10.87546123622779
 20
11.5680861097405
 30
0
 11
0.7618002042378151
 21
11.5680861097405
 31
0
  0
LINE
  8
1
 62
2
 10
10.87546123622779
 20
11.5680861097405
 30
0
 11
13.87546123622779
 21
11.5680861097405
 31
0
  0
LINE
  8
1
 62
2
 10
20.27546123622788
 20
11.5680861097405
 30
0
 11
13.87546123622779
 21
11.5680861097405
 31
0
  0
LINE
  8
1
 62
2
 10
13.87546123622779
 20
44.1489822888847
 30
0
 11
13.87546123622779
 21
10.5680861097405
 31
0
  0
LINE
  8
1
 62
2
 10
10.87546123622779
 20
43.7539822888846
 30
0
 11
10.87546123622779
 21
10.5680861097405
 31
0
  0
SOLID
  8
1
 62
2
 10
13.87546123622779
 20
11.5680861097405
 30
0
 11
17.07546123622779
 21
11.9840861097405
 31
0
 12
17.07546123622779
 22
11.1520861097405
 32
0
 13
17.07546123622779
 23
11.1520861097405
 33
0
  0
SOLID
  8
1
 62
2
 10
10.87546123622779
 20
11.5680861097405
 30
0
 11
7.675461236227791
 21
11.1520861097405
 31
0
 12
7.675461236227791
 22
11.9840861097405
 32
0
 13
7.675461236227791
 23
11.9840861097405
 33
0
  0
TEXT
  8
1
 62
2
 10
2.841800204237779
 20
12.5680861097405
 30
0
 40
3.2
  1
3
 41
0.9
  0
TEXT
  8
1
 62
2
 10
0.7618002042377792
 20
12.5680861097405
 30
0
 40
3.2
  1
(
 41
0.9
  0
TEXT
  8
1
 62
2
 10
6.361800204237779
 20
12.5680861097405
 30
0
 40
3.2
  1
)
 41
0.9
  0
ENDBLK
  8
0
  0
BLOCK
  8
1
  2
*D13
 70
1
 10
0
 20
0
 30
0
  0
LINE
  8
1
 62
2
 10
-43.8454505681283
 20
-0.5715088378193052
 30
0
 11
13.8754612362278
 21
-0.5715088378193052
 31
0
  0
LINE
  8
1
 62
2
 10
13.8754612362278
 20
44.1489822888847
 30
0
 11
13.8754612362278
 21
-1.571508837819305
 31
0
  0
LINE
  8
1
 62
2
 10
-43.8454505681283
 20
16.5
 30
0
 11
-43.8454505681283
 21
-1.571508837819305
 31
0
  0
SOLID
  8
1
 62
2
 10
-43.8454505681283
 20
-0.5715088378193052
 30
0
 11
-40.6454505681283
 21
-0.1555088378193051
 31
0
 12
-40.6454505681283
 22
-0.9875088378193053
 32
0
 13
-40.6454505681283
 23
-0.9875088378193053
 33
0
  0
SOLID
  8
1
 62
2
 10
13.8754612362278
 20
-0.5715088378193052
 30
0
 11
10.6754612362278
 21
-0.9875088378193045
 31
0
 12
10.6754612362278
 22
-0.155508837819305
 32
0
 13
10.6754612362278
 23
-0.155508837819305
 33
0
  0
TEXT
  8
1
 62
2
 10
-21.83299466595025
 20
1.228491162180697
 30
0
 40
3.2
  1
300
 41
0.9
  0
TEXT
  8
1
 62
2
 10
-12.55299466595025
 20
3.308491162180697
 30
0
 40
1.92
  1
+30
 41
0.9
  0
TEXT
  8
1
 62
2
 10
-10.82499466595025
 20
0.4284911621806971
 30
0
 40
1.92
  1
 0
 41
0.9
  0
ENDBLK
  8
0
  0
BLOCK
  8
1
  2
*D14
 70
1
 10
0
 20
0
 30
0
  0
LINE
  8
1
 62
2
 10
-50.24545056812839
 20
60.0517013487565
 30
0
 11
-43.8454505681283
 21
60.0517013487565
 31
0
  0
LINE
  8
1
 62
2
 10
-43.8454505681283
 20
60.0517013487565
 30
0
 11
-42.64545056812826
 21
60.0517013487565
 31
0
  0
LINE
  8
1
 62
2
 10
-42.64545056812826
 20
60.0517013487565
 30
0
 11
-29.18209613501235
 21
60.0517013487565
 31
0
  0
LINE
  8
1
 62
2
 10
-43.8454505681283
 20
48.5
 30
0
 11
-43.8454505681283
 21
61.0517013487565
 31
0
  0
LINE
  8
1
 62
2
 10
-42.64545056812826
 20
38.09999999999987
 30
0
 11
-42.64545056812826
 21
61.0517013487565
 31
0
  0
SOLID
  8
1
 62
2
 10
-43.8454505681283
 20
60.0517013487565
 30
0
 11
-47.0454505681283
 21
59.63570134875651
 31
0
 12
-47.0454505681283
 22
60.4677013487565
 32
0
 13
-47.0454505681283
 23
60.4677013487565
 33
0
  0
SOLID
  8
1
 62
2
 10
-42.64545056812826
 20
60.0517013487565
 30
0
 11
-39.44545056812826
 21
60.4677013487565
 31
0
 12
-39.44545056812826
 22
59.63570134875651
 32
0
 13
-39.44545056812826
 23
59.63570134875651
 33
0
  0
TEXT
  8
1
 62
2
 10
-36.14209613501233
 20
61.0517013487565
 30
0
 40
3.2
  1
1.2
 41
0.9
  0
TEXT
  8
1
 62
2
 10
-38.22209613501234
 20
61.0517013487565
 30
0
 40
3.2
  1
(
 41
0.9
  0
TEXT
  8
1
 62
2
 10
-29.66209613501233
 20
61.0517013487565
 30
0
 40
3.2
  1
)
 41
0.9
  0
ENDBLK
  8
0
  0
BLOCK
  8
1
  2
*D15
 70
1
 10
0
 20
0
 30
0
  0
LINE
  8
1
 62
2
 10
-23.8454505681283
 20
16.5
 30
0
 11
-23.8454505681283
 21
48.5
 31
0
  0
LINE
  8
1
 62
2
 10
-43.8454505681283
 20
48.5
 30
0
 11
-22.8454505681283
 21
48.5
 31
0
  0
LINE
  8
1
 62
2
 10
-43.8454505681283
 20
16.5
 30
0
 11
-22.8454505681283
 21
16.5
 31
0
  0
SOLID
  8
1
 62
2
 10
-23.8454505681283
 20
48.5
 30
0
 11
-23.4294505681283
 21
45.3
 31
0
 12
-24.2614505681283
 22
45.3
 32
0
 13
-24.2614505681283
 23
45.3
 33
0
  0
SOLID
  8
1
 62
2
 10
-23.8454505681283
 20
16.5
 30
0
 11
-24.2614505681283
 21
19.7
 31
0
 12
-23.4294505681283
 22
19.7
 32
0
 13
-23.4294505681283
 23
19.7
 33
0
  0
TEXT
  8
1
 62
2
 10
-24.84545056812821
 20
31.92222222222222
 30
0
 40
3.2
  1
32
 50
90
 41
0.9
  0
TEXT
  8
1
 62
2
 10
-24.84545056812821
 20
28.27777777777778
 30
0
 40
3.2
  1
ƒÓ
 50
90
 41
0.9
  0
ENDBLK
  8
0
  0
BLOCK
  8
1
  2
*D16
 70
1
 10
0
 20
0
 30
0
  0
LINE
  8
1
 62
2
 10
-102.3454505681283
 20
-72.01514455194949
 30
0
 11
-83.6454505681283
 21
-72.01514455194949
 31
0
  0
LINE
  8
1
 62
2
 10
-102.3454505681283
 20
-49.5
 30
0
 11
-102.3454505681283
 21
-73.01514455194949
 31
0
  0
LINE
  8
1
 62
2
 10
-83.6454505681283
 20
-51
 30
0
 11
-83.6454505681283
 21
-73.01514455194949
 31
0
  0
SOLID
  8
1
 62
2
 10
-102.3454505681283
 20
-72.01514455194949
 30
0
 11
-99.1454505681283
 21
-71.59914455194949
 31
0
 12
-99.1454505681283
 22
-72.43114455194949
 32
0
 13
-99.1454505681283
 23
-72.43114455194949
 33
0
  0
SOLID
  8
1
 62
2
 10
-83.6454505681283
 20
-72.01514455194949
 30
0
 11
-86.8454505681283
 21
-72.43114455194949
 31
0
 12
-86.8454505681283
 22
-71.59914455194949
 32
0
 13
-86.8454505681283
 23
-71.59914455194949
 33
0
  0
TEXT
  8
1
 62
2
 10
-96.87545056812829
 20
-71.01514455194949
 30
0
 40
3.2
  1
18.7
 41
0.9
  0
ENDBLK
  8
0
  0
BLOCK
  8
1
  2
*D17
 70
1
 10
0
 20
0
 30
0
  0
LINE
  8
1
 62
2
 10
-83.6454505681283
 20
-72.0651551624796
 30
0
 11
-67.44545056812821
 21
-72.0651551624796
 31
0
  0
LINE
  8
1
 62
2
 10
-83.6454505681283
 20
-51
 30
0
 11
-83.6454505681283
 21
-73.0651551624796
 31
0
  0
LINE
  8
1
 62
2
 10
-67.44545056812821
 20
-39
 30
0
 11
-67.44545056812821
 21
-73.0651551624796
 31
0
  0
SOLID
  8
1
 62
2
 10
-83.6454505681283
 20
-72.0651551624796
 30
0
 11
-80.44545056812829
 21
-71.6491551624796
 31
0
 12
-80.44545056812829
 22
-72.4811551624796
 32
0
 13
-80.44545056812829
 23
-72.4811551624796
 33
0
  0
SOLID
  8
1
 62
2
 10
-67.44545056812821
 20
-72.0651551624796
 30
0
 11
-70.64545056812821
 21
-72.4811551624796
 31
0
 12
-70.64545056812821
 22
-71.6491551624796
 32
0
 13
-70.64545056812821
 23
-71.6491551624796
 33
0
  0
TEXT
  8
1
 62
2
 10
-79.42545056812824
 20
-71.0651551624796
 30
0
 40
3.2
  1
16.2
 41
0.9
  0
ENDBLK
  8
0
  0
BLOCK
  8
1
  2
*D18
 70
1
 10
0
 20
0
 30
0
  0
LINE
  8
1
 62
2
 10
-52.42474494266911
 20
-38.00000000000001
 30
0
 11
-52.42474494266911
 21
-56.87907039421704
 31
0
  0
LINE
  8
1
 62
2
 10
-52.42474494266911
 20
-38.00000000000001
 30
0
 11
-52.42474494266911
 21
-30.00000000000002
 31
0
  0
LINE
  8
1
 62
2
 10
-52.42474494266911
 20
-23.60000000000002
 30
0
 11
-52.42474494266911
 21
-30.00000000000002
 31
0
  0
LINE
  8
1
 62
2
 10
-66.44545056812795
 20
-30.00000000000002
 30
0
 11
-51.42474494266911
 21
-30.00000000000002
 31
0
  0
LINE
  8
1
 62
2
 10
-66.44545056812795
 20
-38.00000000000001
 30
0
 11
-51.42474494266911
 21
-38.00000000000001
 31
0
  0
SOLID
  8
1
 62
2
 10
-52.42474494266911
 20
-30.00000000000002
 30
0
 11
-52.84074494266911
 21
-26.80000000000002
 31
0
 12
-52.00874494266911
 22
-26.80000000000002
 32
0
 13
-52.00874494266911
 23
-26.80000000000002
 33
0
  0
SOLID
  8
1
 62
2
 10
-52.42474494266911
 20
-38.00000000000001
 30
0
 11
-52.00874494266911
 21
-41.20000000000002
 31
0
 12
-52.8407449426691
 22
-41.20000000000002
 32
0
 13
-52.8407449426691
 23
-41.20000000000002
 33
0
  0
TEXT
  8
1
 62
2
 10
-54.22474494266911
 20
-53.23462594977259
 30
0
 40
3.2
  1
8
 50
90
 41
0.9
  0
TEXT
  8
1
 62
2
 10
-56.30474494266911
 20
-49.7146259497726
 30
0
 40
1.92
  1
 0
 50
90
 41
0.9
  0
TEXT
  8
1
 62
2
 10
-53.42474494266912
 20
-49.7146259497726
 30
0
 40
1.92
  1
-0.02
 50
90
 41
0.9
  0
TEXT
  8
1
 62
2
 10
-54.22474494266911
 20
-56.87907039421704
 30
0
 40
3.2
  1
ƒÓ
 50
90
 41
0.9
  0
ENDBLK
  8
0
  0
BLOCK
  8
1
  2
*D19
 70
1
 10
0
 20
0
 30
0
  0
LINE
  8
1
 62
2
 10
-79.84545056812821
 20
-59.99917762258051
 30
0
 11
-73.44545056812821
 21
-59.99917762258051
 31
0
  0
LINE
  8
1
 62
2
 10
-73.44545056812821
 20
-59.99917762258051
 30
0
 11
-67.44545056812821
 21
-59.99917762258051
 31
0
  0
LINE
  8
1
 62
2
 10
-67.44545056812821
 20
-59.99917762258051
 30
0
 11
-60.85661176419529
 21
-59.99917762258051
 31
0
  0
LINE
  8
1
 62
2
 10
-73.44545056812821
 20
-36.5
 30
0
 11
-73.44545056812821
 21
-60.99917762258051
 31
0
  0
LINE
  8
1
 62
2
 10
-67.44545056812821
 20
-39
 30
0
 11
-67.44545056812821
 21
-60.99917762258051
 31
0
  0
SOLID
  8
1
 62
2
 10
-73.44545056812821
 20
-59.99917762258051
 30
0
 11
-76.64545056812821
 21
-60.41517762258051
 31
0
 12
-76.64545056812821
 22
-59.58317762258051
 32
0
 13
-76.64545056812821
 23
-59.58317762258051
 33
0
  0
SOLID
  8
1
 62
2
 10
-67.44545056812821
 20
-59.99917762258051
 30
0
 11
-64.24545056812821
 21
-59.58317762258051
 31
0
 12
-64.24545056812821
 22
-60.41517762258051
 32
0
 13
-64.24545056812821
 23
-60.41517762258051
 33
0
  0
TEXT
  8
1
 62
2
 10
-62.77661176419529
 20
-58.99917762258051
 30
0
 40
3.2
  1
6
 41
0.9
  0
ENDBLK
  8
0
  0
BLOCK
  8
1
  2
*D20
 70
1
 10
0
 20
0
 30
0
  0
LINE
  8
1
 62
2
 10
-102.3454505681283
 20
72.01061118982041
 30
0
 11
-43.8454505681283
 21
72.01061118982041
 31
0
  0
LINE
  8
1
 62
2
 10
-102.3454505681283
 20
49.50000000000003
 30
0
 11
-102.3454505681283
 21
73.01061118982041
 31
0
  0
LINE
  8
1
 62
2
 10
-43.8454505681283
 20
48.5
 30
0
 11
-43.8454505681283
 21
73.01061118982041
 31
0
  0
SOLID
  8
1
 62
2
 10
-102.3454505681283
 20
72.01061118982041
 30
0
 11
-99.1454505681283
 21
72.42661118982041
 31
0
 12
-99.1454505681283
 22
71.59461118982041
 32
0
 13
-99.1454505681283
 23
71.59461118982041
 33
0
  0
SOLID
  8
1
 62
2
 10
-43.8454505681283
 20
72.01061118982041
 30
0
 11
-47.0454505681283
 21
71.59461118982041
 31
0
 12
-47.0454505681283
 22
72.42661118982041
 32
0
 13
-47.0454505681283
 23
72.42661118982041
 33
0
  0
TEXT
  8
1
 62
2
 10
-77.4554505681283
 20
73.01061118982041
 30
0
 40
3.2
  1
58.5
 41
0.9
  0
ENDBLK
  8
0
  0
BLOCK
  8
1
  2
*D21
 70
1
 10
0
 20
0
 30
0
  0
LINE
  8
1
 62
2
 10
85.83181779860882
 20
-47.16907743388036
 30
0
 11
61.06614490422581
 21
-65.01120777891499
 31
0
  0
LINE
  8
1
 62
2
 10
61.06614490422581
 20
-65.01120777891499
 30
0
 11
7.546144904225798
 21
-65.01120777891499
 31
0
  0
SOLID
  8
1
 62
2
 10
85.83181779860882
 20
-47.16907743388036
 30
0
 11
83.47861529163548
 21
-49.3771295078076
 31
0
 12
82.99227907914126
 22
-48.70207314837028
 32
0
 13
82.99227907914126
 23
-48.70207314837028
 33
0
  0
TEXT
  8
1
 62
2
 10
19.3861449042258
 20
-64.01120777891499
 30
0
 40
3.2
  1
4
 41
0.9
  0
TEXT
  8
1
 62
2
 10
7.546144904225798
 20
-64.01120777891499
 30
0
 40
3.2
  1
 4-M
 41
0.9
  0
TEXT
  8
1
 62
2
 10
22.9061449042258
 20
-64.01120777891499
 30
0
 40
3.2
  1
 DEPTH 6MAX
 41
0.9
  0
ENDBLK
  8
0
  0
BLOCK
  8
1
  2
*D22
 70
1
 10
0
 20
0
 30
0
  0
LINE
  8
1
 62
2
 10
-47.69126891874644
 20
-18.10095939544399
 30
0
 11
-17.74282447430199
 21
-18.10095939544399
 31
0
  0
LINE
  8
1
 62
2
 10
-72.16907736348463
 20
-33.21204604038809
 30
0
 11
-47.69126891874644
 21
-18.10095939544399
 31
0
  0
SOLID
  8
1
 62
2
 10
-72.16907736348463
 20
-33.21204604038809
 30
0
 11
-69.66467375837752
 21
-31.17709675779491
 31
0
 12
-69.22762196211279
 22
-31.88505842863717
 32
0
 13
-69.22762196211279
 23
-31.88505842863717
 33
0
  0
TEXT
  8
1
 62
2
 10
-38.84682447430199
 20
-16.30095939544399
 30
0
 40
3.2
  1
3
 41
0.9
  0
TEXT
  8
1
 62
2
 10
-35.32682447430199
 20
-14.22095939544399
 30
0
 40
1.92
  1
+0.1
 41
0.9
  0
TEXT
  8
1
 62
2
 10
-35.32682447430199
 20
-17.10095939544399
 30
0
 40
1.92
  1
 0
 41
0.9
  0
TEXT
  8
1
 62
2
 10
-42.49126891874643
 20
-16.30095939544399
 30
0
 40
3.2
  1
ƒÓ
 41
0.9
  0
TEXT
  8
1
 62
2
 10
-29.26282447430199
 20
-16.30095939544399
 30
0
 40
3.2
  1
HOLE
 41
0.9
  0
ENDBLK
  8
0
  0
ENDSEC
  0
SECTION
  2
ENTITIES
  0
LINE
  8
1
 62
3
 10
-63.93685537951379
 20
-34
 30
0
 11
-105.495371703775
 21
-34
 31
0
  0
LINE
  8
1
 62
3
 10
89.75454943187151
 20
32.5
 30
0
 11
124.4545494318717
 21
32.5
 31
0
  0
LINE
  8
1
 62
7
 10
-86.58228666548692
 20
-36.31139416160738
 30
0
 11
-87.43673499385362
 21
-36.25692976711224
 31
0
  0
LINE
  8
1
 62
7
 10
-86.58228666548692
 20
-41.6886058383925
 30
0
 11
-87.43673499385362
 21
-41.74307023288765
 31
0
  0
LINE
  8
1
 62
3
 10
82.70454943187161
 20
-39.00000000000011
 30
0
 11
90.20454943187161
 21
-39
 31
0
  0
LINE
  8
1
 62
7
 10
-89.14545056812825
 20
-19.99978233438486
 30
0
 11
-83.6454505681283
 21
-19.99978233438489
 31
0
  0
LINE
  8
1
 62
7
 10
-83.6454505681283
 20
-27.99978233438489
 30
0
 11
-83.6454505681283
 21
-19.99978233438489
 31
0
  0
LINE
  8
1
 62
3
 10
-90.66490140024949
 20
-39
 30
0
 11
-84.41514630662772
 21
-39
 31
0
  0
LINE
  8
1
 62
3
 10
-96.03070293405887
 20
-46
 30
0
 11
-79.64000892774976
 21
-46
 31
0
  0
LINE
  8
1
 62
7
 10
-87.54545056812839
 20
-41.99978233438486
 30
0
 11
-87.54545056812839
 21
-27.99978233438489
 31
0
  0
LINE
  8
1
 62
7
 10
-83.6454505681283
 20
-27.99978233438489
 30
0
 11
-89.1454505681283
 21
-27.99978233438489
 31
0
  0
LINE
  8
1
 62
3
 10
-95.91445687727656
 20
-23.99978233438489
 30
0
 11
-80.10499315487908
 21
-23.99978233438489
 31
0
  0
LINE
  8
1
 62
7
 10
-84.1454505681283
 20
-39.80000000000001
 30
0
 11
-84.1454505681283
 21
-27.99978233438489
 31
0
  0
LINE
  8
1
 62
7
 10
-89.14545056812841
 20
-41.99978233438486
 30
0
 11
-89.1454505681283
 21
-27.99978233438489
 31
0
  0
LINE
  8
1
 62
7
 10
-83.6454505681283
 20
-41.99978233438486
 30
0
 11
-89.14545056812841
 21
-41.99978233438486
 31
0
  0
LINE
  8
1
 62
3
 10
90.36179148386151
 20
-34
 30
0
 11
96.1545494318716
 21
-34
 31
0
  0
LINE
  8
1
 62
3
 10
83.70454943187161
 20
-7
 30
0
 11
91.20454943187161
 21
-7
 31
0
  0
LINE
  8
1
 62
7
 10
117.4545494318717
 20
-28
 30
0
 11
121.4545494318716
 21
-28
 31
0
  0
LINE
  8
1
 62
7
 10
117.4545494318717
 20
-20
 30
0
 11
121.4545494318716
 21
-20
 31
0
  0
LINE
  8
1
 62
3
 10
87.45454943187161
 20
-40.7982997581766
 30
0
 11
87.45454943187161
 21
-48
 31
0
  0
LINE
  8
1
 62
3
 10
80.45454943187161
 20
-46
 30
0
 11
85.45454943187161
 21
-46
 31
0
  0
LINE
  8
1
 62
3
 10
111.4545494318716
 20
-46
 30
0
 11
119.4545494318717
 21
-46
 31
0
  0
LINE
  8
1
 62
3
 10
117.4545494318717
 20
-40.26523759228189
 30
0
 11
117.4545494318717
 21
-48
 31
0
  0
LINE
  8
1
 62
7
 10
117.4545494318717
 20
-42
 30
0
 11
121.4545494318716
 21
-42
 31
0
  0
LINE
  8
1
 62
7
 10
113.4545494318716
 20
-50
 30
0
 11
113.4545494318716
 21
-46
 31
0
  0
LINE
  8
1
 62
7
 10
91.45454943187161
 20
-46
 30
0
 11
91.45454943187161
 21
-50
 31
0
  0
LINE
  8
1
 62
7
 10
83.45454943187161
 20
-42
 30
0
 11
87.45454943187161
 21
-42
 31
0
  0
LINE
  8
1
 62
7
 10
84.95454943187161
 20
-50
 30
0
 11
119.9545494318717
 21
-50
 31
0
  0
LINE
  8
1
 62
3
 10
118.4545494318717
 20
-35.25
 30
0
 11
118.4545494318717
 21
-42.75000000000011
 31
0
  0
LINE
  8
1
 62
3
 10
114.7045494318716
 20
-39
 30
0
 11
122.2045494318717
 21
-39
 31
0
  0
LINE
  8
1
 62
3
 10
86.45454943187161
 20
-35.25
 30
0
 11
86.45454943187161
 21
-42.72784244866239
 31
0
  0
LINE
  8
1
 62
3
 10
117.4545494318717
 20
-18
 30
0
 11
117.4545494318717
 21
-30
 31
0
  0
LINE
  8
1
 62
7
 10
87.45454943187161
 20
-20
 30
0
 11
83.45454943187161
 21
-20
 31
0
  0
LINE
  8
1
 62
3
 10
97.95744526011779
 20
-17.30000000000001
 30
0
 11
106.9516536036254
 21
-17.30000000000001
 31
0
  0
LINE
  8
1
 62
3
 10
113.7101341353207
 20
-7
 30
0
 11
121.2045494318717
 21
-7
 31
0
  0
LINE
  8
1
 62
3
 10
117.4545494318717
 20
-3.25
 30
0
 11
117.4545494318717
 21
-10.75
 31
0
  0
LINE
  8
1
 62
3
 10
98.95802516474659
 20
-1.999999999999972
 30
0
 11
105.9545494318716
 21
-1.999999999999972
 31
0
  0
LINE
  8
1
 62
3
 10
87.45454943187161
 20
-3.25
 30
0
 11
87.45454943187161
 21
-10.75
 31
0
  0
LINE
  8
1
 62
7
 10
121.4545494318716
 20
48.5
 30
0
 11
121.4545494318716
 21
-48.5
 31
0
  0
LINE
  8
1
 62
3
 10
98.95802516474659
 20
11.30000000000001
 30
0
 11
105.9545494318716
 21
11.30000000000001
 31
0
  0
LINE
  8
1
 62
7
 10
84.95454943187161
 20
50
 30
0
 11
119.9545494318717
 21
50
 31
0
  0
LINE
  8
1
 62
7
 10
83.45454943187161
 20
-28
 30
0
 11
87.45454943187161
 21
-28
 31
0
  0
LINE
  8
1
 62
7
 10
83.45454943187161
 20
48.5
 30
0
 11
83.45454943187161
 21
-48.5
 31
0
  0
LINE
  8
1
 62
3
 10
87.45454943187161
 20
-30
 30
0
 11
87.45454943187161
 21
-18
 31
0
  0
LINE
  8
1
 62
3
 10
111.4545494318716
 20
-24
 30
0
 11
119.4545494318717
 21
-24
 31
0
  0
LINE
  8
1
 62
3
 10
80.45454943187161
 20
32.5
 30
0
 11
89.75454943187151
 21
32.5
 31
0
  0
LINE
  8
1
 62
7
 10
-85.72673051075196
 20
-40.30000000000001
 30
0
 11
-84.6454505681283
 21
-40.30000000000001
 31
0
  0
LINE
  8
1
 62
7
 10
88.46043178481281
 20
-6.700000000000017
 30
0
 11
88.85454943187159
 21
-6.700000000000017
 31
0
  0
LINE
  8
1
 62
7
 10
88.46043178481281
 20
-7.300000000000011
 30
0
 11
88.85454943187159
 21
-7.300000000000011
 31
0
  0
LINE
  8
1
 62
7
 10
87.7545494318716
 20
-8
 30
0
 11
87.75454943187155
 21
-8.399999999999977
 31
0
  0
LINE
  8
1
 62
7
 10
87.2545494318716
 20
-5.5
 30
0
 11
87.65454943187169
 21
-5.5
 31
0
  0
LINE
  8
1
 62
7
 10
87.2545494318716
 20
-8.5
 30
0
 11
87.65454943187169
 21
-8.5
 31
0
  0
LINE
  8
1
 62
7
 10
88.95454943187161
 20
-6.800000000000011
 30
0
 11
88.9545494318716
 21
-7.199999999999989
 31
0
  0
LINE
  8
1
 62
7
 10
85.95454943187161
 20
-6.800000000000011
 30
0
 11
85.95454943187161
 21
-7.200000000000017
 31
0
  0
LINE
  8
1
 62
7
 10
86.05454943187161
 20
-6.700000000000017
 30
0
 11
86.45454943187161
 21
-6.700000000000017
 31
0
  0
LINE
  8
1
 62
7
 10
86.05454943187161
 20
-7.300000000000011
 30
0
 11
86.45454943187161
 21
-7.300000000000011
 31
0
  0
LINE
  8
1
 62
7
 10
87.15454943187169
 20
-8.400000000000006
 30
0
 11
87.15454943187169
 21
-8
 31
0
  0
LINE
  8
1
 62
7
 10
87.15454943187169
 20
-5.600000000000023
 30
0
 11
87.15454943187169
 21
-6
 31
0
  0
LINE
  8
1
 62
7
 10
87.75454943187155
 20
-5.600000000000023
 30
0
 11
87.7545494318716
 21
-6
 31
0
  0
LINE
  8
1
 62
7
 10
118.4604317848128
 20
-6.700000000000017
 30
0
 11
118.8545494318716
 21
-6.700000000000017
 31
0
  0
LINE
  8
1
 62
7
 10
118.4604317848128
 20
-7.300000000000011
 30
0
 11
118.8545494318716
 21
-7.300000000000011
 31
0
  0
LINE
  8
1
 62
7
 10
117.7545494318716
 20
-8
 30
0
 11
117.7545494318716
 21
-8.400000000000034
 31
0
  0
LINE
  8
1
 62
7
 10
117.2545494318716
 20
-5.5
 30
0
 11
117.6545494318717
 21
-5.5
 31
0
  0
LINE
  8
1
 62
7
 10
117.2545494318716
 20
-8.5
 30
0
 11
117.6545494318717
 21
-8.5
 31
0
  0
LINE
  8
1
 62
7
 10
118.9545494318717
 20
-6.800000000000011
 30
0
 11
118.9545494318716
 21
-7.199999999999989
 31
0
  0
LINE
  8
1
 62
7
 10
115.9545494318717
 20
-6.800000000000011
 30
0
 11
115.9545494318717
 21
-7.200000000000017
 31
0
  0
LINE
  8
1
 62
7
 10
116.0545494318717
 20
-6.700000000000017
 30
0
 11
116.4545494318717
 21
-6.700000000000017
 31
0
  0
LINE
  8
1
 62
7
 10
116.0545494318717
 20
-7.300000000000011
 30
0
 11
116.4545494318717
 21
-7.300000000000011
 31
0
  0
LINE
  8
1
 62
7
 10
117.1545494318717
 20
-8.400000000000006
 30
0
 11
117.1545494318717
 21
-8
 31
0
  0
LINE
  8
1
 62
7
 10
117.1545494318717
 20
-5.600000000000023
 30
0
 11
117.1545494318717
 21
-6
 31
0
  0
LINE
  8
1
 62
7
 10
117.7545494318716
 20
-5.600000000000023
 30
0
 11
117.7545494318716
 21
-6
 31
0
  0
LINE
  8
1
 62
7
 10
87.46043178481281
 20
-38.7000000000001
 30
0
 11
87.85454943187159
 21
-38.7000000000001
 31
0
  0
LINE
  8
1
 62
7
 10
87.46043178481281
 20
-39.30000000000007
 30
0
 11
87.85454943187159
 21
-39.30000000000007
 31
0
  0
LINE
  8
1
 62
7
 10
86.7545494318716
 20
-40.00000000000011
 30
0
 11
86.75454943187155
 21
-40.39999999999998
 31
0
  0
LINE
  8
1
 62
7
 10
86.2545494318716
 20
-37.50000000000011
 30
0
 11
86.65454943187169
 21
-37.50000000000011
 31
0
  0
LINE
  8
1
 62
7
 10
86.2545494318716
 20
-40.50000000000011
 30
0
 11
86.65454943187169
 21
-40.50000000000011
 31
0
  0
LINE
  8
1
 62
7
 10
87.95454943187161
 20
-38.80000000000007
 30
0
 11
87.95454943187161
 21
-39.2000000000001
 31
0
  0
LINE
  8
1
 62
7
 10
84.95454943187161
 20
-38.80000000000007
 30
0
 11
84.95454943187161
 21
-39.2000000000001
 31
0
  0
LINE
  8
1
 62
7
 10
85.05454943187161
 20
-38.7000000000001
 30
0
 11
85.45454943187161
 21
-38.7000000000001
 31
0
  0
LINE
  8
1
 62
7
 10
85.05454943187161
 20
-39.30000000000007
 30
0
 11
85.45454943187161
 21
-39.30000000000007
 31
0
  0
LINE
  8
1
 62
7
 10
86.15454943187169
 20
-40.40000000000009
 30
0
 11
86.15454943187169
 21
-40.00000000000011
 31
0
  0
LINE
  8
1
 62
7
 10
86.15454943187169
 20
-37.60000000000008
 30
0
 11
86.15454943187169
 21
-38.00000000000011
 31
0
  0
LINE
  8
1
 62
7
 10
86.75454943187155
 20
-37.60000000000002
 30
0
 11
86.7545494318716
 21
-38.00000000000011
 31
0
  0
LINE
  8
1
 62
7
 10
119.4604317848128
 20
-38.69999999999999
 30
0
 11
119.8545494318716
 21
-38.69999999999999
 31
0
  0
LINE
  8
1
 62
7
 10
119.4604317848128
 20
-39.30000000000001
 30
0
 11
119.8545494318716
 21
-39.30000000000001
 31
0
  0
LINE
  8
1
 62
7
 10
118.7545494318716
 20
-40
 30
0
 11
118.7545494318716
 21
-40.39999999999992
 31
0
  0
LINE
  8
1
 62
7
 10
118.2545494318716
 20
-37.5
 30
0
 11
118.6545494318717
 21
-37.5
 31
0
  0
LINE
  8
1
 62
7
 10
118.2545494318716
 20
-40.5
 30
0
 11
118.6545494318717
 21
-40.5
 31
0
  0
LINE
  8
1
 62
7
 10
119.9545494318717
 20
-38.80000000000001
 30
0
 11
119.9545494318717
 21
-39.19999999999999
 31
0
  0
LINE
  8
1
 62
7
 10
116.9545494318717
 20
-38.80000000000001
 30
0
 11
116.9545494318717
 21
-39.19999999999999
 31
0
  0
LINE
  8
1
 62
7
 10
117.0545494318717
 20
-38.69999999999999
 30
0
 11
117.4545494318717
 21
-38.69999999999999
 31
0
  0
LINE
  8
1
 62
7
 10
117.0545494318717
 20
-39.30000000000001
 30
0
 11
117.4545494318717
 21
-39.30000000000001
 31
0
  0
LINE
  8
1
 62
7
 10
118.1545494318717
 20
-40.39999999999998
 30
0
 11
118.1545494318717
 21
-40
 31
0
  0
LINE
  8
1
 62
7
 10
118.1545494318717
 20
-37.60000000000002
 30
0
 11
118.1545494318717
 21
-38
 31
0
  0
LINE
  8
1
 62
7
 10
118.7545494318716
 20
-37.60000000000002
 30
0
 11
118.7545494318716
 21
-38
 31
0
  0
LINE
  8
1
 62
3
 10
117.4545494318717
 20
-48
 30
0
 11
117.4545494318717
 21
-53.00000000000001
 31
0
  0
LINE
  8
1
 62
3
 10
85.45454943187161
 20
-46
 30
0
 11
93.51682344918851
 21
-46
 31
0
  0
LINE
  8
1
 62
3
 10
119.4545494318717
 20
-46
 30
0
 11
124.4545494318716
 21
-46
 31
0
  0
LINE
  8
1
 62
3
 10
119.4545494318717
 20
-24
 30
0
 11
124.3677898443996
 21
-24
 31
0
  0
LINE
  8
1
 62
3
 10
80.38293088182661
 20
-24
 30
0
 11
93.45454943187161
 21
-24
 31
0
  0
LINE
  8
1
 62
3
 10
96.1545494318716
 20
-34
 30
0
 11
113.7545494318716
 21
-34
 31
0
  0
LINE
  8
1
 62
2
 10
7.6176085685042
 20
-72
 30
0
 11
60.8512676758433
 21
-72
 31
0
  0
LINE
  8
1
 62
3
 10
87.45454943187161
 20
-48
 30
0
 11
87.45454943187161
 21
-53
 31
0
  0
LINE
  8
1
 62
7
 10
-86.58228666548725
 20
-4.311394161607438
 30
0
 11
-87.43673499385331
 21
-4.256929767112297
 31
0
  0
LINE
  8
1
 62
7
 10
-86.58228666548725
 20
-9.688605838392562
 30
0
 11
-87.43673499385331
 21
-9.743070232887703
 31
0
  0
LINE
  8
1
 62
7
 10
89.4641683751036
 20
39.99999999999887
 30
0
 11
89.46416837510473
 21
40
 31
0
  0
LINE
  8
1
 62
7
 10
89.46416837510473
 20
40
 30
0
 11
89.4641683751036
 21
39.99999999999887
 31
0
  0
LINE
  8
1
 62
7
 10
89.4641683751036
 20
39.99999999999887
 30
0
 11
90.25364976261362
 21
39.68635145680361
 31
0
  0
LINE
  8
1
 62
7
 10
95.26819797506668
 20
44.70089966925747
 30
0
 11
94.9545494318716
 21
45.49038105676658
 31
0
  0
LINE
  8
1
 62
7
 10
94.9545494318716
 20
45.49038105676658
 30
0
 11
94.45454943187069
 21
46.35640646055049
 31
0
  0
LINE
  8
1
 62
7
 10
92.88302391224561
 20
43.4075245918408
 30
0
 11
93.9163120519127
 21
43.79619858374826
 31
0
  0
LINE
  8
1
 62
7
 10
88.59814297132066
 20
40.5
 30
0
 11
88.59814297131952
 21
40.4999999999987
 31
0
  0
LINE
  8
1
 62
7
 10
88.59814297131952
 20
40.4999999999987
 30
0
 11
89.4641683751036
 21
39.99999999999887
 31
0
  0
LINE
  8
1
 62
7
 10
99.4545494318716
 20
42.29999999999995
 30
0
 11
105.4545494318716
 21
42.29999999999995
 31
0
  0
LINE
  8
1
 62
7
 10
99.4545494318716
 20
42.29999999999995
 30
0
 11
99.4545494318716
 21
48.21623364550169
 31
0
  0
LINE
  8
1
 62
7
 10
105.4545494318716
 20
42.29999999999995
 30
0
 11
105.4545494318716
 21
48.21623364550169
 31
0
  0
LINE
  8
1
 62
7
 10
91.5877081852896
 20
42.01768032038899
 30
0
 11
91.17482465965558
 21
41.05998884713489
 31
0
  0
LINE
  8
1
 62
3
 10
102.4545494318716
 20
-52.83101478188751
 30
0
 11
102.4545494318716
 21
52.42049871496301
 31
0
  0
LINE
  8
1
 62
7
 10
-102.3454505681283
 20
-48.5
 30
0
 11
-102.3454505681283
 21
48.50000000000003
 31
0
  0
LINE
  8
1
 62
7
 10
-100.8454505681283
 20
50
 30
0
 11
-87.5454505681284
 21
50
 31
0
  0
LINE
  8
1
 62
3
 10
-90.35695414895112
 20
-7
 30
0
 11
-84.42649023083426
 21
-7
 31
0
  0
LINE
  8
1
 62
7
 10
115.4449304886416
 20
24.99999999999726
 30
0
 11
115.4449304886416
 21
24.99999999999613
 31
0
  0
LINE
  8
1
 62
7
 10
115.4449304886416
 20
24.99999999999613
 30
0
 11
115.4449304886416
 21
24.99999999999726
 31
0
  0
LINE
  8
1
 62
7
 10
115.4449304886416
 20
24.99999999999726
 30
0
 11
114.6554491011325
 21
25.31364854319253
 31
0
  0
LINE
  8
1
 62
7
 10
109.6409008886786
 20
20.29910033073867
 30
0
 11
109.9545494318746
 21
19.50961894322956
 31
0
  0
LINE
  8
1
 62
7
 10
109.9545494318746
 20
19.50961894322956
 30
0
 11
110.4545494318757
 21
18.64359353944565
 31
0
  0
LINE
  8
1
 62
7
 10
112.0260749515005
 20
21.59247540815534
 30
0
 11
110.9927868118337
 21
21.20380141624787
 31
0
  0
LINE
  8
1
 62
7
 10
116.3109558924257
 20
24.49999999999613
 30
0
 11
116.3109558924266
 21
24.49999999999745
 31
0
  0
LINE
  8
1
 62
7
 10
116.3109558924266
 20
24.49999999999745
 30
0
 11
115.4449304886416
 21
24.99999999999726
 31
0
  0
LINE
  8
1
 62
7
 10
113.3213906784566
 20
22.98231967960714
 30
0
 11
113.7342742040897
 21
23.94001115286125
 31
0
  0
LINE
  8
1
 62
7
 10
-43.8454505681283
 20
47.2439822888846
 30
0
 11
-27.17496468117919
 21
47.2439822888846
 31
0
  0
LINE
  8
1
 62
7
 10
-18.05243385005123
 20
44.7539822888846
 30
0
 11
10.87546123622779
 21
44.7539822888846
 31
0
  0
LINE
  8
1
 62
7
 10
-43.8454505681283
 20
43.24398228888457
 30
0
 11
-42.10545056812829
 21
43.24398228888457
 31
0
  0
LINE
  8
1
 62
7
 10
-41.21555806734331
 20
47.45669782458581
 30
0
 11
-41.34437607500821
 21
50.16771376674539
 31
0
  0
LINE
  8
1
 62
7
 10
-41.84381257443319
 20
50.64398228888469
 30
0
 11
-44.86708856182226
 21
50.64398228888469
 31
0
  0
LINE
  8
1
 62
7
 10
-45.36652506124723
 20
50.16771376674539
 30
0
 11
-45.44576899391622
 21
48.5
 31
0
  0
LINE
  8
1
 62
7
 10
-42.10545056812829
 20
43.24398228888457
 30
0
 11
-42.10545056812829
 21
47.2439822888846
 31
0
  0
LINE
  8
1
 62
7
 10
13.87546123622779
 20
45.1489822888847
 30
0
 11
10.87546123622779
 21
45.1489822888847
 31
0
  0
LINE
  8
1
 62
7
 10
10.87546123622779
 20
46.19898228888459
 30
0
 11
13.87546123622779
 21
46.19898228888459
 31
0
  0
LINE
  8
1
 62
7
 10
13.87546123622779
 20
45.8189822888846
 30
0
 11
10.87546123622779
 21
45.8189822888846
 31
0
  0
LINE
  8
1
 62
7
 10
10.87546123622779
 20
46.8689822888846
 30
0
 11
13.87546123622779
 21
46.8689822888846
 31
0
  0
LINE
  8
1
 62
7
 10
10.87546123622779
 20
47.2439822888846
 30
0
 11
10.87546123622779
 21
44.7539822888846
 31
0
  0
LINE
  8
1
 62
7
 10
-42.10545056812829
 20
46.41398228888469
 30
0
 11
-27.07657851757826
 21
46.41398228888469
 31
0
  0
LINE
  8
1
 62
7
 10
-42.10545056812829
 20
44.7539822888846
 30
0
 11
-26.94500187471921
 21
44.7539822888846
 31
0
  0
LINE
  8
1
 62
7
 10
-18.28239665650916
 20
47.2439822888846
 30
0
 11
10.87546123622779
 21
47.2439822888846
 31
0
  0
LINE
  8
1
 62
7
 10
-18.18401049290914
 20
46.41398228888469
 30
0
 11
10.87546123622779
 21
46.41398228888469
 31
0
  0
LINE
  8
1
 62
2
 10
-5.061465091598293
 20
65.14861998126089
 30
0
 11
66.16325505137671
 21
65.14861998126089
 31
0
  0
LINE
  8
1
 62
3
 10
-105.4421472661271
 20
32.5
 30
0
 11
-39.29495331192619
 21
32.5
 31
0
  0
LINE
  8
1
 62
7
 10
-44.8454505681283
 20
48.5
 30
0
 11
-43.8454505681283
 21
47.5
 31
0
  0
LINE
  8
1
 62
7
 10
-42.64545056812825
 20
37.09999999999987
 30
0
 11
-43.8454505681283
 21
38.5
 31
0
  0
LINE
  8
1
 62
7
 10
-42.64545056812825
 20
27.89999999999998
 30
0
 11
-42.64545056812825
 21
37.09999999999987
 31
0
  0
LINE
  8
1
 62
7
 10
-43.8454505681283
 20
26.5
 30
0
 11
-42.64545056812825
 21
27.89999999999998
 31
0
  0
LINE
  8
1
 62
7
 10
-44.8454505681283
 20
40.2748093869453
 30
0
 11
-43.8454505681283
 21
39.6974591177557
 31
0
  0
LINE
  8
1
 62
7
 10
-44.8454505681283
 20
46.4840029675577
 30
0
 11
-43.8454505681283
 21
44.94144631178299
 31
0
  0
LINE
  8
1
 62
7
 10
-43.8454505681283
 20
44.94144631178299
 30
0
 11
-48.04545056812721
 21
44.94144631178299
 31
0
  0
LINE
  8
1
 62
7
 10
-48.04545056812721
 20
46.4840029675577
 30
0
 11
-44.8454505681283
 21
46.4840029675577
 31
0
  0
LINE
  8
1
 62
7
 10
-44.8454505681283
 20
40.2748093869453
 30
0
 11
-44.8454505681283
 21
16.5
 31
0
  0
LINE
  8
1
 62
7
 10
-48.04545056812721
 20
40.2748093869453
 30
0
 11
-44.8454505681283
 21
40.2748093869453
 31
0
  0
LINE
  8
1
 62
7
 10
-44.8454505681283
 20
48.5
 30
0
 11
-44.8454505681283
 21
46.4840029675577
 31
0
  0
LINE
  8
1
 62
7
 10
-44.8454505681283
 20
16.5
 30
0
 11
-43.8454505681283
 21
17.5
 31
0
  0
LINE
  8
1
 62
7
 10
-44.8454505681283
 20
16.5
 30
0
 11
-86.04545056812812
 21
16.5
 31
0
  0
LINE
  8
1
 62
7
 10
-43.8454505681283
 20
47.5
 30
0
 11
-43.8454505681283
 21
17.5
 31
0
  0
LINE
  8
1
 62
7
 10
-44.8454505681283
 20
48.5
 30
0
 11
-86.04545056812812
 21
48.5
 31
0
  0
LINE
  8
1
 62
7
 10
-49.14545056812825
 20
43.0637084989846
 30
0
 11
-48.04545056812721
 21
43.0637084989846
 31
0
  0
LINE
  8
1
 62
7
 10
-50.54545056812721
 20
40.5637084989846
 30
0
 11
-49.14545056812825
 21
40.5637084989846
 31
0
  0
LINE
  8
1
 62
7
 10
-50.54545056812721
 20
47.0637084989846
 30
0
 11
-50.54545056812721
 21
40.5637084989846
 31
0
  0
LINE
  8
1
 62
7
 10
-49.14545056812825
 20
47.0637084989846
 30
0
 11
-50.54545056812721
 21
47.0637084989846
 31
0
  0
LINE
  8
1
 62
7
 10
-49.14545056812825
 20
47.0637084989846
 30
0
 11
-49.14545056812825
 21
40.5637084989846
 31
0
  0
LINE
  8
1
 62
7
 10
-48.04545056812721
 20
44.5637084989846
 30
0
 11
-48.04545056812721
 21
48.5
 31
0
  0
LINE
  8
1
 62
7
 10
-48.04545056812721
 20
44.5637084989846
 30
0
 11
-49.14545056812825
 21
44.5637084989846
 31
0
  0
LINE
  8
1
 62
7
 10
-48.04545056812721
 20
16.5
 30
0
 11
-48.04545056812721
 21
43.0637084989846
 31
0
  0
LINE
  8
1
 62
7
 10
-76.29545056812812
 20
19.60300000000007
 30
0
 11
-59.29545056812812
 21
19.60300000000007
 31
0
  0
LINE
  8
1
 62
7
 10
-59.29545056812812
 20
19.60300000000007
 30
0
 11
-59.29545056812812
 21
45.39700000000005
 31
0
  0
LINE
  8
1
 62
7
 10
-59.29545056812812
 20
45.39700000000005
 30
0
 11
-76.29545056812812
 21
45.39700000000005
 31
0
  0
LINE
  8
1
 62
7
 10
-76.29545056812812
 20
45.39700000000005
 30
0
 11
-76.29545056812812
 21
19.60300000000007
 31
0
  0
LINE
  8
1
 62
7
 10
-87.5454505681284
 20
-19.99978233438486
 30
0
 11
-87.5454505681284
 21
50
 31
0
  0
LINE
  8
1
 62
7
 10
-89.14545056812825
 20
-19.99978233438486
 30
0
 11
-89.14545056812825
 21
50
 31
0
  0
LINE
  8
1
 62
7
 10
-83.6454505681283
 20
-41.99978233438486
 30
0
 11
-83.6454505681283
 21
-50
 31
0
  0
LINE
  8
1
 62
7
 10
-100.8454505681283
 20
-50
 30
0
 11
-83.6454505681283
 21
-50
 31
0
  0
LINE
  8
1
 62
3
 10
-73.44545056812821
 20
-35.5
 30
0
 11
-73.44545056812821
 21
-39.5
 31
0
  0
LINE
  8
1
 62
2
 10
-47.32024708403118
 20
-25
 30
0
 11
-17.26646327453126
 21
-25
 31
0
  0
LINE
  8
1
 62
3
 10
-73.44545056812821
 20
-28.5
 30
0
 11
-73.44545056812821
 21
-35.5
 31
0
  0
LINE
  8
1
 62
7
 10
-84.14545056812825
 20
-38
 30
0
 11
-67.44545056812821
 21
-38
 31
0
  0
LINE
  8
1
 62
7
 10
-67.44545056812821
 20
-38
 30
0
 11
-67.44545056812821
 21
-30
 31
0
  0
LINE
  8
1
 62
7
 10
-67.44545056812821
 20
-30
 30
0
 11
-84.14545056812825
 21
-30
 31
0
  0
ARC
  8
1
 62
7
 10
-90.54545056812839
 20
-38.99999999999994
 30
0
 40
5.000000000000012
 50
330.8838341682056
 51
356.5601872324848
  0
ARC
  8
1
 62
7
 10
-83.95216623297242
 20
-38.99999999999994
 30
0
 40
1.630135299472509
 50
169.3951937212555
 51
190.6048062787443
  0
ARC
  8
1
 62
7
 10
-90.54545056812839
 20
-38.99999999999994
 30
0
 40
4.999999999999992
 50
3.439812767515333
 51
29.1161658317943
  0
ARC
  8
1
 62
7
 10
87.45454943187161
 20
-24
 30
0
 40
3.999999999999928
 50
50.32977175789681
 51
69.52276900774648
  0
ARC
  8
1
 62
7
 10
87.45454943187161
 20
-24
 30
0
 40
4
 50
270
 51
358.6442175296209
  0
ARC
  8
1
 62
7
 10
102.4545494318739
 20
-17.16821766561389
 30
0
 40
13.00000000000264
 50
196.7790237295835
 51
212.1949655579348
  0
ARC
  8
1
 62
7
 10
117.4545494318717
 20
-24
 30
0
 40
4.000000000000053
 50
112.5559005732173
 51
129.6702282421045
  0
ARC
  8
1
 62
7
 10
102.4545494318716
 20
-17.16821766561512
 30
0
 40
12.9999999999999
 50
327.8050344420641
 51
343.2209762704188
  0
ARC
  8
1
 62
7
 10
117.4545494318717
 20
-24
 30
0
 40
4.000000000000222
 50
181.355782470379
 51
270
  0
ARC
  8
1
 62
7
 10
86.451608255401
 20
-5.997058823529414
 30
0
 40
0.7029473295325235
 50
270.239729896083
 51
359.7602701039194
  0
ARC
  8
1
 62
7
 10
88.4574906083422
 20
-5.997058823529414
 30
0
 40
0.7029473295325234
 50
180.2397298960806
 51
270.239729896083
  0
ARC
  8
1
 62
7
 10
88.4574906083422
 20
-8.002941176470586
 30
0
 40
0.7029473295324951
 50
89.76027010391704
 51
179.7602701039194
  0
ARC
  8
1
 62
7
 10
86.451608255401
 20
-8.002941176470586
 30
0
 40
0.7029473295326086
 50
0.2397298960806003
 51
89.76027010391704
  0
ARC
  8
1
 62
7
 10
116.4516082554011
 20
-5.997058823529414
 30
0
 40
0.7029473295325235
 50
270.2397298960818
 51
359.7602701039194
  0
ARC
  8
1
 62
7
 10
118.4574906083423
 20
-5.997058823529414
 30
0
 40
0.7029473295326228
 50
180.2397298960806
 51
270.2397298960736
  0
ARC
  8
1
 62
7
 10
118.4574906083423
 20
-8.002941176470586
 30
0
 40
0.7029473295324946
 50
89.76027010392632
 51
179.7602701039194
  0
ARC
  8
1
 62
7
 10
116.4516082554011
 20
-8.002941176470586
 30
0
 40
0.7029473295325234
 50
0.2397298960806294
 51
89.7602701039182
  0
ARC
  8
1
 62
7
 10
85.451608255401
 20
-37.99705882352953
 30
0
 40
0.7029473295324951
 50
270.239729896083
 51
359.76027010392
  0
ARC
  8
1
 62
7
 10
87.4574906083422
 20
-37.99705882352953
 30
0
 40
0.7029473295325234
 50
180.23972989608
 51
270.239729896083
  0
ARC
  8
1
 62
7
 10
87.4574906083422
 20
-40.0029411764707
 30
0
 40
0.7029473295325519
 50
89.76027010391707
 51
179.7602701039188
  0
ARC
  8
1
 62
7
 10
85.451608255401
 20
-40.0029411764707
 30
0
 40
0.7029473295326086
 50
0.2397298960811795
 51
89.76027010391707
  0
ARC
  8
1
 62
7
 10
117.4516082554011
 20
-37.99705882352941
 30
0
 40
0.7029473295325022
 50
270.2397298960818
 51
359.7602701039188
  0
ARC
  8
1
 62
7
 10
119.4574906083423
 20
-37.99705882352941
 30
0
 40
0.7029473295326228
 50
180.2397298960811
 51
270.2397298960737
  0
ARC
  8
1
 62
7
 10
119.4574906083423
 20
-40.00294117647059
 30
0
 40
0.7029473295325017
 50
89.76027010392632
 51
179.7602701039189
  0
ARC
  8
1
 62
7
 10
117.4516082554011
 20
-40.00294117647059
 30
0
 40
0.7029473295325234
 50
0.2397298960812085
 51
89.76027010391822
  0
ARC
  8
1
 62
7
 10
-90.54545056812812
 20
-7
 30
0
 40
4.999999999999661
 50
330.8838341682035
 51
356.5601872324845
  0
ARC
  8
1
 62
7
 10
-83.95216623297223
 20
-7
 30
0
 40
1.630135299472676
 50
169.3951937212566
 51
190.6048062787434
  0
ARC
  8
1
 62
7
 10
-90.54545056812812
 20
-7
 30
0
 40
4.999999999999736
 50
3.439812767515508
 51
29.11616583179595
  0
ARC
  8
1
 62
7
 10
102.4545494318716
 20
32.5
 30
0
 40
14.9999999999995
 50
329.9999999999989
 51
78.4630409671845
  0
ARC
  8
1
 62
7
 10
102.4545494318716
 20
32.5
 30
0
 40
15.00000000000025
 50
150.0000000000005
 51
299.9999999999999
  0
ARC
  8
1
 62
7
 10
91.15094536909355
 20
39.17472592365801
 30
0
 40
2.876308651640766
 50
81.26594175406376
 51
152.5641521374779
  0
ARC
  8
1
 62
7
 10
102.4545494318716
 20
32.5
 30
0
 40
14.99999999999999
 50
101.5369590328155
 51
120
  0
ARC
  8
1
 62
7
 10
102.4545494318727
 20
32.49999999999807
 30
0
 40
14.16000000000255
 50
120.4981602534867
 51
149.5018397465144
  0
ARC
  8
1
 62
7
 10
91.13341506500869
 20
39.21645713270141
 30
0
 40
1.843996729023908
 50
88.71323282422831
 51
154.8546824632844
  0
ARC
  8
1
 62
7
 10
95.60863049059667
 20
43.84817909437287
 30
0
 40
2.760997575252902
 50
114.708019537099
 51
189.1836646264498
  0
ARC
  8
1
 62
7
 10
102.4545494318716
 20
32.5
 30
0
 40
15.00000000000027
 50
129.798167402777
 51
140.5156350565264
  0
ARC
  8
1
 62
7
 10
95.81680051044673
 20
43.79675188700691
 30
0
 40
1.900488539077463
 50
116.9813017566037
 51
180.0166809435089
  0
ARC
  8
1
 62
7
 10
113.7581534946517
 20
25.82527407633814
 30
0
 40
2.87630865164064
 50
261.2659417540826
 51
332.5641521374861
  0
ARC
  8
1
 62
7
 10
102.4545494318727
 20
32.49999999999807
 30
0
 40
14.16000000000248
 50
300.4981602534862
 51
329.5018397465158
  0
ARC
  8
1
 62
7
 10
113.7756837987366
 20
25.78354286729473
 30
0
 40
1.843996729023908
 50
268.7132328242283
 51
334.854682463283
  0
ARC
  8
1
 62
7
 10
109.3004683731486
 20
21.15182090562326
 30
0
 40
2.760997575253361
 50
294.7080195371203
 51
9.183664626447227
  0
ARC
  8
1
 62
7
 10
102.4545494318746
 20
32.49999999999613
 30
0
 40
15.00000000000026
 50
309.7981674027771
 51
320.5156350565268
  0
ARC
  8
1
 62
7
 10
109.0922983532997
 20
21.20324811298923
 30
0
 40
1.90048853907736
 50
296.9813017565976
 51
0.01668094350846116
  0
CIRCLE
  8
1
 62
7
 10
102.4545494318716
 20
-34
 30
0
 40
6.299999999999997
  0
CIRCLE
  8
1
 62
7
 10
102.4545494318716
 20
-34
 30
0
 40
5.5
  0
CIRCLE
  8
1
 62
2
 10
117.4545494318717
 20
-46
 30
0
 40
2
  0
CIRCLE
  8
1
 62
7
 10
117.4545494318717
 20
-46
 30
0
 40
1.5
  0
CIRCLE
  8
1
 62
2
 10
87.45454943187161
 20
-46
 30
0
 40
2
  0
CIRCLE
  8
1
 62
7
 10
87.45454943187161
 20
-46
 30
0
 40
1.5
  0
CIRCLE
  8
1
 62
2
 10
117.4545494318717
 20
-24
 30
0
 40
2
  0
CIRCLE
  8
1
 62
7
 10
117.4545494318717
 20
-24
 30
0
 40
1.5
  0
CIRCLE
  8
1
 62
2
 10
87.45454943187161
 20
-24
 30
0
 40
2
  0
CIRCLE
  8
1
 62
7
 10
87.45454943187161
 20
-24
 30
0
 40
1.5
  0
CIRCLE
  8
1
 62
7
 10
102.4545494318716
 20
-17.16821766561512
 30
0
 40
3
  0
CIRCLE
  8
1
 62
7
 10
102.4545494318716
 20
-1.868217665615134
 30
0
 40
2.5
  0
CIRCLE
  8
1
 62
7
 10
102.4545494318716
 20
11.30000000000001
 30
0
 40
2.5
  0
CIRCLE
  8
1
 62
7
 10
102.4545494318716
 20
-34
 30
0
 40
4
  0
CIRCLE
  8
1
 62
7
 10
87.45454943187161
 20
-7
 30
0
 40
2.75
  0
CIRCLE
  8
1
 62
7
 10
117.4545494318717
 20
-7
 30
0
 40
2.7500000000001
  0
CIRCLE
  8
1
 62
7
 10
86.45454943187161
 20
-39.00000000000011
 30
0
 40
2.75
  0
CIRCLE
  8
1
 62
7
 10
118.4545494318717
 20
-39
 30
0
 40
2.75
  0
CIRCLE
  8
1
 62
7
 10
102.4545494318716
 20
32.5
 30
0
 40
4.600000000000108
  0
CIRCLE
  8
1
 62
7
 10
102.4545494318716
 20
32.5
 30
0
 40
6
  0
CIRCLE
  8
1
 62
7
 10
102.4545494318716
 20
32.5
 30
0
 40
1.25
  0
CIRCLE
  8
1
 62
7
 10
103.7045494318716
 20
44.79999999999995
 30
0
 40
0.8299999999998988
  0
CIRCLE
  8
1
 62
7
 10
101.2045494318716
 20
44.79999999999995
 30
0
 40
0.8299999999998988
  0
CIRCLE
  8
1
 62
7
 10
103.7045494318716
 20
44.79999999999995
 30
0
 40
0.600000000000108
  0
CIRCLE
  8
1
 62
7
 10
101.2045494318716
 20
44.79999999999995
 30
0
 40
0.600000000000108
  0
CIRCLE
  8
1
 62
7
 10
102.4545494318716
 20
32.5
 30
0
 40
16
  0
CIRCLE
  8
1
 62
7
 10
-73.44545056812821
 20
-34
 30
0
 40
1.5
  0
POLYLINE
  8
1
 62
2
 66
1
  0
VERTEX
  8
1
 10
-27.17496468117919
 20
47.2439822888846
 30
0
 42
-0.004186897804158478
  0
VERTEX
  8
1
 10
-27.12702586282287
 20
47.11068084811242
 30
0
 42
-0.01290248157269809
  0
VERTEX
  8
1
 10
-27.08421798004394
 20
46.97762559113131
 30
0
 42
-0.02254802247765353
  0
VERTEX
  8
1
 10
-27.05167196841977
 20
46.84506270173235
 30
0
 42
-0.03328225659865419
  0
VERTEX
  8
1
 10
-27.03451876352776
 20
46.71323836370657
 30
0
 42
-0.04414267360477146
  0
VERTEX
  8
1
 10
-27.03788930094528
 20
46.58239876084507
 30
0
 42
-0.04746932973043538
  0
VERTEX
  8
1
 10
-27.0738477048225
 20
46.42248470576791
 30
0
 42
-0.02328907139361287
  0
VERTEX
  8
1
 10
-27.13377419085195
 20
46.26400957252388
 30
0
 42
-0.002187931268866379
  0
VERTEX
  8
1
 10
-27.20255562029679
 20
46.10653715452691
 30
0
 42
0.01880544693327149
  0
VERTEX
  8
1
 10
-27.26507885442018
 20
45.94963124519099
 30
0
 42
0.04246910544642025
  0
VERTEX
  8
1
 10
-27.30623075448524
 20
45.79285563793007
 30
0
 42
0.07659463129753191
  0
VERTEX
  8
1
 10
-27.31015029141082
 20
45.58571957712391
 30
0
 42
0.04405793155078476
  0
VERTEX
  8
1
 10
-27.26329295308388
 20
45.37815777698246
 30
0
 42
0.03892408209552666
  0
VERTEX
  8
1
 10
-27.17835295831754
 20
45.17027667233954
 30
0
 42
0.01089913513617904
  0
VERTEX
  8
1
 10
-27.06802452592494
 20
44.96218269802898
 30
0
 42
0.01219559973386401
  0
VERTEX
  8
1
 10
-26.94500187471921
 20
44.7539822888846
 30
0
  0
SEQEND
  8
1
  0
POLYLINE
  8
1
 62
2
 66
1
  0
VERTEX
  8
1
 10
-18.28239665650916
 20
47.2439822888846
 30
0
 42
-0.004186897804140825
  0
VERTEX
  8
1
 10
-18.23445783815312
 20
47.11068084811242
 30
0
 42
-0.01290248157262447
  0
VERTEX
  8
1
 10
-18.19164995537443
 20
46.97762559113132
 30
0
 42
-0.02254802247753345
  0
VERTEX
  8
1
 10
-18.15910394375047
 20
46.84506270173235
 30
0
 42
-0.03328225659850559
  0
VERTEX
  8
1
 10
-18.14195073885859
 20
46.71323836370657
 30
0
 42
-0.04414267360457857
  0
VERTEX
  8
1
 10
-18.14532127627616
 20
46.58239876084507
 30
0
 42
-0.04746932973021106
  0
VERTEX
  8
1
 10
-18.18127968015329
 20
46.42248470576792
 30
0
 42
-0.0232890713935029
  0
VERTEX
  8
1
 10
-18.24120616618254
 20
46.26400957252389
 30
0
 42
-0.00218793126886971
  0
VERTEX
  8
1
 10
-18.30998759562712
 20
46.10653715452693
 30
0
 42
0.01880544693322617
  0
VERTEX
  8
1
 10
-18.37251082975028
 20
45.949631245191
 30
0
 42
0.04246910544624741
  0
VERTEX
  8
1
 10
-18.41366272981521
 20
45.79285563793007
 30
0
 42
0.07659463129717478
  0
VERTEX
  8
1
 10
-18.41758226674084
 20
45.58571957712394
 30
0
 42
0.04405793155060318
  0
VERTEX
  8
1
 10
-18.37072492841418
 20
45.37815777698249
 30
0
 42
0.03892408209538521
  0
VERTEX
  8
1
 10
-18.28578493364831
 20
45.17027667233957
 30
0
 42
0.01089913513616705
  0
VERTEX
  8
1
 10
-18.17545650125631
 20
44.962182698029
 30
0
 42
0.01219559973382421
  0
VERTEX
  8
1
 10
-18.05243385005123
 20
44.7539822888846
 30
0
  0
SEQEND
  8
1
  0
ARC
  8
1
 62
7
 10
-86.61409320225602
 20
-36.81038148030274
 30
0
 40
0.5000000000000153
 50
29.11616583179859
 51
86.35277671521742
  0
ARC
  8
1
 62
7
 10
-86.61409320225602
 20
-41.18961851969715
 30
0
 40
0.5000000000000175
 50
273.6472232847827
 51
330.8838341682007
  0
ARC
  8
1
 62
7
 10
-87.44545056812839
 20
-36.35654923692141
 30
0
 40
0.09999999999999609
 50
84.99999999999511
 51
180
  0
ARC
  8
1
 62
7
 10
-87.44545056812839
 20
-41.64345076307848
 30
0
 40
0.09999999999999432
 50
180
 51
275.0000000000046
  0
ARC
  8
1
 62
7
 10
-84.64500452846386
 20
-39.79894741542859
 30
0
 40
0.5
 50
270
 51
0
  0
ARC
  8
1
 62
7
 10
-100.8454505681283
 20
-48.5
 30
0
 40
1.5
 50
180
 51
270
  0
ARC
  8
1
 62
7
 10
117.4545494318717
 20
-46
 30
0
 40
4
 50
90
 51
180
  0
ARC
  8
1
 62
7
 10
87.45454943187161
 20
-46
 30
0
 40
4
 50
0
 51
90
  0
ARC
  8
1
 62
7
 10
84.95454943187161
 20
-48.5
 30
0
 40
1.5
 50
180
 51
270
  0
ARC
  8
1
 62
7
 10
119.9545494318717
 20
-48.5
 30
0
 40
1.5
 50
270
 51
0
  0
ARC
  8
1
 62
7
 10
117.4545494318717
 20
-24
 30
0
 40
4
 50
90
 51
112.5559005732173
  0
ARC
  8
1
 62
7
 10
87.45454943187161
 20
-24
 30
0
 40
3.999999999999976
 50
69.52276900774648
 51
90
  0
ARC
  8
1
 62
7
 10
84.95454943187161
 20
48.5
 30
0
 40
1.5
 50
90
 51
180
  0
ARC
  8
1
 62
7
 10
119.9545494318717
 20
48.5
 30
0
 40
1.499999999999901
 50
0
 51
90
  0
ARC
  8
1
 62
7
 10
86.05454943187161
 20
-6.800000000000011
 30
0
 40
0.09999999999999432
 50
90
 51
180
  0
ARC
  8
1
 62
7
 10
86.05454943187174
 20
-7.199999999999989
 30
0
 40
0.1000000000001222
 50
180
 51
270
  0
ARC
  8
1
 62
7
 10
87.25454943187155
 20
-8.399999999999977
 30
0
 40
0.09999999999986642
 50
180
 51
270
  0
ARC
  8
1
 62
7
 10
87.65454943187169
 20
-8.400000000000006
 30
0
 40
0.09999999999999432
 50
270
 51
0
  0
ARC
  8
1
 62
7
 10
88.85454943187159
 20
-7.200000000000017
 30
0
 40
0.09999999999999432
 50
270
 51
0
  0
ARC
  8
1
 62
7
 10
88.85454943187159
 20
-6.800000000000011
 30
0
 40
0.1000000000000227
 50
0
 51
90
  0
ARC
  8
1
 62
7
 10
87.65454943187169
 20
-5.600000000000023
 30
0
 40
0.09999999999986642
 50
0
 51
90
  0
ARC
  8
1
 62
7
 10
87.25454943187155
 20
-5.600000000000023
 30
0
 40
0.1000000000000227
 50
90
 51
180
  0
ARC
  8
1
 62
7
 10
116.0545494318717
 20
-6.800000000000011
 30
0
 40
0.09999999999999432
 50
90
 51
180
  0
ARC
  8
1
 62
7
 10
116.0545494318717
 20
-7.199999999999989
 30
0
 40
0.1000000000000085
 50
180
 51
270
  0
ARC
  8
1
 62
7
 10
117.2545494318716
 20
-8.400000000000034
 30
0
 40
0.09999999999989484
 50
180
 51
270
  0
ARC
  8
1
 62
7
 10
117.6545494318717
 20
-8.400000000000006
 30
0
 40
0.09999999999999432
 50
270
 51
0
  0
ARC
  8
1
 62
7
 10
118.8545494318716
 20
-7.200000000000017
 30
0
 40
0.09999999999999432
 50
270
 51
0
  0
ARC
  8
1
 62
7
 10
118.8545494318716
 20
-6.800000000000011
 30
0
 40
0.1000000000000938
 50
0
 51
90
  0
ARC
  8
1
 62
7
 10
117.6545494318717
 20
-5.600000000000023
 30
0
 40
0.09999999999989484
 50
0
 51
90
  0
ARC
  8
1
 62
7
 10
117.2545494318716
 20
-5.600000000000023
 30
0
 40
0.1000000000000227
 50
90
 51
180
  0
ARC
  8
1
 62
7
 10
85.05454943187161
 20
-38.80000000000007
 30
0
 40
0.09999999999996589
 50
90
 51
180
  0
ARC
  8
1
 62
7
 10
85.05454943187161
 20
-39.2000000000001
 30
0
 40
0.09999999999999432
 50
180
 51
270
  0
ARC
  8
1
 62
7
 10
86.25454943187155
 20
-40.39999999999998
 30
0
 40
0.09999999999986642
 50
180
 51
270
  0
ARC
  8
1
 62
7
 10
86.65454943187169
 20
-40.40000000000009
 30
0
 40
0.1000000000000156
 50
270
 51
0
  0
ARC
  8
1
 62
7
 10
87.85454943187159
 20
-39.2000000000001
 30
0
 40
0.09999999999996589
 50
270
 51
0
  0
ARC
  8
1
 62
7
 10
87.85454943187159
 20
-38.80000000000007
 30
0
 40
0.1000000000000227
 50
0
 51
90
  0
ARC
  8
1
 62
7
 10
86.65454943187169
 20
-37.60000000000008
 30
0
 40
0.09999999999986642
 50
0
 51
90
  0
ARC
  8
1
 62
7
 10
86.25454943187155
 20
-37.60000000000002
 30
0
 40
0.09999999999991616
 50
90
 51
180
  0
ARC
  8
1
 62
7
 10
117.0545494318717
 20
-38.80000000000001
 30
0
 40
0.1000000000000227
 50
90
 51
180
  0
ARC
  8
1
 62
7
 10
117.0545494318717
 20
-39.19999999999999
 30
0
 40
0.1000000000000085
 50
180
 51
270
  0
ARC
  8
1
 62
7
 10
118.2545494318716
 20
-40.39999999999992
 30
0
 40
0.09999999999989484
 50
180
 51
270
  0
ARC
  8
1
 62
7
 10
118.6545494318717
 20
-40.39999999999998
 30
0
 40
0.1000000000000227
 50
270
 51
0
  0
ARC
  8
1
 62
7
 10
119.8545494318716
 20
-39.19999999999999
 30
0
 40
0.1000000000000227
 50
270
 51
0
  0
ARC
  8
1
 62
7
 10
119.8545494318716
 20
-38.80000000000001
 30
0
 40
0.1000000000000938
 50
0
 51
90
  0
ARC
  8
1
 62
7
 10
118.6545494318717
 20
-37.60000000000002
 30
0
 40
0.09999999999989484
 50
0
 51
90
  0
ARC
  8
1
 62
7
 10
118.2545494318716
 20
-37.59999999999991
 30
0
 40
0.09999999999990905
 50
90
 51
180
  0
ARC
  8
1
 62
7
 10
-86.6140932022562
 20
-4.810381480302794
 30
0
 40
0.5000000000000373
 50
29.11616583178974
 51
86.35277671523369
  0
ARC
  8
1
 62
7
 10
-86.6140932022562
 20
-9.189618519697206
 30
0
 40
0.5000000000000155
 50
273.6472232847663
 51
330.8838341682045
  0
ARC
  8
1
 62
7
 10
-87.44545056812821
 20
-4.356549236921467
 30
0
 40
0.1000000000000072
 50
84.99999999992211
 51
180
  0
ARC
  8
1
 62
7
 10
-87.44545056812821
 20
-9.643450763078533
 30
0
 40
0.09999999999990905
 50
180
 51
275.0000000000779
  0
ARC
  8
1
 62
7
 10
-100.8454505681283
 20
48.5
 30
0
 40
1.5
 50
90
 51
180
  0
ARC
  8
1
 62
7
 10
-41.41515344592621
 20
47.4439822888846
 30
0
 40
0.1999999999999957
 50
270
 51
3.645191185387696
  0
ARC
  8
1
 62
7
 10
-44.86708856182226
 20
50.14398228888469
 30
0
 40
0.5
 50
90
 51
177.279550894049
  0
ARC
  8
1
 62
7
 10
-41.84381257443319
 20
50.14398228888469
 30
0
 40
0.4999999999993246
 50
2.720449105951023
 51
90
  0
ARC
  8
1
 62
7
 10
-86.04545056812812
 20
18
 30
0
 40
1.5
 50
180
 51
270
  0
ARC
  8
1
 62
7
 10
-86.04545056812812
 20
47
 30
0
 40
1.5
 50
90
 51
180
  0
LINE
  8
1
 62
2
 10
66.16325505137671
 20
72.14861998126089
 30
0
 11
-2.365066252935222
 21
72.14861998126089
 31
0
  0
LINE
  8
1
 62
2
 10
-2.365066252935222
 20
72.14861998126089
 30
0
 11
-12.05671307816023
 21
47.2439822888846
 31
0
  0
SOLID
  8
1
 62
2
 10
-11.21682527285131
 20
50.67281738713235
 30
0
 11
-10.35799592988461
 21
50.33860370460521
 31
0
 12
-12.05671307816023
 22
47.2439822888846
 32
0
 13
-12.05671307816023
 23
47.2439822888846
 33
0
  0
LINE
  8
1
 62
2
 10
-53.87178690990926
 20
5.499999999999947
 30
0
 11
-78.58175552267529
 21
5.499999999999947
 31
0
  0
LINE
  8
1
 62
2
 10
-78.58175552267529
 20
5.499999999999947
 30
0
 11
-71.14219508012128
 21
19.39999999999992
 31
0
  0
SOLID
  8
1
 62
2
 10
-72.38753000962994
 20
16.09674969615858
 30
0
 11
-73.20004034028841
 21
16.53162161811061
 31
0
 12
-71.14219508012128
 22
19.39999999999992
 32
0
 13
-71.14219508012128
 23
19.39999999999992
 33
0
  0
TEXT
  8
1
 62
2
 10
65.60533435522801
 20
-75.20130188074081
 30
0
 40
3.2
  1
(0.157)
 41
0.6300000000000001
 72
1
 73
2
 11
72.66133435522801
 21
-73.60130188074081
 31
0
  0
TEXT
  8
1
 62
2
 10
95.24459878299341
 20
-88.20206144019993
 30
0
 40
3.2
  1
(1.496)
 41
0.6300000000000001
 72
1
 73
2
 11
102.3005987829934
 21
-86.60206144019992
 31
0
  0
TEXT
  8
1
 62
2
 10
91.21259878299341
 20
-75.20130188074081
 30
0
 40
3.2
  1
(1.181    )
 41
0.6300000000000001
 72
1
 73
2
 11
102.3005987829934
 21
-73.60130188074081
 31
0
  0
TEXT
  8
1
 62
2
 10
95.24459878299341
 20
-64.20206144019991
 30
0
 40
3.2
  1
(0.866)
 41
0.6300000000000001
 72
1
 73
2
 11
102.3005987829934
 21
-62.60206144019991
 31
0
  0
TEXT
  8
1
 62
2
 10
65.56442089127842
 20
-48.32389836856079
 30
0
 40
3.2
  1
(0.63)
 50
90
 41
0.6300000000000001
 72
1
 73
2
 11
63.96442089127842
 21
-42.27589836856079
 31
0
  0
TEXT
  8
1
 62
2
 10
65.56442089127842
 20
-7.83189836856079
 30
0
 40
3.2
  1
(2.618)
 50
90
 41
0.6300000000000001
 72
1
 73
2
 11
63.96442089127842
 21
-0.7758983685607888
 31
0
  0
TEXT
  8
1
 62
2
 10
77.56442089127843
 20
-34.54878305744479
 30
0
 40
3.2
  1
(0.472)
 50
90
 41
0.6300000000000001
 72
1
 73
2
 11
75.96442089127842
 21
-27.49278305744479
 31
0
  0
TEXT
  8
1
 62
2
 10
147.6520156590621
 20
-46.08078305744479
 30
0
 40
3.2
  1
(0.866    )
 50
90
 41
0.6300000000000001
 72
1
 73
2
 11
146.0520156590621
 21
-34.99278305744479
 31
0
  0
TEXT
  8
1
 62
2
 10
147.5644208912784
 20
-65.04878305744479
 30
0
 40
3.2
  1
(0.157)
 50
90
 41
0.6300000000000001
 72
1
 73
2
 11
145.9644208912784
 21
-57.99278305744479
 31
0
  0
TEXT
  8
1
 62
2
 10
135.6520156590621
 20
-42.056
 30
0
 40
3.2
  1
(0.551)
 50
90
 41
0.6300000000000001
 72
1
 73
2
 11
134.0520156590621
 21
-35
 31
0
  0
TEXT
  8
1
 62
2
 10
159.6520156590621
 20
-42.056
 30
0
 40
3.2
  1
(1.181)
 50
90
 41
0.6300000000000001
 72
1
 73
2
 11
158.0520156590621
 21
-35
 31
0
  0
TEXT
  8
1
 62
2
 10
-108.1479843409378
 20
-6.720024752687067
 30
0
 40
3.2
  1
(3.937)
 50
90
 41
0.6300000000000001
 72
1
 73
2
 11
-109.7479843409378
 21
0.335975247312934
 31
0
  0
TEXT
  8
1
 62
2
 10
9.702062155310891
 20
-70.82622100642161
 30
0
 40
3.5
  1
(4-M4 DEPTH 0.236MAX)
 41
0.675
 73
2
 11
9.702062155310891
 21
-69.07622100642161
 31
0
  0
TEXT
  8
1
 62
2
 10
100.1390799371887
 20
-74.60130188074081
 30
0
 40
2
  1
%%p0.0118
 41
0.63
 72
1
 73
2
 11
105.8090799371887
 21
-73.60130188074081
 31
0
  0
TEXT
  8
1
 62
2
 10
147.0520156590621
 20
-36.15430190324949
 30
0
 40
2
  1
%%p0.0118
 50
90
 41
0.63
 72
1
 73
2
 11
146.0520156590621
 21
-30.48430190324949
 31
0
  0
TEXT
  8
1
 62
2
 10
-13.87760826587025
 20
-3.700000000000004
 30
0
 40
2
  1
+1.181
 41
0.63
  0
TEXT
  8
1
 62
2
 10
-13.87760826587025
 20
-6.100000000000003
 30
0
 40
2
  1
 0
 41
0.63
  0
TEXT
  8
1
 62
2
 10
-26.43195203901213
 20
-5.500000000000004
 30
0
 40
3.2
  1
(11.811    )
 41
0.6300000000000001
 72
1
 73
2
 11
-14.33595203901213
 21
-3.900000000000004
 31
0
  0
TEXT
  8
1
 62
2
 10
-3.901450568127164
 20
7.296002813609396
 30
0
 40
3.2
  1
(0.118)
 41
0.6300000000000001
 72
1
 73
2
 11
3.154549431872837
 21
8.896002813609396
 31
0
  0
TEXT
  8
1
 62
2
 10
-41.90945056812716
 20
55.812480735206
 30
0
 40
3.2
  1
(0.0472)
 41
0.6300000000000001
 72
1
 73
2
 11
-33.84545056812716
 21
57.412480735206
 31
0
  0
TEXT
  8
1
 62
2
 10
-79.90145056812716
 20
67.8005360143972
 30
0
 40
3.2
  1
(2.303)
 41
0.6300000000000001
 72
1
 73
2
 11
-72.84545056812716
 21
69.4005360143972
 31
0
  0
TEXT
  8
1
 62
2
 10
-19.63404392162833
 20
22.42
 30
0
 40
3.2
  1
(1.26DIA.)
 50
90
 41
0.6300000000000001
 72
1
 73
2
 11
-21.23404392162833
 21
32.5
 31
0
  0
TEXT
  8
1
 62
2
 10
-0.9487521754782762
 20
73.43369681053309
 30
0
 40
3.5
  1
LEAD WIRES (RED,BLACK)
 41
0.9
 73
2
 11
-0.9487521754782762
 21
75.18369681053309
 31
0
  0
TEXT
  8
1
 62
2
 10
-0.9487521754782762
 20
66.33707482147131
 30
0
 40
3.5
  1
UL1007 AWG22
 41
0.9
 73
2
 11
-0.9487521754782762
 21
68.08707482147131
 31
0
  0
TEXT
  8
1
 62
2
 10
-140.25
 20
93.50000000000001
 30
0
 40
5
  1
DME33BL
 41
0.9
 72
1
 73
2
 11
-124.5
 21
96.00000000000001
 31
0
  0
TEXT
  8
1
 62
2
 10
-74.5313470945392
 20
6.249461668913966
 30
0
 40
3
  1
NAME PLATE
 41
0.6300000000000001
 72
1
 73
2
 11
-65.0813470945392
 21
7.749461668913966
 31
0
  0
TEXT
  8
1
 62
2
 10
-49.24545056812812
 20
-49.02137782119907
 30
0
 40
2
  1
 0
 50
90
 41
0.5850000000000001
  0
TEXT
  8
1
 62
2
 10
-46.84545056812812
 20
-49.02137782119907
 30
0
 40
2
  1
-0.000787
 50
90
 41
0.5850000000000001
  0
TEXT
  8
1
 62
2
 10
-32.67363731869113
 20
-22.04339821528707
 30
0
 40
2
  1
+0.00394
 41
0.45
  0
TEXT
  8
1
 62
2
 10
-32.67363731869113
 20
-24.44339821528707
 30
0
 40
2
  1
 0
 41
0.45
  0
TEXT
  8
1
 62
2
 10
-47.44545056812812
 20
-66.28854714371258
 30
0
 40
3.2
  1
(0.315DIA.      )
 50
90
 41
0.5850000000000001
 72
1
 73
2
 11
-49.04545056812812
 21
-50.37654714371257
 31
0
  0
TEXT
  8
1
 62
2
 10
-44.07310093214427
 20
-23.99339821528707
 30
0
 40
3.5
  1
(0.118DIA.     HOLE)
 41
0.468
 73
2
 11
-44.07310093214427
 21
-22.24339821528707
 31
0
  0
TEXT
  8
1
 62
2
 10
-100.2678798036353
 20
-76.20103669281586
 30
0
 40
3.2
  1
(0.736)
 41
0.6300000000000001
 72
1
 73
2
 11
-93.21187980363528
 21
-74.60103669281585
 31
0
  0
TEXT
  8
1
 62
2
 10
-82.26787980363528
 20
-76.20103669281586
 30
0
 40
3.2
  1
(0.638)
 41
0.6300000000000001
 72
1
 73
2
 11
-75.21187980363528
 21
-74.60103669281585
 31
0
  0
TEXT
  8
1
 62
2
 10
-68.70844567096228
 20
-64.2010366928159
 30
0
 40
3.2
  1
(0.236)
 41
0.6300000000000001
 72
1
 73
2
 11
-61.65244567096228
 21
-62.60103669281591
 31
0
  0
DIMENSION
  8
1
  6
CONTINUOUS
 62
2
  2
*D0
  3
DMST_1
 10
83.45454943187161
 20
-84.04455028567179
 30
0
 11
102.4545494318716
 21
-81.4445502856718
 31
0
 12
0
 22
0
 32
0
 70
0
 13
121.4545494318716
 23
-48.5
 33
0
 14
83.45454943187161
 24
-48.5
 34
0
 53
0
  0
DIMENSION
  8
1
  6
CONTINUOUS
 62
2
  2
*D1
  3
DMST_2
 10
91.45454943187161
 20
-60.1502088032148
 30
0
 11
102.4545494318716
 21
-57.5502088032148
 31
0
 12
0
 22
0
 32
0
 70
0
  1
(<>
 13
113.4545494318716
 23
-50
 33
0
 14
91.45454943187161
 24
-50
 34
0
 53
0
  0
DIMENSION
  8
1
  6
CONTINUOUS
 62
2
  2
*D2
  3
DMST_2
 10
61.4207864305562
 20
32.5
 30
0
 11
58.8207864305562
 21
-0.75
 31
0
 12
0
 22
0
 32
0
 70
0
  1
(<>
 13
96.1545494318716
 23
-34
 33
0
 14
89.75454943187151
 24
32.5
 34
0
 50
90
 53
0
  0
DIMENSION
  8
1
  6
CONTINUOUS
 62
2
  2
*D3
  3
DMST_2
 10
61.4207864305562
 20
-50
 30
0
 11
58.8207864305562
 21
-42
 31
0
 12
0
 22
0
 32
0
 70
0
  1
(<>
 13
96.1545494318716
 23
-34
 33
0
 14
84.95454943187161
 24
-50
 34
0
 50
90
 53
0
  0
DIMENSION
  8
1
  6
CONTINUOUS
 62
2
  2
*D4
  3
DMST_1
 10
73.3842531645668
 20
-34
 30
0
 11
70.78425316456681
 21
-27.8190469901436
 31
0
 12
0
 22
0
 32
0
 70
0
 13
89.45454943187161
 23
-46
 33
0
 14
96.1545494318716
 24
-34
 34
0
 50
90
 53
0
  0
DIMENSION
  8
1
  6
CONTINUOUS
 62
2
  2
*D5
  3
DMST_2
 10
131.483623414956
 20
-42
 30
0
 11
128.883623414956
 21
-35
 31
0
 12
0
 22
0
 32
0
 70
0
  1
(<>
 13
121.4545494318716
 23
-28
 33
0
 14
121.4545494318716
 24
-42
 34
0
 50
90
 53
0
  0
DIMENSION
  8
1
  6
CONTINUOUS
 62
2
  2
*D6
  3
DMST_3
 10
143.439812126686
 20
-46
 30
0
 11
140.839812126686
 21
-35
 31
0
 12
0
 22
0
 32
0
 70
0
 13
119.4545494318717
 23
-24
 33
0
 14
119.4545494318717
 24
-46
 34
0
 50
90
 53
0
  0
DIMENSION
  8
1
  6
CONTINUOUS
 62
2
  2
*D7
  3
DMST_2
 10
155.340275668329
 20
-50
 30
0
 11
152.740275668329
 21
-35
 31
0
 12
0
 22
0
 32
0
 70
0
  1
(<>
 13
121.4545494318716
 23
-20
 33
0
 14
119.9545494318717
 24
-50
 34
0
 50
90
 53
0
  0
DIMENSION
  8
1
  6
CONTINUOUS
 62
2
  2
*D8
  3
DMST_2
 10
143.430794156185
 20
-50
 30
0
 11
140.830794156185
 21
-58.4552974957321
 31
0
 12
0
 22
0
 32
0
 70
0
  1
(<>
 13
119.4545494318717
 23
-46
 33
0
 14
119.9545494318717
 24
-50
 34
0
 50
90
 53
0
  0
DIMENSION
  8
1
  6
CONTINUOUS
 62
2
  2
*D9
  3
DMST_2
 10
83.45454943187161
 20
-70.98098862596869
 30
0
 11
72.07023380912089
 21
-68.3809886259687
 31
0
 12
0
 22
0
 32
0
 70
0
  1
(<>
 13
87.45454943187161
 23
-48
 33
0
 14
83.45454943187161
 24
-48.5
 34
0
 53
0
  0
DIMENSION
  8
1
  6
CONTINUOUS
 62
2
  2
*D10
  3
DMST_3
 10
117.4545494318717
 20
-70.98098862596869
 30
0
 11
102.4545494318717
 21
-68.3809886259687
 31
0
 12
0
 22
0
 32
0
 70
0
 13
87.45454943187161
 23
-48
 33
0
 14
117.4545494318717
 24
-48
 34
0
 53
0
  0
DIMENSION
  8
1
  6
CONTINUOUS
 62
2
  2
*D11
  3
DMST_1
 10
-112.381606091637
 20
50
 30
0
 11
-114.981606091637
 21
4.440892098500626e-016
 31
0
 12
0
 22
0
 32
0
 70
0
 13
-100.8454505681283
 23
-50
 33
0
 14
-100.8454505681283
 24
50
 34
0
 50
90
 53
0
  0
DIMENSION
  8
1
  6
CONTINUOUS
 62
2
  2
*D12
  3
DMST_2
 10
10.87546123622779
 20
11.5680861097405
 30
0
 11
3.801800204237779
 21
14.1680861097405
 31
0
 12
0
 22
0
 32
0
 70
0
  1
(<>
 13
13.87546123622779
 23
45.1489822888847
 33
0
 14
10.87546123622779
 24
44.7539822888846
 34
0
 53
0
  0
DIMENSION
  8
1
  6
CONTINUOUS
 62
2
  2
*D13
  3
DMST_4
 10
13.8754612362278
 20
-0.5715088378193052
 30
0
 11
-14.98499466595025
 21
2.828491162180697
 31
0
 12
0
 22
0
 32
0
 70
0
  1
300
 13
-43.8454505681283
 23
17.5
 33
0
 14
13.87546123622779
 24
45.1489822888847
 34
0
 53
0
  0
DIMENSION
  8
1
  6
CONTINUOUS
 62
2
  2
*D14
  3
DMST_2
 10
-42.64545056812826
 20
60.0517013487565
 30
0
 11
-33.70209613501233
 21
62.6517013487565
 31
0
 12
0
 22
0
 32
0
 70
0
  1
(<>
 13
-43.8454505681283
 23
47.5
 33
0
 14
-42.64545056812825
 24
37.09999999999987
 34
0
 53
0
  0
DIMENSION
  8
1
  6
CONTINUOUS
 62
2
  2
*D15
  3
DMST_1
 10
-23.8454505681283
 20
48.5
 30
0
 11
-26.44545056812821
 21
32.5
 31
0
 12
0
 22
0
 32
0
 70
0
  1
ƒÓ<>
 13
-44.8454505681283
 23
16.5
 33
0
 14
-44.8454505681283
 24
48.5
 34
0
 50
90
 53
0
  0
DIMENSION
  8
1
  6
CONTINUOUS
 62
2
  2
*D16
  3
DMST_1
 10
-83.6454505681283
 20
-72.01514455194949
 30
0
 11
-92.99545056812829
 21
-69.4151445519495
 31
0
 12
0
 22
0
 32
0
 70
0
 13
-102.3454505681283
 23
-48.5
 33
0
 14
-83.6454505681283
 24
-50
 34
0
 53
0
  0
DIMENSION
  8
1
  6
CONTINUOUS
 62
2
  2
*D17
  3
DMST_1
 10
-67.44545056812821
 20
-72.0651551624796
 30
0
 11
-75.54545056812825
 21
-69.4651551624796
 31
0
 12
0
 22
0
 32
0
 70
0
 13
-83.6454505681283
 23
-50
 33
0
 14
-67.44545056812821
 24
-38
 34
0
 53
0
  0
DIMENSION
  8
1
  6
CONTINUOUS
 62
2
  2
*D18
  3
DMST_5
 10
-52.42474494266911
 20
-38.00000000000001
 30
0
 11
-55.82474494266911
 21
-49.91284817199482
 31
0
 12
0
 22
0
 32
0
 70
0
  1
ƒÓ<>
 13
-67.44545056812821
 23
-30
 33
0
 14
-67.44545056812821
 24
-38
 34
0
 50
90
 53
0
  0
DIMENSION
  8
1
  6
CONTINUOUS
 62
2
  2
*D19
  3
DMST_1
 10
-67.44545056812821
 20
-59.99917762258051
 30
0
 11
-61.81661176419529
 21
-57.39917762258051
 31
0
 12
0
 22
0
 32
0
 70
0
 13
-73.44545056812821
 23
-35.5
 33
0
 14
-67.44545056812821
 24
-38
 34
0
 53
0
  0
DIMENSION
  8
1
  6
CONTINUOUS
 62
2
  2
*D20
  3
DMST_1
 10
-102.3454505681283
 20
72.01061118982041
 30
0
 11
-73.0954505681283
 21
74.6106111898204
 31
0
 12
0
 22
0
 32
0
 70
0
 13
-43.8454505681283
 23
47.5
 33
0
 14
-102.3454505681283
 24
48.50000000000003
 34
0
 53
0
  0
DIMENSION
  8
1
  6
CONTINUOUS
 62
2
  2
*D22
  3
DMST_6
 10
-74.7218237727717
 20
-34.78795395961192
 30
0
 11
-30.11704669652421
 21
-14.70095939544399
 31
0
 12
0
 22
0
 32
0
 70
3
  1
ƒÓ<>
 15
-72.16907736348469
 25
-33.21204604038812
 35
0
 40
0
 53
0
  0
INSERT
  8
0
  2
___R___O_______R
 10
0.5
 20
-3.75
 30
0
  0
INSERT
  8
1
  2
*D21
 10
0
 20
0
 30
0
  0
ENDSEC
  0
EOF
