  0
SECTION
  2
HEADER
  9
$ACADVER
  1
AC1009
  9
$INSBASE
 10
0
 20
0
  9
$EXTMIN
 10
-194.5
 20
-146
  9
$EXTMAX
 10
194.5
 20
146
  9
$LIMMIN
 10
-194.5
 20
-146
  9
$LIMMAX
 10
194.5
 20
146
  9
$VIEWCTR
 10
10
 20
10
  9
$VIEWSIZE
 40
10
  9
$SNAPMODE
 70
0
  9
$SNAPUNIT
 10
1
 20
1
  9
$SNAPBASE
 10
0
 20
0
  9
$SNAPANG
 50
0
  9
$SNAPSTYLE
 70
0
  9
$SNAPISOPAIR
 70
0
  9
$GRIDMODE
 70
0
  9
$GRIDUNIT
 10
0
 20
0
  9
$ORTHOMODE
 70
0
  9
$REGENMODE
 70
1
  9
$FILLMODE
 70
1
  9
$QTEXTMODE
 70
0
  9
$DRAGMODE
 70
2
  9
$LTSCALE
 40
1
  9
$OSMODE
 70
0
  9
$ATTMODE
 70
1
  9
$TEXTSIZE
 40
3.5
  9
$TRACEWID
 40
0.5
  9
$TEXTSTYLE
  7
STANDARD
  9
$CLAYER
  8
0
  9
$CELTYPE
  6
BYLAYER
  9
$CECOLOR
 62
256
  9
$DIMSCALE
 40
1
  9
$DIMASZ
 40
0.18
  9
$DIMEXO
 40
0.0625
  9
$DIMDLI
 40
0.38
  9
$DIMRND
 40
0
  9
$DIMDLE
 40
0
  9
$DIMEXE
 40
0.18
  9
$DIMTP
 40
0
  9
$DIMTM
 40
0
  9
$DIMTXT
 40
0.18
  9
$DIMCEN
 40
0.09
  9
$DIMTSZ
 40
0
  9
$DIMTOL
 70
0
  9
$DIMLIM
 70
0
  9
$DIMTIH
 70
1
  9
$DIMTOH
 70
1
  9
$DIMSE1
 70
0
  9
$DIMSE2
 70
0
  9
$DIMTAD
 70
0
  9
$DIMZIN
 70
0
  9
$DIMBLK
  1

  9
$DIMASO
 70
1
  9
$DIMSHO
 70
1
  9
$DIMPOST
  1

  9
$DIMAPOST
  1

  9
$DIMALT
 70
0
  9
$DIMALTD
 70
2
  9
$DIMALTF
 40
25.4
  9
$DIMLFAC
 40
1
  9
$DIMTOFL
 70
0
  9
$DIMTVP
 40
0
  9
$DIMTIX
 70
0
  9
$DIMSOXD
 70
0
  9
$DIMSAH
 70
0
  9
$DIMBLK1
  1

  9
$DIMBLK2
  1

  9
$DIMSTYLE
  2
*UNNAMED
  9
$DIMCLRD
 70
0
  9
$DIMCLRE
 70
0
  9
$DIMCLRT
 70
0
  9
$DIMTFAC
 40
1
  9
$DIMGAP
 40
0.09
  9
$LUNITS
 70
2
  9
$LUPREC
 70
4
  9
$AXISMODE
 70
0
  9
$AXISUNIT
 10
0
 20
0
  9
$SKETCHINC
 40
0.1
  9
$FILLETRAD
 40
2
  9
$AUNITS
 70
0
  9
$AUPREC
 70
0
  9
$MENU
  1
ACAD
  9
$ELEVATION
 40
0
  9
$THICKNESS
 40
0
  9
$VIEWDIR
 10
0
 20
0
 30
1
  9
$LIMCHECK
 70
0
  9
$BLIPMODE
 70
1
  9
$CHAMFERA
 40
0
  9
$CHAMFERB
 40
0
  9
$FASTZOOM
 70
1
  9
$SKPOLY
 70
0
  9
$ANGBASE
 50
0
  9
$ANGDIR
 70
0
  9
$PDMODE
 70
0
  9
$PDSIZE
 40
0
  9
$PLINEWID
 40
0
  9
$COORDS
 70
2
  0
ENDSEC
  0
SECTION
  2
TABLES
  0
TABLE
  2
DIMSTYLE
 70
8
  0
DIMSTYLE
  2
DMST_1
 70
0
  3

  4

  5

  6

  7

 40
1
 41
3.2
 42
1
 43
7
 44
1
 45
0
 46
0
 47
0
 48
0
140
3.2
141
0
142
0
143
25.4
144
1
145
0
146
1
147
0.09
 71
0
 72
0
 73
0
 74
0
 75
0
 76
0
 77
1
 78
9
170
0
171
2
172
0
173
0
174
0
175
0
176
2
177
2
178
2
  0
DIMSTYLE
  2
DMST_2
 70
0
  3
)
  4

  5

  6

  7

 40
1
 41
3.2
 42
1
 43
7
 44
1
 45
0
 46
0
 47
0
 48
0
140
3.2
141
0
142
0
143
25.4
144
1
145
0
146
1
147
0.09
 71
0
 72
0
 73
0
 74
0
 75
0
 76
0
 77
1
 78
9
170
0
171
2
172
0
173
0
174
0
175
0
176
2
177
2
178
2
  0
DIMSTYLE
  2
DMST_3
 70
0
  3

  4

  5

  6

  7

 40
1
 41
3.2
 42
1
 43
7
 44
1
 45
0
 46
0
 47
0
 48
0
140
3.2
141
0
142
0
143
25.4
144
1
145
0
146
0.6
147
0.09
 71
1
 72
0
 73
0
 74
0
 75
0
 76
0
 77
1
 78
9
170
0
171
2
172
0
173
0
174
0
175
0
176
2
177
2
178
2
  0
DIMSTYLE
  2
DMST_4
 70
0
  3

  4

  5

  6

  7

 40
1
 41
3.2
 42
1
 43
7
 44
1
 45
0
 46
0
 47
0.3
 48
0.3
140
3.2
141
0
142
0
143
25.4
144
1
145
0
146
0.6
147
0.09
 71
1
 72
0
 73
0
 74
0
 75
0
 76
0
 77
1
 78
9
170
0
171
2
172
0
173
0
174
0
175
0
176
2
177
2
178
2
  0
DIMSTYLE
  2
DMST_5
 70
0
  3

  4

  5

  6

  7

 40
1
 41
3.2
 42
1
 43
7
 44
1
 45
0
 46
0
 47
0
 48
0.02
140
3.2
141
0
142
0
143
25.4
144
1
145
0
146
0.6
147
0.09
 71
1
 72
0
 73
0
 74
0
 75
0
 76
0
 77
1
 78
9
170
0
171
2
172
0
173
0
174
0
175
0
176
2
177
2
178
2
  0
DIMSTYLE
  2
DMST_6
 70
0
  3

  4

  5

  6

  7

 40
1
 41
3
 42
1
 43
7
 44
1
 45
0
 46
0
 47
0.5
 48
0.5
140
3.2
141
0
142
0
143
25.4
144
1
145
0
146
0.6
147
0.09
 71
1
 72
0
 73
0
 74
0
 75
0
 76
0
 77
1
 78
9
170
0
171
2
172
0
173
0
174
0
175
0
176
2
177
2
178
2
  0
DIMSTYLE
  2
DMST_7
 70
0
  3

  4

  5

  6

  7

 40
1
 41
3
 42
1
 43
7
 44
1
 45
0
 46
0
 47
0.3
 48
0.3
140
3.2
141
0
142
0
143
25.4
144
1
145
0
146
0.6
147
0.09
 71
1
 72
0
 73
0
 74
0
 75
0
 76
0
 77
1
 78
9
170
0
171
2
172
0
173
0
174
0
175
0
176
2
177
2
178
2
  0
DIMSTYLE
  2
DMST_8
 70
0
  3

  4

  5

  6

  7

 40
1
 41
3
 42
1
 43
7
 44
1
 45
0
 46
0
 47
0
 48
0
140
3.2
141
0
142
0
143
25.4
144
1
145
0
146
1
147
0.09
 71
0
 72
0
 73
0
 74
0
 75
0
 76
0
 77
1
 78
9
170
0
171
2
172
0
173
0
174
0
175
0
176
2
177
2
178
2
  0
ENDTAB
  0
TABLE
  2
LTYPE
 70
9
  0
LTYPE
  2
CONTINUOUS
 70
64
  3
Solid line
 72
65
 73
0
 40
0
  0
LTYPE
  2
BORDER
 70
64
  3
__ __ . __ __ .
 72
65
 73
6
 40
17.91447368421053
 49
5.118421052631579
 49
-2.559210526315789
 49
5.118421052631579
 49
-2.559210526315789
 49
0
 49
-2.559210526315789
  0
LTYPE
  2
CENTER
 70
64
  3
____ _ ____ _
 72
65
 73
4
 40
20.47368421052632
 49
12.79605263157895
 49
-2.559210526315789
 49
2.559210526315789
 49
-2.559210526315789
  0
LTYPE
  2
DASHDOT
 70
64
  3
__ . __ . __ .
 72
65
 73
4
 40
10.23684210526316
 49
5.118421052631579
 49
-2.559210526315789
 49
0
 49
-2.559210526315789
  0
LTYPE
  2
DASHED
 70
64
  3
__ __ __ __ __
 72
65
 73
2
 40
7.677631578947368
 49
5.118421052631579
 49
-2.559210526315789
  0
LTYPE
  2
DIVIDE
 70
64
  3
__ . . __ . . 
 72
65
 73
6
 40
12.79605263157895
 49
5.118421052631579
 49
-2.559210526315789
 49
0
 49
-2.559210526315789
 49
0
 49
-2.559210526315789
  0
LTYPE
  2
DOT
 70
64
  3
..............
 72
65
 73
4
 40
5.118421052631579
 49
0
 49
-2.559210526315789
 49
0
 49
-2.559210526315789
  0
LTYPE
  2
HIDDEN
 70
64
  3
_ _ _ _ _ _ _
 72
65
 73
2
 40
3.838815789473684
 49
2.559210526315789
 49
-1.279605263157895
  0
LTYPE
  2
PHANTOM
 70
64
  3
_____ _ _ _____ _ _ 
 72
65
 73
6
 40
25.59210526315789
 49
12.79605263157895
 49
-2.559210526315789
 49
2.559210526315789
 49
-2.559210526315789
 49
2.559210526315789
 49
-2.559210526315789
  0
ENDTAB
  0
TABLE
  2
LAYER
 70
3
  0
LAYER
  2
1
 70
0
 62
7
  6
CONTINUOUS
  0
LAYER
  2
0
 70
0
 62
7
  6
CONTINUOUS
  0
ENDTAB
  0
TABLE
  2
STYLE
 70
4
  0
STYLE
  2
STANDARD
 70
0
 40
0
 41
1
 50
0
 71
0
 42
3.5
  3
txt
  4

  0
STYLE
  2
SIMPLEX
 70
0
 40
0
 41
1
 50
0
 71
0
 42
3.5
  3
simplex
  4

  0
STYLE
  2
COMPLEX
 70
0
 40
0
 41
1
 50
0
 71
0
 42
3.5
  3
complex
  4

  0
STYLE
  2
ITALIC
 70
0
 40
0
 41
1
 50
0
 71
0
 42
3.5
  3
italic
  4

  0
ENDTAB
  0
TABLE
  2
VIEW
 70
0
  0
ENDTAB
  0
ENDSEC
  0
SECTION
  2
BLOCKS
  0
BLOCK
  8
0
  2
___R___O_______R
 70
0
 10
0.5
 20
-3.75
 30
0
  0
LINE
  8
1
 62
4
  6
PHANTOM
 10
194.5
 20
-136.5
 30
0
 11
194.5
 21
-146
 31
0
  0
LINE
  8
1
 62
4
  6
PHANTOM
 10
-194.5
 20
-146
 30
0
 11
-194.5
 21
146
 31
0
  0
LINE
  8
1
 62
4
  6
PHANTOM
 10
194.5
 20
146
 30
0
 11
194.5
 21
129
 31
0
  0
LINE
  8
1
 62
4
  6
PHANTOM
 10
194.5
 20
146
 30
0
 11
-194.5
 21
146
 31
0
  0
LINE
  8
1
 62
4
  6
PHANTOM
 10
-194.5
 20
-146
 30
0
 11
194.5
 21
-146
 31
0
  0
TEXT
  8
1
 62
4
 10
178.746911898274
 20
-142.6071298819256
 30
0
 40
5
  1
A3
 41
0.9
 72
1
 73
2
 11
183.246911898274
 21
-140.1071298819256
 31
0
  0
ENDBLK
  8
0
  0
BLOCK
  8
1
  2
*D0
 70
1
 10
0
 20
0
 30
0
  0
LINE
  8
1
 62
2
 10
15
 20
64.45601378426771
 30
0
 11
89.20000000000005
 21
64.45601378426771
 31
0
  0
LINE
  8
1
 62
2
 10
89.20000000000005
 20
15.99999999999999
 30
0
 11
89.20000000000005
 21
65.45601378426771
 31
0
  0
LINE
  8
1
 62
2
 10
15
 20
30.49999999999999
 30
0
 11
15
 21
65.45601378426771
 31
0
  0
SOLID
  8
1
 62
2
 10
15
 20
64.45601378426771
 30
0
 11
18.2
 21
64.87201378426771
 31
0
 12
18.2
 22
64.04001378426771
 32
0
 13
18.2
 23
64.04001378426771
 33
0
  0
SOLID
  8
1
 62
2
 10
89.20000000000005
 20
64.45601378426771
 30
0
 11
86.00000000000004
 21
64.04001378426771
 31
0
 12
86.00000000000004
 22
64.87201378426771
 32
0
 13
86.00000000000004
 23
64.87201378426771
 33
0
  0
TEXT
  8
1
 62
2
 10
47.74000000000002
 20
65.45601378426771
 30
0
 40
3.2
  1
74.2
 41
0.9
  0
ENDBLK
  8
0
  0
BLOCK
  8
1
  2
*D1
 70
1
 10
0
 20
0
 30
0
  0
LINE
  8
1
 62
2
 10
109.2
 20
-16
 30
0
 11
109.2
 21
16
 31
0
  0
LINE
  8
1
 62
2
 10
89.2
 20
16
 30
0
 11
110.2
 21
16
 31
0
  0
LINE
  8
1
 62
2
 10
89.2
 20
-16
 30
0
 11
110.2
 21
-16
 31
0
  0
SOLID
  8
1
 62
2
 10
109.2
 20
16
 30
0
 11
109.616
 21
12.8
 31
0
 12
108.784
 22
12.8
 32
0
 13
108.784
 23
12.8
 33
0
  0
SOLID
  8
1
 62
2
 10
109.2
 20
-16
 30
0
 11
108.784
 21
-12.8
 31
0
 12
109.616
 22
-12.8
 32
0
 13
109.616
 23
-12.8
 33
0
  0
TEXT
  8
1
 62
2
 10
108.2000000000001
 20
-0.577777777777778
 30
0
 40
3.2
  1
32
 50
90
 41
0.9
  0
TEXT
  8
1
 62
2
 10
108.2000000000001
 20
-4.222222222222222
 30
0
 40
3.2
  1
âË
 50
90
 41
0.9
  0
ENDBLK
  8
0
  0
BLOCK
  8
1
  2
*D2
 70
1
 10
0
 20
0
 30
0
  0
LINE
  8
1
 62
2
 10
90.40000000000009
 20
40.6241867978874
 30
0
 11
102.3323609068161
 21
40.6241867978874
 31
0
  0
LINE
  8
1
 62
2
 10
89.20000000000005
 20
40.6241867978874
 30
0
 11
90.40000000000009
 21
40.6241867978874
 31
0
  0
LINE
  8
1
 62
2
 10
82.79999999999996
 20
40.6241867978874
 30
0
 11
89.20000000000005
 21
40.6241867978874
 31
0
  0
LINE
  8
1
 62
2
 10
90.40000000000009
 20
5.599999999999881
 30
0
 11
90.40000000000009
 21
41.6241867978874
 31
0
  0
LINE
  8
1
 62
2
 10
89.20000000000005
 20
15.99999999999999
 30
0
 11
89.20000000000005
 21
41.6241867978874
 31
0
  0
SOLID
  8
1
 62
2
 10
89.20000000000005
 20
40.6241867978874
 30
0
 11
86.00000000000004
 21
40.2081867978874
 31
0
 12
86.00000000000004
 22
41.04018679788739
 32
0
 13
86.00000000000004
 23
41.04018679788739
 33
0
  0
SOLID
  8
1
 62
2
 10
90.40000000000009
 20
40.6241867978874
 30
0
 11
93.60000000000009
 21
41.04018679788739
 31
0
 12
93.60000000000009
 22
40.2081867978874
 32
0
 13
93.60000000000009
 23
40.2081867978874
 33
0
  0
TEXT
  8
1
 62
2
 10
95.37236090681614
 20
41.6241867978874
 30
0
 40
3.2
  1
1.2
 41
0.9
  0
TEXT
  8
1
 62
2
 10
93.29236090681614
 20
41.6241867978874
 30
0
 40
3.2
  1
(
 41
0.9
  0
TEXT
  8
1
 62
2
 10
101.8523609068161
 20
41.6241867978874
 30
0
 40
3.2
  1
)
 41
0.9
  0
ENDBLK
  8
0
  0
BLOCK
  8
1
  2
*D3
 70
1
 10
0
 20
0
 30
0
  0
LINE
  8
1
 62
2
 10
89.20000000000006
 20
-33.0128059971119
 30
0
 11
144.9209118043562
 21
-33.0128059971119
 31
0
  0
LINE
  8
1
 62
2
 10
89.20000000000006
 20
-16
 30
0
 11
89.20000000000006
 21
-34.0128059971119
 31
0
  0
LINE
  8
1
 62
2
 10
144.9209118043562
 20
11.6489822888847
 30
0
 11
144.9209118043562
 21
-34.0128059971119
 31
0
  0
SOLID
  8
1
 62
2
 10
89.20000000000006
 20
-33.0128059971119
 30
0
 11
92.40000000000006
 21
-32.5968059971119
 31
0
 12
92.40000000000006
 22
-33.42880599711189
 32
0
 13
92.40000000000006
 23
-33.42880599711189
 33
0
  0
SOLID
  8
1
 62
2
 10
144.9209118043562
 20
-33.0128059971119
 30
0
 11
141.7209118043562
 21
-33.42880599711189
 31
0
 12
141.7209118043562
 22
-32.5968059971119
 32
0
 13
141.7209118043562
 23
-32.5968059971119
 33
0
  0
TEXT
  8
1
 62
2
 10
110.2124559021781
 20
-31.2128059971119
 30
0
 40
3.2
  1
300
 41
0.9
  0
TEXT
  8
1
 62
2
 10
119.4924559021781
 20
-29.1328059971119
 30
0
 40
1.92
  1
+30
 41
0.9
  0
TEXT
  8
1
 62
2
 10
121.2204559021781
 20
-32.0128059971119
 30
0
 40
1.92
  1
 0
 41
0.9
  0
ENDBLK
  8
0
  0
BLOCK
  8
1
  2
*D4
 70
1
 10
0
 20
0
 30
0
  0
LINE
  8
1
 62
2
 10
151.3209118043561
 20
-20.9759905532831
 30
0
 11
144.9209118043561
 21
-20.9759905532831
 31
0
  0
LINE
  8
1
 62
2
 10
141.9209118043561
 20
-20.9759905532831
 30
0
 11
144.9209118043561
 21
-20.9759905532831
 31
0
  0
LINE
  8
1
 62
2
 10
141.9209118043561
 20
-20.9759905532831
 30
0
 11
130.4430880322409
 21
-20.9759905532831
 31
0
  0
LINE
  8
1
 62
2
 10
141.9209118043561
 20
11.2539822888846
 30
0
 11
141.9209118043561
 21
-21.9759905532831
 31
0
  0
LINE
  8
1
 62
2
 10
144.9209118043561
 20
11.6489822888847
 30
0
 11
144.9209118043561
 21
-21.9759905532831
 31
0
  0
SOLID
  8
1
 62
2
 10
144.9209118043561
 20
-20.9759905532831
 30
0
 11
148.1209118043561
 21
-20.5599905532831
 31
0
 12
148.1209118043561
 22
-21.3919905532831
 32
0
 13
148.1209118043561
 23
-21.3919905532831
 33
0
  0
SOLID
  8
1
 62
2
 10
141.9209118043561
 20
-20.9759905532831
 30
0
 11
138.7209118043561
 21
-21.3919905532831
 31
0
 12
138.7209118043561
 22
-20.5599905532831
 32
0
 13
138.7209118043561
 23
-20.5599905532831
 33
0
  0
TEXT
  8
1
 62
2
 10
132.5230880322409
 20
-19.9759905532831
 30
0
 40
3.2
  1
3
 41
0.9
  0
TEXT
  8
1
 62
2
 10
130.4430880322409
 20
-19.9759905532831
 30
0
 40
3.2
  1
(
 41
0.9
  0
TEXT
  8
1
 62
2
 10
136.0430880322409
 20
-19.9759905532831
 30
0
 40
3.2
  1
)
 41
0.9
  0
ENDBLK
  8
0
  0
BLOCK
  8
1
  2
*D5
 70
1
 10
0
 20
0
 30
0
  0
LINE
  8
1
 62
2
 10
-10
 20
52.4681057506801
 30
0
 11
1.999999999999998
 21
52.4681057506801
 31
0
  0
LINE
  8
1
 62
2
 10
1.999999999999998
 20
13.5
 30
0
 11
1.999999999999998
 21
53.4681057506801
 31
0
  0
LINE
  8
1
 62
2
 10
-10
 20
13.5
 30
0
 11
-10
 21
53.4681057506801
 31
0
  0
SOLID
  8
1
 62
2
 10
-10
 20
52.4681057506801
 30
0
 11
-6.800000000000001
 21
52.88410575068009
 31
0
 12
-6.800000000000001
 22
52.0521057506801
 32
0
 13
-6.800000000000001
 23
52.0521057506801
 33
0
  0
SOLID
  8
1
 62
2
 10
1.999999999999998
 20
52.4681057506801
 30
0
 11
-1.200000000000002
 21
52.0521057506801
 31
0
 12
-1.200000000000002
 22
52.88410575068009
 32
0
 13
-1.200000000000002
 23
52.88410575068009
 33
0
  0
TEXT
  8
1
 62
2
 10
-5.920000000000002
 20
53.46810575068009
 30
0
 40
3.2
  1
12
 41
0.9
  0
ENDBLK
  8
0
  0
BLOCK
  8
1
  2
*D6
 70
1
 10
0
 20
0
 30
0
  0
LINE
  8
1
 62
2
 10
-19.46223690423403
 20
12.5
 30
0
 11
-19.46223690423403
 21
35.8056550740146
 31
0
  0
LINE
  8
1
 62
2
 10
-19.46223690423403
 20
7.000000000000121
 30
0
 11
-19.46223690423403
 21
12.5
 31
0
  0
LINE
  8
1
 62
2
 10
-19.46223690423403
 20
0.6000000000001187
 30
0
 11
-19.46223690423403
 21
7.000000000000121
 31
0
  0
LINE
  8
1
 62
2
 10
-11
 20
12.5
 30
0
 11
-20.46223690423403
 21
12.5
 31
0
  0
LINE
  8
1
 62
2
 10
-11
 20
7.000000000000121
 30
0
 11
-20.46223690423403
 21
7.000000000000121
 31
0
  0
SOLID
  8
1
 62
2
 10
-19.46223690423403
 20
12.5
 30
0
 11
-19.87823690423403
 21
15.7
 31
0
 12
-19.04623690423404
 22
15.7
 32
0
 13
-19.04623690423404
 23
15.7
 33
0
  0
SOLID
  8
1
 62
2
 10
-19.46223690423403
 20
7.000000000000121
 30
0
 11
-19.04623690423403
 21
3.80000000000012
 31
0
 12
-19.87823690423403
 22
3.80000000000012
 32
0
 13
-19.87823690423403
 23
3.80000000000012
 33
0
  0
TEXT
  8
1
 62
2
 10
-20.46223690423394
 20
23.5176550740146
 30
0
 40
3.2
  1
5.5
 50
90
 41
0.9
  0
TEXT
  8
1
 62
2
 10
-21.10223690423394
 20
30.9576550740146
 30
0
 40
1.92
  1
%%p0.3
 50
90
 41
0.9
  0
ENDBLK
  8
0
  0
BLOCK
  8
1
  2
*D7
 70
1
 10
0
 20
0
 30
0
  0
LINE
  8
1
 62
2
 10
-31.49652299425385
 20
13.00000000000011
 30
0
 11
-31.49652299425385
 21
39.9216312692783
 31
0
  0
LINE
  8
1
 62
2
 10
-31.49652299425385
 20
7.000000000000107
 30
0
 11
-31.49652299425385
 21
13.00000000000011
 31
0
  0
LINE
  8
1
 62
2
 10
-31.49652299425385
 20
0.600000000000108
 30
0
 11
-31.49652299425385
 21
7.000000000000107
 31
0
  0
LINE
  8
1
 62
2
 10
1.499999999999986
 20
13.00000000000011
 30
0
 11
-32.49652299425385
 21
13.00000000000011
 31
0
  0
LINE
  8
1
 62
2
 10
-11.00000000000001
 20
7.000000000000107
 30
0
 11
-32.49652299425385
 21
7.000000000000107
 31
0
  0
SOLID
  8
1
 62
2
 10
-31.49652299425385
 20
7.000000000000107
 30
0
 11
-31.08052299425385
 21
3.800000000000106
 31
0
 12
-31.91252299425385
 22
3.800000000000106
 32
0
 13
-31.91252299425385
 23
3.800000000000106
 33
0
  0
SOLID
  8
1
 62
2
 10
-31.49652299425385
 20
13.00000000000011
 30
0
 11
-31.91252299425385
 21
16.20000000000011
 31
0
 12
-31.08052299425386
 22
16.20000000000011
 32
0
 13
-31.08052299425386
 23
16.20000000000011
 33
0
  0
TEXT
  8
1
 62
2
 10
-33.29652299425394
 20
29.63363126927831
 30
0
 40
3.2
  1
6
 50
90
 41
0.9
  0
TEXT
  8
1
 62
2
 10
-35.37652299425394
 20
33.15363126927831
 30
0
 40
1.92
  1
 0
 50
90
 41
0.9
  0
TEXT
  8
1
 62
2
 10
-32.49652299425394
 20
33.15363126927831
 30
0
 40
1.92
  1
-0.02
 50
90
 41
0.9
  0
TEXT
  8
1
 62
2
 10
-33.29652299425394
 20
25.98918682483387
 30
0
 40
3.2
  1
âË
 50
90
 41
0.9
  0
ENDBLK
  8
0
  0
BLOCK
  8
1
  2
*D8
 70
1
 10
0
 20
0
 30
0
  0
LINE
  8
1
 62
2
 10
-43.49820191931394
 20
19
 30
0
 11
-43.49820191931394
 21
32.57069692846512
 31
0
  0
LINE
  8
1
 62
2
 10
-43.49820191931394
 20
1.0001839906908
 30
0
 11
-43.49820191931394
 21
19
 31
0
  0
LINE
  8
1
 62
2
 10
9
 20
19
 30
0
 11
-44.49820191931394
 21
19
 31
0
  0
LINE
  8
1
 62
2
 10
9
 20
1.0001839906908
 30
0
 11
-44.49820191931394
 21
1.0001839906908
 31
0
  0
SOLID
  8
1
 62
2
 10
-43.49820191931394
 20
19
 30
0
 11
-43.08220191931395
 21
15.8
 31
0
 12
-43.91420191931394
 22
15.8
 32
0
 13
-43.91420191931394
 23
15.8
 33
0
  0
SOLID
  8
1
 62
2
 10
-43.49820191931394
 20
1.0001839906908
 30
0
 11
-43.91420191931395
 21
4.200183990690801
 31
0
 12
-43.08220191931395
 22
4.200183990690801
 32
0
 13
-43.08220191931395
 23
4.200183990690801
 33
0
  0
TEXT
  8
1
 62
2
 10
-44.49820191931385
 20
28.73069692846512
 30
0
 40
3.2
  1
18
 50
90
 41
0.9
  0
TEXT
  8
1
 62
2
 10
-44.49820191931385
 20
25.08625248402068
 30
0
 40
3.2
  1
âË
 50
90
 41
0.9
  0
ENDBLK
  8
0
  0
BLOCK
  8
1
  2
*D9
 70
1
 10
0
 20
0
 30
0
  0
LINE
  8
1
 62
2
 10
-10
 20
64.449904520602
 30
0
 11
15
 21
64.449904520602
 31
0
  0
LINE
  8
1
 62
2
 10
15
 20
30.49999999999999
 30
0
 11
15
 21
65.449904520602
 31
0
  0
LINE
  8
1
 62
2
 10
-10
 20
13.5
 30
0
 11
-10
 21
65.449904520602
 31
0
  0
SOLID
  8
1
 62
2
 10
-10
 20
64.449904520602
 30
0
 11
-6.800000000000001
 21
64.865904520602
 31
0
 12
-6.800000000000001
 22
64.03390452060201
 32
0
 13
-6.800000000000001
 23
64.03390452060201
 33
0
  0
SOLID
  8
1
 62
2
 10
15
 20
64.449904520602
 30
0
 11
11.8
 21
64.03390452060201
 31
0
 12
11.8
 22
64.865904520602
 32
0
 13
11.8
 23
64.865904520602
 33
0
  0
TEXT
  8
1
 62
2
 10
0.09999999999999787
 20
65.449904520602
 30
0
 40
3.2
  1
25
 41
0.9
  0
ENDBLK
  8
0
  0
BLOCK
  8
1
  2
*D10
 70
1
 10
0
 20
0
 30
0
  0
LINE
  8
1
 62
2
 10
15
 20
52.51402115598501
 30
0
 11
44
 21
52.51402115598501
 31
0
  0
LINE
  8
1
 62
2
 10
44
 20
30.99999999999999
 30
0
 11
44
 21
53.51402115598501
 31
0
  0
LINE
  8
1
 62
2
 10
15
 20
30.49999999999999
 30
0
 11
15
 21
53.51402115598501
 31
0
  0
SOLID
  8
1
 62
2
 10
15
 20
52.51402115598501
 30
0
 11
18.2
 21
52.930021155985
 31
0
 12
18.2
 22
52.09802115598501
 32
0
 13
18.2
 23
52.09802115598501
 33
0
  0
SOLID
  8
1
 62
2
 10
44
 20
52.51402115598501
 30
0
 11
40.8
 21
52.09802115598501
 31
0
 12
40.8
 22
52.930021155985
 32
0
 13
40.8
 23
52.930021155985
 33
0
  0
TEXT
  8
1
 62
2
 10
27.1
 20
53.514021155985
 30
0
 40
3.2
  1
29
 41
0.9
  0
ENDBLK
  8
0
  0
BLOCK
  8
1
  2
*D11
 70
1
 10
0
 20
0
 30
0
  0
LINE
  8
1
 62
2
 10
21.4
 20
52.5126973093537
 30
0
 11
15
 21
52.5126973093537
 31
0
  0
LINE
  8
1
 62
2
 10
10
 20
52.5126973093537
 30
0
 11
15
 21
52.5126973093537
 31
0
  0
LINE
  8
1
 62
2
 10
10
 20
52.5126973093537
 30
0
 11
3.6
 21
52.5126973093537
 31
0
  0
LINE
  8
1
 62
2
 10
10
 20
20.00000000000012
 30
0
 11
10
 21
53.5126973093537
 31
0
  0
LINE
  8
1
 62
2
 10
15
 20
30.5
 30
0
 11
15
 21
53.5126973093537
 31
0
  0
SOLID
  8
1
 62
2
 10
10
 20
52.5126973093537
 30
0
 11
6.799999999999999
 21
52.0966973093537
 31
0
 12
6.799999999999999
 22
52.92869730935369
 32
0
 13
6.799999999999999
 23
52.92869730935369
 33
0
  0
SOLID
  8
1
 62
2
 10
15
 20
52.5126973093537
 30
0
 11
18.2
 21
52.92869730935369
 31
0
 12
18.2
 22
52.0966973093537
 32
0
 13
18.2
 23
52.0966973093537
 33
0
  0
TEXT
  8
1
 62
2
 10
4.63301430338944
 20
53.5126973093537
 30
0
 40
3.2
  1
5
 41
0.9
  0
ENDBLK
  8
0
  0
BLOCK
  8
1
  2
*D12
 70
1
 10
0
 20
0
 30
0
  0
LINE
  8
1
 62
2
 10
-69.4462016085883
 20
0
 30
0
 11
-69.4462016085883
 21
10
 31
0
  0
LINE
  8
1
 62
2
 10
-69.4462016085883
 20
0
 30
0
 11
-69.4462016085883
 21
-13.67285247127719
 31
0
  0
LINE
  8
1
 62
2
 10
-78.49999999999989
 20
0
 30
0
 11
-68.4462016085883
 21
0
 31
0
  0
LINE
  8
1
 62
2
 10
-99.9999999999999
 20
10
 30
0
 11
-68.4462016085883
 21
10
 31
0
  0
SOLID
  8
1
 62
2
 10
-69.4462016085883
 20
10
 30
0
 11
-69.0562016085883
 21
7
 31
0
 12
-69.8362016085883
 22
7
 32
0
 13
-69.8362016085883
 23
7
 33
0
  0
SOLID
  8
1
 62
2
 10
-69.4462016085883
 20
0
 30
0
 11
-69.8362016085883
 21
3
 31
0
 12
-69.0562016085883
 22
3
 32
0
 13
-69.0562016085883
 23
3
 33
0
  0
TEXT
  8
1
 62
2
 10
-70.4462016085883
 20
-13.67285247127719
 30
0
 40
3.2
  1
10
 50
90
 41
0.9
  0
TEXT
  8
1
 62
2
 10
-71.0862016085883
 20
-8.232852471277191
 30
0
 40
1.92
  1
%%p0.5
 50
90
 41
0.9
  0
ENDBLK
  8
0
  0
BLOCK
  8
1
  2
*D13
 70
1
 10
0
 20
0
 30
0
  0
LINE
  8
1
 62
2
 10
-57.3809956736108
 20
-24.75
 30
0
 11
-57.3809956736108
 21
24.75
 31
0
  0
LINE
  8
1
 62
2
 10
-78.49999999999989
 20
-24.75
 30
0
 11
-56.3809956736108
 21
-24.75
 31
0
  0
LINE
  8
1
 62
2
 10
-78.49999999999989
 20
24.75
 30
0
 11
-56.3809956736108
 21
24.75
 31
0
  0
SOLID
  8
1
 62
2
 10
-57.3809956736108
 20
24.75
 30
0
 11
-56.9909956736108
 21
21.75
 31
0
 12
-57.7709956736108
 22
21.75
 32
0
 13
-57.7709956736108
 23
21.75
 33
0
  0
SOLID
  8
1
 62
2
 10
-57.3809956736108
 20
-24.75
 30
0
 11
-57.7709956736108
 21
-21.75
 31
0
 12
-56.9909956736108
 22
-21.75
 32
0
 13
-56.9909956736108
 23
-21.75
 33
0
  0
TEXT
  8
1
 62
2
 10
-58.3809956736108
 20
-7.584
 30
0
 40
3.2
  1
49.5
 50
90
 41
0.9
  0
TEXT
  8
1
 62
2
 10
-59.0209956736108
 20
2.736000000000001
 30
0
 40
1.92
  1
%%p0.3
 50
90
 41
0.9
  0
ENDBLK
  8
0
  0
BLOCK
  8
1
  2
*D14
 70
1
 10
0
 20
0
 30
0
  0
LINE
  8
1
 62
2
 10
-134.7499999999999
 20
40.4603039403511
 30
0
 11
-85.24999999999989
 21
40.4603039403511
 31
0
  0
LINE
  8
1
 62
2
 10
-134.7499999999999
 20
31.5
 30
0
 11
-134.7499999999999
 21
41.4603039403511
 31
0
  0
LINE
  8
1
 62
2
 10
-85.24999999999989
 20
31.5
 30
0
 11
-85.24999999999989
 21
41.4603039403511
 31
0
  0
SOLID
  8
1
 62
2
 10
-134.7499999999999
 20
40.4603039403511
 30
0
 11
-131.7499999999999
 21
40.8503039403511
 31
0
 12
-131.7499999999999
 22
40.0703039403511
 32
0
 13
-131.7499999999999
 23
40.0703039403511
 33
0
  0
SOLID
  8
1
 62
2
 10
-85.24999999999989
 20
40.4603039403511
 30
0
 11
-88.24999999999989
 21
40.0703039403511
 31
0
 12
-88.24999999999989
 22
40.8503039403511
 32
0
 13
-88.24999999999989
 23
40.8503039403511
 33
0
  0
TEXT
  8
1
 62
2
 10
-117.5839999999999
 20
41.4603039403511
 30
0
 40
3.2
  1
49.5
 41
0.9
  0
TEXT
  8
1
 62
2
 10
-107.2639999999999
 20
42.1003039403511
 30
0
 40
1.92
  1
%%p0.3
 41
0.9
  0
ENDBLK
  8
0
  0
BLOCK
  8
1
  2
*D15
 70
1
 10
0
 20
0
 30
0
  0
LINE
  8
1
 62
2
 10
-140.5
 20
52.3174890833463
 30
0
 11
-79.49999999999989
 21
52.3174890833463
 31
0
  0
LINE
  8
1
 62
2
 10
-140.5
 20
25.75
 30
0
 11
-140.5
 21
53.3174890833463
 31
0
  0
LINE
  8
1
 62
2
 10
-79.49999999999989
 20
25.75
 30
0
 11
-79.49999999999989
 21
53.3174890833463
 31
0
  0
SOLID
  8
1
 62
2
 10
-140.5
 20
52.3174890833463
 30
0
 11
-137.5
 21
52.7074890833463
 31
0
 12
-137.5
 22
51.9274890833463
 32
0
 13
-137.5
 23
51.9274890833463
 33
0
  0
SOLID
  8
1
 62
2
 10
-79.49999999999989
 20
52.3174890833463
 30
0
 11
-82.49999999999989
 21
51.9274890833463
 31
0
 12
-82.49999999999989
 22
52.7074890833463
 32
0
 13
-82.49999999999989
 23
52.7074890833463
 33
0
  0
TEXT
  8
1
 62
2
 10
-109.831111111111
 20
53.3174890833463
 30
0
 40
3.2
  1
61
 41
0.9
  0
TEXT
  8
1
 62
2
 10
-114.0088888888888
 20
53.3174890833463
 30
0
 40
3.2
  1
üá
 41
0.9
  0
ENDBLK
  8
0
  0
BLOCK
  8
1
  2
*D16
 70
1
 10
0
 20
0
 30
0
  0
LINE
  8
1
 62
2
 10
-72.81610602716101
 20
-40.5223539043864
 30
0
 11
-21.856106027161
 21
-40.5223539043864
 31
0
  0
LINE
  8
1
 62
2
 10
-84.01181377609426
 20
-26.32063518199814
 30
0
 11
-72.81610602716101
 21
-40.5223539043864
 31
0
  0
SOLID
  8
1
 62
2
 10
-84.01181377609426
 20
-26.32063518199814
 30
0
 11
-81.84826057974618
 21
-28.43514164133375
 31
0
 12
-82.46080830072546
 22
-28.91803426865694
 32
0
 13
-82.46080830072546
 23
-28.91803426865694
 33
0
  0
TEXT
  8
1
 62
2
 10
-58.336106027161
 20
-39.5223539043864
 30
0
 40
3.2
  1
4
 41
0.9
  0
TEXT
  8
1
 62
2
 10
-67.616106027161
 20
-39.5223539043864
 30
0
 40
3.2
  1
4-M
 41
0.9
  0
TEXT
  8
1
 62
2
 10
-54.816106027161
 20
-39.5223539043864
 30
0
 40
3.2
  1
 DEPTH 6MAX
 41
0.9
  0
ENDBLK
  8
0
  0
ENDSEC
  0
SECTION
  2
ENTITIES
  0
LINE
  8
1
 62
7
 10
56.75
 20
12.89700000000005
 30
0
 11
56.75
 21
-12.89699999999993
 31
0
  0
LINE
  8
1
 62
7
 10
73.75
 20
12.89700000000005
 30
0
 11
56.75
 21
12.89700000000005
 31
0
  0
LINE
  8
1
 62
7
 10
73.75
 20
-12.89699999999993
 30
0
 11
73.75
 21
12.89700000000005
 31
0
  0
LINE
  8
1
 62
7
 10
56.75
 20
-12.89699999999993
 30
0
 11
73.75
 21
-12.89699999999993
 31
0
  0
LINE
  8
1
 62
7
 10
85.00000000000114
 20
-16
 30
0
 11
85.00000000000114
 21
10.5637084989846
 31
0
  0
LINE
  8
1
 62
7
 10
85.00000000000114
 20
12.0637084989846
 30
0
 11
83.90000000000009
 21
12.0637084989846
 31
0
  0
LINE
  8
1
 62
7
 10
85.00000000000114
 20
12.0637084989846
 30
0
 11
85.00000000000114
 21
16
 31
0
  0
LINE
  8
1
 62
7
 10
83.90000000000009
 20
14.5637084989846
 30
0
 11
83.90000000000009
 21
8.0637084989846
 31
0
  0
LINE
  8
1
 62
7
 10
83.90000000000009
 20
14.5637084989846
 30
0
 11
82.50000000000114
 21
14.5637084989846
 31
0
  0
LINE
  8
1
 62
7
 10
82.50000000000114
 20
14.5637084989846
 30
0
 11
82.50000000000114
 21
8.0637084989846
 31
0
  0
LINE
  8
1
 62
7
 10
82.50000000000114
 20
8.0637084989846
 30
0
 11
83.90000000000009
 21
8.0637084989846
 31
0
  0
LINE
  8
1
 62
7
 10
83.90000000000009
 20
10.5637084989846
 30
0
 11
85.00000000000114
 21
10.5637084989846
 31
0
  0
LINE
  8
1
 62
7
 10
88.20000000000005
 20
16
 30
0
 11
47
 21
16
 31
0
  0
LINE
  8
1
 62
7
 10
89.20000000000005
 20
15
 30
0
 11
89.20000000000005
 21
-15
 31
0
  0
LINE
  8
1
 62
7
 10
88.20000000000005
 20
-16
 30
0
 11
47
 21
-16
 31
0
  0
LINE
  8
1
 62
7
 10
88.20000000000005
 20
-16
 30
0
 11
89.20000000000005
 21
-15
 31
0
  0
LINE
  8
1
 62
7
 10
88.20000000000005
 20
16
 30
0
 11
88.20000000000005
 21
13.9840029675577
 31
0
  0
LINE
  8
1
 62
7
 10
85.00000000000114
 20
7.7748093869453
 30
0
 11
88.20000000000005
 21
7.7748093869453
 31
0
  0
LINE
  8
1
 62
7
 10
88.20000000000005
 20
7.7748093869453
 30
0
 11
88.20000000000005
 21
-16
 31
0
  0
LINE
  8
1
 62
7
 10
85.00000000000114
 20
13.9840029675577
 30
0
 11
88.20000000000005
 21
13.9840029675577
 31
0
  0
LINE
  8
1
 62
7
 10
89.20000000000005
 20
12.44144631178299
 30
0
 11
85.00000000000114
 21
12.44144631178299
 31
0
  0
LINE
  8
1
 62
7
 10
88.20000000000005
 20
13.9840029675577
 30
0
 11
89.20000000000005
 21
12.44144631178299
 31
0
  0
LINE
  8
1
 62
7
 10
88.20000000000005
 20
7.7748093869453
 30
0
 11
89.20000000000005
 21
7.197459117755699
 31
0
  0
LINE
  8
1
 62
7
 10
89.20000000000005
 20
-6
 30
0
 11
90.40000000000009
 21
-4.600000000000021
 31
0
  0
LINE
  8
1
 62
7
 10
90.40000000000009
 20
-4.600000000000021
 30
0
 11
90.40000000000009
 21
4.599999999999881
 31
0
  0
LINE
  8
1
 62
7
 10
90.40000000000009
 20
4.599999999999881
 30
0
 11
89.20000000000005
 21
6
 31
0
  0
LINE
  8
1
 62
7
 10
88.20000000000005
 20
16
 30
0
 11
89.20000000000005
 21
15
 31
0
  0
LINE
  8
1
 62
2
 10
121.2374044763336
 20
32.64861998126089
 30
0
 11
192.208705619505
 21
32.64861998126089
 31
0
  0
LINE
  8
1
 62
7
 10
112.8614400752192
 20
13.91398228888469
 30
0
 11
141.9209118043561
 21
13.91398228888469
 31
0
  0
LINE
  8
1
 62
7
 10
112.7630539116192
 20
14.7439822888846
 30
0
 11
141.9209118043561
 21
14.7439822888846
 31
0
  0
LINE
  8
1
 62
7
 10
90.94000000000006
 20
12.2539822888846
 30
0
 11
106.1004486934091
 21
12.2539822888846
 31
0
  0
LINE
  8
1
 62
7
 10
90.94000000000006
 20
13.91398228888469
 30
0
 11
105.9688720505501
 21
13.91398228888469
 31
0
  0
LINE
  8
1
 62
7
 10
141.9209118043561
 20
14.7439822888846
 30
0
 11
141.9209118043561
 21
12.2539822888846
 31
0
  0
LINE
  8
1
 62
7
 10
141.9209118043561
 20
14.3689822888846
 30
0
 11
144.9209118043561
 21
14.3689822888846
 31
0
  0
LINE
  8
1
 62
7
 10
144.9209118043561
 20
13.3189822888846
 30
0
 11
141.9209118043561
 21
13.3189822888846
 31
0
  0
LINE
  8
1
 62
7
 10
141.9209118043561
 20
13.6989822888846
 30
0
 11
144.9209118043561
 21
13.6989822888846
 31
0
  0
LINE
  8
1
 62
7
 10
144.9209118043561
 20
12.6489822888847
 30
0
 11
141.9209118043561
 21
12.6489822888847
 31
0
  0
LINE
  8
1
 62
7
 10
90.94000000000006
 20
10.74398228888458
 30
0
 11
90.94000000000006
 21
14.7439822888846
 31
0
  0
LINE
  8
1
 62
7
 10
87.67892550688111
 20
17.6677137667454
 30
0
 11
87.59968157421213
 21
16
 31
0
  0
LINE
  8
1
 62
7
 10
91.20163799369516
 20
18.1439822888847
 30
0
 11
88.17836200630609
 21
18.1439822888847
 31
0
  0
LINE
  8
1
 62
7
 10
91.82989250078504
 20
14.95669782458581
 30
0
 11
91.70107449312013
 21
17.6677137667454
 31
0
  0
LINE
  8
1
 62
7
 10
89.20000000000005
 20
10.74398228888458
 30
0
 11
90.94000000000006
 21
10.74398228888458
 31
0
  0
LINE
  8
1
 62
7
 10
112.9930167180771
 20
12.2539822888846
 30
0
 11
141.9209118043561
 21
12.2539822888846
 31
0
  0
LINE
  8
1
 62
7
 10
89.20000000000005
 20
14.7439822888846
 30
0
 11
105.8704858869491
 21
14.7439822888846
 31
0
  0
LINE
  8
1
 62
7
 10
45.5
 20
16.5
 30
0
 11
45.5
 21
-16.50000000000005
 31
0
  0
LINE
  8
1
 62
7
 10
44.30000000000017
 20
-17.50000000000005
 30
0
 11
44.5
 21
-17.50000000000005
 31
0
  0
LINE
  8
1
 62
7
 10
44.30000000000017
 20
17.5
 30
0
 11
44.5
 21
17.5
 31
0
  0
LINE
  8
0
 62
3
 10
11.53217701381914
 20
-24.75
 30
0
 11
49
 21
-24.75
 31
0
  0
LINE
  8
0
 62
3
 10
49
 20
24.75000000000012
 30
0
 11
10.8833735563062
 21
24.75
 31
0
  0
LINE
  8
1
 62
3
 10
13.40554552033814
 20
0
 30
0
 11
94.23482430018521
 21
0
 31
0
  0
LINE
  8
1
 62
7
 10
22.76859531800505
 20
31.5
 30
0
 11
35.89800658932018
 21
31.5
 31
0
  0
LINE
  8
0
 62
7
 10
42
 20
30.5
 30
0
 11
42
 21
-30.5
 31
0
  0
LINE
  8
0
 62
7
 10
44
 20
-30
 30
0
 11
44
 21
30
 31
0
  0
LINE
  8
0
 62
7
 10
42
 20
30
 30
0
 11
44
 21
30
 31
0
  0
LINE
  8
0
 62
7
 10
44
 20
-30
 30
0
 11
42
 21
-30
 31
0
  0
LINE
  8
1
 62
7
 10
42
 20
-30.5
 30
0
 11
16
 21
-30.5
 31
0
  0
LINE
  8
1
 62
7
 10
42
 20
30.5
 30
0
 11
16
 21
30.5
 31
0
  0
LINE
  8
1
 62
7
 10
2.49999999999992
 20
13
 30
0
 11
10
 21
13
 31
0
  0
LINE
  8
1
 62
7
 10
15
 20
-29.5
 30
0
 11
15
 21
-20
 31
0
  0
LINE
  8
1
 62
7
 10
15
 20
29.5
 30
0
 11
15
 21
19.86602540378459
 31
0
  0
LINE
  8
1
 62
3
 10
19.08282950123612
 20
10
 30
0
 11
-13.32728113355893
 21
10
 31
0
  0
LINE
  8
1
 62
7
 10
15.49999999999992
 20
19.86602540378459
 30
0
 11
15.5
 21
-19.86602540378447
 31
0
  0
LINE
  8
1
 62
7
 10
15
 20
19.86602540378459
 30
0
 11
15
 21
29.5
 31
0
  0
LINE
  8
1
 62
7
 10
-10
 20
12.5
 30
0
 11
-10
 21
7.000000000000121
 31
0
  0
LINE
  8
1
 62
7
 10
-10
 20
7.000000000000121
 30
0
 11
10
 21
7
 31
0
  0
LINE
  8
1
 62
7
 10
1.999999999999998
 20
12.5
 30
0
 11
-10
 21
12.5
 31
0
  0
LINE
  8
1
 62
7
 10
10
 20
19.00000000000012
 30
0
 11
10
 21
1.000183990690921
 31
0
  0
LINE
  8
1
 62
7
 10
15.5
 20
19.00000000000012
 30
0
 11
10
 21
19.00000000000012
 31
0
  0
LINE
  8
1
 62
7
 10
10
 20
1.000183990690921
 30
0
 11
15.5
 21
1.000183990690921
 31
0
  0
LINE
  8
1
 62
7
 10
45.33360848093708
 20
28.20403352100783
 30
0
 11
44.10871557427504
 21
28.24961946980921
 31
0
  0
LINE
  8
1
 62
7
 10
45.33360848093708
 20
21.29596647899229
 30
0
 11
44.10871557427504
 21
21.25038053019091
 31
0
  0
LINE
  8
1
 62
7
 10
45.33360848093708
 20
-21.29596647899217
 30
0
 11
44.10871557427504
 21
-21.25038053019079
 31
0
  0
LINE
  8
1
 62
7
 10
45.33360848093708
 20
-28.20403352100783
 30
0
 11
44.10871557427504
 21
-28.2496194698092
 31
0
  0
LINE
  8
1
 62
3
 10
-79.49999999999989
 20
-24.75
 30
0
 11
-76.91979331410232
 21
-24.75
 31
0
  0
LINE
  8
1
 62
3
 10
-134.7499999999999
 20
30.5
 30
0
 11
-134.7499999999999
 21
16
 31
0
  0
LINE
  8
1
 62
3
 10
-140.5
 20
24.75
 30
0
 11
-143.5
 21
24.75
 31
0
  0
LINE
  8
1
 62
3
 10
-85.24999999999989
 20
30.5
 30
0
 11
-85.24999999999989
 21
32.77579593310037
 31
0
  0
LINE
  8
1
 62
3
 10
-79.49999999999989
 20
24.75
 30
0
 11
-77.65571212396208
 21
24.75
 31
0
  0
LINE
  8
1
 62
3
 10
-100.9999999999999
 20
10
 30
0
 11
-98.44541850249914
 21
10
 31
0
  0
LINE
  8
1
 62
3
 10
-79.49999999999989
 20
0
 30
0
 11
-75.49999999999989
 21
0
 31
0
  0
LINE
  8
1
 62
2
 10
-72.4622431925531
 20
-47.5
 30
0
 11
-22.19197273139051
 21
-47.5
 31
0
  0
LINE
  8
1
 62
7
 10
-140.5
 20
24.75
 30
0
 11
-140.5
 21
-24.75
 31
0
  0
LINE
  8
1
 62
7
 10
-79.49999999999989
 20
24.75
 30
0
 11
-79.49999999999989
 21
-24.75
 31
0
  0
LINE
  8
1
 62
3
 10
-144.5
 20
0
 30
0
 11
-79.49999999999989
 21
0
 31
0
  0
LINE
  8
1
 62
3
 10
-134.7499999999999
 20
32.40783652817061
 30
0
 11
-134.7499999999999
 21
30.5
 31
0
  0
LINE
  8
1
 62
3
 10
-126.1839797024649
 20
24.75
 30
0
 11
-140.5
 21
24.75
 31
0
  0
LINE
  8
1
 62
3
 10
-121.8108407155454
 20
10
 30
0
 11
-100.9999999999999
 21
10
 31
0
  0
LINE
  8
1
 62
3
 10
-85.24999999999989
 20
-16
 30
0
 11
-85.24999999999989
 21
-30.5
 31
0
  0
LINE
  8
1
 62
3
 10
-134.7499999999999
 20
-16
 30
0
 11
-134.7499999999999
 21
-30.5
 31
0
  0
LINE
  8
1
 62
3
 10
-143.683979702465
 20
-24.75
 30
0
 11
-125.9999999999999
 21
-24.75
 31
0
  0
LINE
  8
1
 62
3
 10
-93.99999999999989
 20
-24.75
 30
0
 11
-79.49999999999989
 21
-24.75
 31
0
  0
LINE
  8
1
 62
3
 10
-93.99999999999989
 20
24.75
 30
0
 11
-79.49999999999989
 21
24.75
 31
0
  0
LINE
  8
1
 62
7
 10
-111.6583123951776
 20
12.5
 30
0
 11
-108.3416876048223
 21
12.5
 31
0
  0
LINE
  8
1
 62
3
 10
-130.4999999999999
 20
16.50000000000005
 30
0
 11
-130.4999999999999
 21
8.499999999999954
 31
0
  0
LINE
  8
1
 62
3
 10
-134.5
 20
12.5
 30
0
 11
-126.5
 21
12.5
 31
0
  0
LINE
  8
1
 62
3
 10
-89.49999999999989
 20
16.50000000000005
 30
0
 11
-89.49999999999989
 21
8.499999999999954
 31
0
  0
LINE
  8
1
 62
3
 10
-93.5
 20
12.5
 30
0
 11
-85.49999999999984
 21
12.5
 31
0
  0
LINE
  8
1
 62
3
 10
-110
 20
34.5
 30
0
 11
-110
 21
-34.5
 31
0
  0
LINE
  8
1
 62
3
 10
-113.9999999999998
 20
-23.5
 30
0
 11
-106.0000000000002
 21
-23.5
 31
0
  0
LINE
  8
1
 62
7
 10
-134.7499999999999
 20
-30.5
 30
0
 11
-85.24999999999989
 21
-30.5
 31
0
  0
LINE
  8
1
 62
3
 10
-134.7499999999999
 20
-30.5
 30
0
 11
-134.7499999999999
 21
-33.5
 31
0
  0
LINE
  8
1
 62
3
 10
-85.24999999999989
 20
-30.5
 30
0
 11
-85.24999999999989
 21
-33.5
 31
0
  0
LINE
  8
1
 62
3
 10
-85.24999999999989
 20
16
 30
0
 11
-85.24999999999989
 21
30.5
 31
0
  0
LINE
  8
1
 62
7
 10
-134.7499999999999
 20
30.5
 30
0
 11
-85.24999999999989
 21
30.5
 31
0
  0
LINE
  8
1
 62
7
 10
-88.49411764705872
 20
12.79999999999998
 30
0
 11
-88.09999999999991
 21
12.79999999999998
 31
0
  0
LINE
  8
1
 62
7
 10
-88.49411764705872
 20
12.19999999999999
 30
0
 11
-88.09999999999991
 21
12.19999999999999
 31
0
  0
LINE
  8
1
 62
7
 10
-89.19999999999993
 20
11.5
 30
0
 11
-89.19999999999993
 21
11.09999999999999
 31
0
  0
LINE
  8
1
 62
7
 10
-89.69999999999993
 20
14
 30
0
 11
-89.29999999999984
 21
14
 31
0
  0
LINE
  8
1
 62
7
 10
-89.69999999999993
 20
11
 30
0
 11
-89.29999999999984
 21
11
 31
0
  0
LINE
  8
1
 62
7
 10
-87.99999999999989
 20
12.69999999999999
 30
0
 11
-87.99999999999989
 21
12.29999999999998
 31
0
  0
LINE
  8
1
 62
7
 10
-90.99999999999989
 20
12.69999999999999
 30
0
 11
-90.99999999999989
 21
12.29999999999998
 31
0
  0
LINE
  8
1
 62
7
 10
-90.89999999999986
 20
12.79999999999998
 30
0
 11
-90.49999999999989
 21
12.79999999999998
 31
0
  0
LINE
  8
1
 62
7
 10
-90.89999999999986
 20
12.19999999999999
 30
0
 11
-90.49999999999989
 21
12.19999999999999
 31
0
  0
LINE
  8
1
 62
7
 10
-89.79999999999984
 20
11.09999999999999
 30
0
 11
-89.79999999999984
 21
11.5
 31
0
  0
LINE
  8
1
 62
7
 10
-89.79999999999984
 20
13.90000000000001
 30
0
 11
-89.79999999999984
 21
13.5
 31
0
  0
LINE
  8
1
 62
7
 10
-89.19999999999993
 20
13.90000000000001
 30
0
 11
-89.19999999999993
 21
13.5
 31
0
  0
LINE
  8
1
 62
7
 10
-129.4941176470587
 20
12.79999999999998
 30
0
 11
-129.0999999999999
 21
12.79999999999998
 31
0
  0
LINE
  8
1
 62
7
 10
-129.4941176470587
 20
12.19999999999999
 30
0
 11
-129.0999999999999
 21
12.19999999999999
 31
0
  0
LINE
  8
1
 62
7
 10
-130.1999999999999
 20
11.5
 30
0
 11
-130.1999999999999
 21
11.09999999999999
 31
0
  0
LINE
  8
1
 62
7
 10
-130.6999999999999
 20
14
 30
0
 11
-130.2999999999998
 21
14
 31
0
  0
LINE
  8
1
 62
7
 10
-130.6999999999999
 20
11
 30
0
 11
-130.2999999999998
 21
11
 31
0
  0
LINE
  8
1
 62
7
 10
-128.9999999999999
 20
12.69999999999999
 30
0
 11
-128.9999999999999
 21
12.29999999999998
 31
0
  0
LINE
  8
1
 62
7
 10
-131.9999999999999
 20
12.69999999999999
 30
0
 11
-131.9999999999999
 21
12.29999999999998
 31
0
  0
LINE
  8
1
 62
7
 10
-131.8999999999999
 20
12.79999999999998
 30
0
 11
-131.4999999999999
 21
12.79999999999998
 31
0
  0
LINE
  8
1
 62
7
 10
-131.8999999999999
 20
12.19999999999999
 30
0
 11
-131.4999999999999
 21
12.19999999999999
 31
0
  0
LINE
  8
1
 62
7
 10
-130.7999999999998
 20
11.09999999999999
 30
0
 11
-130.7999999999998
 21
11.5
 31
0
  0
LINE
  8
1
 62
7
 10
-130.7999999999998
 20
13.90000000000001
 30
0
 11
-130.7999999999998
 21
13.5
 31
0
  0
LINE
  8
1
 62
7
 10
-130.1999999999999
 20
13.90000000000001
 30
0
 11
-130.1999999999999
 21
13.5
 31
0
  0
LINE
  8
1
 62
7
 10
-108.9941176470588
 20
-23.20000000000002
 30
0
 11
-108.6
 21
-23.20000000000002
 31
0
  0
LINE
  8
1
 62
7
 10
-108.9941176470588
 20
-23.80000000000001
 30
0
 11
-108.6
 21
-23.80000000000001
 31
0
  0
LINE
  8
1
 62
7
 10
-109.7
 20
-24.5
 30
0
 11
-109.7
 21
-24.90000000000001
 31
0
  0
LINE
  8
1
 62
7
 10
-110.2
 20
-22
 30
0
 11
-109.8
 21
-22
 31
0
  0
LINE
  8
1
 62
7
 10
-110.2
 20
-25
 30
0
 11
-109.8
 21
-25
 31
0
  0
LINE
  8
1
 62
7
 10
-108.5
 20
-23.30000000000001
 30
0
 11
-108.5
 21
-23.70000000000002
 31
0
  0
LINE
  8
1
 62
7
 10
-111.5
 20
-23.30000000000001
 30
0
 11
-111.5
 21
-23.70000000000002
 31
0
  0
LINE
  8
1
 62
7
 10
-111.4
 20
-23.20000000000002
 30
0
 11
-111
 21
-23.20000000000002
 31
0
  0
LINE
  8
1
 62
7
 10
-111.4
 20
-23.80000000000001
 30
0
 11
-111
 21
-23.80000000000001
 31
0
  0
LINE
  8
1
 62
7
 10
-110.3
 20
-24.90000000000001
 30
0
 11
-110.3
 21
-24.5
 31
0
  0
LINE
  8
1
 62
7
 10
-110.3
 20
-22.09999999999999
 30
0
 11
-110.3
 21
-22.5
 31
0
  0
LINE
  8
1
 62
7
 10
-109.7
 20
-22.09999999999999
 30
0
 11
-109.7
 21
-22.5
 31
0
  0
ARC
  8
1
 62
7
 10
38.60507042253517
 20
24.76521753674314
 30
0
 40
8.000000000000185
 50
2.04003516455392
 51
21.50479479967072
  0
ARC
  8
1
 62
7
 10
38.60507042253517
 20
24.73478246325698
 30
0
 40
8.000000000000128
 50
338.49520520033
 51
357.959964835447
  0
ARC
  8
1
 62
7
 10
47.47500000000014
 20
24.75000000000012
 30
0
 40
0.9250000000000025
 50
161.0753555839483
 51
198.9246444160519
  0
ARC
  8
1
 62
7
 10
38.60507042253517
 20
-24.73478246325697
 30
0
 40
8.000000000000185
 50
2.040035164553869
 51
21.50479479967072
  0
ARC
  8
1
 62
7
 10
38.60507042253517
 20
-24.76521753674313
 30
0
 40
8.000000000000128
 50
338.49520520033
 51
357.9599648354469
  0
ARC
  8
1
 62
7
 10
47.47500000000014
 20
-24.75
 30
0
 40
0.9250000000000037
 50
161.0753555839481
 51
198.9246444160519
  0
ARC
  8
1
 62
7
 10
-90.50294117647047
 20
13.50294117647059
 30
0
 40
0.7029473295325305
 50
270.2397298960806
 51
359.760270103919
  0
ARC
  8
1
 62
7
 10
-88.4970588235293
 20
13.50294117647059
 30
0
 40
0.7029473295325518
 50
180.2397298960809
 51
270.2397298960806
  0
ARC
  8
1
 62
7
 10
-88.4970588235293
 20
11.49705882352939
 30
0
 40
0.7029473295325216
 50
89.76027010391938
 51
179.7602701039174
  0
ARC
  8
1
 62
7
 10
-90.50294117647047
 20
11.49705882352939
 30
0
 40
0.7029473295325519
 50
0.2397298960826468
 51
89.76027010391938
  0
ARC
  8
1
 62
7
 10
-131.5029411764705
 20
13.50294117647059
 30
0
 40
0.7029473295325306
 50
270.239729896083
 51
359.7602701039191
  0
ARC
  8
1
 62
7
 10
-129.4970588235293
 20
13.50294117647059
 30
0
 40
0.7029473295325234
 50
180.2397298960809
 51
270.239729896083
  0
ARC
  8
1
 62
7
 10
-129.4970588235293
 20
11.49705882352939
 30
0
 40
0.7029473295325217
 50
89.76027010391707
 51
179.7602701039173
  0
ARC
  8
1
 62
7
 10
-131.5029411764705
 20
11.49705882352939
 30
0
 40
0.7029473295326087
 50
0.2397298960826274
 51
89.76027010391707
  0
ARC
  8
1
 62
7
 10
-111.0029411764706
 20
-22.49705882352941
 30
0
 40
0.7029473295325306
 50
270.2397298960818
 51
359.760270103919
  0
ARC
  8
1
 62
7
 10
-108.9970588235294
 20
-22.49705882352941
 30
0
 40
0.7029473295325234
 50
180.2397298960809
 51
270.2397298960818
  0
ARC
  8
1
 62
7
 10
-108.9970588235294
 20
-24.50294117647061
 30
0
 40
0.7029473295325199
 50
89.76027010391822
 51
179.7602701039173
  0
ARC
  8
1
 62
7
 10
-111.0029411764706
 20
-24.50294117647061
 30
0
 40
0.7029473295325235
 50
0.2397298960826564
 51
89.76027010391822
  0
CIRCLE
  8
1
 62
7
 10
-110
 20
-23.5
 30
0
 40
2.999999999999816
  0
CIRCLE
  8
1
 62
7
 10
-110
 20
10
 30
0
 40
3
  0
CIRCLE
  8
1
 62
7
 10
-110
 20
10
 30
0
 40
5.249999999999901
  0
CIRCLE
  8
1
 62
7
 10
-110
 20
10
 30
0
 40
9.0000000000001
  0
CIRCLE
  8
1
 62
7
 10
-134.7499999999999
 20
-24.75
 30
0
 40
5.75
  0
CIRCLE
  8
1
 62
7
 10
-85.24999999999989
 20
-24.75
 30
0
 40
5.75
  0
CIRCLE
  8
1
 62
7
 10
-85.24999999999989
 20
24.75
 30
0
 40
5.75
  0
CIRCLE
  8
1
 62
7
 10
-134.7499999999999
 20
24.75
 30
0
 40
5.75
  0
CIRCLE
  8
1
 62
3
 10
-85.24999999999989
 20
-24.75
 30
0
 40
2
  0
CIRCLE
  8
1
 62
7
 10
-85.24999999999989
 20
-24.75
 30
0
 40
1.625
  0
CIRCLE
  8
1
 62
7
 10
-134.7499999999999
 20
-24.75
 30
0
 40
1.625
  0
CIRCLE
  8
1
 62
3
 10
-134.7499999999999
 20
-24.75
 30
0
 40
2
  0
CIRCLE
  8
1
 62
7
 10
-134.7499999999999
 20
24.75
 30
0
 40
1.625
  0
CIRCLE
  8
1
 62
3
 10
-134.7499999999999
 20
24.75
 30
0
 40
2
  0
CIRCLE
  8
1
 62
7
 10
-85.24999999999989
 20
24.75
 30
0
 40
1.625
  0
CIRCLE
  8
1
 62
3
 10
-85.24999999999989
 20
24.75
 30
0
 40
2
  0
CIRCLE
  8
1
 62
7
 10
-130.4999999999999
 20
12.5
 30
0
 40
2.999999999999985
  0
CIRCLE
  8
1
 62
7
 10
-89.49999999999989
 20
12.5
 30
0
 40
3.000000000000046
  0
POLYLINE
  8
1
 62
2
 66
1
  0
VERTEX
  8
1
 10
112.7630539116192
 20
14.7439822888846
 30
0
 42
-0.004186897804184458
  0
VERTEX
  8
1
 10
112.8109927299752
 20
14.61068084811243
 30
0
 42
-0.01290248157270653
  0
VERTEX
  8
1
 10
112.8538006127539
 20
14.47762559113132
 30
0
 42
-0.02254802247744303
  0
VERTEX
  8
1
 10
112.8863466243779
 20
14.34506270173235
 30
0
 42
-0.03328225659851226
  0
VERTEX
  8
1
 10
112.9034998292698
 20
14.21323836370658
 30
0
 42
-0.04414267360439258
  0
VERTEX
  8
1
 10
112.9001292918522
 20
14.08239876084508
 30
0
 42
-0.04746932973029017
  0
VERTEX
  8
1
 10
112.8641708879751
 20
13.92248470576793
 30
0
 42
-0.02328907139334971
  0
VERTEX
  8
1
 10
112.8042444019458
 20
13.7640095725239
 30
0
 42
-0.002187931268825856
  0
VERTEX
  8
1
 10
112.7354629725012
 20
13.60653715452694
 30
0
 42
0.01880544693327016
  0
VERTEX
  8
1
 10
112.6729397383781
 20
13.44963124519102
 30
0
 42
0.04246910544615354
  0
VERTEX
  8
1
 10
112.6317878383131
 20
13.29285563793008
 30
0
 42
0.07659463129731794
  0
VERTEX
  8
1
 10
112.6278683013875
 20
13.08571957712394
 30
0
 42
0.0440579315504527
  0
VERTEX
  8
1
 10
112.6747256397141
 20
12.8781577769825
 30
0
 42
0.03892408209552737
  0
VERTEX
  8
1
 10
112.75966563448
 20
12.67027667233958
 30
0
 42
0.01089913513606448
  0
VERTEX
  8
1
 10
112.869994066872
 20
12.462182698029
 30
0
 42
0.01219559973389008
  0
VERTEX
  8
1
 10
112.9930167180771
 20
12.2539822888846
 30
0
  0
SEQEND
  8
1
  0
POLYLINE
  8
1
 62
2
 66
1
  0
VERTEX
  8
1
 10
105.8704858869491
 20
14.7439822888846
 30
0
 42
-0.004186897803985169
  0
VERTEX
  8
1
 10
105.9184247053054
 20
14.61068084811243
 30
0
 42
-0.01290248157258816
  0
VERTEX
  8
1
 10
105.9612325880843
 20
14.47762559113132
 30
0
 42
-0.02254802247772428
  0
VERTEX
  8
1
 10
105.9937785997085
 20
14.34506270173235
 30
0
 42
-0.03328225659871643
  0
VERTEX
  8
1
 10
106.0109318046005
 20
14.21323836370658
 30
0
 42
-0.04414267360493542
  0
VERTEX
  8
1
 10
106.007561267183
 20
14.08239876084508
 30
0
 42
-0.04746932973028394
  0
VERTEX
  8
1
 10
105.9716028633058
 20
13.92248470576793
 30
0
 42
-0.0232890713936593
  0
VERTEX
  8
1
 10
105.9116763772763
 20
13.76400957252389
 30
0
 42
-0.002187931268913453
  0
VERTEX
  8
1
 10
105.8428949478315
 20
13.60653715452692
 30
0
 42
0.01880544693316931
  0
VERTEX
  8
1
 10
105.7803717137082
 20
13.449631245191
 30
0
 42
0.04246910544649321
  0
VERTEX
  8
1
 10
105.7392198136431
 20
13.29285563793008
 30
0
 42
0.07659463129746781
  0
VERTEX
  8
1
 10
105.7353002767175
 20
13.08571957712392
 30
0
 42
0.04405793155078129
  0
VERTEX
  8
1
 10
105.7821576150445
 20
12.87815777698247
 30
0
 42
0.0389240820955534
  0
VERTEX
  8
1
 10
105.8670976098108
 20
12.67027667233955
 30
0
 42
0.01089913513614713
  0
VERTEX
  8
1
 10
105.9774260422034
 20
12.46218269802899
 30
0
 42
0.01219559973388372
  0
VERTEX
  8
1
 10
106.1004486934091
 20
12.2539822888846
 30
0
  0
SEQEND
  8
1
  0
ARC
  8
1
 62
7
 10
91.20163799369516
 20
17.6439822888847
 30
0
 40
0.4999999999993246
 50
2.720449105951023
 51
90
  0
ARC
  8
1
 62
7
 10
88.17836200630609
 20
17.6439822888847
 30
0
 40
0.5
 50
90
 51
177.279550894049
  0
ARC
  8
1
 62
7
 10
91.63029712220214
 20
14.9439822888846
 30
0
 40
0.1999999999999993
 50
270
 51
3.645191185387187
  0
ARC
  8
1
 62
7
 10
15.99999999999992
 20
19.86602540378459
 30
0
 40
0.9999999999999201
 50
180
 51
240.0000000000049
  0
ARC
  8
1
 62
7
 10
16
 20
-20
 30
0
 40
0.9999999999999406
 50
120.000000000002
 51
180
  0
ARC
  8
1
 62
7
 10
44.5
 20
-16.50000000000005
 30
0
 40
1
 50
270
 51
0
  0
ARC
  8
1
 62
7
 10
44.5
 20
16.5
 30
0
 40
1
 50
0
 51
90
  0
ARC
  8
1
 62
7
 10
44.30000000000017
 20
-17.80000000000001
 30
0
 40
0.2999999999999616
 50
90
 51
180
  0
ARC
  8
1
 62
7
 10
44.30000000000017
 20
17.80000000000001
 30
0
 40
0.3000000000001677
 50
180
 51
270
  0
ARC
  8
1
 62
7
 10
47
 20
-14.5
 30
0
 40
1.5
 50
180
 51
270
  0
ARC
  8
1
 62
7
 10
47
 20
14.5
 30
0
 40
1.5
 50
90
 51
180
  0
ARC
  8
1
 62
7
 10
16
 20
-29.5
 30
0
 40
1
 50
180
 51
270
  0
ARC
  8
1
 62
7
 10
16
 20
29.5
 30
0
 40
1
 50
90
 51
180
  0
ARC
  8
1
 62
7
 10
1.999999999999998
 20
13
 30
0
 40
0.5
 50
270
 51
0
  0
ARC
  8
1
 62
7
 10
45.3038560597231
 20
27.40458696655157
 30
0
 40
0.7999999999999875
 50
21.50479479968178
 51
87.86864827537697
  0
ARC
  8
1
 62
7
 10
45.3038560597231
 20
22.0954130334485
 30
0
 40
0.8000000000000003
 50
272.1313517246232
 51
338.4952052003289
  0
ARC
  8
1
 62
7
 10
44.10000000000014
 20
21.35000000000008
 30
0
 40
0.1000000000001435
 50
180
 51
275.0000000000738
  0
ARC
  8
1
 62
7
 10
44.10000000000014
 20
28.15000000000009
 30
0
 40
0.09999999999995707
 50
84.99999999992369
 51
180
  0
ARC
  8
1
 62
7
 10
45.3038560597231
 20
-22.09541303344843
 30
0
 40
0.7999999999999472
 50
21.50479479967444
 51
87.86864827537697
  0
ARC
  8
1
 62
7
 10
45.3038560597231
 20
-27.40458696655156
 30
0
 40
0.8000000000000606
 50
272.131351724623
 51
338.4952052003255
  0
ARC
  8
1
 62
7
 10
44.10000000000014
 20
-28.15000000000003
 30
0
 40
0.1000000000001435
 50
180
 51
275.0000000000738
  0
ARC
  8
1
 62
7
 10
44.10000000000014
 20
-21.34999999999996
 30
0
 40
0.1000000000000066
 50
84.99999999992616
 51
180
  0
ARC
  8
1
 62
7
 10
-90.89999999999986
 20
12.69999999999999
 30
0
 40
0.09999999999998899
 50
90
 51
180
  0
ARC
  8
1
 62
7
 10
-90.89999999999986
 20
12.29999999999998
 30
0
 40
0.1000000000000227
 50
180
 51
270
  0
ARC
  8
1
 62
7
 10
-89.69999999999993
 20
11.09999999999999
 30
0
 40
0.09999999999990905
 50
180
 51
270
  0
ARC
  8
1
 62
7
 10
-89.29999999999984
 20
11.09999999999999
 30
0
 40
0.09999999999999076
 50
270
 51
0
  0
ARC
  8
1
 62
7
 10
-88.09999999999991
 20
12.29999999999998
 30
0
 40
0.09999999999998899
 50
270
 51
0
  0
ARC
  8
1
 62
7
 10
-88.09999999999991
 20
12.69999999999999
 30
0
 40
0.1000000000000227
 50
0
 51
90
  0
ARC
  8
1
 62
7
 10
-89.29999999999984
 20
13.90000000000001
 30
0
 40
0.09999999999990905
 50
0
 51
90
  0
ARC
  8
1
 62
7
 10
-89.69999999999993
 20
13.90000000000001
 30
0
 40
0.09999999999999076
 50
90
 51
180
  0
ARC
  8
1
 62
7
 10
-131.8999999999999
 20
12.69999999999999
 30
0
 40
0.09999999999998899
 50
90
 51
180
  0
ARC
  8
1
 62
7
 10
-131.8999999999999
 20
12.29999999999998
 30
0
 40
0.09999999999999432
 50
180
 51
270
  0
ARC
  8
1
 62
7
 10
-130.6999999999999
 20
11.09999999999999
 30
0
 40
0.09999999999990905
 50
180
 51
270
  0
ARC
  8
1
 62
7
 10
-130.2999999999998
 20
11.09999999999999
 30
0
 40
0.09999999999999076
 50
270
 51
0
  0
ARC
  8
1
 62
7
 10
-129.0999999999999
 20
12.29999999999998
 30
0
 40
0.09999999999998899
 50
270
 51
0
  0
ARC
  8
1
 62
7
 10
-129.0999999999999
 20
12.69999999999999
 30
0
 40
0.1000000000000227
 50
0
 51
90
  0
ARC
  8
1
 62
7
 10
-130.2999999999998
 20
13.90000000000001
 30
0
 40
0.09999999999990905
 50
0
 51
90
  0
ARC
  8
1
 62
7
 10
-130.6999999999999
 20
13.90000000000001
 30
0
 40
0.09999999999999076
 50
90
 51
180
  0
ARC
  8
1
 62
7
 10
-111.4
 20
-23.30000000000001
 30
0
 40
0.09999999999999076
 50
90
 51
180
  0
ARC
  8
1
 62
7
 10
-111.4
 20
-23.70000000000002
 30
0
 40
0.09999999999999432
 50
180
 51
270
  0
ARC
  8
1
 62
7
 10
-110.2
 20
-24.90000000000001
 30
0
 40
0.09999999999999432
 50
180
 51
270
  0
ARC
  8
1
 62
7
 10
-109.8
 20
-24.90000000000001
 30
0
 40
0.09999999999999076
 50
270
 51
0
  0
ARC
  8
1
 62
7
 10
-108.6
 20
-23.70000000000002
 30
0
 40
0.09999999999999076
 50
270
 51
0
  0
ARC
  8
1
 62
7
 10
-108.6
 20
-23.30000000000001
 30
0
 40
0.09999999999999432
 50
0
 51
90
  0
ARC
  8
1
 62
7
 10
-109.8
 20
-22.09999999999999
 30
0
 40
0.09999999999999432
 50
0
 51
90
  0
ARC
  8
1
 62
7
 10
-110.2
 20
-22.09999999999999
 30
0
 40
0.09999999999999076
 50
90
 51
180
  0
LINE
  8
1
 62
2
 10
192.2087056195051
 20
39.64861998126089
 30
0
 11
123.6803843151931
 21
39.64861998126089
 31
0
  0
LINE
  8
1
 62
2
 10
123.6803843151931
 20
39.64861998126089
 30
0
 11
114.9887374899681
 21
14.7439822888846
 31
0
  0
SOLID
  8
1
 62
2
 10
115.7069606758184
 20
18.20034990703363
 30
0
 11
116.5770615806732
 21
17.89668719727171
 31
0
 12
114.9887374899681
 22
14.7439822888846
 32
0
 13
114.9887374899681
 23
14.7439822888846
 33
0
  0
LINE
  8
1
 62
2
 10
80.20422801210611
 20
24.2580018910914
 30
0
 11
57.52248035771504
 21
24.2580018910914
 31
0
  0
LINE
  8
1
 62
2
 10
57.52248035771504
 20
24.2580018910914
 30
0
 11
65.25
 21
12.89700000000005
 31
0
  0
SOLID
  8
1
 62
2
 10
62.90055738568422
 20
15.53185124030173
 30
0
 11
63.66256238345036
 21
16.0501513553976
 31
0
 12
65.25
 22
12.89700000000005
 32
0
 13
65.25
 23
12.89700000000005
 33
0
  0
LINE
  8
1
 62
2
 10
41.23246015591621
 20
40.5
 30
0
 11
18.55071250152514
 21
40.5
 31
0
  0
LINE
  8
1
 62
2
 10
18.55071250152514
 20
40.5
 30
0
 11
26.2782321438101
 21
31.5
 31
0
  0
SOLID
  8
1
 62
2
 10
23.6486132462084
 20
33.85529745676809
 30
0
 11
24.34781117601194
 21
34.45563809414607
 31
0
 12
26.2782321438101
 22
31.5
 32
0
 13
26.2782321438101
 23
31.5
 33
0
  0
TEXT
  8
1
 62
2
 10
-142.5
 20
93.50000000000001
 30
0
 40
5
  1
DME33B6H
 41
0.9
 72
1
 73
2
 11
-124.5
 21
96.00000000000001
 31
0
  0
TEXT
  8
1
 62
2
 10
125.0966983926501
 20
33.8370748214713
 30
0
 40
3.5
  1
UL1007 AWG22
 41
0.9
 73
2
 11
125.0966983926501
 21
35.5870748214713
 31
0
  0
TEXT
  8
1
 62
2
 10
125.0966983926501
 20
40.93369681053311
 30
0
 40
3.5
  1
LEAD WIRES (RED,BLACK)
 41
0.9
 73
2
 11
125.0966983926501
 21
42.68369681053311
 31
0
  0
TEXT
  8
1
 62
2
 10
-26.49999999999991
 20
16.63694505751928
 30
0
 40
3.2
  1
(0.236DIA.      )
 50
90
 41
0.6300000000000001
 72
1
 73
2
 11
-28.09999999999991
 21
33.77294505751929
 31
0
  0
TEXT
  8
1
 62
2
 10
-28.29999999999991
 20
35.64128883066108
 30
0
 40
2
  1
 0
 50
90
 41
0.63
  0
TEXT
  8
1
 62
2
 10
-25.89999999999991
 20
35.64128883066108
 30
0
 40
2
  1
-0.000787
 50
90
 41
0.63
  0
TEXT
  8
1
 62
2
 10
-15.31844320358587
 20
19.1849450575193
 30
0
 40
3.2
  1
(0.217    )
 50
90
 41
0.6300000000000001
 72
1
 73
2
 11
-16.91844320358587
 21
30.2729450575193
 31
0
  0
TEXT
  8
1
 62
2
 10
-15.91844320358587
 20
27.16765118319298
 30
0
 40
2
  1
 %%p0.0118
 50
90
 41
0.63
 72
1
 73
2
 11
-16.91844320358587
 21
33.46765118319298
 31
0
  0
TEXT
  8
1
 62
2
 10
113.3971704634801
 20
-10.08
 30
0
 40
3.2
  1
(1.26DIA.)
 50
90
 41
0.6300000000000001
 72
1
 73
2
 11
111.7971704634801
 21
0
 31
0
  0
TEXT
  8
1
 62
2
 10
90.13600000000118
 20
36.22197114388119
 30
0
 40
3.2
  1
(0.0472)
 41
0.6300000000000001
 72
1
 73
2
 11
98.20000000000118
 21
37.82197114388119
 31
0
  0
TEXT
  8
1
 62
2
 10
59.54700959971619
 20
25.3729389582939
 30
0
 40
3
  1
NAME PLATE
 41
0.6300000000000001
 72
1
 73
2
 11
68.99700959971619
 21
26.8729389582939
 31
0
  0
TEXT
  8
1
 62
2
 10
126.6440000000012
 20
-25.1995501490641
 30
0
 40
3.2
  1
(0.118)
 41
0.6300000000000001
 72
1
 73
2
 11
133.7000000000012
 21
-23.5995501490641
 31
0
  0
TEXT
  8
1
 62
2
 10
106.621498529116
 20
-38
 30
0
 40
3.2
  1
(11.811   )
 41
0.6300000000000001
 72
1
 73
2
 11
117.709498529116
 21
-36.4
 31
0
  0
TEXT
  8
1
 62
2
 10
117.967842302258
 20
-36.2
 30
0
 40
2
  1
+1.181
 41
0.63
  0
TEXT
  8
1
 62
2
 10
117.967842302258
 20
-38.59999999999999
 30
0
 40
2
  1
 0
 41
0.63
  0
TEXT
  8
1
 62
2
 10
22.8809966758411
 20
48.1492510903264
 30
0
 40
3.2
  1
(1.142)
 41
0.6300000000000001
 72
1
 73
2
 11
29.9369966758411
 21
49.7492510903264
 31
0
  0
TEXT
  8
1
 62
2
 10
0.8969966758410983
 20
48.1492510903264
 30
0
 40
3.2
  1
(0.197)
 41
0.45
 72
1
 73
2
 11
5.936996675841099
 21
49.7492510903264
 31
0
  0
TEXT
  8
1
 62
2
 10
-11.1190033241589
 20
48.30000000000001
 30
0
 40
3.2
  1
(0.472)
 41
0.6300000000000001
 72
1
 73
2
 11
-4.063003324158901
 21
49.90000000000001
 31
0
  0
TEXT
  8
1
 62
2
 10
-4.919003324158856
 20
60.30000000000001
 30
0
 40
3.2
  1
(0.984)
 41
0.6300000000000001
 72
1
 73
2
 11
2.136996675841145
 21
61.90000000000001
 31
0
  0
TEXT
  8
1
 62
2
 10
-39.29497474686596
 20
18.0407427540474
 30
0
 40
3.2
  1
(0.709DIA.)
 50
90
 41
0.6300000000000001
 72
1
 73
2
 11
-40.89497474686596
 21
29.1287427540474
 31
0
  0
TEXT
  8
1
 62
2
 10
45.58099667584115
 20
60.30000000000001
 30
0
 40
3.2
  1
(2.921)
 41
0.6300000000000001
 72
1
 73
2
 11
52.63699667584115
 21
61.90000000000001
 31
0
  0
TEXT
  8
1
 62
2
 10
20.57524174352607
 20
41.6149370672025
 30
0
 40
3
  1
NAME PLATE
 41
0.6300000000000001
 72
1
 73
2
 11
30.02524174352607
 21
43.1149370672025
 31
0
  0
TEXT
  8
1
 62
2
 10
-65.08589412299281
 20
-20.588
 30
0
 40
3.2
  1
(0.394    )
 50
90
 41
0.6300000000000001
 72
1
 73
2
 11
-66.68589412299282
 21
-9.499999999999998
 31
0
  0
TEXT
  8
1
 62
2
 10
-65.68589412299282
 20
-10.42256923055042
 30
0
 40
2
  1
%%p0.0197
 50
90
 41
0.63
 72
1
 73
2
 11
-66.68589412299282
 21
-4.752569230550419
 31
0
  0
TEXT
  8
1
 62
2
 10
-67.7597364447559
 20
-46.48481685313686
 30
0
 40
3.5
  1
(4-M4 DEPTH 0.236MAX)
 41
0.6570000000000001
 73
2
 11
-67.7597364447559
 21
-44.73481685313686
 31
0
  0
TEXT
  8
1
 62
2
 10
-121.088
 20
48.26368327390348
 30
0
 40
3.2
  1
(2.402SQU.)
 41
0.6300000000000001
 72
1
 73
2
 11
-110
 21
49.86368327390348
 31
0
  0
TEXT
  8
1
 62
2
 10
-121.088
 20
36.26368327390348
 30
0
 40
3.2
  1
(1.949    )
 41
0.6300000000000001
 72
1
 73
2
 11
-110
 21
37.86368327390348
 31
0
  0
TEXT
  8
1
 62
2
 10
-111.4384551780371
 20
36.86368327390348
 30
0
 40
2
  1
%%p0.0118
 41
0.63
 72
1
 73
2
 11
-105.7684551780371
 21
37.86368327390348
 31
0
  0
TEXT
  8
1
 62
2
 10
-53.08589412299282
 20
-11.088
 30
0
 40
3.2
  1
(1.949    )
 50
90
 41
0.6300000000000001
 72
1
 73
2
 11
-54.68589412299282
 21
0
 31
0
  0
TEXT
  8
1
 62
2
 10
-53.68589412299282
 20
-1.422569230550421
 30
0
 40
2
  1
%%p0.0118
 50
90
 41
0.63
 72
1
 73
2
 11
-54.68589412299282
 21
4.247430769449579
 31
0
  0
DIMENSION
  8
1
  6
CONTINUOUS
 62
2
  2
*D0
  3
DMST_1
 10
89.20000000000005
 20
64.45601378426771
 30
0
 11
52.10000000000002
 21
67.05601378426771
 31
0
 12
0
 22
0
 32
0
 70
0
 13
15
 23
29.5
 33
0
 14
89.20000000000005
 24
15
 34
0
 53
0
  0
DIMENSION
  8
1
  6
CONTINUOUS
 62
2
  2
*D1
  3
DMST_1
 10
109.2
 20
16
 30
0
 11
106.6000000000001
 21
0
 31
0
 12
0
 22
0
 32
0
 70
0
  1
âË<>
 13
88.20000000000005
 23
-16
 33
0
 14
88.20000000000005
 24
16
 34
0
 50
90
 53
0
  0
DIMENSION
  8
1
  6
CONTINUOUS
 62
2
  2
*D2
  3
DMST_2
 10
90.40000000000009
 20
40.6241867978874
 30
0
 11
97.81236090681614
 21
43.2241867978874
 31
0
 12
0
 22
0
 32
0
 70
0
  1
(<>
 13
89.20000000000005
 23
15
 33
0
 14
90.40000000000009
 24
4.599999999999881
 34
0
 53
0
  0
DIMENSION
  8
1
  6
CONTINUOUS
 62
2
  2
*D3
  3
DMST_3
 10
89.20000000000006
 20
-33.0128059971119
 30
0
 11
117.0604559021781
 21
-29.6128059971119
 31
0
 12
0
 22
0
 32
0
 70
0
  1
300
 13
144.9209118043561
 23
12.6489822888847
 33
0
 14
89.20000000000005
 24
-15
 34
0
 53
0
  0
DIMENSION
  8
1
  6
CONTINUOUS
 62
2
  2
*D4
  3
DMST_2
 10
141.9209118043561
 20
-20.9759905532831
 30
0
 11
133.4830880322409
 21
-18.3759905532831
 31
0
 12
0
 22
0
 32
0
 70
0
  1
(<>
 13
144.9209118043561
 23
12.6489822888847
 33
0
 14
141.9209118043561
 24
12.2539822888846
 34
0
 53
0
  0
DIMENSION
  8
1
  6
CONTINUOUS
 62
2
  2
*D5
  3
DMST_1
 10
1.999999999999998
 20
52.4681057506801
 30
0
 11
-4.000000000000002
 21
55.06810575068009
 31
0
 12
0
 22
0
 32
0
 70
1
 13
-10
 23
12.5
 33
0
 14
1.999999999999998
 24
12.5
 34
0
 53
0
  0
DIMENSION
  8
1
  6
CONTINUOUS
 62
2
  2
*D6
  3
DMST_4
 10
-19.46223690423403
 20
12.5
 30
0
 11
-22.06223690423394
 21
29.6616550740146
 31
0
 12
0
 22
0
 32
0
 70
0
 13
-10
 23
7.000000000000121
 33
0
 14
-10
 24
12.5
 34
0
 50
90
 53
0
  0
DIMENSION
  8
1
  6
CONTINUOUS
 62
2
  2
*D7
  3
DMST_5
 10
-31.49652299425385
 20
13.00000000000011
 30
0
 11
-34.89652299425394
 21
32.95540904705609
 31
0
 12
0
 22
0
 32
0
 70
0
  1
âË<>
 13
-10
 23
7.000000000000121
 33
0
 14
2.49999999999992
 24
13
 34
0
 50
90
 53
0
  0
DIMENSION
  8
1
  6
CONTINUOUS
 62
2
  2
*D8
  3
DMST_1
 10
-43.49820191931394
 20
19
 30
0
 11
-46.09820191931385
 21
28.8284747062429
 31
0
 12
0
 22
0
 32
0
 70
0
  1
âË<>
 13
10
 23
1.000183990690921
 33
0
 14
10
 24
19.00000000000012
 34
0
 50
90
 53
0
  0
DIMENSION
  8
1
  6
CONTINUOUS
 62
2
  2
*D9
  3
DMST_1
 10
15
 20
64.449904520602
 30
0
 11
2.499999999999998
 21
67.049904520602
 31
0
 12
0
 22
0
 32
0
 70
0
 13
-10
 23
12.5
 33
0
 14
15
 24
29.5
 34
0
 53
0
  0
DIMENSION
  8
1
  6
CONTINUOUS
 62
2
  2
*D10
  3
DMST_1
 10
44
 20
52.51402115598501
 30
0
 11
29.5
 21
55.114021155985
 31
0
 12
0
 22
0
 32
0
 70
0
 13
15
 23
29.5
 33
0
 14
44
 24
30
 34
0
 53
0
  0
DIMENSION
  8
1
  6
CONTINUOUS
 62
2
  2
*D11
  3
DMST_1
 10
10
 20
52.5126973093537
 30
0
 11
5.59301430338944
 21
55.1126973093537
 31
0
 12
0
 22
0
 32
0
 70
0
 13
15
 23
29.5
 33
0
 14
10
 24
19.00000000000012
 34
0
 53
0
  0
DIMENSION
  8
1
  6
CONTINUOUS
 62
2
  2
*D12
  3
DMST_6
 10
-69.4462016085883
 20
0
 30
0
 11
-72.04620160858829
 21
-8.52885247127719
 31
0
 12
0
 22
0
 32
0
 70
0
 13
-100.9999999999999
 23
10
 33
0
 14
-79.49999999999989
 24
0
 34
0
 50
90
 53
0
  0
DIMENSION
  8
1
  6
CONTINUOUS
 62
2
  2
*D13
  3
DMST_7
 10
-57.3809956736108
 20
-24.75
 30
0
 11
-59.9809956736108
 21
-2.775557561562891e-016
 31
0
 12
0
 22
0
 32
0
 70
0
 13
-79.49999999999989
 23
24.75
 33
0
 14
-79.49999999999989
 24
-24.75
 34
0
 50
90
 53
0
  0
DIMENSION
  8
1
  6
CONTINUOUS
 62
2
  2
*D14
  3
DMST_7
 10
-134.7499999999999
 20
40.4603039403511
 30
0
 11
-109.9999999999999
 21
43.0603039403511
 31
0
 12
0
 22
0
 32
0
 70
0
 13
-85.24999999999989
 23
30.5
 33
0
 14
-134.7499999999999
 24
30.5
 34
0
 53
0
  0
DIMENSION
  8
1
  6
CONTINUOUS
 62
2
  2
*D15
  3
DMST_8
 10
-79.49999999999989
 20
52.3174890833463
 30
0
 11
-109.9999999999999
 21
54.9174890833463
 31
0
 12
0
 22
0
 32
0
 70
0
  1
üá<>
 13
-140.5
 23
24.75
 33
0
 14
-79.49999999999989
 24
24.75
 34
0
 53
0
  0
INSERT
  8
0
  2
___R___O_______R
 10
0.5
 20
-3.75
 30
0
  0
INSERT
  8
1
  2
*D16
 10
0
 20
0
 30
0
  0
ENDSEC
  0
EOF
