  0
SECTION
  2
HEADER
  9
$ACADVER
  1
AC1009
  9
$INSBASE
 10
0
 20
0
  9
$EXTMIN
 10
-194.5
 20
-146
  9
$EXTMAX
 10
194.5
 20
146
  9
$LIMMIN
 10
-194.5
 20
-146
  9
$LIMMAX
 10
194.5
 20
146
  9
$VIEWCTR
 10
10
 20
10
  9
$VIEWSIZE
 40
10
  9
$SNAPMODE
 70
0
  9
$SNAPUNIT
 10
1
 20
1
  9
$SNAPBASE
 10
0
 20
0
  9
$SNAPANG
 50
0
  9
$SNAPSTYLE
 70
0
  9
$SNAPISOPAIR
 70
0
  9
$GRIDMODE
 70
0
  9
$GRIDUNIT
 10
0
 20
0
  9
$ORTHOMODE
 70
0
  9
$REGENMODE
 70
1
  9
$FILLMODE
 70
1
  9
$QTEXTMODE
 70
0
  9
$DRAGMODE
 70
2
  9
$LTSCALE
 40
1
  9
$OSMODE
 70
0
  9
$ATTMODE
 70
1
  9
$TEXTSIZE
 40
3.5
  9
$TRACEWID
 40
0.5
  9
$TEXTSTYLE
  7
STANDARD
  9
$CLAYER
  8
0
  9
$CELTYPE
  6
BYLAYER
  9
$CECOLOR
 62
256
  9
$DIMSCALE
 40
1
  9
$DIMASZ
 40
0.18
  9
$DIMEXO
 40
0.0625
  9
$DIMDLI
 40
0.38
  9
$DIMRND
 40
0
  9
$DIMDLE
 40
0
  9
$DIMEXE
 40
0.18
  9
$DIMTP
 40
0
  9
$DIMTM
 40
0
  9
$DIMTXT
 40
0.18
  9
$DIMCEN
 40
0.09
  9
$DIMTSZ
 40
0
  9
$DIMTOL
 70
0
  9
$DIMLIM
 70
0
  9
$DIMTIH
 70
1
  9
$DIMTOH
 70
1
  9
$DIMSE1
 70
0
  9
$DIMSE2
 70
0
  9
$DIMTAD
 70
0
  9
$DIMZIN
 70
0
  9
$DIMBLK
  1

  9
$DIMASO
 70
1
  9
$DIMSHO
 70
1
  9
$DIMPOST
  1

  9
$DIMAPOST
  1

  9
$DIMALT
 70
0
  9
$DIMALTD
 70
2
  9
$DIMALTF
 40
25.4
  9
$DIMLFAC
 40
1
  9
$DIMTOFL
 70
0
  9
$DIMTVP
 40
0
  9
$DIMTIX
 70
0
  9
$DIMSOXD
 70
0
  9
$DIMSAH
 70
0
  9
$DIMBLK1
  1

  9
$DIMBLK2
  1

  9
$DIMSTYLE
  2
*UNNAMED
  9
$DIMCLRD
 70
0
  9
$DIMCLRE
 70
0
  9
$DIMCLRT
 70
0
  9
$DIMTFAC
 40
1
  9
$DIMGAP
 40
0.09
  9
$LUNITS
 70
2
  9
$LUPREC
 70
4
  9
$AXISMODE
 70
0
  9
$AXISUNIT
 10
0
 20
0
  9
$SKETCHINC
 40
0.1
  9
$FILLETRAD
 40
2
  9
$AUNITS
 70
0
  9
$AUPREC
 70
0
  9
$MENU
  1
ACAD
  9
$ELEVATION
 40
0
  9
$THICKNESS
 40
0
  9
$VIEWDIR
 10
0
 20
0
 30
1
  9
$LIMCHECK
 70
0
  9
$BLIPMODE
 70
1
  9
$CHAMFERA
 40
0
  9
$CHAMFERB
 40
0
  9
$FASTZOOM
 70
1
  9
$SKPOLY
 70
0
  9
$ANGBASE
 50
0
  9
$ANGDIR
 70
0
  9
$PDMODE
 70
0
  9
$PDSIZE
 40
0
  9
$PLINEWID
 40
0
  9
$COORDS
 70
2
  0
ENDSEC
  0
SECTION
  2
TABLES
  0
TABLE
  2
DIMSTYLE
 70
5
  0
DIMSTYLE
  2
DMST_1
 70
0
  3

  4

  5

  6

  7

 40
1
 41
3.2
 42
1
 43
7
 44
1
 45
0
 46
0
 47
0
 48
0
140
3.2
141
0
142
0
143
25.4
144
1
145
0
146
1
147
0.09
 71
0
 72
0
 73
0
 74
0
 75
0
 76
0
 77
1
 78
9
170
0
171
2
172
0
173
0
174
0
175
0
176
2
177
2
178
2
  0
DIMSTYLE
  2
DMST_2
 70
0
  3
)
  4

  5

  6

  7

 40
1
 41
3.2
 42
1
 43
7
 44
1
 45
0
 46
0
 47
0
 48
0
140
3.2
141
0
142
0
143
25.4
144
1
145
0
146
1
147
0.09
 71
0
 72
0
 73
0
 74
0
 75
0
 76
0
 77
1
 78
9
170
0
171
2
172
0
173
0
174
0
175
0
176
2
177
2
178
2
  0
DIMSTYLE
  2
DMST_3
 70
0
  3

  4

  5

  6

  7

 40
1
 41
3.2
 42
1
 43
7
 44
1
 45
0
 46
0
 47
0.2
 48
0.2
140
3.2
141
0
142
0
143
25.4
144
1
145
0
146
0.6
147
0.09
 71
1
 72
0
 73
0
 74
0
 75
0
 76
0
 77
1
 78
9
170
0
171
2
172
0
173
0
174
0
175
0
176
2
177
2
178
2
  0
DIMSTYLE
  2
DMST_4
 70
0
  3

  4

  5

  6

  7

 40
1
 41
3.2
 42
1
 43
7
 44
1
 45
0
 46
0
 47
0
 48
0.014
140
3.2
141
0
142
0
143
25.4
144
1
145
0
146
0.6
147
0.09
 71
1
 72
0
 73
0
 74
0
 75
0
 76
0
 77
1
 78
9
170
0
171
2
172
0
173
0
174
0
175
0
176
2
177
2
178
2
  0
DIMSTYLE
  2
DMST_5
 70
0
  3

  4

  5

  6

  7

 40
1
 41
3.2
 42
1
 43
7
 44
1
 45
0
 46
0
 47
0
 48
0
140
3.2
141
0
142
0
143
25.4
144
1
145
0
146
0.6
147
0.09
 71
1
 72
0
 73
0
 74
0
 75
0
 76
0
 77
1
 78
9
170
0
171
2
172
0
173
0
174
0
175
0
176
2
177
2
178
2
  0
ENDTAB
  0
TABLE
  2
LTYPE
 70
9
  0
LTYPE
  2
CONTINUOUS
 70
64
  3
Solid line
 72
65
 73
0
 40
0
  0
LTYPE
  2
BORDER
 70
64
  3
__ __ . __ __ .
 72
65
 73
6
 40
17.91447368421053
 49
5.118421052631579
 49
-2.559210526315789
 49
5.118421052631579
 49
-2.559210526315789
 49
0
 49
-2.559210526315789
  0
LTYPE
  2
CENTER
 70
64
  3
____ _ ____ _
 72
65
 73
4
 40
20.47368421052632
 49
12.79605263157895
 49
-2.559210526315789
 49
2.559210526315789
 49
-2.559210526315789
  0
LTYPE
  2
DASHDOT
 70
64
  3
__ . __ . __ .
 72
65
 73
4
 40
10.23684210526316
 49
5.118421052631579
 49
-2.559210526315789
 49
0
 49
-2.559210526315789
  0
LTYPE
  2
DASHED
 70
64
  3
__ __ __ __ __
 72
65
 73
2
 40
7.677631578947368
 49
5.118421052631579
 49
-2.559210526315789
  0
LTYPE
  2
DIVIDE
 70
64
  3
__ . . __ . . 
 72
65
 73
6
 40
12.79605263157895
 49
5.118421052631579
 49
-2.559210526315789
 49
0
 49
-2.559210526315789
 49
0
 49
-2.559210526315789
  0
LTYPE
  2
DOT
 70
64
  3
..............
 72
65
 73
4
 40
5.118421052631579
 49
0
 49
-2.559210526315789
 49
0
 49
-2.559210526315789
  0
LTYPE
  2
HIDDEN
 70
64
  3
_ _ _ _ _ _ _
 72
65
 73
2
 40
3.838815789473684
 49
2.559210526315789
 49
-1.279605263157895
  0
LTYPE
  2
PHANTOM
 70
64
  3
_____ _ _ _____ _ _ 
 72
65
 73
6
 40
25.59210526315789
 49
12.79605263157895
 49
-2.559210526315789
 49
2.559210526315789
 49
-2.559210526315789
 49
2.559210526315789
 49
-2.559210526315789
  0
ENDTAB
  0
TABLE
  2
LAYER
 70
3
  0
LAYER
  2
1
 70
0
 62
7
  6
CONTINUOUS
  0
LAYER
  2
0
 70
0
 62
7
  6
CONTINUOUS
  0
ENDTAB
  0
TABLE
  2
STYLE
 70
4
  0
STYLE
  2
STANDARD
 70
0
 40
0
 41
1
 50
0
 71
0
 42
3.5
  3
txt
  4

  0
STYLE
  2
SIMPLEX
 70
0
 40
0
 41
1
 50
0
 71
0
 42
3.5
  3
simplex
  4

  0
STYLE
  2
COMPLEX
 70
0
 40
0
 41
1
 50
0
 71
0
 42
3.5
  3
complex
  4

  0
STYLE
  2
ITALIC
 70
0
 40
0
 41
1
 50
0
 71
0
 42
3.5
  3
italic
  4

  0
ENDTAB
  0
TABLE
  2
VIEW
 70
0
  0
ENDTAB
  0
ENDSEC
  0
SECTION
  2
BLOCKS
  0
BLOCK
  8
0
  2
___R___O_______R
 70
0
 10
0.5
 20
-3.75
 30
0
  0
LINE
  8
1
 62
4
  6
PHANTOM
 10
194.5
 20
-136.5
 30
0
 11
194.5
 21
-146
 31
0
  0
LINE
  8
1
 62
4
  6
PHANTOM
 10
-194.5
 20
-146
 30
0
 11
-194.5
 21
146
 31
0
  0
LINE
  8
1
 62
4
  6
PHANTOM
 10
194.5
 20
146
 30
0
 11
194.5
 21
129
 31
0
  0
LINE
  8
1
 62
4
  6
PHANTOM
 10
194.5
 20
146
 30
0
 11
-194.5
 21
146
 31
0
  0
LINE
  8
1
 62
4
  6
PHANTOM
 10
-194.5
 20
-146
 30
0
 11
194.5
 21
-146
 31
0
  0
TEXT
  8
1
 62
4
 10
178.746911898274
 20
-142.6071298819256
 30
0
 40
5
  1
A3
 41
0.9
 72
1
 73
2
 11
183.246911898274
 21
-140.1071298819256
 31
0
  0
ENDBLK
  8
0
  0
BLOCK
  8
1
  2
*D0
 70
1
 10
0
 20
0
 30
0
  0
LINE
  8
1
 62
2
 10
0
 20
50.079436518958
 30
0
 11
43.70000000000006
 21
50.079436518958
 31
0
  0
LINE
  8
1
 62
2
 10
43.70000000000006
 20
16
 30
0
 11
43.70000000000006
 21
51.079436518958
 31
0
  0
LINE
  8
1
 62
2
 10
0
 20
15.5
 30
0
 11
0
 21
51.079436518958
 31
0
  0
SOLID
  8
1
 62
2
 10
0
 20
50.079436518958
 30
0
 11
3.200000000000001
 21
50.495436518958
 31
0
 12
3.200000000000001
 22
49.663436518958
 32
0
 13
3.200000000000001
 23
49.663436518958
 33
0
  0
SOLID
  8
1
 62
2
 10
43.70000000000006
 20
50.079436518958
 30
0
 11
40.50000000000006
 21
49.663436518958
 31
0
 12
40.50000000000006
 22
50.495436518958
 32
0
 13
40.50000000000006
 23
50.495436518958
 33
0
  0
TEXT
  8
1
 62
2
 10
17.49000000000003
 20
51.079436518958
 30
0
 40
3.2
  1
43.7
 41
0.9
  0
ENDBLK
  8
0
  0
BLOCK
  8
1
  2
*D1
 70
1
 10
0
 20
0
 30
0
  0
LINE
  8
1
 62
2
 10
-8.4
 20
38.0528009157145
 30
0
 11
-2
 21
38.0528009157145
 31
0
  0
LINE
  8
1
 62
2
 10
-2
 20
38.0528009157145
 30
0
 11
0
 21
38.0528009157145
 31
0
  0
LINE
  8
1
 62
2
 10
0
 20
38.0528009157145
 30
0
 11
8.10110328313611
 21
38.0528009157145
 31
0
  0
LINE
  8
1
 62
2
 10
-2
 20
4
 30
0
 11
-2
 21
39.0528009157145
 31
0
  0
LINE
  8
1
 62
2
 10
0
 20
15.5
 30
0
 11
0
 21
39.0528009157145
 31
0
  0
SOLID
  8
1
 62
2
 10
-2
 20
38.0528009157145
 30
0
 11
-5.200000000000001
 21
37.6368009157145
 31
0
 12
-5.200000000000001
 22
38.4688009157145
 32
0
 13
-5.200000000000001
 23
38.4688009157145
 33
0
  0
SOLID
  8
1
 62
2
 10
0
 20
38.0528009157145
 30
0
 11
3.200000000000002
 21
38.4688009157145
 31
0
 12
3.200000000000002
 22
37.6368009157145
 32
0
 13
3.200000000000002
 23
37.6368009157145
 33
0
  0
TEXT
  8
1
 62
2
 10
6.18110328313611
 20
39.0528009157145
 30
0
 40
3.200000000000001
  1
2
 41
0.9
  0
ENDBLK
  8
0
  0
BLOCK
  8
1
  2
*D2
 70
1
 10
0
 20
0
 30
0
  0
LINE
  8
1
 62
2
 10
-12
 20
50.041620462874
 30
0
 11
0
 21
50.041620462874
 31
0
  0
LINE
  8
1
 62
2
 10
-12
 20
1.79999999999999
 30
0
 11
-12
 21
51.041620462874
 31
0
  0
LINE
  8
1
 62
2
 10
0
 20
15.5
 30
0
 11
0
 21
51.041620462874
 31
0
  0
SOLID
  8
1
 62
2
 10
-12
 20
50.041620462874
 30
0
 11
-8.799999999999999
 21
50.457620462874
 31
0
 12
-8.799999999999999
 22
49.625620462874
 32
0
 13
-8.799999999999999
 23
49.625620462874
 33
0
  0
SOLID
  8
1
 62
2
 10
0
 20
50.041620462874
 30
0
 11
-3.200000000000001
 21
49.625620462874
 31
0
 12
-3.200000000000001
 22
50.457620462874
 32
0
 13
-3.200000000000001
 23
50.457620462874
 33
0
  0
TEXT
  8
1
 62
2
 10
-7.92
 20
51.041620462874
 30
0
 40
3.2
  1
12
 41
0.9
  0
ENDBLK
  8
0
  0
BLOCK
  8
1
  2
*D3
 70
1
 10
0
 20
0
 30
0
  0
LINE
  8
1
 62
2
 10
63.70000000000015
 20
-16
 30
0
 11
63.70000000000015
 21
16
 31
0
  0
LINE
  8
1
 62
2
 10
43.70000000000005
 20
-16
 30
0
 11
64.70000000000015
 21
-16
 31
0
  0
LINE
  8
1
 62
2
 10
43.70000000000005
 20
16
 30
0
 11
64.70000000000015
 21
16
 31
0
  0
SOLID
  8
1
 62
2
 10
63.70000000000015
 20
16
 30
0
 11
64.11600000000014
 21
12.8
 31
0
 12
63.28400000000015
 22
12.8
 32
0
 13
63.28400000000015
 23
12.8
 33
0
  0
SOLID
  8
1
 62
2
 10
63.70000000000015
 20
-16
 30
0
 11
63.28400000000014
 21
-12.8
 31
0
 12
64.11600000000014
 22
-12.8
 32
0
 13
64.11600000000014
 23
-12.8
 33
0
  0
TEXT
  8
1
 62
2
 10
62.70000000000015
 20
-0.577777777777778
 30
0
 40
3.2
  1
32
 50
90
 41
0.9
  0
TEXT
  8
1
 62
2
 10
62.70000000000015
 20
-4.222222222222222
 30
0
 40
3.2
  1
ƒÓ
 50
90
 41
0.9
  0
ENDBLK
  8
0
  0
BLOCK
  8
1
  2
*D4
 70
1
 10
0
 20
0
 30
0
  0
LINE
  8
1
 62
2
 10
37.30000000000004
 20
37.9781599501778
 30
0
 11
43.70000000000005
 21
37.9781599501778
 31
0
  0
LINE
  8
1
 62
2
 10
43.70000000000005
 20
37.9781599501778
 30
0
 11
44.90000000000009
 21
37.9781599501778
 31
0
  0
LINE
  8
1
 62
2
 10
44.90000000000009
 20
37.9781599501778
 30
0
 11
57.22540310466411
 21
37.9781599501778
 31
0
  0
LINE
  8
1
 62
2
 10
43.70000000000005
 20
16
 30
0
 11
43.70000000000005
 21
38.9781599501778
 31
0
  0
LINE
  8
1
 62
2
 10
44.90000000000009
 20
5.599999999999881
 30
0
 11
44.90000000000009
 21
38.9781599501778
 31
0
  0
SOLID
  8
1
 62
2
 10
43.70000000000005
 20
37.9781599501778
 30
0
 11
40.50000000000004
 21
37.5621599501778
 31
0
 12
40.50000000000004
 22
38.39415995017779
 32
0
 13
40.50000000000004
 23
38.39415995017779
 33
0
  0
SOLID
  8
1
 62
2
 10
44.90000000000009
 20
37.9781599501778
 30
0
 11
48.10000000000009
 21
38.39415995017779
 31
0
 12
48.10000000000009
 22
37.5621599501778
 32
0
 13
48.10000000000009
 23
37.5621599501778
 33
0
  0
TEXT
  8
1
 62
2
 10
50.26540310466411
 20
38.9781599501778
 30
0
 40
3.2
  1
1.2
 41
0.9
  0
TEXT
  8
1
 62
2
 10
48.1854031046641
 20
38.9781599501778
 30
0
 40
3.2
  1
(
 41
0.9
  0
TEXT
  8
1
 62
2
 10
56.74540310466411
 20
38.9781599501778
 30
0
 40
3.2
  1
)
 41
0.9
  0
ENDBLK
  8
0
  0
BLOCK
  8
1
  2
*D5
 70
1
 10
0
 20
0
 30
0
  0
LINE
  8
1
 62
2
 10
-37.12040917953691
 20
-10.15000000000011
 30
0
 11
-37.12040917953691
 21
-3.75000000000011
 31
0
  0
LINE
  8
1
 62
2
 10
-37.12040917953691
 20
-3.75000000000011
 30
0
 11
-37.12040917953691
 21
3.750000000000002
 31
0
  0
LINE
  8
1
 62
2
 10
-37.12040917953691
 20
3.750000000000002
 30
0
 11
-37.12040917953691
 21
26.60645353420582
 31
0
  0
LINE
  8
1
 62
2
 10
-2.800000000000864
 20
-3.75000000000011
 30
0
 11
-38.12040917953691
 21
-3.75000000000011
 31
0
  0
LINE
  8
1
 62
2
 10
-2.800000000000864
 20
3.750000000000002
 30
0
 11
-38.12040917953691
 21
3.750000000000002
 31
0
  0
SOLID
  8
1
 62
2
 10
-37.12040917953691
 20
3.750000000000002
 30
0
 11
-37.53640917953691
 21
6.950000000000003
 31
0
 12
-36.70440917953691
 22
6.950000000000003
 32
0
 13
-36.70440917953691
 23
6.950000000000003
 33
0
  0
SOLID
  8
1
 62
2
 10
-37.12040917953691
 20
-3.75000000000011
 30
0
 11
-36.70440917953691
 21
-6.950000000000111
 31
0
 12
-37.5364091795369
 22
-6.950000000000111
 32
0
 13
-37.5364091795369
 23
-6.950000000000111
 33
0
  0
TEXT
  8
1
 62
2
 10
-38.1204091795369
 20
14.31845353420582
 30
0
 40
3.2
  1
7.5
 50
90
 41
0.9
  0
TEXT
  8
1
 62
2
 10
-38.7604091795369
 20
21.75845353420582
 30
0
 40
1.92
  1
%%p0.2
 50
90
 41
0.9
  0
TEXT
  8
1
 62
2
 10
-38.1204091795369
 20
10.67400908976138
 30
0
 40
3.2
  1
ƒÓ
 50
90
 41
0.9
  0
ENDBLK
  8
0
  0
BLOCK
  8
1
  2
*D6
 70
1
 10
0
 20
0
 30
0
  0
LINE
  8
1
 62
2
 10
-25.0360315055619
 20
-7.399999999999999
 30
0
 11
-25.0360315055619
 21
-1
 31
0
  0
LINE
  8
1
 62
2
 10
-25.0360315055619
 20
-1
 30
0
 11
-25.0360315055619
 21
1
 31
0
  0
LINE
  8
1
 62
2
 10
-25.0360315055619
 20
1
 30
0
 11
-25.0360315055619
 21
25.43016168927422
 31
0
  0
LINE
  8
1
 62
2
 10
-12.80000000000086
 20
-1
 30
0
 11
-26.0360315055619
 21
-1
 31
0
  0
LINE
  8
1
 62
2
 10
-12.80000000000086
 20
1
 30
0
 11
-26.0360315055619
 21
1
 31
0
  0
SOLID
  8
1
 62
2
 10
-25.0360315055619
 20
1
 30
0
 11
-25.4520315055619
 21
4.200000000000001
 31
0
 12
-24.6200315055619
 22
4.200000000000001
 32
0
 13
-24.6200315055619
 23
4.200000000000001
 33
0
  0
SOLID
  8
1
 62
2
 10
-25.0360315055619
 20
-1
 30
0
 11
-24.6200315055619
 21
-4.200000000000001
 31
0
 12
-25.4520315055619
 22
-4.200000000000001
 32
0
 13
-25.4520315055619
 23
-4.200000000000001
 33
0
  0
TEXT
  8
1
 62
2
 10
-26.8360315055619
 20
13.99016168927422
 30
0
 40
3.2
  1
2
 50
90
 41
0.9
  0
TEXT
  8
1
 62
2
 10
-28.9160315055619
 20
17.51016168927422
 30
0
 40
1.92
  1
 0
 50
90
 41
0.9
  0
TEXT
  8
1
 62
2
 10
-26.0360315055619
 20
17.51016168927422
 30
0
 40
1.92
  1
-0.014
 50
90
 41
0.9
  0
TEXT
  8
1
 62
2
 10
-26.8360315055619
 20
10.34571724482978
 30
0
 40
3.2
  1
ƒÓ
 50
90
 41
0.9
  0
ENDBLK
  8
0
  0
BLOCK
  8
1
  2
*D7
 70
1
 10
0
 20
0
 30
0
  0
LINE
  8
1
 62
2
 10
43.70000000000005
 20
-32.9775621120251
 30
0
 11
101.4209118043561
 21
-32.9775621120251
 31
0
  0
LINE
  8
1
 62
2
 10
43.70000000000005
 20
-16
 30
0
 11
43.70000000000005
 21
-33.9775621120251
 31
0
  0
LINE
  8
1
 62
2
 10
101.4209118043561
 20
11.6489822888847
 30
0
 11
101.4209118043561
 21
-33.9775621120251
 31
0
  0
SOLID
  8
1
 62
2
 10
43.70000000000005
 20
-32.9775621120251
 30
0
 11
46.90000000000005
 21
-32.5615621120251
 31
0
 12
46.90000000000005
 22
-33.39356211202509
 32
0
 13
46.90000000000005
 23
-33.39356211202509
 33
0
  0
SOLID
  8
1
 62
2
 10
101.4209118043561
 20
-32.9775621120251
 30
0
 11
98.22091180435614
 21
-33.39356211202509
 31
0
 12
98.22091180435614
 22
-32.5615621120251
 32
0
 13
98.22091180435614
 23
-32.5615621120251
 33
0
  0
TEXT
  8
1
 62
2
 10
65.71245590217809
 20
-31.1775621120251
 30
0
 40
3.2
  1
300
 41
0.9
  0
TEXT
  8
1
 62
2
 10
74.99245590217809
 20
-29.0975621120251
 30
0
 40
1.92
  1
+30
 41
0.9
  0
TEXT
  8
1
 62
2
 10
76.72045590217809
 20
-31.9775621120251
 30
0
 40
1.92
  1
 0
 41
0.9
  0
ENDBLK
  8
0
  0
BLOCK
  8
1
  2
*D8
 70
1
 10
0
 20
0
 30
0
  0
LINE
  8
1
 62
2
 10
107.8209118043561
 20
-21.0042413784156
 30
0
 11
101.4209118043561
 21
-21.0042413784156
 31
0
  0
LINE
  8
1
 62
2
 10
98.42091180435614
 20
-21.0042413784156
 30
0
 11
101.4209118043561
 21
-21.0042413784156
 31
0
  0
LINE
  8
1
 62
2
 10
98.42091180435614
 20
-21.0042413784156
 30
0
 11
86.94270514916391
 21
-21.0042413784156
 31
0
  0
LINE
  8
1
 62
2
 10
98.42091180435614
 20
11.2539822888846
 30
0
 11
98.42091180435614
 21
-22.0042413784156
 31
0
  0
LINE
  8
1
 62
2
 10
101.4209118043561
 20
11.6489822888847
 30
0
 11
101.4209118043561
 21
-22.0042413784156
 31
0
  0
SOLID
  8
1
 62
2
 10
101.4209118043561
 20
-21.0042413784156
 30
0
 11
104.6209118043561
 21
-20.5882413784156
 31
0
 12
104.6209118043561
 22
-21.4202413784156
 32
0
 13
104.6209118043561
 23
-21.4202413784156
 33
0
  0
SOLID
  8
1
 62
2
 10
98.42091180435614
 20
-21.0042413784156
 30
0
 11
95.22091180435614
 21
-21.4202413784156
 31
0
 12
95.22091180435614
 22
-20.5882413784156
 32
0
 13
95.22091180435614
 23
-20.5882413784156
 33
0
  0
TEXT
  8
1
 62
2
 10
89.02270514916391
 20
-20.0042413784156
 30
0
 40
3.2
  1
3
 41
0.9
  0
TEXT
  8
1
 62
2
 10
86.9427051491639
 20
-20.0042413784156
 30
0
 40
3.2
  1
(
 41
0.9
  0
TEXT
  8
1
 62
2
 10
92.54270514916391
 20
-20.0042413784156
 30
0
 40
3.2
  1
)
 41
0.9
  0
ENDBLK
  8
0
  0
BLOCK
  8
1
  2
*D9
 70
1
 10
0
 20
0
 30
0
  0
LINE
  8
1
 62
2
 10
-118.075938897297
 20
-27.84239135190103
 30
0
 11
-62.15593889729699
 21
-27.84239135190103
 31
0
  0
LINE
  8
1
 62
2
 10
-106.8880661379303
 20
-7.63729183169594
 30
0
 11
-118.075938897297
 21
-27.84239135190103
 31
0
  0
SOLID
  8
1
 62
2
 10
-106.8880661379303
 20
-7.63729183169594
 30
0
 11
-108.0742518625134
 21
-10.63829490180356
 31
0
 12
-108.8021186347988
 22
-10.23526393301485
 32
0
 13
-108.8021186347988
 23
-10.23526393301485
 33
0
  0
TEXT
  8
1
 62
2
 10
-103.595938897297
 20
-26.84239135190103
 30
0
 40
3.2
  1
2.6
 41
0.9
  0
TEXT
  8
1
 62
2
 10
-112.875938897297
 20
-26.84239135190103
 30
0
 40
3.2
  1
3-M
 41
0.9
  0
TEXT
  8
1
 62
2
 10
-96.15593889729699
 20
-26.84239135190103
 30
0
 40
3.2
  1
 DEPTH 3MAX.
 41
0.9
  0
ENDBLK
  8
0
  0
ENDSEC
  0
SECTION
  2
ENTITIES
  0
LINE
  8
1
 62
7
 10
11.25
 20
12.89700000000005
 30
0
 11
11.25
 21
-12.89699999999993
 31
0
  0
LINE
  8
1
 62
7
 10
28.25
 20
12.89700000000005
 30
0
 11
11.25
 21
12.89700000000005
 31
0
  0
LINE
  8
1
 62
7
 10
28.25
 20
-12.89699999999993
 30
0
 11
28.25
 21
12.89700000000005
 31
0
  0
LINE
  8
1
 62
7
 10
11.25
 20
-12.89699999999993
 30
0
 11
28.25
 21
-12.89699999999993
 31
0
  0
LINE
  8
1
 62
2
 10
-118.0258889351281
 20
-41.91366265255081
 30
0
 11
-62.23091043602932
 21
-41.91366265255081
 31
0
  0
LINE
  8
1
 62
3
 10
-113
 20
9.553440434605019e-014
 30
0
 11
-77.00000000000001
 21
0
 31
0
  0
LINE
  8
1
 62
3
 10
-95
 20
18
 30
0
 11
-95
 21
-18
 31
0
  0
LINE
  8
1
 62
3
 10
-108.447355102018
 20
-7.763834088038999
 30
0
 11
-104.174652760124
 21
-5.296988240779621
 31
0
  0
LINE
  8
1
 62
3
 10
-86.104930974092
 20
-5.135570496567899
 30
0
 11
-81.78492409760408
 21
-7.6297276296095
 31
0
  0
LINE
  8
1
 62
7
 10
0
 20
14.5
 30
0
 11
0
 21
-14.5
 31
0
  0
LINE
  8
1
 62
7
 10
0
 20
3.75
 30
0
 11
-1.80000000000086
 21
3.75
 31
0
  0
LINE
  8
1
 62
7
 10
39.50000000000114
 20
-16
 30
0
 11
39.50000000000114
 21
10.5637084989846
 31
0
  0
LINE
  8
1
 62
7
 10
39.50000000000114
 20
12.0637084989846
 30
0
 11
38.40000000000009
 21
12.0637084989846
 31
0
  0
LINE
  8
1
 62
7
 10
39.50000000000114
 20
12.0637084989846
 30
0
 11
39.50000000000114
 21
16
 31
0
  0
LINE
  8
1
 62
7
 10
38.40000000000009
 20
14.5637084989846
 30
0
 11
38.40000000000009
 21
8.0637084989846
 31
0
  0
LINE
  8
1
 62
7
 10
38.40000000000009
 20
14.5637084989846
 30
0
 11
37.00000000000114
 21
14.5637084989846
 31
0
  0
LINE
  8
1
 62
7
 10
37.00000000000114
 20
14.5637084989846
 30
0
 11
37.00000000000114
 21
8.0637084989846
 31
0
  0
LINE
  8
1
 62
7
 10
37.00000000000114
 20
8.0637084989846
 30
0
 11
38.40000000000009
 21
8.0637084989846
 31
0
  0
LINE
  8
1
 62
7
 10
38.40000000000009
 20
10.5637084989846
 30
0
 11
39.50000000000114
 21
10.5637084989846
 31
0
  0
LINE
  8
1
 62
7
 10
42.70000000000005
 20
16
 30
0
 11
1.5
 21
16
 31
0
  0
LINE
  8
1
 62
7
 10
43.70000000000005
 20
15
 30
0
 11
43.70000000000005
 21
-15
 31
0
  0
LINE
  8
1
 62
7
 10
42.70000000000005
 20
-16
 30
0
 11
1.5
 21
-16
 31
0
  0
LINE
  8
1
 62
7
 10
42.70000000000005
 20
-16
 30
0
 11
43.70000000000005
 21
-15
 31
0
  0
LINE
  8
1
 62
7
 10
42.70000000000005
 20
16
 30
0
 11
42.70000000000005
 21
13.9840029675577
 31
0
  0
LINE
  8
1
 62
7
 10
39.50000000000114
 20
7.7748093869453
 30
0
 11
42.70000000000005
 21
7.7748093869453
 31
0
  0
LINE
  8
1
 62
7
 10
42.70000000000005
 20
7.7748093869453
 30
0
 11
42.70000000000005
 21
-16
 31
0
  0
LINE
  8
1
 62
7
 10
39.50000000000114
 20
13.9840029675577
 30
0
 11
42.70000000000005
 21
13.9840029675577
 31
0
  0
LINE
  8
1
 62
7
 10
43.70000000000005
 20
12.44144631178299
 30
0
 11
39.50000000000114
 21
12.44144631178299
 31
0
  0
LINE
  8
1
 62
7
 10
42.70000000000005
 20
13.9840029675577
 30
0
 11
43.70000000000005
 21
12.44144631178299
 31
0
  0
LINE
  8
1
 62
7
 10
42.70000000000005
 20
7.7748093869453
 30
0
 11
43.70000000000005
 21
7.197459117755699
 31
0
  0
LINE
  8
1
 62
7
 10
43.70000000000005
 20
-6
 30
0
 11
44.90000000000009
 21
-4.600000000000021
 31
0
  0
LINE
  8
1
 62
7
 10
44.90000000000009
 20
-4.600000000000021
 30
0
 11
44.90000000000009
 21
4.599999999999881
 31
0
  0
LINE
  8
1
 62
7
 10
44.90000000000009
 20
4.599999999999881
 30
0
 11
43.70000000000005
 21
6
 31
0
  0
LINE
  8
1
 62
7
 10
-11.80000000000086
 20
1
 30
0
 11
-2
 21
1
 31
0
  0
LINE
  8
1
 62
7
 10
-12
 20
0.7999999999999901
 30
0
 11
-12
 21
-0.8000000000001215
 31
0
  0
LINE
  8
1
 62
7
 10
42.70000000000005
 20
16
 30
0
 11
43.70000000000005
 21
15
 31
0
  0
LINE
  8
1
 62
3
 10
-15.896696697999
 20
0
 30
0
 11
49.25049725620215
 21
0
 31
0
  0
LINE
  8
1
 62
7
 10
-1.80000000000086
 20
3.75
 30
0
 11
-1.80000000000086
 21
-3.75000000000011
 31
0
  0
LINE
  8
1
 62
7
 10
-1.80000000000086
 20
-3.75000000000011
 30
0
 11
0
 21
-3.75
 31
0
  0
LINE
  8
1
 62
2
 10
83.18398547653007
 20
32.64861998126089
 30
0
 11
156.1087056195051
 21
32.64861998126089
 31
0
  0
LINE
  8
1
 62
2
 10
-118.0258889351281
 20
-34.91366265255081
 30
0
 11
-62.23091043602932
 21
-34.91366265255081
 31
0
  0
LINE
  8
1
 62
7
 10
-2
 20
3
 30
0
 11
-2
 21
-3
 31
0
  0
LINE
  8
1
 62
7
 10
-2
 20
3
 30
0
 11
-1.80000000000086
 21
2.99999999999989
 31
0
  0
LINE
  8
1
 62
7
 10
-1.80000000000086
 20
-3
 30
0
 11
-2
 21
-3
 31
0
  0
LINE
  8
1
 62
7
 10
-2
 20
-1
 30
0
 11
-11.80000000000086
 21
-1
 31
0
  0
LINE
  8
1
 62
7
 10
69.36144007521921
 20
13.91398228888469
 30
0
 11
98.42091180435614
 21
13.91398228888469
 31
0
  0
LINE
  8
1
 62
7
 10
69.26305391161918
 20
14.7439822888846
 30
0
 11
98.42091180435614
 21
14.7439822888846
 31
0
  0
LINE
  8
1
 62
7
 10
45.44000000000005
 20
12.2539822888846
 30
0
 11
60.60044869340914
 21
12.2539822888846
 31
0
  0
LINE
  8
1
 62
7
 10
45.44000000000005
 20
13.91398228888469
 30
0
 11
60.46887205055009
 21
13.91398228888469
 31
0
  0
LINE
  8
1
 62
7
 10
98.42091180435614
 20
14.7439822888846
 30
0
 11
98.42091180435614
 21
12.2539822888846
 31
0
  0
LINE
  8
1
 62
7
 10
98.42091180435614
 20
14.3689822888846
 30
0
 11
101.4209118043561
 21
14.3689822888846
 31
0
  0
LINE
  8
1
 62
7
 10
101.4209118043561
 20
13.3189822888846
 30
0
 11
98.42091180435614
 21
13.3189822888846
 31
0
  0
LINE
  8
1
 62
7
 10
98.42091180435614
 20
13.6989822888846
 30
0
 11
101.4209118043561
 21
13.6989822888846
 31
0
  0
LINE
  8
1
 62
7
 10
101.4209118043561
 20
12.6489822888847
 30
0
 11
98.42091180435614
 21
12.6489822888847
 31
0
  0
LINE
  8
1
 62
7
 10
45.44000000000005
 20
10.74398228888458
 30
0
 11
45.44000000000005
 21
14.7439822888846
 31
0
  0
LINE
  8
1
 62
7
 10
42.17892550688111
 20
17.66771376674539
 30
0
 11
42.09968157421213
 21
16
 31
0
  0
LINE
  8
1
 62
7
 10
45.70163799369516
 20
18.1439822888847
 30
0
 11
42.67836200630609
 21
18.1439822888847
 31
0
  0
LINE
  8
1
 62
7
 10
46.32989250078504
 20
14.95669782458582
 30
0
 11
46.20107449312013
 21
17.66771376674539
 31
0
  0
LINE
  8
1
 62
7
 10
43.70000000000005
 20
10.74398228888458
 30
0
 11
45.44000000000005
 21
10.74398228888458
 31
0
  0
LINE
  8
1
 62
7
 10
69.49301671807712
 20
12.2539822888846
 30
0
 11
98.42091180435614
 21
12.2539822888846
 31
0
  0
LINE
  8
1
 62
7
 10
43.70000000000005
 20
14.7439822888846
 30
0
 11
60.37048588694916
 21
14.7439822888846
 31
0
  0
LINE
  8
1
 62
2
 10
-118.0258889351281
 20
-48.91366265255081
 30
0
 11
-62.23091043602932
 21
-48.91366265255081
 31
0
  0
CIRCLE
  8
1
 62
3
  6
CENTER
 10
-95
 20
0
 30
0
 40
12.99999999999999
  0
CIRCLE
  8
1
 62
7
 10
-95
 20
0
 30
0
 40
1
  0
CIRCLE
  8
1
 62
7
 10
-95
 20
13
 30
0
 40
0.7999999999998977
  0
CIRCLE
  8
1
 62
7
 10
-106.258330249198
 20
-6.5
 30
0
 40
0.7999999999991019
  0
CIRCLE
  8
1
 62
7
 10
-83.74166975080199
 20
-6.5
 30
0
 40
0.7999999999999545
  0
CIRCLE
  8
1
 62
2
 10
-95
 20
13
 30
0
 40
1.299999999999898
  0
CIRCLE
  8
1
 62
2
 10
-106.258330249198
 20
-6.5
 30
0
 40
1.299999999999898
  0
CIRCLE
  8
1
 62
2
 10
-83.74166975080199
 20
-6.5
 30
0
 40
1.299999999999045
  0
CIRCLE
  8
1
 62
7
 10
-95
 20
0
 30
0
 40
2.999999999999986
  0
CIRCLE
  8
1
 62
7
 10
-95
 20
0
 30
0
 40
3.749999999999986
  0
CIRCLE
  8
1
 62
7
 10
-95
 20
0
 30
0
 40
15.99999999999999
  0
POLYLINE
  8
1
 62
2
 66
1
  0
VERTEX
  8
1
 10
69.26305391161918
 20
14.7439822888846
 30
0
 42
-0.004186897804180128
  0
VERTEX
  8
1
 10
69.31099272997523
 20
14.61068084811243
 30
0
 42
-0.01290248157279569
  0
VERTEX
  8
1
 10
69.3538006127539
 20
14.47762559113132
 30
0
 42
-0.02254802247764297
  0
VERTEX
  8
1
 10
69.38634662437787
 20
14.34506270173235
 30
0
 42
-0.03328225659851315
  0
VERTEX
  8
1
 10
69.40349982926975
 20
14.21323836370658
 30
0
 42
-0.04414267360450115
  0
VERTEX
  8
1
 10
69.40012929185218
 20
14.08239876084508
 30
0
 42
-0.04746932973021106
  0
VERTEX
  8
1
 10
69.36417088797506
 20
13.92248470576793
 30
0
 42
-0.02328907139342736
  0
VERTEX
  8
1
 10
69.30424440194581
 20
13.7640095725239
 30
0
 42
-0.002187931268977624
  0
VERTEX
  8
1
 10
69.23546297250121
 20
13.60653715452694
 30
0
 42
0.01880544693311022
  0
VERTEX
  8
1
 10
69.17293973837806
 20
13.44963124519101
 30
0
 42
0.0424691054463533
  0
VERTEX
  8
1
 10
69.13178783831313
 20
13.29285563793008
 30
0
 42
0.07659463129707607
  0
VERTEX
  8
1
 10
69.12786830138751
 20
13.08571957712394
 30
0
 42
0.0440579315506941
  0
VERTEX
  8
1
 10
69.17472563971417
 20
12.8781577769825
 30
0
 42
0.03892408209528498
  0
VERTEX
  8
1
 10
69.25966563448003
 20
12.67027667233958
 30
0
 42
0.01089913513627786
  0
VERTEX
  8
1
 10
69.36999406687204
 20
12.462182698029
 30
0
 42
0.01219559973370687
  0
VERTEX
  8
1
 10
69.49301671807712
 20
12.2539822888846
 30
0
  0
SEQEND
  8
1
  0
POLYLINE
  8
1
 62
2
 66
1
  0
VERTEX
  8
1
 10
60.37048588694916
 20
14.7439822888846
 30
0
 42
-0.004186897804178685
  0
VERTEX
  8
1
 10
60.41842470530548
 20
14.61068084811243
 30
0
 42
-0.01290248157273939
  0
VERTEX
  8
1
 10
60.4612325880844
 20
14.47762559113132
 30
0
 42
-0.02254802247773517
  0
VERTEX
  8
1
 10
60.49377859970856
 20
14.34506270173235
 30
0
 42
-0.0332822565985556
  0
VERTEX
  8
1
 10
60.51093180460058
 20
14.21323836370658
 30
0
 42
-0.04414267360471829
  0
VERTEX
  8
1
 10
60.50756126718306
 20
14.08239876084508
 30
0
 42
-0.04746932973040734
  0
VERTEX
  8
1
 10
60.47160286330585
 20
13.92248470576792
 30
0
 42
-0.02328907139349378
  0
VERTEX
  8
1
 10
60.41167637727639
 20
13.76400957252388
 30
0
 42
-0.002187931268825079
  0
VERTEX
  8
1
 10
60.34289494783155
 20
13.60653715452692
 30
0
 42
0.01880544693323617
  0
VERTEX
  8
1
 10
60.28037171370818
 20
13.449631245191
 30
0
 42
0.04246910544642447
  0
VERTEX
  8
1
 10
60.2392198136431
 20
13.29285563793008
 30
0
 42
0.07659463129754465
  0
VERTEX
  8
1
 10
60.23530027671752
 20
13.08571957712392
 30
0
 42
0.04405793155077147
  0
VERTEX
  8
1
 10
60.28215761504447
 20
12.87815777698247
 30
0
 42
0.03892408209554502
  0
VERTEX
  8
1
 10
60.36709760981081
 20
12.67027667233955
 30
0
 42
0.01089913513615287
  0
VERTEX
  8
1
 10
60.47742604220341
 20
12.46218269802899
 30
0
 42
0.01219559973390421
  0
VERTEX
  8
1
 10
60.60044869340914
 20
12.2539822888846
 30
0
  0
SEQEND
  8
1
  0
ARC
  8
1
 62
7
 10
1.5
 20
14.5
 30
0
 40
1.5
 50
90
 51
180
  0
ARC
  8
1
 62
7
 10
1.5
 20
-14.5
 30
0
 40
1.5
 50
180
 51
270
  0
ARC
  8
1
 62
7
 10
-11.80000000000086
 20
0.7999999999999901
 30
0
 40
0.20000000000001
 50
90
 51
180
  0
ARC
  8
1
 62
7
 10
-11.80000000000086
 20
-0.8000000000001215
 30
0
 40
0.1999999999991395
 50
180
 51
270
  0
ARC
  8
1
 62
7
 10
45.70163799369516
 20
17.6439822888847
 30
0
 40
0.499999999999324
 50
2.720449105949803
 51
90
  0
ARC
  8
1
 62
7
 10
42.67836200630609
 20
17.6439822888847
 30
0
 40
0.5
 50
90
 51
177.2795508940502
  0
ARC
  8
1
 62
7
 10
46.13029712220214
 20
14.9439822888846
 30
0
 40
0.1999999999999993
 50
270
 51
3.645191185390106
  0
LINE
  8
1
 62
2
 10
156.108705619505
 20
39.64861998126089
 30
0
 11
86.18038431519312
 21
39.64861998126089
 31
0
  0
LINE
  8
1
 62
2
 10
86.18038431519312
 20
39.64861998126089
 30
0
 11
75.48873748996812
 21
14.7439822888846
 31
0
  0
SOLID
  8
1
 62
2
 10
76.44602895526343
 20
18.14191029091098
 30
0
 11
77.29285852039455
 21
17.77836343898017
 31
0
 12
75.48873748996812
 22
14.7439822888846
 32
0
 13
75.48873748996812
 23
14.7439822888846
 33
0
  0
LINE
  8
1
 62
2
 10
32.70422801210611
 20
26
 30
0
 11
10.02248035771504
 21
26
 31
0
  0
LINE
  8
1
 62
2
 10
10.02248035771504
 20
26
 30
0
 11
17.75
 21
12.89700000000005
 31
0
  0
SOLID
  8
1
 62
2
 10
15.57513180298755
 20
15.67769595283381
 30
0
 11
16.36893571096382
 21
16.14584334587427
 31
0
 12
17.75
 22
12.89700000000005
 32
0
 13
17.75
 23
12.89700000000005
 33
0
  0
TEXT
  8
1
 62
2
 10
-138
 20
93.5
 30
0
 40
5
  1
DME33B
 41
0.9
 72
1
 73
2
 11
-124.5
 21
96
 31
0
  0
TEXT
  8
1
 62
2
 10
-112.892341623507
 20
-41.03336985734892
 30
0
 40
3.5
  1
P=120%%d P.C.D=ƒÓ26
 41
0.8100000000000001
 73
2
 11
-112.892341623507
 21
-39.28336985734892
 31
0
  0
TEXT
  8
1
 62
2
 10
-113.892341623507
 20
-33.89847950568771
 30
0
 40
3.5
  1
(3-M2.6 DEPTH 0.118MAX)
 41
0.72
 73
2
 11
-113.892341623507
 21
-32.14847950568771
 31
0
  0
TEXT
  8
1
 62
2
 10
88.59669839265007
 20
33.8370748214713
 30
0
 40
3.5
  1
UL1007 AWG22
 41
0.9
 73
2
 11
88.59669839265007
 21
35.5870748214713
 31
0
  0
TEXT
  8
1
 62
2
 10
88.59669839265007
 20
40.93369681053311
 30
0
 40
3.5
  1
LEAD WIRES (RED,BLACK)
 41
0.9
 73
2
 11
88.59669839265007
 21
42.68369681053311
 31
0
  0
TEXT
  8
1
 62
2
 10
-113.892341623507
 20
-48.03336985734892
 30
0
 40
3.5
  1
(P.C.D=1.024DIA.     )
 41
0.8550000000000001
 73
2
 11
-113.892341623507
 21
-46.28336985734892
 31
0
  0
TEXT
  8
1
 62
2
 10
-19.85
 20
5.622462253960805
 30
0
 40
3.5
  1
(0.0787DIA.     )
 50
90
 41
0.6300000000000001
 73
2
 11
-21.6
 21
5.622462253960805
 31
0
  0
TEXT
  8
1
 62
2
 10
-21.8
 20
23.79080602710261
 30
0
 40
2
  1
 0
 50
90
 41
0.63
  0
TEXT
  8
1
 62
2
 10
-19.4
 20
23.79080602710261
 30
0
 40
2
  1
-0.000551
 50
90
 41
0.63
  0
TEXT
  8
1
 62
2
 10
-32.53094348476382
 20
7.622462253960805
 30
0
 40
3.5
  1
(0.295DIA.     )
 50
90
 41
0.6300000000000001
 73
2
 11
-34.28094348476382
 21
7.622462253960805
 31
0
  0
TEXT
  8
1
 62
2
 10
-33.28094348476382
 20
21.8308060271026
 30
0
 40
2
  1
 %%p0.00787
 50
90
 41
0.63
 72
1
 73
2
 11
-34.28094348476382
 21
28.7608060271026
 31
0
  0
TEXT
  8
1
 62
2
 10
67.86821603926664
 20
-9.880000000000003
 30
0
 40
3.2
  1
(1.26DIA.)
 50
90
 41
0.6300000000000001
 72
1
 73
2
 11
66.26821603926663
 21
0.2
 31
0
  0
TEXT
  8
1
 62
2
 10
-13.05599999999886
 20
45.83108522053129
 30
0
 40
3.2
  1
(0.472)
 41
0.6300000000000001
 72
1
 73
2
 11
-5.99999999999886
 21
47.43108522053129
 31
0
  0
TEXT
  8
1
 62
2
 10
16.15200000000118
 20
45.83108522053129
 30
0
 40
3.2
  1
(1.72)
 41
0.6300000000000001
 72
1
 73
2
 11
22.20000000000118
 21
47.43108522053129
 31
0
  0
TEXT
  8
1
 62
2
 10
-0.863999999998823
 20
33.83359146993659
 30
0
 40
3.2
  1
(0.0787)
 41
0.6300000000000001
 72
1
 73
2
 11
7.200000000001179
 21
35.43359146993659
 31
0
  0
TEXT
  8
1
 62
2
 10
44.63600000000118
 20
33.88215129555869
 30
0
 40
3.2
  1
(0.0472)
 41
0.6300000000000001
 72
1
 73
2
 11
52.70000000000118
 21
35.48215129555869
 31
0
  0
TEXT
  8
1
 62
2
 10
13.85700959971619
 20
27.0149370672025
 30
0
 40
3.2
  1
NAME PLATE
 41
0.54
 72
1
 73
2
 11
22.49700959971619
 21
28.6149370672025
 31
0
  0
TEXT
  8
1
 62
2
 10
83.04400000000118
 20
-25.2028988582617
 30
0
 40
3.2
  1
(0.118)
 41
0.6300000000000001
 72
1
 73
2
 11
90.10000000000117
 21
-23.6028988582617
 31
0
  0
TEXT
  8
1
 62
2
 10
60.68199852911599
 20
-37.52267906765521
 30
0
 40
3.5
  1
(11.811   )
 41
0.6300000000000001
 72
1
 73
2
 11
72.80949852911598
 21
-35.77267906765521
 31
0
  0
TEXT
  8
1
 62
2
 10
73.46784230225818
 20
-35.57267906765521
 30
0
 40
2
  1
+1.181
 41
0.63
  0
TEXT
  8
1
 62
2
 10
73.46784230225818
 20
-37.97267906765521
 30
0
 40
2
  1
 0
 41
0.63
  0
TEXT
  8
1
 62
2
 10
-75.22184769038711
 20
-40.53336985734892
 30
0
 40
2.5
  1
%%p0.2
 41
0.7200000000000001
 72
1
 73
2
 11
-69.8218476903871
 21
-39.28336985734892
 31
0
  0
TEXT
  8
1
 62
2
 10
-79.3293272987289
 20
-47.53336985734892
 30
0
 40
2.5
  1
%%p0.00787
 41
0.7200000000000001
 72
1
 73
2
 11
-70.3293272987289
 21
-46.28336985734892
 31
0
  0
DIMENSION
  8
1
  6
CONTINUOUS
 62
2
  2
*D0
  3
DMST_1
 10
43.70000000000006
 20
50.079436518958
 30
0
 11
21.85000000000003
 21
52.679436518958
 31
0
 12
0
 22
0
 32
0
 70
0
 13
0
 23
14.5
 33
0
 14
43.70000000000005
 24
15
 34
0
 53
0
  0
DIMENSION
  8
1
  6
CONTINUOUS
 62
2
  2
*D1
  3
DMST_1
 10
0
 20
38.0528009157145
 30
0
 11
7.141103283136109
 21
40.6528009157145
 31
0
 12
0
 22
0
 32
0
 70
0
 13
-2
 23
3
 33
0
 14
0
 24
14.5
 34
0
 53
0
  0
DIMENSION
  8
1
  6
CONTINUOUS
 62
2
  2
*D2
  3
DMST_1
 10
-12
 20
50.041620462874
 30
0
 11
-6
 21
52.641620462874
 31
0
 12
0
 22
0
 32
0
 70
0
 13
0
 23
14.5
 33
0
 14
-12
 24
0.7999999999999901
 34
0
 53
0
  0
DIMENSION
  8
1
  6
CONTINUOUS
 62
2
  2
*D3
  3
DMST_1
 10
63.70000000000015
 20
-16
 30
0
 11
61.10000000000014
 21
0
 31
0
 12
0
 22
0
 32
0
 70
0
  1
ƒÓ<>
 13
42.70000000000005
 23
16
 33
0
 14
42.70000000000005
 24
-16
 34
0
 50
90
 53
0
  0
DIMENSION
  8
1
  6
CONTINUOUS
 62
2
  2
*D4
  3
DMST_2
 10
44.90000000000008
 20
37.9781599501778
 30
0
 11
52.70540310466411
 21
40.5781599501778
 31
0
 12
0
 22
0
 32
0
 70
0
  1
(<>
 13
43.70000000000005
 23
15
 33
0
 14
44.90000000000009
 24
4.599999999999881
 34
0
 53
0
  0
DIMENSION
  8
1
  6
CONTINUOUS
 62
2
  2
*D5
  3
DMST_3
 10
-37.12040917953691
 20
3.749999999999998
 30
0
 11
-39.7204091795369
 21
18.6402313119836
 31
0
 12
0
 22
0
 32
0
 70
0
  1
ƒÓ<>
 13
-1.80000000000086
 23
-3.75000000000011
 33
0
 14
-1.80000000000086
 24
3.75
 34
0
 50
90
 53
0
  0
DIMENSION
  8
1
  6
CONTINUOUS
 62
2
  2
*D6
  3
DMST_4
 10
-25.0360315055619
 20
1
 30
0
 11
-28.4360315055619
 21
17.887939467052
 31
0
 12
0
 22
0
 32
0
 70
0
  1
ƒÓ<>
 13
-11.80000000000086
 23
-1
 33
0
 14
-11.80000000000086
 24
1
 34
0
 50
90
 53
0
  0
DIMENSION
  8
1
  6
CONTINUOUS
 62
2
  2
*D7
  3
DMST_5
 10
43.70000000000005
 20
-32.9775621120251
 30
0
 11
72.56045590217809
 21
-29.5775621120251
 31
0
 12
0
 22
0
 32
0
 70
0
  1
300
 13
101.4209118043561
 23
12.6489822888847
 33
0
 14
43.70000000000005
 24
-15
 34
0
 53
0
  0
DIMENSION
  8
1
  6
CONTINUOUS
 62
2
  2
*D8
  3
DMST_2
 10
98.42091180435614
 20
-21.0042413784156
 30
0
 11
89.98270514916391
 21
-18.4042413784156
 31
0
 12
0
 22
0
 32
0
 70
0
  1
(<>
 13
101.4209118043561
 23
12.6489822888847
 33
0
 14
98.42091180435614
 24
12.2539822888846
 34
0
 53
0
  0
INSERT
  8
0
  2
___R___O_______R
 10
0.5
 20
-3.75
 30
0
  0
INSERT
  8
1
  2
*D9
 10
0
 20
0
 30
0
  0
ENDSEC
  0
EOF
