  0
SECTION
  2
HEADER
  9
$ACADVER
  1
AC1009
  9
$INSBASE
 10
0
 20
0
  9
$EXTMIN
 10
-194.5
 20
-146
  9
$EXTMAX
 10
194.5
 20
146
  9
$LIMMIN
 10
-194.5
 20
-146
  9
$LIMMAX
 10
194.5
 20
146
  9
$VIEWCTR
 10
10
 20
10
  9
$VIEWSIZE
 40
10
  9
$SNAPMODE
 70
0
  9
$SNAPUNIT
 10
1
 20
1
  9
$SNAPBASE
 10
0
 20
0
  9
$SNAPANG
 50
0
  9
$SNAPSTYLE
 70
0
  9
$SNAPISOPAIR
 70
0
  9
$GRIDMODE
 70
0
  9
$GRIDUNIT
 10
0
 20
0
  9
$ORTHOMODE
 70
0
  9
$REGENMODE
 70
1
  9
$FILLMODE
 70
1
  9
$QTEXTMODE
 70
0
  9
$DRAGMODE
 70
2
  9
$LTSCALE
 40
1
  9
$OSMODE
 70
0
  9
$ATTMODE
 70
1
  9
$TEXTSIZE
 40
3.5
  9
$TRACEWID
 40
0.5
  9
$TEXTSTYLE
  7
STANDARD
  9
$CLAYER
  8
0
  9
$CELTYPE
  6
BYLAYER
  9
$CECOLOR
 62
256
  9
$DIMSCALE
 40
1
  9
$DIMASZ
 40
0.18
  9
$DIMEXO
 40
0.0625
  9
$DIMDLI
 40
0.38
  9
$DIMRND
 40
0
  9
$DIMDLE
 40
0
  9
$DIMEXE
 40
0.18
  9
$DIMTP
 40
0
  9
$DIMTM
 40
0
  9
$DIMTXT
 40
0.18
  9
$DIMCEN
 40
0.09
  9
$DIMTSZ
 40
0
  9
$DIMTOL
 70
0
  9
$DIMLIM
 70
0
  9
$DIMTIH
 70
1
  9
$DIMTOH
 70
1
  9
$DIMSE1
 70
0
  9
$DIMSE2
 70
0
  9
$DIMTAD
 70
0
  9
$DIMZIN
 70
0
  9
$DIMBLK
  1

  9
$DIMASO
 70
1
  9
$DIMSHO
 70
1
  9
$DIMPOST
  1

  9
$DIMAPOST
  1

  9
$DIMALT
 70
0
  9
$DIMALTD
 70
2
  9
$DIMALTF
 40
25.4
  9
$DIMLFAC
 40
1
  9
$DIMTOFL
 70
0
  9
$DIMTVP
 40
0
  9
$DIMTIX
 70
0
  9
$DIMSOXD
 70
0
  9
$DIMSAH
 70
0
  9
$DIMBLK1
  1

  9
$DIMBLK2
  1

  9
$DIMSTYLE
  2
*UNNAMED
  9
$DIMCLRD
 70
0
  9
$DIMCLRE
 70
0
  9
$DIMCLRT
 70
0
  9
$DIMTFAC
 40
1
  9
$DIMGAP
 40
0.09
  9
$LUNITS
 70
2
  9
$LUPREC
 70
4
  9
$AXISMODE
 70
0
  9
$AXISUNIT
 10
0
 20
0
  9
$SKETCHINC
 40
0.1
  9
$FILLETRAD
 40
2
  9
$AUNITS
 70
0
  9
$AUPREC
 70
0
  9
$MENU
  1
ACAD
  9
$ELEVATION
 40
0
  9
$THICKNESS
 40
0
  9
$VIEWDIR
 10
0
 20
0
 30
1
  9
$LIMCHECK
 70
0
  9
$BLIPMODE
 70
1
  9
$CHAMFERA
 40
0
  9
$CHAMFERB
 40
0
  9
$FASTZOOM
 70
1
  9
$SKPOLY
 70
0
  9
$ANGBASE
 50
0
  9
$ANGDIR
 70
0
  9
$PDMODE
 70
0
  9
$PDSIZE
 40
0
  9
$PLINEWID
 40
0
  9
$COORDS
 70
2
  0
ENDSEC
  0
SECTION
  2
TABLES
  0
TABLE
  2
DIMSTYLE
 70
6
  0
DIMSTYLE
  2
DMST_1
 70
0
  3
)
  4

  5

  6

  7

 40
1
 41
3.2
 42
1
 43
7
 44
1
 45
0
 46
0
 47
0
 48
0
140
3.2
141
0
142
0
143
25.4
144
1
145
0
146
1
147
0.09
 71
0
 72
0
 73
0
 74
0
 75
0
 76
0
 77
1
 78
9
170
0
171
2
172
0
173
0
174
0
175
0
176
2
177
2
178
2
  0
DIMSTYLE
  2
DMST_2
 70
0
  3

  4

  5

  6

  7

 40
1
 41
3.2
 42
1
 43
7
 44
1
 45
0
 46
0
 47
15
 48
15
140
3.2
141
0
142
0
143
25.4
144
1
145
0
146
0.6
147
0.09
 71
1
 72
0
 73
0
 74
0
 75
0
 76
0
 77
1
 78
9
170
0
171
2
172
0
173
0
174
0
175
0
176
2
177
2
178
2
  0
DIMSTYLE
  2
DMST_3
 70
0
  3

  4

  5

  6

  7

 40
1
 41
3.2
 42
1
 43
7
 44
1
 45
0
 46
0
 47
0
 48
0
140
3.2
141
0
142
0
143
25.4
144
1
145
0
146
1
147
0.09
 71
0
 72
0
 73
0
 74
0
 75
0
 76
0
 77
1
 78
9
170
0
171
2
172
0
173
0
174
0
175
0
176
2
177
2
178
2
  0
DIMSTYLE
  2
DMST_4
 70
0
  3

  4

  5

  6

  7

 40
1
 41
3.2
 42
1
 43
7
 44
1
 45
0
 46
0
 47
0.3
 48
0.3
140
3.2
141
0
142
0
143
25.4
144
1
145
0
146
0.6
147
0.09
 71
1
 72
0
 73
0
 74
0
 75
0
 76
0
 77
1
 78
9
170
0
171
2
172
0
173
0
174
0
175
0
176
2
177
2
178
2
  0
DIMSTYLE
  2
DMST_5
 70
0
  3

  4

  5

  6

  7

 40
1
 41
3.2
 42
1
 43
7
 44
1
 45
0
 46
0
 47
0
 48
0.02
140
3.2
141
0
142
0
143
25.4
144
1
145
0
146
0.6
147
0.09
 71
1
 72
0
 73
0
 74
0
 75
0
 76
0
 77
1
 78
9
170
0
171
2
172
0
173
0
174
0
175
0
176
2
177
2
178
2
  0
DIMSTYLE
  2
DMST_6
 70
0
  3
HOLE
  4

  5

  6

  7

 40
1
 41
3.2
 42
1
 43
7
 44
1
 45
0
 46
0
 47
0.1
 48
0
140
3.2
141
0
142
0
143
25.4
144
1
145
0
146
0.6
147
0.09
 71
1
 72
0
 73
1
 74
1
 75
0
 76
0
 77
1
 78
9
170
0
171
2
172
0
173
0
174
0
175
0
176
2
177
2
178
2
  0
ENDTAB
  0
TABLE
  2
LTYPE
 70
9
  0
LTYPE
  2
CONTINUOUS
 70
64
  3
Solid line
 72
65
 73
0
 40
0
  0
LTYPE
  2
BORDER
 70
64
  3
__ __ . __ __ .
 72
65
 73
6
 40
17.91447368421053
 49
5.118421052631579
 49
-2.559210526315789
 49
5.118421052631579
 49
-2.559210526315789
 49
0
 49
-2.559210526315789
  0
LTYPE
  2
CENTER
 70
64
  3
____ _ ____ _
 72
65
 73
4
 40
20.47368421052632
 49
12.79605263157895
 49
-2.559210526315789
 49
2.559210526315789
 49
-2.559210526315789
  0
LTYPE
  2
DASHDOT
 70
64
  3
__ . __ . __ .
 72
65
 73
4
 40
10.23684210526316
 49
5.118421052631579
 49
-2.559210526315789
 49
0
 49
-2.559210526315789
  0
LTYPE
  2
DASHED
 70
64
  3
__ __ __ __ __
 72
65
 73
2
 40
7.677631578947368
 49
5.118421052631579
 49
-2.559210526315789
  0
LTYPE
  2
DIVIDE
 70
64
  3
__ . . __ . . 
 72
65
 73
6
 40
12.79605263157895
 49
5.118421052631579
 49
-2.559210526315789
 49
0
 49
-2.559210526315789
 49
0
 49
-2.559210526315789
  0
LTYPE
  2
DOT
 70
64
  3
..............
 72
65
 73
4
 40
5.118421052631579
 49
0
 49
-2.559210526315789
 49
0
 49
-2.559210526315789
  0
LTYPE
  2
HIDDEN
 70
64
  3
_ _ _ _ _ _ _
 72
65
 73
2
 40
3.838815789473684
 49
2.559210526315789
 49
-1.279605263157895
  0
LTYPE
  2
PHANTOM
 70
64
  3
_____ _ _ _____ _ _ 
 72
65
 73
6
 40
25.59210526315789
 49
12.79605263157895
 49
-2.559210526315789
 49
2.559210526315789
 49
-2.559210526315789
 49
2.559210526315789
 49
-2.559210526315789
  0
ENDTAB
  0
TABLE
  2
LAYER
 70
3
  0
LAYER
  2
1
 70
0
 62
7
  6
CONTINUOUS
  0
LAYER
  2
0
 70
0
 62
7
  6
CONTINUOUS
  0
ENDTAB
  0
TABLE
  2
STYLE
 70
4
  0
STYLE
  2
STANDARD
 70
0
 40
0
 41
1
 50
0
 71
0
 42
3.5
  3
txt
  4

  0
STYLE
  2
SIMPLEX
 70
0
 40
0
 41
1
 50
0
 71
0
 42
3.5
  3
simplex
  4

  0
STYLE
  2
COMPLEX
 70
0
 40
0
 41
1
 50
0
 71
0
 42
3.5
  3
complex
  4

  0
STYLE
  2
ITALIC
 70
0
 40
0
 41
1
 50
0
 71
0
 42
3.5
  3
italic
  4

  0
ENDTAB
  0
TABLE
  2
VIEW
 70
0
  0
ENDTAB
  0
ENDSEC
  0
SECTION
  2
BLOCKS
  0
BLOCK
  8
0
  2
___R___O_______R
 70
0
 10
0.5
 20
-3.75
 30
0
  0
LINE
  8
1
 62
4
  6
PHANTOM
 10
194.5
 20
-136.5
 30
0
 11
194.5
 21
-146
 31
0
  0
LINE
  8
1
 62
4
  6
PHANTOM
 10
-194.5
 20
-146
 30
0
 11
-194.5
 21
146
 31
0
  0
LINE
  8
1
 62
4
  6
PHANTOM
 10
194.5
 20
146
 30
0
 11
194.5
 21
129
 31
0
  0
LINE
  8
1
 62
4
  6
PHANTOM
 10
194.5
 20
146
 30
0
 11
-194.5
 21
146
 31
0
  0
LINE
  8
1
 62
4
  6
PHANTOM
 10
-194.5
 20
-146
 30
0
 11
194.5
 21
-146
 31
0
  0
TEXT
  8
1
 62
4
 10
178.746911898274
 20
-142.6071298819256
 30
0
 40
5
  1
A3
 41
0.9
 72
1
 73
2
 11
183.246911898274
 21
-140.1071298819256
 31
0
  0
ENDBLK
  8
0
  0
BLOCK
  8
0
  2
TOP
 70
0
 10
0
 20
0
 30
0
  0
INSERT
  8
0
  2
___R___O_______R
 10
0.5
 20
-3.75
 30
0
  0
ENDBLK
  8
0
  0
BLOCK
  8
1
  2
*D0
 70
1
 10
0
 20
0
 30
0
  0
LINE
  8
1
 62
2
 10
-61.44545056812838
 20
60.0823724962734
 30
0
 11
-55.04545056812839
 21
60.0823724962734
 31
0
  0
LINE
  8
1
 62
2
 10
-55.04545056812839
 20
60.0823724962734
 30
0
 11
-53.04545056812842
 21
60.0823724962734
 31
0
  0
LINE
  8
1
 62
2
 10
-53.04545056812842
 20
60.0823724962734
 30
0
 11
-42.73711910343
 21
60.0823724962734
 31
0
  0
LINE
  8
1
 62
2
 10
-55.04545056812839
 20
46.19999999999999
 30
0
 11
-55.04545056812839
 21
61.0823724962734
 31
0
  0
LINE
  8
1
 62
2
 10
-53.04545056812842
 20
38.5
 30
0
 11
-53.04545056812842
 21
61.0823724962734
 31
0
  0
SOLID
  8
1
 62
2
 10
-55.04545056812839
 20
60.0823724962734
 30
0
 11
-58.24545056812839
 21
59.6663724962734
 31
0
 12
-58.24545056812839
 22
60.4983724962734
 32
0
 13
-58.24545056812839
 23
60.4983724962734
 33
0
  0
SOLID
  8
1
 62
2
 10
-53.04545056812842
 20
60.0823724962734
 30
0
 11
-49.84545056812842
 21
60.4983724962734
 31
0
 12
-49.84545056812842
 22
59.6663724962734
 32
0
 13
-49.84545056812842
 23
59.6663724962734
 33
0
  0
TEXT
  8
1
 62
2
 10
-46.73711910343
 20
61.0823724962734
 30
0
 40
3.2
  1
2
 41
0.9
  0
TEXT
  8
1
 62
2
 10
-48.81711910343
 20
61.0823724962734
 30
0
 40
3.2
  1
(
 41
0.9
  0
TEXT
  8
1
 62
2
 10
-43.21711910343
 20
61.0823724962734
 30
0
 40
3.2
  1
)
 41
0.9
  0
ENDBLK
  8
0
  0
BLOCK
  8
1
  2
*D1
 70
1
 10
0
 20
0
 30
0
  0
LINE
  8
1
 62
2
 10
-55.04545056812839
 20
2.66294645748642
 30
0
 11
2.1209140437679
 21
2.66294645748642
 31
0
  0
LINE
  8
1
 62
2
 10
2.1209140437679
 20
30.59999999999997
 30
0
 11
2.1209140437679
 21
1.66294645748642
 31
0
  0
LINE
  8
1
 62
2
 10
-55.04545056812839
 20
18.80000000000001
 30
0
 11
-55.04545056812839
 21
1.66294645748642
 31
0
  0
SOLID
  8
1
 62
2
 10
-55.04545056812839
 20
2.66294645748642
 30
0
 11
-51.84545056812839
 21
3.07894645748642
 31
0
 12
-51.84545056812839
 22
2.24694645748642
 32
0
 13
-51.84545056812839
 23
2.24694645748642
 33
0
  0
SOLID
  8
1
 62
2
 10
2.1209140437679
 20
2.66294645748642
 30
0
 11
-1.0790859562321
 21
2.24694645748642
 31
0
 12
-1.0790859562321
 22
3.07894645748642
 32
0
 13
-1.0790859562321
 23
3.07894645748642
 33
0
  0
TEXT
  8
1
 62
2
 10
-32.44626826218025
 20
3.66294645748642
 30
0
 40
3.2
  1
150
 41
0.9
  0
TEXT
  8
1
 62
2
 10
-24.12626826218025
 20
4.30294645748642
 30
0
 40
1.92
  1
%%p15
 41
0.9
  0
ENDBLK
  8
0
  0
BLOCK
  8
1
  2
*D2
 70
1
 10
0
 20
0
 30
0
  0
LINE
  8
1
 62
2
 10
-0.8790859562321023
 20
14.8657457268276
 30
0
 11
-10.97262488256244
 21
14.8657457268276
 31
0
  0
LINE
  8
1
 62
2
 10
-0.8790859562321023
 20
14.8657457268276
 30
0
 11
2.1209140437679
 21
14.8657457268276
 31
0
  0
LINE
  8
1
 62
2
 10
8.520914043767899
 20
14.8657457268276
 30
0
 11
2.1209140437679
 21
14.8657457268276
 31
0
  0
LINE
  8
1
 62
2
 10
2.1209140437679
 20
30.59999999999997
 30
0
 11
2.1209140437679
 21
13.8657457268276
 31
0
  0
LINE
  8
1
 62
2
 10
-0.8790859562321023
 20
30.29999999999995
 30
0
 11
-0.8790859562321023
 21
13.8657457268276
 31
0
  0
SOLID
  8
1
 62
2
 10
-0.8790859562321023
 20
14.8657457268276
 30
0
 11
-4.079085956232103
 21
14.4497457268276
 31
0
 12
-4.079085956232103
 22
15.2817457268276
 32
0
 13
-4.079085956232103
 23
15.2817457268276
 33
0
  0
SOLID
  8
1
 62
2
 10
2.1209140437679
 20
14.8657457268276
 30
0
 11
5.320914043767901
 21
15.2817457268276
 31
0
 12
5.320914043767901
 22
14.4497457268276
 32
0
 13
5.320914043767901
 23
14.4497457268276
 33
0
  0
TEXT
  8
1
 62
2
 10
-8.892624882562441
 20
15.8657457268276
 30
0
 40
3.2
  1
3
 41
0.9
  0
TEXT
  8
1
 62
2
 10
-10.97262488256244
 20
15.8657457268276
 30
0
 40
3.2
  1
(
 41
0.9
  0
TEXT
  8
1
 62
2
 10
-5.372624882562439
 20
15.8657457268276
 30
0
 40
3.2
  1
)
 41
0.9
  0
ENDBLK
  8
0
  0
BLOCK
  8
1
  2
*D3
 70
1
 10
0
 20
0
 30
0
  0
LINE
  8
1
 62
2
 10
-102.3454505681283
 20
-72.03032427783249
 30
0
 11
-83.6454505681283
 21
-72.03032427783249
 31
0
  0
LINE
  8
1
 62
2
 10
-83.6454505681283
 20
-51
 30
0
 11
-83.6454505681283
 21
-73.03032427783249
 31
0
  0
LINE
  8
1
 62
2
 10
-102.3454505681283
 20
-49.5
 30
0
 11
-102.3454505681283
 21
-73.03032427783249
 31
0
  0
SOLID
  8
1
 62
2
 10
-102.3454505681283
 20
-72.03032427783249
 30
0
 11
-99.1454505681283
 21
-71.6143242778325
 31
0
 12
-99.1454505681283
 22
-72.44632427783249
 32
0
 13
-99.1454505681283
 23
-72.44632427783249
 33
0
  0
SOLID
  8
1
 62
2
 10
-83.6454505681283
 20
-72.03032427783249
 30
0
 11
-86.8454505681283
 21
-72.44632427783249
 31
0
 12
-86.8454505681283
 22
-71.6143242778325
 32
0
 13
-86.8454505681283
 23
-71.6143242778325
 33
0
  0
TEXT
  8
1
 62
2
 10
-96.87545056812832
 20
-71.03032427783249
 30
0
 40
3.2
  1
18.7
 41
0.9
  0
ENDBLK
  8
0
  0
BLOCK
  8
1
  2
*D4
 70
1
 10
0
 20
0
 30
0
  0
LINE
  8
1
 62
2
 10
83.45454943187161
 20
-84.04455028567179
 30
0
 11
121.4545494318716
 21
-84.04455028567179
 31
0
  0
LINE
  8
1
 62
2
 10
121.4545494318716
 20
-49.5
 30
0
 11
121.4545494318716
 21
-85.04455028567179
 31
0
  0
LINE
  8
1
 62
2
 10
83.45454943187161
 20
-49.5
 30
0
 11
83.45454943187161
 21
-85.04455028567179
 31
0
  0
SOLID
  8
1
 62
2
 10
83.45454943187161
 20
-84.04455028567179
 30
0
 11
86.65454943187162
 21
-83.62855028567179
 31
0
 12
86.65454943187162
 22
-84.46055028567179
 32
0
 13
86.65454943187162
 23
-84.46055028567179
 33
0
  0
SOLID
  8
1
 62
2
 10
121.4545494318716
 20
-84.04455028567179
 30
0
 11
118.2545494318716
 21
-84.46055028567179
 31
0
 12
118.2545494318716
 22
-83.62855028567179
 32
0
 13
118.2545494318716
 23
-83.62855028567179
 33
0
  0
TEXT
  8
1
 62
2
 10
100.0545494318716
 20
-83.04455028567179
 30
0
 40
3.2
  1
38
 41
0.9
  0
ENDBLK
  8
0
  0
BLOCK
  8
1
  2
*D5
 70
1
 10
0
 20
0
 30
0
  0
LINE
  8
1
 62
2
 10
91.45454943187161
 20
-60.1502088032148
 30
0
 11
113.4545494318716
 21
-60.1502088032148
 31
0
  0
LINE
  8
1
 62
2
 10
113.4545494318716
 20
-51
 30
0
 11
113.4545494318716
 21
-61.1502088032148
 31
0
  0
LINE
  8
1
 62
2
 10
91.45454943187161
 20
-51
 30
0
 11
91.45454943187161
 21
-61.1502088032148
 31
0
  0
SOLID
  8
1
 62
2
 10
91.45454943187161
 20
-60.1502088032148
 30
0
 11
94.65454943187162
 21
-59.73420880321481
 31
0
 12
94.65454943187162
 22
-60.5662088032148
 32
0
 13
94.65454943187162
 23
-60.5662088032148
 33
0
  0
SOLID
  8
1
 62
2
 10
113.4545494318716
 20
-60.1502088032148
 30
0
 11
110.2545494318716
 21
-60.5662088032148
 31
0
 12
110.2545494318716
 22
-59.73420880321481
 32
0
 13
110.2545494318716
 23
-59.73420880321481
 33
0
  0
TEXT
  8
1
 62
2
 10
100.0545494318716
 20
-59.1502088032148
 30
0
 40
3.2
  1
22
 41
0.9
  0
TEXT
  8
1
 62
2
 10
97.97454943187159
 20
-59.1502088032148
 30
0
 40
3.2
  1
(
 41
0.9
  0
TEXT
  8
1
 62
2
 10
106.4545494318716
 20
-59.1502088032148
 30
0
 40
3.2
  1
)
 41
0.9
  0
ENDBLK
  8
0
  0
BLOCK
  8
1
  2
*D6
 70
1
 10
0
 20
0
 30
0
  0
LINE
  8
1
 62
2
 10
-112.362599511051
 20
-50
 30
0
 11
-112.362599511051
 21
50
 31
0
  0
LINE
  8
1
 62
2
 10
-101.8454505681283
 20
50
 30
0
 11
-113.362599511051
 21
50
 31
0
  0
LINE
  8
1
 62
2
 10
-101.8454505681283
 20
-50
 30
0
 11
-113.362599511051
 21
-50
 31
0
  0
SOLID
  8
1
 62
2
 10
-112.362599511051
 20
50
 30
0
 11
-111.946599511051
 21
46.8
 31
0
 12
-112.778599511051
 22
46.8
 32
0
 13
-112.778599511051
 23
46.8
 33
0
  0
SOLID
  8
1
 62
2
 10
-112.362599511051
 20
-50
 30
0
 11
-112.778599511051
 21
-46.8
 31
0
 12
-111.946599511051
 22
-46.8
 32
0
 13
-111.946599511051
 23
-46.8
 33
0
  0
TEXT
  8
1
 62
2
 10
-113.362599511051
 20
-3.360000000000001
 30
0
 40
3.2
  1
100
 50
90
 41
0.9
  0
ENDBLK
  8
0
  0
BLOCK
  8
1
  2
*D7
 70
1
 10
0
 20
0
 30
0
  0
LINE
  8
1
 62
2
 10
-33.04944127566551
 20
19.80000000000001
 30
0
 11
-33.04944127566551
 21
45.19999999999999
 31
0
  0
LINE
  8
1
 62
2
 10
-54.04545056812839
 20
45.19999999999999
 30
0
 11
-32.04944127566551
 21
45.19999999999999
 31
0
  0
LINE
  8
1
 62
2
 10
-54.04545056812839
 20
19.80000000000001
 30
0
 11
-32.04944127566551
 21
19.80000000000001
 31
0
  0
SOLID
  8
1
 62
2
 10
-33.04944127566551
 20
45.19999999999999
 30
0
 11
-32.63344127566551
 21
41.99999999999999
 31
0
 12
-33.46544127566551
 22
41.99999999999999
 32
0
 13
-33.46544127566551
 23
41.99999999999999
 33
0
  0
SOLID
  8
1
 62
2
 10
-33.04944127566551
 20
19.80000000000001
 30
0
 11
-33.46544127566551
 21
23.00000000000001
 31
0
 12
-32.63344127566551
 22
23.00000000000001
 32
0
 13
-32.63344127566551
 23
23.00000000000001
 33
0
  0
TEXT
  8
1
 62
2
 10
-34.04944127566551
 20
29.96222222222222
 30
0
 40
3.2
  1
25.4
 50
90
 41
0.9
  0
TEXT
  8
1
 62
2
 10
-34.04944127566551
 20
26.31777777777778
 30
0
 40
3.2
  1
âË
 50
90
 41
0.9
  0
ENDBLK
  8
0
  0
BLOCK
  8
1
  2
*D8
 70
1
 10
0
 20
0
 30
0
  0
LINE
  8
1
 62
2
 10
61.4207864305562
 20
-34
 30
0
 11
61.4207864305562
 21
32.5
 31
0
  0
LINE
  8
1
 62
2
 10
88.75454943187151
 20
32.5
 30
0
 11
60.4207864305562
 21
32.5
 31
0
  0
LINE
  8
1
 62
2
 10
95.1545494318716
 20
-34
 30
0
 11
60.4207864305562
 21
-34
 31
0
  0
SOLID
  8
1
 62
2
 10
61.4207864305562
 20
32.5
 30
0
 11
61.8367864305562
 21
29.3
 31
0
 12
61.00478643055619
 22
29.3
 32
0
 13
61.00478643055619
 23
29.3
 33
0
  0
SOLID
  8
1
 62
2
 10
61.4207864305562
 20
-34
 30
0
 11
61.00478643055619
 21
-30.8
 31
0
 12
61.8367864305562
 22
-30.8
 32
0
 13
61.8367864305562
 23
-30.8
 33
0
  0
TEXT
  8
1
 62
2
 10
60.4207864305562
 20
-5.11
 30
0
 40
3.2
  1
66.5
 50
90
 41
0.9
  0
TEXT
  8
1
 62
2
 10
60.4207864305562
 20
-7.19
 30
0
 40
3.2
  1
(
 50
90
 41
0.9
  0
TEXT
  8
1
 62
2
 10
60.4207864305562
 20
5.21
 30
0
 40
3.2
  1
)
 50
90
 41
0.9
  0
ENDBLK
  8
0
  0
BLOCK
  8
1
  2
*D9
 70
1
 10
0
 20
0
 30
0
  0
LINE
  8
1
 62
2
 10
61.4207864305562
 20
-50
 30
0
 11
61.4207864305562
 21
-34
 31
0
  0
LINE
  8
1
 62
2
 10
95.1545494318716
 20
-34
 30
0
 11
60.4207864305562
 21
-34
 31
0
  0
LINE
  8
1
 62
2
 10
83.95454943187161
 20
-50
 30
0
 11
60.4207864305562
 21
-50
 31
0
  0
SOLID
  8
1
 62
2
 10
61.4207864305562
 20
-34
 30
0
 11
61.8367864305562
 21
-37.2
 31
0
 12
61.00478643055619
 22
-37.2
 32
0
 13
61.00478643055619
 23
-37.2
 33
0
  0
SOLID
  8
1
 62
2
 10
61.4207864305562
 20
-50
 30
0
 11
61.00478643055619
 21
-46.8
 31
0
 12
61.8367864305562
 22
-46.8
 32
0
 13
61.8367864305562
 23
-46.8
 33
0
  0
TEXT
  8
1
 62
2
 10
60.4207864305562
 20
-43.92
 30
0
 40
3.2
  1
16
 50
90
 41
0.9
  0
TEXT
  8
1
 62
2
 10
60.4207864305562
 20
-46
 30
0
 40
3.2
  1
(
 50
90
 41
0.9
  0
TEXT
  8
1
 62
2
 10
60.4207864305562
 20
-38.48
 30
0
 40
3.2
  1
)
 50
90
 41
0.9
  0
ENDBLK
  8
0
  0
BLOCK
  8
1
  2
*D10
 70
1
 10
0
 20
0
 30
0
  0
LINE
  8
1
 62
2
 10
73.3842531645668
 20
-34
 30
0
 11
73.3842531645668
 21
-25.8990469901436
 31
0
  0
LINE
  8
1
 62
2
 10
73.3842531645668
 20
-46
 30
0
 11
73.3842531645668
 21
-34
 31
0
  0
LINE
  8
1
 62
2
 10
95.1545494318716
 20
-34
 30
0
 11
72.3842531645668
 21
-34
 31
0
  0
LINE
  8
1
 62
2
 10
88.45454943187161
 20
-46
 30
0
 11
72.3842531645668
 21
-46
 31
0
  0
SOLID
  8
1
 62
2
 10
73.3842531645668
 20
-34
 30
0
 11
73.8002531645668
 21
-37.2
 31
0
 12
72.9682531645668
 22
-37.2
 32
0
 13
72.9682531645668
 23
-37.2
 33
0
  0
SOLID
  8
1
 62
2
 10
73.3842531645668
 20
-46
 30
0
 11
72.9682531645668
 21
-42.8
 31
0
 12
73.8002531645668
 22
-42.8
 32
0
 13
73.8002531645668
 23
-42.8
 33
0
  0
TEXT
  8
1
 62
2
 10
72.3842531645668
 20
-29.7390469901436
 30
0
 40
3.2
  1
12
 50
90
 41
0.9
  0
ENDBLK
  8
0
  0
BLOCK
  8
1
  2
*D11
 70
1
 10
0
 20
0
 30
0
  0
LINE
  8
1
 62
2
 10
131.483623414956
 20
-42
 30
0
 11
131.483623414956
 21
-28
 31
0
  0
LINE
  8
1
 62
2
 10
122.4545494318716
 20
-28
 30
0
 11
132.483623414956
 21
-28
 31
0
  0
LINE
  8
1
 62
2
 10
122.4545494318716
 20
-42
 30
0
 11
132.483623414956
 21
-42
 31
0
  0
SOLID
  8
1
 62
2
 10
131.483623414956
 20
-28
 30
0
 11
131.899623414956
 21
-31.2
 31
0
 12
131.067623414956
 22
-31.2
 32
0
 13
131.067623414956
 23
-31.2
 33
0
  0
SOLID
  8
1
 62
2
 10
131.483623414956
 20
-42
 30
0
 11
131.067623414956
 21
-38.8
 31
0
 12
131.899623414956
 22
-38.8
 32
0
 13
131.899623414956
 23
-38.8
 33
0
  0
TEXT
  8
1
 62
2
 10
130.483623414956
 20
-36.92
 30
0
 40
3.2
  1
14
 50
90
 41
0.9
  0
TEXT
  8
1
 62
2
 10
130.483623414956
 20
-39
 30
0
 40
3.2
  1
(
 50
90
 41
0.9
  0
TEXT
  8
1
 62
2
 10
130.483623414956
 20
-31.48
 30
0
 40
3.2
  1
)
 50
90
 41
0.9
  0
ENDBLK
  8
0
  0
BLOCK
  8
1
  2
*D12
 70
1
 10
0
 20
0
 30
0
  0
LINE
  8
1
 62
2
 10
143.439812126686
 20
-46
 30
0
 11
143.439812126686
 21
-24
 31
0
  0
LINE
  8
1
 62
2
 10
120.4545494318717
 20
-24
 30
0
 11
144.439812126686
 21
-24
 31
0
  0
LINE
  8
1
 62
2
 10
120.4545494318717
 20
-46
 30
0
 11
144.439812126686
 21
-46
 31
0
  0
SOLID
  8
1
 62
2
 10
143.439812126686
 20
-24
 30
0
 11
143.855812126686
 21
-27.2
 31
0
 12
143.023812126686
 22
-27.2
 32
0
 13
143.023812126686
 23
-27.2
 33
0
  0
SOLID
  8
1
 62
2
 10
143.439812126686
 20
-46
 30
0
 11
143.023812126686
 21
-42.8
 31
0
 12
143.855812126686
 22
-42.8
 32
0
 13
143.855812126686
 23
-42.8
 33
0
  0
TEXT
  8
1
 62
2
 10
142.439812126686
 20
-40.624
 30
0
 40
3.2
  1
22
 50
90
 41
0.9
  0
TEXT
  8
1
 62
2
 10
141.799812126686
 20
-34.224
 30
0
 40
1.92
  1
%%p0.3
 50
90
 41
0.9
  0
ENDBLK
  8
0
  0
BLOCK
  8
1
  2
*D13
 70
1
 10
0
 20
0
 30
0
  0
LINE
  8
1
 62
2
 10
155.340275668329
 20
-50
 30
0
 11
155.340275668329
 21
-20
 31
0
  0
LINE
  8
1
 62
2
 10
122.4545494318716
 20
-20
 30
0
 11
156.340275668329
 21
-20
 31
0
  0
LINE
  8
1
 62
2
 10
120.9545494318717
 20
-50
 30
0
 11
156.340275668329
 21
-50
 31
0
  0
SOLID
  8
1
 62
2
 10
155.340275668329
 20
-20
 30
0
 11
155.756275668329
 21
-23.2
 31
0
 12
154.924275668329
 22
-23.2
 32
0
 13
154.924275668329
 23
-23.2
 33
0
  0
SOLID
  8
1
 62
2
 10
155.340275668329
 20
-50
 30
0
 11
154.924275668329
 21
-46.8
 31
0
 12
155.756275668329
 22
-46.8
 32
0
 13
155.756275668329
 23
-46.8
 33
0
  0
TEXT
  8
1
 62
2
 10
154.340275668329
 20
-37.4
 30
0
 40
3.2
  1
30
 50
90
 41
0.9
  0
TEXT
  8
1
 62
2
 10
154.340275668329
 20
-39.48
 30
0
 40
3.2
  1
(
 50
90
 41
0.9
  0
TEXT
  8
1
 62
2
 10
154.340275668329
 20
-31
 30
0
 40
3.2
  1
)
 50
90
 41
0.9
  0
ENDBLK
  8
0
  0
BLOCK
  8
1
  2
*D14
 70
1
 10
0
 20
0
 30
0
  0
LINE
  8
1
 62
2
 10
143.430794156185
 20
-50
 30
0
 11
143.430794156185
 21
-61.4952974957321
 31
0
  0
LINE
  8
1
 62
2
 10
143.430794156185
 20
-50
 30
0
 11
143.430794156185
 21
-46
 31
0
  0
LINE
  8
1
 62
2
 10
143.430794156185
 20
-39.59999999999999
 30
0
 11
143.430794156185
 21
-46
 31
0
  0
LINE
  8
1
 62
2
 10
120.4545494318717
 20
-46
 30
0
 11
144.430794156185
 21
-46
 31
0
  0
LINE
  8
1
 62
2
 10
120.9545494318717
 20
-50
 30
0
 11
144.430794156185
 21
-50
 31
0
  0
SOLID
  8
1
 62
2
 10
143.430794156185
 20
-46
 30
0
 11
143.014794156185
 21
-42.8
 31
0
 12
143.846794156185
 22
-42.8
 32
0
 13
143.846794156185
 23
-42.8
 33
0
  0
SOLID
  8
1
 62
2
 10
143.430794156185
 20
-50
 30
0
 11
143.846794156185
 21
-53.2
 31
0
 12
143.014794156185
 22
-53.2
 32
0
 13
143.014794156185
 23
-53.2
 33
0
  0
TEXT
  8
1
 62
2
 10
142.430794156185
 20
-59.4152974957321
 30
0
 40
3.2
  1
4
 50
90
 41
0.9
  0
TEXT
  8
1
 62
2
 10
142.430794156185
 20
-61.4952974957321
 30
0
 40
3.2
  1
(
 50
90
 41
0.9
  0
TEXT
  8
1
 62
2
 10
142.430794156185
 20
-55.8952974957321
 30
0
 40
3.2
  1
)
 50
90
 41
0.9
  0
ENDBLK
  8
0
  0
BLOCK
  8
1
  2
*D15
 70
1
 10
0
 20
0
 30
0
  0
LINE
  8
1
 62
2
 10
83.45454943187161
 20
-70.98098862596869
 30
0
 11
69.03023380912089
 21
-70.98098862596869
 31
0
  0
LINE
  8
1
 62
2
 10
83.45454943187161
 20
-70.98098862596869
 30
0
 11
87.45454943187161
 21
-70.98098862596869
 31
0
  0
LINE
  8
1
 62
2
 10
93.85454943187162
 20
-70.98098862596869
 30
0
 11
87.45454943187161
 21
-70.98098862596869
 31
0
  0
LINE
  8
1
 62
2
 10
87.45454943187161
 20
-49
 30
0
 11
87.45454943187161
 21
-71.98098862596869
 31
0
  0
LINE
  8
1
 62
2
 10
83.45454943187161
 20
-49.5
 30
0
 11
83.45454943187161
 21
-71.98098862596869
 31
0
  0
SOLID
  8
1
 62
2
 10
83.45454943187161
 20
-70.98098862596869
 30
0
 11
80.25454943187161
 21
-71.39698862596869
 31
0
 12
80.25454943187161
 22
-70.5649886259687
 32
0
 13
80.25454943187161
 23
-70.5649886259687
 33
0
  0
SOLID
  8
1
 62
2
 10
87.45454943187161
 20
-70.98098862596869
 30
0
 11
90.65454943187162
 21
-70.5649886259687
 31
0
 12
90.65454943187162
 22
-71.39698862596869
 32
0
 13
90.65454943187162
 23
-71.39698862596869
 33
0
  0
TEXT
  8
1
 62
2
 10
71.1102338091209
 20
-69.98098862596869
 30
0
 40
3.2
  1
4
 41
0.9
  0
TEXT
  8
1
 62
2
 10
69.03023380912089
 20
-69.98098862596869
 30
0
 40
3.2
  1
(
 41
0.9
  0
TEXT
  8
1
 62
2
 10
74.6302338091209
 20
-69.98098862596869
 30
0
 40
3.2
  1
)
 41
0.9
  0
ENDBLK
  8
0
  0
BLOCK
  8
1
  2
*D16
 70
1
 10
0
 20
0
 30
0
  0
LINE
  8
1
 62
2
 10
87.45454943187161
 20
-70.98098862596869
 30
0
 11
117.4545494318717
 21
-70.98098862596869
 31
0
  0
LINE
  8
1
 62
2
 10
87.45454943187161
 20
-49
 30
0
 11
87.45454943187161
 21
-71.98098862596869
 31
0
  0
LINE
  8
1
 62
2
 10
117.4545494318717
 20
-49
 30
0
 11
117.4545494318717
 21
-71.98098862596869
 31
0
  0
SOLID
  8
1
 62
2
 10
87.45454943187161
 20
-70.98098862596869
 30
0
 11
90.65454943187162
 21
-70.5649886259687
 31
0
 12
90.65454943187162
 22
-71.39698862596869
 32
0
 13
90.65454943187162
 23
-71.39698862596869
 33
0
  0
SOLID
  8
1
 62
2
 10
117.4545494318717
 20
-70.98098862596869
 30
0
 11
114.2545494318717
 21
-71.39698862596869
 31
0
 12
114.2545494318717
 22
-70.5649886259687
 32
0
 13
114.2545494318717
 23
-70.5649886259687
 33
0
  0
TEXT
  8
1
 62
2
 10
96.8305494318717
 20
-69.98098862596869
 30
0
 40
3.2
  1
30
 41
0.9
  0
TEXT
  8
1
 62
2
 10
103.2305494318717
 20
-69.34098862596869
 30
0
 40
1.92
  1
%%p0.3
 41
0.9
  0
ENDBLK
  8
0
  0
BLOCK
  8
1
  2
*D17
 70
1
 10
0
 20
0
 30
0
  0
LINE
  8
1
 62
2
 10
-83.6454505681283
 20
-72.0651551624796
 30
0
 11
-67.44545056812821
 21
-72.0651551624796
 31
0
  0
LINE
  8
1
 62
2
 10
-67.44545056812821
 20
-39
 30
0
 11
-67.44545056812821
 21
-73.0651551624796
 31
0
  0
LINE
  8
1
 62
2
 10
-83.6454505681283
 20
-51
 30
0
 11
-83.6454505681283
 21
-73.0651551624796
 31
0
  0
SOLID
  8
1
 62
2
 10
-83.6454505681283
 20
-72.0651551624796
 30
0
 11
-80.44545056812829
 21
-71.6491551624796
 31
0
 12
-80.44545056812829
 22
-72.4811551624796
 32
0
 13
-80.44545056812829
 23
-72.4811551624796
 33
0
  0
SOLID
  8
1
 62
2
 10
-67.44545056812821
 20
-72.0651551624796
 30
0
 11
-70.64545056812821
 21
-72.4811551624796
 31
0
 12
-70.64545056812821
 22
-71.6491551624796
 32
0
 13
-70.64545056812821
 23
-71.6491551624796
 33
0
  0
TEXT
  8
1
 62
2
 10
-79.42545056812824
 20
-71.0651551624796
 30
0
 40
3.2
  1
16.2
 41
0.9
  0
ENDBLK
  8
0
  0
BLOCK
  8
1
  2
*D18
 70
1
 10
0
 20
0
 30
0
  0
LINE
  8
1
 62
2
 10
-52.42474494266911
 20
-23.60000000000002
 30
0
 11
-52.42474494266911
 21
-30.00000000000002
 31
0
  0
LINE
  8
1
 62
2
 10
-52.42474494266911
 20
-38.00000000000001
 30
0
 11
-52.42474494266911
 21
-30.00000000000002
 31
0
  0
LINE
  8
1
 62
2
 10
-52.42474494266911
 20
-38.00000000000001
 30
0
 11
-52.42474494266911
 21
-56.87907039421704
 31
0
  0
LINE
  8
1
 62
2
 10
-66.44545056812795
 20
-38.00000000000001
 30
0
 11
-51.42474494266911
 21
-38.00000000000001
 31
0
  0
LINE
  8
1
 62
2
 10
-66.44545056812795
 20
-30.00000000000002
 30
0
 11
-51.42474494266911
 21
-30.00000000000002
 31
0
  0
SOLID
  8
1
 62
2
 10
-52.42474494266911
 20
-30.00000000000002
 30
0
 11
-52.84074494266911
 21
-26.80000000000002
 31
0
 12
-52.00874494266911
 22
-26.80000000000002
 32
0
 13
-52.00874494266911
 23
-26.80000000000002
 33
0
  0
SOLID
  8
1
 62
2
 10
-52.42474494266911
 20
-38.00000000000001
 30
0
 11
-52.00874494266911
 21
-41.20000000000002
 31
0
 12
-52.8407449426691
 22
-41.20000000000002
 32
0
 13
-52.8407449426691
 23
-41.20000000000002
 33
0
  0
TEXT
  8
1
 62
2
 10
-54.22474494266911
 20
-53.23462594977259
 30
0
 40
3.2
  1
8
 50
90
 41
0.9
  0
TEXT
  8
1
 62
2
 10
-56.30474494266911
 20
-49.7146259497726
 30
0
 40
1.92
  1
 0
 50
90
 41
0.9
  0
TEXT
  8
1
 62
2
 10
-53.42474494266912
 20
-49.7146259497726
 30
0
 40
1.92
  1
-0.02
 50
90
 41
0.9
  0
TEXT
  8
1
 62
2
 10
-54.22474494266911
 20
-56.87907039421704
 30
0
 40
3.2
  1
âË
 50
90
 41
0.9
  0
ENDBLK
  8
0
  0
BLOCK
  8
1
  2
*D19
 70
1
 10
0
 20
0
 30
0
  0
LINE
  8
1
 62
2
 10
-67.44545056812821
 20
-59.99917762258051
 30
0
 11
-60.85661176419529
 21
-59.99917762258051
 31
0
  0
LINE
  8
1
 62
2
 10
-73.44545056812821
 20
-59.99917762258051
 30
0
 11
-67.44545056812821
 21
-59.99917762258051
 31
0
  0
LINE
  8
1
 62
2
 10
-79.84545056812821
 20
-59.99917762258051
 30
0
 11
-73.44545056812821
 21
-59.99917762258051
 31
0
  0
LINE
  8
1
 62
2
 10
-67.44545056812821
 20
-39
 30
0
 11
-67.44545056812821
 21
-60.99917762258051
 31
0
  0
LINE
  8
1
 62
2
 10
-73.44545056812821
 20
-36.5
 30
0
 11
-73.44545056812821
 21
-60.99917762258051
 31
0
  0
SOLID
  8
1
 62
2
 10
-73.44545056812821
 20
-59.99917762258051
 30
0
 11
-76.64545056812821
 21
-60.41517762258051
 31
0
 12
-76.64545056812821
 22
-59.58317762258051
 32
0
 13
-76.64545056812821
 23
-59.58317762258051
 33
0
  0
SOLID
  8
1
 62
2
 10
-67.44545056812821
 20
-59.99917762258051
 30
0
 11
-64.24545056812821
 21
-59.58317762258051
 31
0
 12
-64.24545056812821
 22
-60.41517762258051
 32
0
 13
-64.24545056812821
 23
-60.41517762258051
 33
0
  0
TEXT
  8
1
 62
2
 10
-62.77661176419529
 20
-58.99917762258051
 30
0
 40
3.2
  1
6
 41
0.9
  0
ENDBLK
  8
0
  0
BLOCK
  8
1
  2
*D20
 70
1
 10
0
 20
0
 30
0
  0
LINE
  8
1
 62
2
 10
-102.3454505681283
 20
71.99493844305101
 30
0
 11
-55.04545056812839
 21
71.99493844305101
 31
0
  0
LINE
  8
1
 62
2
 10
-102.3454505681283
 20
49.5
 30
0
 11
-102.3454505681283
 21
72.99493844305101
 31
0
  0
LINE
  8
1
 62
2
 10
-55.04545056812839
 20
46.19999999999999
 30
0
 11
-55.04545056812839
 21
72.99493844305101
 31
0
  0
SOLID
  8
1
 62
2
 10
-102.3454505681283
 20
71.99493844305101
 30
0
 11
-99.1454505681283
 21
72.41093844305101
 31
0
 12
-99.1454505681283
 22
71.57893844305102
 32
0
 13
-99.1454505681283
 23
71.57893844305102
 33
0
  0
SOLID
  8
1
 62
2
 10
-55.04545056812839
 20
71.99493844305101
 30
0
 11
-58.24545056812839
 21
71.57893844305102
 31
0
 12
-58.24545056812839
 22
72.41093844305101
 32
0
 13
-58.24545056812839
 23
72.41093844305101
 33
0
  0
TEXT
  8
1
 62
2
 10
-83.05545056812834
 20
72.99493844305101
 30
0
 40
3.2
  1
47.3
 41
0.9
  0
ENDBLK
  8
0
  0
BLOCK
  8
1
  2
*D21
 70
1
 10
0
 20
0
 30
0
  0
LINE
  8
1
 62
2
 10
61.06614490422581
 20
-65.01120777891499
 30
0
 11
7.546144904225798
 21
-65.01120777891499
 31
0
  0
LINE
  8
1
 62
2
 10
85.83181779860882
 20
-47.16907743388036
 30
0
 11
61.06614490422581
 21
-65.01120777891499
 31
0
  0
SOLID
  8
1
 62
2
 10
85.83181779860882
 20
-47.16907743388036
 30
0
 11
83.47861529163548
 21
-49.3771295078076
 31
0
 12
82.99227907914126
 22
-48.70207314837028
 32
0
 13
82.99227907914126
 23
-48.70207314837028
 33
0
  0
TEXT
  8
1
 62
2
 10
19.3861449042258
 20
-64.01120777891499
 30
0
 40
3.2
  1
4
 41
0.9
  0
TEXT
  8
1
 62
2
 10
7.546144904225798
 20
-64.01120777891499
 30
0
 40
3.2
  1
 4-M
 41
0.9
  0
TEXT
  8
1
 62
2
 10
22.9061449042258
 20
-64.01120777891499
 30
0
 40
3.2
  1
 DEPTH 6MAX
 41
0.9
  0
ENDBLK
  8
0
  0
BLOCK
  8
1
  2
*D22
 70
1
 10
0
 20
0
 30
0
  0
LINE
  8
1
 62
2
 10
-72.16907736348463
 20
-33.21204604038809
 30
0
 11
-47.69126891874644
 21
-18.10095939544399
 31
0
  0
LINE
  8
1
 62
2
 10
-47.69126891874644
 20
-18.10095939544399
 30
0
 11
-17.74282447430199
 21
-18.10095939544399
 31
0
  0
SOLID
  8
1
 62
2
 10
-72.16907736348463
 20
-33.21204604038809
 30
0
 11
-69.66467375837752
 21
-31.17709675779491
 31
0
 12
-69.22762196211279
 22
-31.88505842863717
 32
0
 13
-69.22762196211279
 23
-31.88505842863717
 33
0
  0
TEXT
  8
1
 62
2
 10
-38.84682447430199
 20
-16.30095939544399
 30
0
 40
3.2
  1
3
 41
0.9
  0
TEXT
  8
1
 62
2
 10
-35.32682447430199
 20
-14.22095939544399
 30
0
 40
1.92
  1
+0.1
 41
0.9
  0
TEXT
  8
1
 62
2
 10
-35.32682447430199
 20
-17.10095939544399
 30
0
 40
1.92
  1
 0
 41
0.9
  0
TEXT
  8
1
 62
2
 10
-42.49126891874643
 20
-16.30095939544399
 30
0
 40
3.2
  1
âË
 41
0.9
  0
TEXT
  8
1
 62
2
 10
-29.26282447430199
 20
-16.30095939544399
 30
0
 40
3.2
  1
HOLE
 41
0.9
  0
ENDBLK
  8
0
  0
ENDSEC
  0
SECTION
  2
ENTITIES
  0
LINE
  8
1
 62
7
 10
-47.27150387007526
 20
33.70000000000005
 30
0
 11
-43.55955627675729
 21
33.70000000000005
 31
0
  0
LINE
  8
1
 62
7
 10
-46.74985339895827
 20
33.70000000000005
 30
0
 11
-46.74985339895827
 21
30.85188730399614
 31
0
  0
LINE
  8
1
 62
7
 10
-44.24985339895827
 20
30.85188730399614
 30
0
 11
-44.24985339895827
 21
33.69999999999987
 31
0
  0
LINE
  8
1
 62
7
 10
-47.51092789207834
 20
36.6237314778607
 30
0
 11
-47.63974589974322
 21
33.91271553570147
 31
0
  0
LINE
  8
1
 62
7
 10
-43.98821540526428
 20
37.10000000000014
 30
0
 11
-47.01149139265243
 21
37.10000000000014
 31
0
  0
LINE
  8
1
 62
7
 10
-43.35996089817442
 20
33.91271553570147
 30
0
 11
-43.4887789058384
 21
36.6237314778607
 31
0
  0
LINE
  8
1
 62
7
 10
-46.74985339895827
 20
30.85188730399614
 30
0
 11
-44.24985339895827
 21
30.85188730399614
 31
0
  0
LINE
  8
1
 62
7
 10
-48.03221650481825
 20
32.5
 30
0
 11
-46.74985339895827
 21
32.5
 31
0
  0
LINE
  8
1
 62
7
 10
-55.04545056812839
 20
26.69999999999999
 30
0
 11
-52.51588763371632
 21
26.69999999999999
 31
0
  0
LINE
  8
1
 62
7
 10
-52.02641619698531
 20
26.89958246171381
 30
0
 11
-48.73146141443425
 21
32.21488219755156
 31
0
  0
LINE
  8
1
 62
7
 10
-55.04545056812839
 20
25.46035961229848
 30
0
 11
-52.10793528536027
 21
25.46035961229848
 31
0
  0
LINE
  8
1
 62
7
 10
-50.71930227460345
 20
26.39317502026722
 30
0
 11
-47.73438154032735
 21
30.98906153067708
 31
0
  0
LINE
  8
1
 62
7
 10
-47.27150387007526
 20
31.29999999999995
 30
0
 11
-46.74985339895827
 21
31.29999999999995
 31
0
  0
LINE
  8
1
 62
7
 10
-52.51588763371632
 20
38.30000000000001
 30
0
 11
-55.04545056812839
 21
38.30000000000001
 31
0
  0
LINE
  8
1
 62
7
 10
-52.10793528536027
 20
39.53964038770152
 30
0
 11
-55.04545056812839
 21
39.53964038770152
 31
0
  0
LINE
  8
1
 62
7
 10
-48.73146141443425
 20
32.78511780244833
 30
0
 11
-52.02641619698531
 21
38.10041753828619
 31
0
  0
LINE
  8
1
 62
7
 10
-47.73438154032735
 20
34.01093846932292
 30
0
 11
-50.71930227460345
 21
38.60682497973278
 31
0
  0
LINE
  8
1
 62
7
 10
-46.74985339895827
 20
33.70000000000005
 30
0
 11
-47.27150387007526
 21
33.70000000000005
 31
0
  0
LINE
  8
1
 62
7
 10
-44.24985339895827
 20
32.5
 30
0
 11
-39.56076884425678
 21
32.5
 31
0
  0
LINE
  8
1
 62
7
 10
-44.24985339895827
 20
33.69999999999987
 30
0
 11
-39.56076884425678
 21
33.69999999999999
 31
0
  0
LINE
  8
1
 62
7
 10
-44.24985339895827
 20
31.30000000000001
 30
0
 11
-39.56076884425678
 21
31.30000000000001
 31
0
  0
LINE
  8
1
 62
2
 10
-7.679236020463208
 20
54.47393430361184
 30
0
 11
65.4199365886908
 21
54.47393430361184
 31
0
  0
LINE
  8
1
 62
3
 10
89.75454943187151
 20
32.5
 30
0
 11
117.4545494318717
 21
32.5
 31
0
  0
LINE
  8
1
 62
7
 10
-82.54545056812827
 20
44.23327006289333
 30
0
 11
-82.54545056812827
 21
20.76672993710665
 31
0
  0
LINE
  8
1
 62
7
 10
-65.54545056812827
 20
44.23327006289333
 30
0
 11
-82.54545056812827
 21
44.23327006289333
 31
0
  0
LINE
  8
1
 62
7
 10
-65.54545056812827
 20
20.76672993710665
 30
0
 11
-65.54545056812827
 21
44.23327006289333
 31
0
  0
LINE
  8
1
 62
7
 10
-82.54545056812827
 20
20.76672993710665
 30
0
 11
-65.54545056812827
 21
20.76672993710665
 31
0
  0
LINE
  8
1
 62
7
 10
-86.58228666548692
 20
-36.31139416160738
 30
0
 11
-87.43673499385362
 21
-36.25692976711224
 31
0
  0
LINE
  8
1
 62
7
 10
-86.58228666548692
 20
-41.6886058383925
 30
0
 11
-87.43673499385362
 21
-41.74307023288765
 31
0
  0
LINE
  8
1
 62
7
 10
-86.58228666548692
 20
-4.311394161607467
 30
0
 11
-87.43673499385363
 21
-4.256929767112297
 31
0
  0
LINE
  8
1
 62
7
 10
-86.58228666548692
 20
-9.688605838392562
 30
0
 11
-87.43673499385363
 21
-9.743070232887732
 31
0
  0
LINE
  8
1
 62
3
 10
82.70454943187161
 20
-39.00000000000011
 30
0
 11
90.20454943187161
 21
-39
 31
0
  0
LINE
  8
1
 62
7
 10
-0.8790859562321032
 20
31.59999999999997
 30
0
 11
2.120914043767897
 21
31.59999999999997
 31
0
  0
LINE
  8
1
 62
7
 10
-0.8790859562321032
 20
32.19999999999999
 30
0
 11
2.120914043767897
 21
32.19999999999999
 31
0
  0
LINE
  8
1
 62
7
 10
-0.8790859562321032
 20
32.80000000000001
 30
0
 11
2.120914043767897
 21
32.80000000000001
 31
0
  0
LINE
  8
1
 62
7
 10
-0.8790859562321032
 20
33.39999999999998
 30
0
 11
2.120914043767897
 21
33.39999999999998
 31
0
  0
LINE
  8
1
 62
3
 10
-84.26155077619768
 20
-7
 30
0
 11
-90.35695414895139
 21
-7
 31
0
  0
LINE
  8
1
 62
7
 10
-89.1454505681283
 20
-19.99978233438489
 30
0
 11
-89.1454505681283
 21
50
 31
0
  0
LINE
  8
1
 62
7
 10
-89.1454505681283
 20
-19.99978233438489
 30
0
 11
-83.6454505681283
 21
-19.99978233438489
 31
0
  0
LINE
  8
1
 62
7
 10
-83.6454505681283
 20
-27.99978233438489
 30
0
 11
-83.6454505681283
 21
-19.99978233438489
 31
0
  0
LINE
  8
1
 62
3
 10
-90.66490140024949
 20
-39
 30
0
 11
-84.41514630662772
 21
-39
 31
0
  0
LINE
  8
1
 62
3
 10
-96.03070293405887
 20
-46
 30
0
 11
-79.64000892774976
 21
-46
 31
0
  0
LINE
  8
1
 62
7
 10
-87.54545056812839
 20
-41.99978233438486
 30
0
 11
-87.54545056812839
 21
-27.99978233438489
 31
0
  0
LINE
  8
1
 62
7
 10
-83.6454505681283
 20
-27.99978233438489
 30
0
 11
-89.1454505681283
 21
-27.99978233438489
 31
0
  0
LINE
  8
1
 62
3
 10
-95.91445687727656
 20
-23.99978233438489
 30
0
 11
-80.10499315487908
 21
-23.99978233438489
 31
0
  0
LINE
  8
1
 62
7
 10
-84.1454505681283
 20
-39.80000000000001
 30
0
 11
-84.1454505681283
 21
-27.99978233438489
 31
0
  0
LINE
  8
1
 62
7
 10
-100.8454505681283
 20
-50
 30
0
 11
-83.6454505681283
 21
-50
 31
0
  0
LINE
  8
1
 62
7
 10
-89.14545056812841
 20
-41.99978233438486
 30
0
 11
-89.1454505681283
 21
-27.99978233438489
 31
0
  0
LINE
  8
1
 62
7
 10
-83.6454505681283
 20
-41.99978233438486
 30
0
 11
-89.14545056812841
 21
-41.99978233438486
 31
0
  0
LINE
  8
1
 62
7
 10
-102.3454505681283
 20
-48.5
 30
0
 11
-102.3454505681283
 21
48.5
 31
0
  0
LINE
  8
1
 62
7
 10
-100.8454505681283
 20
50
 30
0
 11
-87.54545056812839
 21
50
 31
0
  0
LINE
  8
1
 62
3
 10
-63.93685537951379
 20
-34
 30
0
 11
-105.495371703775
 21
-34
 31
0
  0
LINE
  8
1
 62
3
 10
90.36179148386151
 20
-34
 30
0
 11
96.1545494318716
 21
-34
 31
0
  0
LINE
  8
1
 62
3
 10
83.70454943187161
 20
-7
 30
0
 11
91.20454943187161
 21
-7
 31
0
  0
LINE
  8
1
 62
7
 10
117.4545494318717
 20
-28
 30
0
 11
121.4545494318716
 21
-28
 31
0
  0
LINE
  8
1
 62
7
 10
117.4545494318717
 20
-20
 30
0
 11
121.4545494318716
 21
-20
 31
0
  0
LINE
  8
1
 62
3
 10
87.45454943187161
 20
-40.7982997581766
 30
0
 11
87.45454943187161
 21
-48
 31
0
  0
LINE
  8
1
 62
3
 10
80.45454943187161
 20
-46
 30
0
 11
85.45454943187161
 21
-46
 31
0
  0
LINE
  8
1
 62
3
 10
111.4545494318716
 20
-46
 30
0
 11
119.4545494318717
 21
-46
 31
0
  0
LINE
  8
1
 62
3
 10
117.4545494318717
 20
-40.26523759228189
 30
0
 11
117.4545494318717
 21
-48
 31
0
  0
LINE
  8
1
 62
7
 10
117.4545494318717
 20
-42
 30
0
 11
121.4545494318716
 21
-42
 31
0
  0
LINE
  8
1
 62
7
 10
113.4545494318716
 20
-50
 30
0
 11
113.4545494318716
 21
-46
 31
0
  0
LINE
  8
1
 62
7
 10
91.45454943187161
 20
-46
 30
0
 11
91.45454943187161
 21
-50
 31
0
  0
LINE
  8
1
 62
7
 10
83.45454943187161
 20
-42
 30
0
 11
87.45454943187161
 21
-42
 31
0
  0
LINE
  8
1
 62
7
 10
84.95454943187161
 20
-50
 30
0
 11
119.9545494318717
 21
-50
 31
0
  0
LINE
  8
1
 62
3
 10
118.4545494318717
 20
-35.25
 30
0
 11
118.4545494318717
 21
-42.75000000000011
 31
0
  0
LINE
  8
1
 62
3
 10
114.7045494318716
 20
-39
 30
0
 11
122.2045494318717
 21
-39
 31
0
  0
LINE
  8
1
 62
3
 10
86.45454943187161
 20
-35.25
 30
0
 11
86.45454943187161
 21
-42.72784244866239
 31
0
  0
LINE
  8
1
 62
3
 10
117.4545494318717
 20
-18
 30
0
 11
117.4545494318717
 21
-30
 31
0
  0
LINE
  8
1
 62
7
 10
87.45454943187161
 20
-20
 30
0
 11
83.45454943187161
 21
-20
 31
0
  0
LINE
  8
1
 62
3
 10
97.95744526011779
 20
-17.30000000000001
 30
0
 11
106.9516536036254
 21
-17.30000000000001
 31
0
  0
LINE
  8
1
 62
3
 10
113.7101341353207
 20
-7
 30
0
 11
121.2045494318717
 21
-7
 31
0
  0
LINE
  8
1
 62
3
 10
117.4545494318717
 20
-3.25
 30
0
 11
117.4545494318717
 21
-10.75
 31
0
  0
LINE
  8
1
 62
3
 10
98.95802516474659
 20
-1.999999999999972
 30
0
 11
105.9545494318716
 21
-1.999999999999972
 31
0
  0
LINE
  8
1
 62
3
 10
87.45454943187161
 20
-3.25
 30
0
 11
87.45454943187161
 21
-10.75
 31
0
  0
LINE
  8
1
 62
7
 10
121.4545494318716
 20
48.5
 30
0
 11
121.4545494318716
 21
-48.5
 31
0
  0
LINE
  8
1
 62
3
 10
98.95802516474659
 20
11.30000000000001
 30
0
 11
105.9545494318716
 21
11.30000000000001
 31
0
  0
LINE
  8
1
 62
7
 10
84.95454943187161
 20
50
 30
0
 11
119.9545494318717
 21
50
 31
0
  0
LINE
  8
1
 62
7
 10
83.45454943187161
 20
-28
 30
0
 11
87.45454943187161
 21
-28
 31
0
  0
LINE
  8
1
 62
7
 10
83.45454943187161
 20
48.5
 30
0
 11
83.45454943187161
 21
-48.5
 31
0
  0
LINE
  8
1
 62
3
 10
87.45454943187161
 20
-30
 30
0
 11
87.45454943187161
 21
-18
 31
0
  0
LINE
  8
1
 62
3
 10
111.4545494318716
 20
-24
 30
0
 11
119.4545494318717
 21
-24
 31
0
  0
LINE
  8
1
 62
7
 10
-58.5908726201904
 20
33.3262476076186
 30
0
 11
-58.5908726201904
 21
31.64156810112803
 31
0
  0
LINE
  8
1
 62
7
 10
-58.4966979893928
 20
33.28439221615301
 30
0
 11
-58.4966979893928
 21
31.70435118832643
 31
0
  0
LINE
  8
1
 62
7
 10
-26.6371554137983
 20
33.69999999999993
 30
0
 11
-0.8790859562321032
 21
33.69999999999999
 31
0
  0
LINE
  8
1
 62
7
 10
-0.8790859562321032
 20
31.29999999999995
 30
0
 11
-26.6371554137983
 21
31.30000000000001
 31
0
  0
LINE
  8
1
 62
7
 10
-26.6076957284588
 20
32.50000000000009
 30
0
 11
-0.8790859562321032
 21
32.5
 31
0
  0
LINE
  8
1
 62
7
 10
-0.8790859562321032
 20
33.69999999999999
 30
0
 11
-0.8790859562321032
 21
31.29999999999995
 31
0
  0
LINE
  8
1
 62
7
 10
-59.04545056812839
 20
30.5
 30
0
 11
-56.54545056812839
 21
30.5
 31
0
  0
LINE
  8
1
 62
7
 10
-59.04545056812839
 20
31.5
 30
0
 11
-56.54545056812839
 21
31.5
 31
0
  0
LINE
  8
1
 62
7
 10
-56.54545056812839
 20
33.5
 30
0
 11
-56.54545056812839
 21
31.5
 31
0
  0
LINE
  8
1
 62
7
 10
-59.04545056812839
 20
33.5
 30
0
 11
-56.54545056812839
 21
33.5
 31
0
  0
LINE
  8
1
 62
7
 10
-59.04545056812839
 20
34.5
 30
0
 11
-56.54545056812839
 21
34.5
 31
0
  0
LINE
  8
1
 62
7
 10
-56.54545056812839
 20
45.19999999999999
 30
0
 11
-56.54545056812839
 21
34.5
 31
0
  0
LINE
  8
1
 62
7
 10
-56.54545056812839
 20
30.5
 30
0
 11
-56.54545056812839
 21
19.80000000000001
 31
0
  0
LINE
  8
1
 62
7
 10
-55.04545056812839
 20
45.19999999999999
 30
0
 11
-86.54545056812842
 21
45.19999999999999
 31
0
  0
LINE
  8
1
 62
7
 10
-55.04545056812839
 20
27.5
 30
0
 11
-53.04545056812842
 21
27.5
 31
0
  0
LINE
  8
1
 62
7
 10
-53.04545056812842
 20
37.5
 30
0
 11
-55.04545056812839
 21
37.5
 31
0
  0
LINE
  8
1
 62
7
 10
100.4545494318716
 20
26.69999999999999
 30
0
 11
100.4545494318716
 21
25.30000000000001
 31
0
  0
LINE
  8
1
 62
7
 10
99.45454943187161
 20
26.69999999999999
 30
0
 11
100.4545494318716
 21
26.69999999999999
 31
0
  0
LINE
  8
1
 62
7
 10
98.95454943187161
 20
25.80000000000001
 30
0
 11
98.95454943187161
 21
26.19999999999999
 31
0
  0
LINE
  8
1
 62
7
 10
100.4545494318716
 20
25.30000000000001
 30
0
 11
99.45454943187161
 21
25.30000000000001
 31
0
  0
LINE
  8
1
 62
7
 10
104.4545494318716
 20
26.69999999999999
 30
0
 11
104.4545494318716
 21
25.30000000000001
 31
0
  0
LINE
  8
1
 62
7
 10
105.4545494318716
 20
26.69999999999999
 30
0
 11
104.4545494318716
 21
26.69999999999999
 31
0
  0
LINE
  8
1
 62
7
 10
105.9545494318716
 20
25.80000000000001
 30
0
 11
105.9545494318716
 21
26.19999999999999
 31
0
  0
LINE
  8
1
 62
7
 10
104.4545494318716
 20
25.30000000000001
 30
0
 11
105.4545494318716
 21
25.30000000000001
 31
0
  0
LINE
  8
1
 62
7
 10
100.4545494318716
 20
39.69999999999999
 30
0
 11
100.4545494318716
 21
38.30000000000001
 31
0
  0
LINE
  8
1
 62
7
 10
99.45454943187161
 20
39.69999999999999
 30
0
 11
100.4545494318716
 21
39.69999999999999
 31
0
  0
LINE
  8
1
 62
7
 10
98.95454943187161
 20
38.80000000000001
 30
0
 11
98.95454943187161
 21
39.19999999999999
 31
0
  0
LINE
  8
1
 62
7
 10
100.4545494318716
 20
38.30000000000001
 30
0
 11
99.45454943187161
 21
38.30000000000001
 31
0
  0
LINE
  8
1
 62
7
 10
104.4545494318716
 20
39.69999999999999
 30
0
 11
104.4545494318716
 21
38.30000000000001
 31
0
  0
LINE
  8
1
 62
7
 10
105.4545494318716
 20
39.69999999999999
 30
0
 11
104.4545494318716
 21
39.69999999999999
 31
0
  0
LINE
  8
1
 62
7
 10
105.9545494318716
 20
38.80000000000001
 30
0
 11
105.9545494318716
 21
39.19999999999999
 31
0
  0
LINE
  8
1
 62
7
 10
104.4545494318716
 20
38.30000000000001
 30
0
 11
105.4545494318716
 21
38.30000000000001
 31
0
  0
LINE
  8
1
 62
7
 10
98.45454943187161
 20
24.5
 30
0
 11
98.45454943187161
 21
27.5
 31
0
  0
LINE
  8
1
 62
7
 10
100.4545494318716
 20
24.5
 30
0
 11
98.45454943187161
 21
24.5
 31
0
  0
LINE
  8
1
 62
7
 10
100.4545494318716
 20
25
 30
0
 11
100.4545494318716
 21
24.5
 31
0
  0
LINE
  8
1
 62
7
 10
104.4545494318716
 20
25
 30
0
 11
100.4545494318716
 21
25
 31
0
  0
LINE
  8
1
 62
7
 10
104.4545494318716
 20
24.5
 30
0
 11
104.4545494318716
 21
25
 31
0
  0
LINE
  8
1
 62
7
 10
106.4545494318716
 20
24.5
 30
0
 11
104.4545494318716
 21
24.5
 31
0
  0
LINE
  8
1
 62
7
 10
106.4545494318716
 20
27.5
 30
0
 11
106.4545494318716
 21
24.5
 31
0
  0
LINE
  8
1
 62
7
 10
104.4545494318716
 20
27.5
 30
0
 11
106.4545494318716
 21
27.5
 31
0
  0
LINE
  8
1
 62
7
 10
104.4545494318716
 20
27
 30
0
 11
104.4545494318716
 21
27.5
 31
0
  0
LINE
  8
1
 62
7
 10
100.4545494318716
 20
27
 30
0
 11
104.4545494318716
 21
27
 31
0
  0
LINE
  8
1
 62
7
 10
100.4545494318716
 20
27.5
 30
0
 11
100.4545494318716
 21
27
 31
0
  0
LINE
  8
1
 62
7
 10
98.45454943187161
 20
27.5
 30
0
 11
100.4545494318716
 21
27.5
 31
0
  0
LINE
  8
1
 62
7
 10
106.4545494318716
 20
40.5
 30
0
 11
106.4545494318716
 21
37.5
 31
0
  0
LINE
  8
1
 62
7
 10
104.4545494318716
 20
40.5
 30
0
 11
106.4545494318716
 21
40.5
 31
0
  0
LINE
  8
1
 62
7
 10
104.4545494318716
 20
40
 30
0
 11
104.4545494318716
 21
40.5
 31
0
  0
LINE
  8
1
 62
7
 10
100.4545494318716
 20
40
 30
0
 11
104.4545494318716
 21
40
 31
0
  0
LINE
  8
1
 62
7
 10
104.4545494318716
 20
37.5
 30
0
 11
106.4545494318716
 21
37.5
 31
0
  0
LINE
  8
1
 62
7
 10
104.4545494318716
 20
38
 30
0
 11
104.4545494318716
 21
37.5
 31
0
  0
LINE
  8
1
 62
7
 10
100.4545494318716
 20
38
 30
0
 11
104.4545494318716
 21
38
 31
0
  0
LINE
  8
1
 62
7
 10
100.4545494318716
 20
37.5
 30
0
 11
100.4545494318716
 21
38
 31
0
  0
LINE
  8
1
 62
7
 10
98.45454943187161
 20
37.5
 30
0
 11
100.4545494318716
 21
37.5
 31
0
  0
LINE
  8
1
 62
7
 10
98.45454943187161
 20
40.5
 30
0
 11
98.45454943187161
 21
37.5
 31
0
  0
LINE
  8
1
 62
7
 10
100.4545494318716
 20
40.5
 30
0
 11
98.45454943187161
 21
40.5
 31
0
  0
LINE
  8
1
 62
7
 10
100.4545494318716
 20
40
 30
0
 11
100.4545494318716
 21
40.5
 31
0
  0
LINE
  8
1
 62
3
 10
102.4545494318716
 20
54
 30
0
 11
102.4545494318716
 21
-54.00000000000001
 31
0
  0
LINE
  8
1
 62
3
 10
87.45454943187161
 20
32.5
 30
0
 11
89.75454943187151
 21
32.5
 31
0
  0
LINE
  8
1
 62
7
 10
-53.04545056812842
 20
27.5
 30
0
 11
-53.04545056812842
 21
37.5
 31
0
  0
LINE
  8
1
 62
7
 10
-55.04545056812839
 20
19.80000000000001
 30
0
 11
-86.54545056812842
 21
19.80000000000001
 31
0
  0
LINE
  8
1
 62
3
 10
-105.495371703775
 20
32.5
 30
0
 11
-50.58972709152941
 21
32.5
 31
0
  0
LINE
  8
1
 62
7
 10
-87.54545056812839
 20
50
 30
0
 11
-87.54545056812839
 21
-19.99978233438486
 31
0
  0
LINE
  8
1
 62
7
 10
-85.72673051075196
 20
-40.30000000000001
 30
0
 11
-84.6454505681283
 21
-40.30000000000001
 31
0
  0
LINE
  8
1
 62
7
 10
88.46043178481281
 20
-6.700000000000017
 30
0
 11
88.85454943187159
 21
-6.700000000000017
 31
0
  0
LINE
  8
1
 62
7
 10
88.46043178481281
 20
-7.300000000000011
 30
0
 11
88.85454943187159
 21
-7.300000000000011
 31
0
  0
LINE
  8
1
 62
7
 10
87.7545494318716
 20
-8
 30
0
 11
87.7545494318716
 21
-8.400000000000006
 31
0
  0
LINE
  8
1
 62
7
 10
87.2545494318716
 20
-5.5
 30
0
 11
87.65454943187169
 21
-5.5
 31
0
  0
LINE
  8
1
 62
7
 10
87.2545494318716
 20
-8.5
 30
0
 11
87.65454943187169
 21
-8.5
 31
0
  0
LINE
  8
1
 62
7
 10
88.95454943187161
 20
-6.800000000000011
 30
0
 11
88.95454943187161
 21
-7.200000000000017
 31
0
  0
LINE
  8
1
 62
7
 10
85.95454943187161
 20
-6.800000000000011
 30
0
 11
85.95454943187161
 21
-7.200000000000017
 31
0
  0
LINE
  8
1
 62
7
 10
86.05454943187161
 20
-6.700000000000017
 30
0
 11
86.45454943187161
 21
-6.700000000000017
 31
0
  0
LINE
  8
1
 62
7
 10
86.05454943187161
 20
-7.300000000000011
 30
0
 11
86.45454943187161
 21
-7.300000000000011
 31
0
  0
LINE
  8
1
 62
7
 10
87.15454943187169
 20
-8.400000000000006
 30
0
 11
87.15454943187169
 21
-8
 31
0
  0
LINE
  8
1
 62
7
 10
87.15454943187169
 20
-5.600000000000023
 30
0
 11
87.15454943187169
 21
-6
 31
0
  0
LINE
  8
1
 62
7
 10
87.7545494318716
 20
-5.600000000000023
 30
0
 11
87.7545494318716
 21
-6
 31
0
  0
LINE
  8
1
 62
7
 10
118.4604317848128
 20
-6.700000000000017
 30
0
 11
118.8545494318716
 21
-6.700000000000017
 31
0
  0
LINE
  8
1
 62
7
 10
118.4604317848128
 20
-7.300000000000011
 30
0
 11
118.8545494318716
 21
-7.300000000000011
 31
0
  0
LINE
  8
1
 62
7
 10
117.7545494318716
 20
-8
 30
0
 11
117.7545494318716
 21
-8.400000000000006
 31
0
  0
LINE
  8
1
 62
7
 10
117.2545494318716
 20
-5.5
 30
0
 11
117.6545494318717
 21
-5.5
 31
0
  0
LINE
  8
1
 62
7
 10
117.2545494318716
 20
-8.5
 30
0
 11
117.6545494318717
 21
-8.5
 31
0
  0
LINE
  8
1
 62
7
 10
118.9545494318717
 20
-6.800000000000011
 30
0
 11
118.9545494318717
 21
-7.200000000000017
 31
0
  0
LINE
  8
1
 62
7
 10
115.9545494318717
 20
-6.800000000000011
 30
0
 11
115.9545494318717
 21
-7.200000000000017
 31
0
  0
LINE
  8
1
 62
7
 10
116.0545494318717
 20
-6.700000000000017
 30
0
 11
116.4545494318717
 21
-6.700000000000017
 31
0
  0
LINE
  8
1
 62
7
 10
116.0545494318717
 20
-7.300000000000011
 30
0
 11
116.4545494318717
 21
-7.300000000000011
 31
0
  0
LINE
  8
1
 62
7
 10
117.1545494318717
 20
-8.400000000000006
 30
0
 11
117.1545494318717
 21
-8
 31
0
  0
LINE
  8
1
 62
7
 10
117.1545494318717
 20
-5.600000000000023
 30
0
 11
117.1545494318717
 21
-6
 31
0
  0
LINE
  8
1
 62
7
 10
117.7545494318716
 20
-5.600000000000023
 30
0
 11
117.7545494318716
 21
-6
 31
0
  0
LINE
  8
1
 62
7
 10
87.46043178481281
 20
-38.7000000000001
 30
0
 11
87.85454943187159
 21
-38.7000000000001
 31
0
  0
LINE
  8
1
 62
7
 10
87.46043178481281
 20
-39.30000000000007
 30
0
 11
87.85454943187159
 21
-39.30000000000007
 31
0
  0
LINE
  8
1
 62
7
 10
86.7545494318716
 20
-40.00000000000011
 30
0
 11
86.7545494318716
 21
-40.40000000000009
 31
0
  0
LINE
  8
1
 62
7
 10
86.2545494318716
 20
-37.50000000000011
 30
0
 11
86.65454943187169
 21
-37.50000000000011
 31
0
  0
LINE
  8
1
 62
7
 10
86.2545494318716
 20
-40.50000000000011
 30
0
 11
86.65454943187169
 21
-40.50000000000011
 31
0
  0
LINE
  8
1
 62
7
 10
87.95454943187161
 20
-38.80000000000007
 30
0
 11
87.95454943187161
 21
-39.2000000000001
 31
0
  0
LINE
  8
1
 62
7
 10
84.95454943187161
 20
-38.80000000000007
 30
0
 11
84.95454943187161
 21
-39.2000000000001
 31
0
  0
LINE
  8
1
 62
7
 10
85.05454943187161
 20
-38.7000000000001
 30
0
 11
85.45454943187161
 21
-38.7000000000001
 31
0
  0
LINE
  8
1
 62
7
 10
85.05454943187161
 20
-39.30000000000007
 30
0
 11
85.45454943187161
 21
-39.30000000000007
 31
0
  0
LINE
  8
1
 62
7
 10
86.15454943187169
 20
-40.40000000000009
 30
0
 11
86.15454943187169
 21
-40.00000000000011
 31
0
  0
LINE
  8
1
 62
7
 10
86.15454943187169
 20
-37.60000000000008
 30
0
 11
86.15454943187169
 21
-38.00000000000011
 31
0
  0
LINE
  8
1
 62
7
 10
86.7545494318716
 20
-37.60000000000008
 30
0
 11
86.7545494318716
 21
-38.00000000000011
 31
0
  0
LINE
  8
1
 62
7
 10
119.4604317848128
 20
-38.69999999999999
 30
0
 11
119.8545494318716
 21
-38.69999999999999
 31
0
  0
LINE
  8
1
 62
7
 10
119.4604317848128
 20
-39.30000000000001
 30
0
 11
119.8545494318716
 21
-39.30000000000001
 31
0
  0
LINE
  8
1
 62
7
 10
118.7545494318716
 20
-40
 30
0
 11
118.7545494318716
 21
-40.39999999999998
 31
0
  0
LINE
  8
1
 62
7
 10
118.2545494318716
 20
-37.5
 30
0
 11
118.6545494318717
 21
-37.5
 31
0
  0
LINE
  8
1
 62
7
 10
118.2545494318716
 20
-40.5
 30
0
 11
118.6545494318717
 21
-40.5
 31
0
  0
LINE
  8
1
 62
7
 10
119.9545494318717
 20
-38.80000000000001
 30
0
 11
119.9545494318717
 21
-39.19999999999999
 31
0
  0
LINE
  8
1
 62
7
 10
116.9545494318717
 20
-38.80000000000001
 30
0
 11
116.9545494318717
 21
-39.19999999999999
 31
0
  0
LINE
  8
1
 62
7
 10
117.0545494318717
 20
-38.69999999999999
 30
0
 11
117.4545494318717
 21
-38.69999999999999
 31
0
  0
LINE
  8
1
 62
7
 10
117.0545494318717
 20
-39.30000000000001
 30
0
 11
117.4545494318717
 21
-39.30000000000001
 31
0
  0
LINE
  8
1
 62
7
 10
118.1545494318717
 20
-40.39999999999998
 30
0
 11
118.1545494318717
 21
-40
 31
0
  0
LINE
  8
1
 62
7
 10
118.1545494318717
 20
-37.60000000000002
 30
0
 11
118.1545494318717
 21
-38
 31
0
  0
LINE
  8
1
 62
7
 10
118.7545494318716
 20
-37.60000000000002
 30
0
 11
118.7545494318716
 21
-38
 31
0
  0
LINE
  8
1
 62
7
 10
-59.41303316017039
 20
33.59999999999999
 30
0
 11
-55.04545056812839
 21
33.59999999999999
 31
0
  0
LINE
  8
1
 62
7
 10
-59.41303316017039
 20
31.39999999999998
 30
0
 11
-55.04545056812839
 21
31.39999999999998
 31
0
  0
LINE
  8
1
 62
7
 10
-55.04545056812839
 20
45.19999999999999
 30
0
 11
-55.04545056812839
 21
19.80000000000001
 31
0
  0
LINE
  8
1
 62
7
 10
89.80227690872391
 20
33.59999999999999
 30
0
 11
92.85454943187159
 21
33.59999999999999
 31
0
  0
LINE
  8
1
 62
7
 10
92.85454943187159
 20
33.59999999999999
 30
0
 11
92.85454943187159
 21
31.39999999999998
 31
0
  0
LINE
  8
1
 62
7
 10
92.85454943187159
 20
31.39999999999998
 30
0
 11
89.80227690872391
 21
31.39999999999998
 31
0
  0
LINE
  8
1
 62
7
 10
115.1068219550193
 20
33.59999999999999
 30
0
 11
112.0545494318716
 21
33.59999999999999
 31
0
  0
LINE
  8
1
 62
7
 10
112.0545494318716
 20
33.59999999999999
 30
0
 11
112.0545494318716
 21
31.39999999999998
 31
0
  0
LINE
  8
1
 62
7
 10
112.0545494318716
 20
31.39999999999998
 30
0
 11
115.1068219550193
 21
31.39999999999998
 31
0
  0
LINE
  8
1
 62
7
 10
89.79398072426611
 20
33.5
 30
0
 11
91.52231638483801
 21
33.5
 31
0
  0
LINE
  8
1
 62
7
 10
91.52231638483801
 20
33.5
 30
0
 11
91.52231638483801
 21
31.5
 31
0
  0
LINE
  8
1
 62
7
 10
91.52231638483801
 20
31.5
 30
0
 11
89.79398072426611
 21
31.5
 31
0
  0
LINE
  8
1
 62
7
 10
115.1151181394772
 20
31.5
 30
0
 11
113.3867824789052
 21
31.5
 31
0
  0
LINE
  8
1
 62
7
 10
113.3867824789052
 20
31.5
 30
0
 11
113.3867824789052
 21
33.5
 31
0
  0
LINE
  8
1
 62
7
 10
113.3867824789052
 20
33.5
 30
0
 11
115.1151181394772
 21
33.5
 31
0
  0
LINE
  8
1
 62
3
 10
117.4545494318717
 20
-48
 30
0
 11
117.4545494318717
 21
-53.00000000000001
 31
0
  0
LINE
  8
1
 62
3
 10
85.45454943187161
 20
-46
 30
0
 11
93.51682344918851
 21
-46
 31
0
  0
LINE
  8
1
 62
3
 10
119.4545494318717
 20
-46
 30
0
 11
124.4545494318716
 21
-46
 31
0
  0
LINE
  8
1
 62
3
 10
119.4545494318717
 20
-24
 30
0
 11
124.3677898443996
 21
-24
 31
0
  0
LINE
  8
1
 62
3
 10
80.38293088182661
 20
-24
 30
0
 11
93.45454943187161
 21
-24
 31
0
  0
LINE
  8
1
 62
3
 10
96.1545494318716
 20
-34
 30
0
 11
113.7545494318716
 21
-34
 31
0
  0
LINE
  8
1
 62
2
 10
7.6176085685042
 20
-72
 30
0
 11
60.8512676758433
 21
-72
 31
0
  0
LINE
  8
1
 62
3
 10
87.45454943187161
 20
-48
 30
0
 11
87.45454943187161
 21
-53
 31
0
  0
LINE
  8
1
 62
7
 10
-83.6454505681283
 20
-41.99978233438486
 30
0
 11
-83.6454505681283
 21
-50
 31
0
  0
LINE
  8
1
 62
3
 10
-73.44545056812821
 20
-35.5
 30
0
 11
-73.44545056812821
 21
-39.5
 31
0
  0
LINE
  8
1
 62
2
 10
-47.32024708403118
 20
-25
 30
0
 11
-17.26646327453126
 21
-25
 31
0
  0
LINE
  8
1
 62
3
 10
-73.44545056812821
 20
-28.5
 30
0
 11
-73.44545056812821
 21
-35.5
 31
0
  0
LINE
  8
1
 62
7
 10
-84.14545056812825
 20
-38
 30
0
 11
-67.44545056812821
 21
-38
 31
0
  0
LINE
  8
1
 62
7
 10
-67.44545056812821
 20
-38
 30
0
 11
-67.44545056812821
 21
-30
 31
0
  0
LINE
  8
1
 62
7
 10
-67.44545056812821
 20
-30
 30
0
 11
-84.1454505681283
 21
-30
 31
0
  0
ARC
  8
1
 62
7
 10
-90.54545056812839
 20
-38.99999999999994
 30
0
 40
5.000000000000012
 50
330.8838341682056
 51
356.5601872324848
  0
ARC
  8
1
 62
7
 10
-83.95216623297242
 20
-38.99999999999994
 30
0
 40
1.630135299472509
 50
169.3951937212555
 51
190.6048062787443
  0
ARC
  8
1
 62
7
 10
-90.54545056812839
 20
-38.99999999999994
 30
0
 40
4.999999999999992
 50
3.439812767515333
 51
29.1161658317943
  0
ARC
  8
1
 62
7
 10
-90.5454505681284
 20
-7.000000000000028
 30
0
 40
5.000000000000007
 50
330.8838341682061
 51
356.560187232485
  0
ARC
  8
1
 62
7
 10
-83.95216623297243
 20
-7
 30
0
 40
1.63013529947249
 50
169.3951937212564
 51
190.6048062787446
  0
ARC
  8
1
 62
7
 10
-90.5454505681284
 20
-7.000000000000028
 30
0
 40
5.000000000000006
 50
3.439812767515323
 51
29.11616583179394
  0
ARC
  8
1
 62
7
 10
87.45454943187161
 20
-24
 30
0
 40
3.999999999999928
 50
50.32977175789681
 51
69.52276900774648
  0
ARC
  8
1
 62
7
 10
87.45454943187161
 20
-24
 30
0
 40
4
 50
270
 51
358.6442175296209
  0
ARC
  8
1
 62
7
 10
102.4545494318739
 20
-17.16821766561389
 30
0
 40
13.00000000000264
 50
196.7790237295835
 51
212.1949655579348
  0
ARC
  8
1
 62
7
 10
117.4545494318717
 20
-24
 30
0
 40
4.000000000000053
 50
112.5559005732173
 51
129.6702282421045
  0
ARC
  8
1
 62
7
 10
102.4545494318716
 20
-17.16821766561512
 30
0
 40
12.9999999999999
 50
327.8050344420641
 51
343.2209762704188
  0
ARC
  8
1
 62
7
 10
117.4545494318717
 20
-24
 30
0
 40
4.000000000000222
 50
181.355782470379
 51
270
  0
ARC
  8
1
 62
7
 10
86.451608255401
 20
-5.997058823529414
 30
0
 40
0.7029473295325235
 50
270.239729896083
 51
359.7602701039194
  0
ARC
  8
1
 62
7
 10
88.4574906083422
 20
-5.997058823529414
 30
0
 40
0.7029473295325234
 50
180.2397298960806
 51
270.239729896083
  0
ARC
  8
1
 62
7
 10
88.4574906083422
 20
-8.002941176470586
 30
0
 40
0.7029473295324951
 50
89.76027010391704
 51
179.7602701039194
  0
ARC
  8
1
 62
7
 10
86.451608255401
 20
-8.002941176470586
 30
0
 40
0.7029473295326086
 50
0.2397298960806003
 51
89.76027010391704
  0
ARC
  8
1
 62
7
 10
116.4516082554011
 20
-5.997058823529414
 30
0
 40
0.7029473295325235
 50
270.2397298960818
 51
359.7602701039194
  0
ARC
  8
1
 62
7
 10
118.4574906083423
 20
-5.997058823529414
 30
0
 40
0.7029473295326228
 50
180.2397298960806
 51
270.2397298960736
  0
ARC
  8
1
 62
7
 10
118.4574906083423
 20
-8.002941176470586
 30
0
 40
0.7029473295324946
 50
89.76027010392632
 51
179.7602701039194
  0
ARC
  8
1
 62
7
 10
116.4516082554011
 20
-8.002941176470586
 30
0
 40
0.7029473295325234
 50
0.2397298960806294
 51
89.7602701039182
  0
ARC
  8
1
 62
7
 10
85.451608255401
 20
-37.99705882352953
 30
0
 40
0.7029473295324951
 50
270.239729896083
 51
359.76027010392
  0
ARC
  8
1
 62
7
 10
87.4574906083422
 20
-37.99705882352953
 30
0
 40
0.7029473295325234
 50
180.23972989608
 51
270.239729896083
  0
ARC
  8
1
 62
7
 10
87.4574906083422
 20
-40.0029411764707
 30
0
 40
0.7029473295325519
 50
89.76027010391707
 51
179.7602701039188
  0
ARC
  8
1
 62
7
 10
85.451608255401
 20
-40.0029411764707
 30
0
 40
0.7029473295326086
 50
0.2397298960811795
 51
89.76027010391707
  0
ARC
  8
1
 62
7
 10
117.4516082554011
 20
-37.99705882352941
 30
0
 40
0.7029473295325022
 50
270.2397298960818
 51
359.7602701039188
  0
ARC
  8
1
 62
7
 10
119.4574906083423
 20
-37.99705882352941
 30
0
 40
0.7029473295326228
 50
180.2397298960811
 51
270.2397298960737
  0
ARC
  8
1
 62
7
 10
119.4574906083423
 20
-40.00294117647059
 30
0
 40
0.7029473295325017
 50
89.76027010392632
 51
179.7602701039189
  0
ARC
  8
1
 62
7
 10
117.4516082554011
 20
-40.00294117647059
 30
0
 40
0.7029473295325234
 50
0.2397298960812085
 51
89.76027010391822
  0
ARC
  8
1
 62
7
 10
-59.10682039758859
 20
34
 30
0
 40
0.5037521771347242
 50
83.00253449784825
 51
276.9974655021518
  0
ARC
  8
1
 62
7
 10
-59.10682039758859
 20
31
 30
0
 40
0.5037521771347242
 50
83.00253449784825
 51
276.9974655021518
  0
CIRCLE
  8
1
 62
7
 10
102.4545494318716
 20
32.5
 30
0
 40
1
  0
CIRCLE
  8
1
 62
7
 10
102.4545494318716
 20
-34
 30
0
 40
6.299999999999997
  0
CIRCLE
  8
1
 62
7
 10
102.4545494318716
 20
-34
 30
0
 40
5.5
  0
CIRCLE
  8
1
 62
2
 10
117.4545494318717
 20
-46
 30
0
 40
2
  0
CIRCLE
  8
1
 62
7
 10
117.4545494318717
 20
-46
 30
0
 40
1.5
  0
CIRCLE
  8
1
 62
2
 10
87.45454943187161
 20
-46
 30
0
 40
2
  0
CIRCLE
  8
1
 62
7
 10
87.45454943187161
 20
-46
 30
0
 40
1.5
  0
CIRCLE
  8
1
 62
2
 10
117.4545494318717
 20
-24
 30
0
 40
2
  0
CIRCLE
  8
1
 62
7
 10
117.4545494318717
 20
-24
 30
0
 40
1.5
  0
CIRCLE
  8
1
 62
2
 10
87.45454943187161
 20
-24
 30
0
 40
2
  0
CIRCLE
  8
1
 62
7
 10
87.45454943187161
 20
-24
 30
0
 40
1.5
  0
CIRCLE
  8
1
 62
7
 10
102.4545494318716
 20
-17.16821766561512
 30
0
 40
3
  0
CIRCLE
  8
1
 62
7
 10
102.4545494318716
 20
-1.868217665615134
 30
0
 40
2.5
  0
CIRCLE
  8
1
 62
7
 10
102.4545494318716
 20
11.30000000000001
 30
0
 40
2.5
  0
CIRCLE
  8
1
 62
7
 10
96.09058840119269
 20
26.13603896932108
 30
0
 40
0.8000000000000114
  0
CIRCLE
  8
1
 62
7
 10
108.8185104625505
 20
26.13603896932108
 30
0
 40
0.7999999999999972
  0
CIRCLE
  8
1
 62
7
 10
96.09058840119269
 20
38.86396103067892
 30
0
 40
0.8000000000000114
  0
CIRCLE
  8
1
 62
7
 10
108.8185104625505
 20
38.86396103067892
 30
0
 40
0.7999999999999972
  0
CIRCLE
  8
1
 62
7
 10
102.4545494318716
 20
32.5
 30
0
 40
5
  0
CIRCLE
  8
1
 62
7
 10
102.4545494318716
 20
32.5
 30
0
 40
2
  0
CIRCLE
  8
1
 62
7
 10
102.4545494318716
 20
-34
 30
0
 40
4
  0
CIRCLE
  8
1
 62
7
 10
87.45454943187161
 20
-7
 30
0
 40
2.75
  0
CIRCLE
  8
1
 62
7
 10
117.4545494318717
 20
-7
 30
0
 40
2.7500000000001
  0
CIRCLE
  8
1
 62
7
 10
86.45454943187161
 20
-39.00000000000011
 30
0
 40
2.75
  0
CIRCLE
  8
1
 62
7
 10
118.4545494318717
 20
-39
 30
0
 40
2.75
  0
CIRCLE
  8
1
 62
7
 10
102.4545494318716
 20
32.5
 30
0
 40
12.7000000000001
  0
CIRCLE
  8
1
 62
7
 10
-73.44545056812821
 20
-34
 30
0
 40
1.5
  0
POLYLINE
  8
1
 62
2
 66
1
  0
VERTEX
  8
1
 10
-39.56076884425678
 20
33.69999999999999
 30
0
 42
-0.05436175073880173
  0
VERTEX
  8
1
 10
-39.41030291855434
 20
33.5206605968364
 30
0
 42
-0.06918166927190489
  0
VERTEX
  8
1
 10
-39.32877838929527
 20
33.34585173490416
 30
0
 42
-0.07251555931781324
  0
VERTEX
  8
1
 10
-39.30492360375403
 20
33.17443725581148
 30
0
 42
-0.0596667219814029
  0
VERTEX
  8
1
 10
-39.3274669092051
 20
33.00528100116652
 30
0
 42
-0.03996178692716493
  0
VERTEX
  8
1
 10
-39.38513665292294
 20
32.8372468125775
 30
0
 42
-0.02183926344414127
  0
VERTEX
  8
1
 10
-39.466661182182
 20
32.66919853165259
 30
0
 42
-0.006803853941028785
  0
VERTEX
  8
1
 10
-39.56076884425677
 20
32.49999999999999
 30
0
 42
0.005650400506629947
  0
VERTEX
  8
1
 10
-39.65148438494388
 20
32.3374464557579
 30
0
 42
0.01759122285950272
  0
VERTEX
  8
1
 10
-39.73311474838476
 20
32.17383429440297
 30
0
 42
0.0320031091651573
  0
VERTEX
  8
1
 10
-39.79539049995505
 20
32.01016951031712
 30
0
 42
0.05017479070473875
  0
VERTEX
  8
1
 10
-39.82804220503038
 20
31.84745809788224
 30
0
 42
0.06972643429712613
  0
VERTEX
  8
1
 10
-39.82080042898636
 20
31.68670605148019
 30
0
 42
0.08058707428321178
  0
VERTEX
  8
1
 10
-39.76339573719864
 20
31.52891936549291
 30
0
 42
0.07380277377876834
  0
VERTEX
  8
1
 10
-39.64555869504283
 20
31.37510403430225
 30
0
  0
VERTEX
  8
1
 10
-39.56076884425678
 20
31.30000000000001
 30
0
  0
SEQEND
  8
1
  0
POLYLINE
  8
1
 62
2
 66
1
  0
VERTEX
  8
1
 10
-26.6371554137983
 20
33.69999999999993
 30
0
 42
-0.05436175073880073
  0
VERTEX
  8
1
 10
-26.48668948809586
 20
33.52066059683637
 30
0
 42
-0.06918166927186183
  0
VERTEX
  8
1
 10
-26.40516495883679
 20
33.34585173490414
 30
0
 42
-0.07251555931781324
  0
VERTEX
  8
1
 10
-26.38131017329556
 20
33.17443725581146
 30
0
 42
-0.05966672198140836
  0
VERTEX
  8
1
 10
-26.40385347874662
 20
33.00528100116652
 30
0
 42
-0.03996178692719777
  0
VERTEX
  8
1
 10
-26.46152322246446
 20
32.8372468125775
 30
0
 42
-0.0218392634441405
  0
VERTEX
  8
1
 10
-26.54304775172353
 20
32.66919853165259
 30
0
 42
-0.006803853941061558
  0
VERTEX
  8
1
 10
-26.63715541379829
 20
32.49999999999999
 30
0
 42
0.005650400506679702
  0
VERTEX
  8
1
 10
-26.7278709544854
 20
32.3374464557579
 30
0
 42
0.01759122285955427
  0
VERTEX
  8
1
 10
-26.80950131792628
 20
32.17383429440297
 30
0
 42
0.03200310916506462
  0
VERTEX
  8
1
 10
-26.87177706949657
 20
32.01016951031712
 30
0
 42
0.05017479070473875
  0
VERTEX
  8
1
 10
-26.9044287745719
 20
31.84745809788224
 30
0
 42
0.069726434297148
  0
VERTEX
  8
1
 10
-26.89718699852788
 20
31.68670605148019
 30
0
 42
0.08058707428325489
  0
VERTEX
  8
1
 10
-26.83978230674016
 20
31.52891936549291
 30
0
 42
0.07380277377871913
  0
VERTEX
  8
1
 10
-26.72194526458435
 20
31.37510403430225
 30
0
  0
VERTEX
  8
1
 10
-26.6371554137983
 20
31.30000000000001
 30
0
  0
SEQEND
  8
1
  0
ARC
  8
1
 62
7
 10
-47.44015052115941
 20
33.90000000000009
 30
0
 40
0.2000000000004672
 50
176.3548088145801
 51
192.3470653506598
  0
ARC
  8
1
 62
7
 10
-43.98821540526428
 20
36.60000000000014
 30
0
 40
0.5000000000002193
 50
2.720449105929849
 51
90
  0
ARC
  8
1
 62
7
 10
-47.01149139265243
 20
36.60000000000014
 30
0
 40
0.5
 50
90
 51
177.2795508940704
  0
ARC
  8
1
 62
7
 10
-43.55955627675729
 20
33.90000000000009
 30
0
 40
0.2000000000000384
 50
270
 51
3.645191185436967
  0
ARC
  8
1
 62
7
 10
-48.03221650481825
 20
31.5
 30
0
 40
1
 50
90
 51
134.3664543436546
  0
ARC
  8
1
 62
7
 10
-48.03221650481825
 20
33.5
 30
0
 40
1.000000000000093
 50
225.6335456563497
 51
270
  0
ARC
  8
1
 62
7
 10
-52.51588763371632
 20
27.40000000000003
 30
0
 40
0.7000000000000419
 50
270
 51
314.3664543436361
  0
ARC
  8
1
 62
7
 10
-52.10793528536027
 20
26.96035961229848
 30
0
 40
1.5
 50
270
 51
337.7825308781783
  0
ARC
  8
1
 62
7
 10
-47.27150387007526
 20
30.79999999999995
 30
0
 40
0.5
 50
90
 51
157.7825308781658
  0
ARC
  8
1
 62
7
 10
-52.51588763371632
 20
37.59999999999997
 30
0
 40
0.6999999999999662
 50
45.63354565636354
 51
90
  0
ARC
  8
1
 62
7
 10
-52.10793528536027
 20
38.03964038770152
 30
0
 40
1.500000000000406
 50
22.21746912182179
 51
90
  0
ARC
  8
1
 62
7
 10
-47.27150387007526
 20
34.20000000000005
 30
0
 40
0.4999999999999826
 50
202.2174691218342
 51
270
  0
ARC
  8
1
 62
7
 10
-86.61409320225602
 20
-36.81038148030274
 30
0
 40
0.5000000000000153
 50
29.11616583179859
 51
86.35277671521742
  0
ARC
  8
1
 62
7
 10
-86.61409320225602
 20
-41.18961851969715
 30
0
 40
0.5000000000000175
 50
273.6472232847827
 51
330.8838341682007
  0
ARC
  8
1
 62
7
 10
-87.44545056812839
 20
-36.35654923692141
 30
0
 40
0.09999999999999609
 50
84.99999999999511
 51
180
  0
ARC
  8
1
 62
7
 10
-87.44545056812839
 20
-41.64345076307848
 30
0
 40
0.09999999999999432
 50
180
 51
275.0000000000046
  0
ARC
  8
1
 62
7
 10
-86.61409320225602
 20
-4.810381480302794
 30
0
 40
0.4999999999999876
 50
29.11616583179291
 51
86.35277671521722
  0
ARC
  8
1
 62
7
 10
-86.61409320225602
 20
-9.189618519697262
 30
0
 40
0.4999999999999678
 50
273.647223284783
 51
330.8838341682071
  0
ARC
  8
1
 62
7
 10
-87.44545056812839
 20
-4.356549236921467
 30
0
 40
0.09999999999999486
 50
85.00000000000323
 51
180
  0
ARC
  8
1
 62
7
 10
-87.44545056812839
 20
-9.643450763078562
 30
0
 40
0.1000000000000085
 50
180
 51
274.9999999999968
  0
ARC
  8
1
 62
7
 10
-84.64500452846386
 20
-39.79894741542859
 30
0
 40
0.5
 50
270
 51
0
  0
ARC
  8
1
 62
7
 10
-100.8454505681283
 20
48.5
 30
0
 40
1.5
 50
90
 51
180
  0
ARC
  8
1
 62
7
 10
-100.8454505681283
 20
-48.5
 30
0
 40
1.5
 50
180
 51
270
  0
ARC
  8
1
 62
7
 10
117.4545494318717
 20
-46
 30
0
 40
4
 50
90
 51
180
  0
ARC
  8
1
 62
7
 10
87.45454943187161
 20
-46
 30
0
 40
4
 50
0
 51
90
  0
ARC
  8
1
 62
7
 10
84.95454943187161
 20
-48.5
 30
0
 40
1.5
 50
180
 51
270
  0
ARC
  8
1
 62
7
 10
119.9545494318717
 20
-48.5
 30
0
 40
1.5
 50
270
 51
0
  0
ARC
  8
1
 62
7
 10
117.4545494318717
 20
-24
 30
0
 40
4
 50
90
 51
112.5559005732173
  0
ARC
  8
1
 62
7
 10
87.45454943187161
 20
-24
 30
0
 40
3.999999999999976
 50
69.52276900774648
 51
90
  0
ARC
  8
1
 62
7
 10
84.95454943187161
 20
48.5
 30
0
 40
1.5
 50
90
 51
180
  0
ARC
  8
1
 62
7
 10
119.9545494318717
 20
48.5
 30
0
 40
1.499999999999901
 50
0
 51
90
  0
ARC
  8
1
 62
7
 10
-86.54545056812842
 20
20.80000000000001
 30
0
 40
1
 50
180
 51
270
  0
ARC
  8
1
 62
7
 10
-86.54545056812842
 20
44.19999999999999
 30
0
 40
1
 50
90
 51
180
  0
ARC
  8
1
 62
7
 10
105.4545494318716
 20
39.19999999999999
 30
0
 40
0.5
 50
0
 51
90
  0
ARC
  8
1
 62
7
 10
105.4545494318716
 20
38.80000000000001
 30
0
 40
0.5
 50
270
 51
0
  0
ARC
  8
1
 62
7
 10
99.45454943187161
 20
38.80000000000001
 30
0
 40
0.5
 50
180
 51
270
  0
ARC
  8
1
 62
7
 10
99.45454943187161
 20
39.19999999999999
 30
0
 40
0.5
 50
90
 51
180
  0
ARC
  8
1
 62
7
 10
99.45454943187161
 20
25.80000000000001
 30
0
 40
0.5
 50
180
 51
270
  0
ARC
  8
1
 62
7
 10
99.45454943187161
 20
26.19999999999999
 30
0
 40
0.5
 50
90
 51
180
  0
ARC
  8
1
 62
7
 10
105.4545494318716
 20
25.80000000000001
 30
0
 40
0.5
 50
270
 51
0
  0
ARC
  8
1
 62
7
 10
105.4545494318716
 20
26.19999999999999
 30
0
 40
0.5
 50
0
 51
90
  0
ARC
  8
1
 62
7
 10
86.05454943187161
 20
-6.800000000000011
 30
0
 40
0.09999999999999432
 50
90
 51
180
  0
ARC
  8
1
 62
7
 10
86.05454943187161
 20
-7.200000000000017
 30
0
 40
0.09999999999999432
 50
180
 51
270
  0
ARC
  8
1
 62
7
 10
87.2545494318716
 20
-8.400000000000006
 30
0
 40
0.09999999999990905
 50
180
 51
270
  0
ARC
  8
1
 62
7
 10
87.65454943187169
 20
-8.400000000000006
 30
0
 40
0.09999999999999432
 50
270
 51
0
  0
ARC
  8
1
 62
7
 10
88.85454943187159
 20
-7.200000000000017
 30
0
 40
0.09999999999999432
 50
270
 51
0
  0
ARC
  8
1
 62
7
 10
88.85454943187159
 20
-6.800000000000011
 30
0
 40
0.1000000000000227
 50
0
 51
90
  0
ARC
  8
1
 62
7
 10
87.65454943187169
 20
-5.600000000000023
 30
0
 40
0.09999999999990905
 50
0
 51
90
  0
ARC
  8
1
 62
7
 10
87.2545494318716
 20
-5.600000000000023
 30
0
 40
0.1000000000000227
 50
90
 51
180
  0
ARC
  8
1
 62
7
 10
116.0545494318717
 20
-6.800000000000011
 30
0
 40
0.09999999999999432
 50
90
 51
180
  0
ARC
  8
1
 62
7
 10
116.0545494318717
 20
-7.200000000000017
 30
0
 40
0.1000000000000085
 50
180
 51
270
  0
ARC
  8
1
 62
7
 10
117.2545494318716
 20
-8.400000000000006
 30
0
 40
0.09999999999989484
 50
180
 51
270
  0
ARC
  8
1
 62
7
 10
117.6545494318717
 20
-8.400000000000006
 30
0
 40
0.09999999999999432
 50
270
 51
0
  0
ARC
  8
1
 62
7
 10
118.8545494318716
 20
-7.200000000000017
 30
0
 40
0.09999999999999432
 50
270
 51
0
  0
ARC
  8
1
 62
7
 10
118.8545494318716
 20
-6.800000000000011
 30
0
 40
0.1000000000000938
 50
0
 51
90
  0
ARC
  8
1
 62
7
 10
117.6545494318717
 20
-5.600000000000023
 30
0
 40
0.09999999999989484
 50
0
 51
90
  0
ARC
  8
1
 62
7
 10
117.2545494318716
 20
-5.600000000000023
 30
0
 40
0.1000000000000227
 50
90
 51
180
  0
ARC
  8
1
 62
7
 10
85.05454943187161
 20
-38.80000000000007
 30
0
 40
0.09999999999996589
 50
90
 51
180
  0
ARC
  8
1
 62
7
 10
85.05454943187161
 20
-39.2000000000001
 30
0
 40
0.09999999999999432
 50
180
 51
270
  0
ARC
  8
1
 62
7
 10
86.2545494318716
 20
-40.40000000000009
 30
0
 40
0.09999999999990905
 50
180
 51
270
  0
ARC
  8
1
 62
7
 10
86.65454943187169
 20
-40.40000000000009
 30
0
 40
0.1000000000000156
 50
270
 51
0
  0
ARC
  8
1
 62
7
 10
87.85454943187159
 20
-39.2000000000001
 30
0
 40
0.09999999999996589
 50
270
 51
0
  0
ARC
  8
1
 62
7
 10
87.85454943187159
 20
-38.80000000000007
 30
0
 40
0.1000000000000227
 50
0
 51
90
  0
ARC
  8
1
 62
7
 10
86.65454943187169
 20
-37.60000000000008
 30
0
 40
0.09999999999990905
 50
0
 51
90
  0
ARC
  8
1
 62
7
 10
86.2545494318716
 20
-37.60000000000008
 30
0
 40
0.099999999999973
 50
90
 51
180
  0
ARC
  8
1
 62
7
 10
117.0545494318717
 20
-38.80000000000001
 30
0
 40
0.1000000000000227
 50
90
 51
180
  0
ARC
  8
1
 62
7
 10
117.0545494318717
 20
-39.19999999999999
 30
0
 40
0.1000000000000085
 50
180
 51
270
  0
ARC
  8
1
 62
7
 10
118.2545494318716
 20
-40.39999999999998
 30
0
 40
0.09999999999989484
 50
180
 51
270
  0
ARC
  8
1
 62
7
 10
118.6545494318717
 20
-40.39999999999998
 30
0
 40
0.1000000000000227
 50
270
 51
0
  0
ARC
  8
1
 62
7
 10
119.8545494318716
 20
-39.19999999999999
 30
0
 40
0.1000000000000227
 50
270
 51
0
  0
ARC
  8
1
 62
7
 10
119.8545494318716
 20
-38.80000000000001
 30
0
 40
0.1000000000000938
 50
0
 51
90
  0
ARC
  8
1
 62
7
 10
118.6545494318717
 20
-37.60000000000002
 30
0
 40
0.09999999999989484
 50
0
 51
90
  0
ARC
  8
1
 62
7
 10
118.2545494318716
 20
-37.60000000000002
 30
0
 40
0.1000000000000227
 50
90
 51
180
  0
LINE
  8
1
 62
2
 10
65.41993658869077
 20
61.47393430361184
 30
0
 11
-3.84173648908223
 21
61.47393430361184
 31
0
  0
LINE
  8
1
 62
2
 10
-3.84173648908223
 20
61.47393430361184
 30
0
 11
-19.06780218547033
 21
33.69999999999995
 31
0
  0
SOLID
  8
1
 62
2
 10
-17.78934631465504
 20
36.99057323924873
 30
0
 11
-16.98124561845668
 21
36.54756094739589
 31
0
 12
-19.06780218547033
 22
33.69999999999995
 32
0
 13
-19.06780218547033
 23
33.69999999999995
 33
0
  0
TEXT
  8
1
 62
2
 10
-1.995182781113336
 20
55.50071850683756
 30
0
 40
3.5
  1
UL1007 AWG24ü@
 41
0.9
 73
2
 11
-1.995182781113336
 21
57.25071850683756
 31
0
  0
TEXT
  8
1
 62
2
 10
-1.995182781113336
 20
62.16554626501045
 30
0
 40
3.5
  1
LEAD WIERS (RED,BLACK)
 41
0.9
 73
2
 11
-1.995182781113336
 21
63.91554626501045
 31
0
  0
TEXT
  8
1
 62
2
 10
-140.25
 20
93.49999999999999
 30
0
 40
5
  1
DME25BL
 41
0.9
 72
1
 73
2
 11
-124.5
 21
95.99999999999999
 31
0
  0
TEXT
  8
1
 62
2
 10
-53.74983133779171
 20
55.8901285405932
 30
0
 40
3.2
  1
(0.0787)
 41
0.6300000000000001
 72
1
 73
2
 11
-45.68583133779171
 21
57.4901285405932
 31
0
  0
TEXT
  8
1
 62
2
 10
-85.411454421702
 20
67.79793855980007
 30
0
 40
3.2
  1
(1.862)
 41
0.6300000000000001
 72
1
 73
2
 11
-78.35545442170201
 21
69.39793855980008
 31
0
  0
TEXT
  8
1
 62
2
 10
-37.56018387157181
 20
-1.309871459406799
 30
0
 40
3.2
  1
(5.906    )
 41
0.6300000000000001
 72
1
 73
2
 11
-26.47218387157181
 21
0.2901285405932015
 31
0
  0
TEXT
  8
1
 62
2
 10
-14.71962509786924
 20
10.59793855980011
 30
0
 40
3.2
  1
(0.118)
 41
0.6300000000000001
 72
1
 73
2
 11
-7.66362509786924
 21
12.19793855980011
 31
0
  0
TEXT
  8
1
 62
2
 10
65.60533435522801
 20
-75.20130188074081
 30
0
 40
3.2
  1
(0.157)
 41
0.6300000000000001
 72
1
 73
2
 11
72.66133435522801
 21
-73.60130188074081
 31
0
  0
TEXT
  8
1
 62
2
 10
95.24459878299341
 20
-88.20206144019993
 30
0
 40
3.2
  1
(1.496)
 41
0.6300000000000001
 72
1
 73
2
 11
102.3005987829934
 21
-86.60206144019992
 31
0
  0
TEXT
  8
1
 62
2
 10
91.21259878299341
 20
-75.20130188074081
 30
0
 40
3.2
  1
(1.181    )
 41
0.6300000000000001
 72
1
 73
2
 11
102.3005987829934
 21
-73.60130188074081
 31
0
  0
TEXT
  8
1
 62
2
 10
95.24459878299341
 20
-64.20206144019991
 30
0
 40
3.2
  1
(0.866)
 41
0.6300000000000001
 72
1
 73
2
 11
102.3005987829934
 21
-62.60206144019991
 31
0
  0
TEXT
  8
1
 62
2
 10
65.56442089127842
 20
-48.32389836856079
 30
0
 40
3.2
  1
(0.63)
 50
90
 41
0.6300000000000001
 72
1
 73
2
 11
63.96442089127842
 21
-42.27589836856079
 31
0
  0
TEXT
  8
1
 62
2
 10
65.56442089127842
 20
-7.83189836856079
 30
0
 40
3.2
  1
(2.618)
 50
90
 41
0.6300000000000001
 72
1
 73
2
 11
63.96442089127842
 21
-0.7758983685607888
 31
0
  0
TEXT
  8
1
 62
2
 10
77.56442089127843
 20
-34.54878305744479
 30
0
 40
3.2
  1
(0.472)
 50
90
 41
0.6300000000000001
 72
1
 73
2
 11
75.96442089127842
 21
-27.49278305744479
 31
0
  0
TEXT
  8
1
 62
2
 10
147.6520156590621
 20
-46.08078305744479
 30
0
 40
3.2
  1
(0.866    )
 50
90
 41
0.6300000000000001
 72
1
 73
2
 11
146.0520156590621
 21
-34.99278305744479
 31
0
  0
TEXT
  8
1
 62
2
 10
147.5644208912784
 20
-65.04878305744479
 30
0
 40
3.2
  1
(0.157)
 50
90
 41
0.6300000000000001
 72
1
 73
2
 11
145.9644208912784
 21
-57.99278305744479
 31
0
  0
TEXT
  8
1
 62
2
 10
135.6520156590621
 20
-42.056
 30
0
 40
3.2
  1
(0.551)
 50
90
 41
0.6300000000000001
 72
1
 73
2
 11
134.0520156590621
 21
-35
 31
0
  0
TEXT
  8
1
 62
2
 10
159.6520156590621
 20
-42.056
 30
0
 40
3.2
  1
(1.181)
 50
90
 41
0.6300000000000001
 72
1
 73
2
 11
158.0520156590621
 21
-35
 31
0
  0
TEXT
  8
1
 62
2
 10
-108.1479843409378
 20
-6.720024752687067
 30
0
 40
3.2
  1
(3.937)
 50
90
 41
0.6300000000000001
 72
1
 73
2
 11
-109.7479843409378
 21
0.335975247312934
 31
0
  0
TEXT
  8
1
 62
2
 10
-29.03557910872159
 20
25.885
 30
0
 40
3
  1
(1DIA.)
 50
90
 41
0.6300000000000001
 72
1
 73
2
 11
-30.53557910872158
 21
32.5
 31
0
  0
TEXT
  8
1
 62
2
 10
9.702062155310891
 20
-70.82622100642161
 30
0
 40
3.5
  1
(4-M4 DEPTH 0.236MAX)
 41
0.675
 73
2
 11
9.702062155310891
 21
-69.07622100642161
 31
0
  0
TEXT
  8
1
 62
2
 10
100.1390799371887
 20
-74.60130188074081
 30
0
 40
2
  1
%%p0.0118
 41
0.63
 72
1
 73
2
 11
105.8090799371887
 21
-73.60130188074081
 31
0
  0
TEXT
  8
1
 62
2
 10
147.0520156590621
 20
-36.15430190324949
 30
0
 40
2
  1
%%p0.0118
 50
90
 41
0.63
 72
1
 73
2
 11
146.0520156590621
 21
-30.48430190324949
 31
0
  0
TEXT
  8
1
 62
2
 10
-27.20523819721984
 20
-0.7098714594067985
 30
0
 40
2
  1
%%p0.591
 41
0.63
 72
1
 73
2
 11
-22.16523819721984
 21
0.2901285405932015
 31
0
  0
TEXT
  8
1
 62
2
 10
-49.24545056812812
 20
-49.02137782119907
 30
0
 40
2
  1
 0
 50
90
 41
0.5850000000000001
  0
TEXT
  8
1
 62
2
 10
-46.84545056812812
 20
-49.02137782119907
 30
0
 40
2
  1
-0.000787
 50
90
 41
0.5850000000000001
  0
TEXT
  8
1
 62
2
 10
-32.67363731869113
 20
-22.04339821528707
 30
0
 40
2
  1
+0.00394
 41
0.45
  0
TEXT
  8
1
 62
2
 10
-32.67363731869113
 20
-24.44339821528707
 30
0
 40
2
  1
 0
 41
0.45
  0
TEXT
  8
1
 62
2
 10
-47.44545056812812
 20
-66.28854714371258
 30
0
 40
3.2
  1
(0.315DIA.      )
 50
90
 41
0.5850000000000001
 72
1
 73
2
 11
-49.04545056812812
 21
-50.37654714371257
 31
0
  0
TEXT
  8
1
 62
2
 10
-44.07310093214427
 20
-23.99339821528707
 30
0
 40
3.5
  1
(0.118DIA.     HOLE)
 41
0.468
 73
2
 11
-44.07310093214427
 21
-22.24339821528707
 31
0
  0
TEXT
  8
1
 62
2
 10
-100.2678798036353
 20
-76.20103669281586
 30
0
 40
3.2
  1
(0.736)
 41
0.6300000000000001
 72
1
 73
2
 11
-93.21187980363528
 21
-74.60103669281585
 31
0
  0
TEXT
  8
1
 62
2
 10
-82.26787980363528
 20
-76.20103669281586
 30
0
 40
3.2
  1
(0.638)
 41
0.6300000000000001
 72
1
 73
2
 11
-75.21187980363528
 21
-74.60103669281585
 31
0
  0
TEXT
  8
1
 62
2
 10
-68.70844567096228
 20
-64.2010366928159
 30
0
 40
3.2
  1
(0.236)
 41
0.6300000000000001
 72
1
 73
2
 11
-61.65244567096228
 21
-62.60103669281591
 31
0
  0
DIMENSION
  8
1
  6
CONTINUOUS
 62
2
  2
*D0
  3
DMST_1
 10
-53.04545056812842
 20
60.0823724962734
 30
0
 11
-45.77711910343
 21
62.6823724962734
 31
0
 12
0
 22
0
 32
0
 70
0
  1
(<>
 13
-55.04545056812839
 23
45.19999999999999
 33
0
 14
-53.04545056812842
 24
37.5
 34
0
 53
0
  0
DIMENSION
  8
1
  6
CONTINUOUS
 62
2
  2
*D1
  3
DMST_2
 10
-55.04545056812839
 20
2.66294645748642
 30
0
 11
-26.46226826218025
 21
5.26294645748642
 31
0
 12
0
 22
0
 32
0
 70
0
  1
150
 13
2.120914043767897
 23
31.59999999999997
 33
0
 14
-55.04545056812839
 24
19.80000000000001
 34
0
 53
0
  0
DIMENSION
  8
1
  6
CONTINUOUS
 62
2
  2
*D2
  3
DMST_1
 10
-0.8790859562321023
 20
14.8657457268276
 30
0
 11
-7.93262488256244
 21
17.4657457268276
 31
0
 12
0
 22
0
 32
0
 70
0
  1
(<>
 13
2.120914043767897
 23
31.59999999999997
 33
0
 14
-0.8790859562321032
 24
31.29999999999995
 34
0
 53
0
  0
DIMENSION
  8
1
  6
CONTINUOUS
 62
2
  2
*D3
  3
DMST_3
 10
-102.3454505681283
 20
-72.03032427783249
 30
0
 11
-92.99545056812832
 21
-69.4303242778325
 31
0
 12
0
 22
0
 32
0
 70
0
 13
-83.6454505681283
 23
-50
 33
0
 14
-102.3454505681283
 24
-48.5
 34
0
 53
0
  0
DIMENSION
  8
1
  6
CONTINUOUS
 62
2
  2
*D4
  3
DMST_3
 10
83.45454943187161
 20
-84.04455028567179
 30
0
 11
102.4545494318716
 21
-81.4445502856718
 31
0
 12
0
 22
0
 32
0
 70
0
 13
121.4545494318716
 23
-48.5
 33
0
 14
83.45454943187161
 24
-48.5
 34
0
 53
0
  0
DIMENSION
  8
1
  6
CONTINUOUS
 62
2
  2
*D5
  3
DMST_1
 10
91.45454943187161
 20
-60.1502088032148
 30
0
 11
102.4545494318716
 21
-57.5502088032148
 31
0
 12
0
 22
0
 32
0
 70
0
  1
(<>
 13
113.4545494318716
 23
-50
 33
0
 14
91.45454943187161
 24
-50
 34
0
 53
0
  0
DIMENSION
  8
1
  6
CONTINUOUS
 62
2
  2
*D6
  3
DMST_3
 10
-112.362599511051
 20
50
 30
0
 11
-114.962599511051
 21
-8.881784197001252e-016
 31
0
 12
0
 22
0
 32
0
 70
0
 13
-100.8454505681283
 23
-50
 33
0
 14
-100.8454505681283
 24
50
 34
0
 50
90
 53
0
  0
DIMENSION
  8
1
  6
CONTINUOUS
 62
2
  2
*D7
  3
DMST_3
 10
-33.04944127566551
 20
45.19999999999999
 30
0
 11
-35.64944127566551
 21
32.5
 31
0
 12
0
 22
0
 32
0
 70
0
  1
âË<>
 13
-55.04545056812839
 23
19.80000000000001
 33
0
 14
-55.04545056812839
 24
45.19999999999999
 34
0
 50
90
 53
0
  0
DIMENSION
  8
1
  6
CONTINUOUS
 62
2
  2
*D8
  3
DMST_1
 10
61.4207864305562
 20
32.5
 30
0
 11
58.8207864305562
 21
-0.75
 31
0
 12
0
 22
0
 32
0
 70
0
  1
(<>
 13
96.1545494318716
 23
-34
 33
0
 14
89.75454943187151
 24
32.5
 34
0
 50
90
 53
0
  0
DIMENSION
  8
1
  6
CONTINUOUS
 62
2
  2
*D9
  3
DMST_1
 10
61.4207864305562
 20
-34
 30
0
 11
58.8207864305562
 21
-42
 31
0
 12
0
 22
0
 32
0
 70
0
  1
(<>
 13
84.95454943187161
 23
-50
 33
0
 14
96.1545494318716
 24
-34
 34
0
 50
90
 53
0
  0
DIMENSION
  8
1
  6
CONTINUOUS
 62
2
  2
*D10
  3
DMST_3
 10
73.3842531645668
 20
-34
 30
0
 11
70.78425316456681
 21
-27.8190469901436
 31
0
 12
0
 22
0
 32
0
 70
0
 13
89.45454943187161
 23
-46
 33
0
 14
96.1545494318716
 24
-34
 34
0
 50
90
 53
0
  0
DIMENSION
  8
1
  6
CONTINUOUS
 62
2
  2
*D11
  3
DMST_1
 10
131.483623414956
 20
-28
 30
0
 11
128.883623414956
 21
-35
 31
0
 12
0
 22
0
 32
0
 70
0
  1
(<>
 13
121.4545494318716
 23
-42
 33
0
 14
121.4545494318716
 24
-28
 34
0
 50
90
 53
0
  0
DIMENSION
  8
1
  6
CONTINUOUS
 62
2
  2
*D12
  3
DMST_4
 10
143.439812126686
 20
-24
 30
0
 11
140.839812126686
 21
-35
 31
0
 12
0
 22
0
 32
0
 70
0
 13
119.4545494318717
 23
-46
 33
0
 14
119.4545494318717
 24
-24
 34
0
 50
90
 53
0
  0
DIMENSION
  8
1
  6
CONTINUOUS
 62
2
  2
*D13
  3
DMST_1
 10
155.340275668329
 20
-20
 30
0
 11
152.740275668329
 21
-35
 31
0
 12
0
 22
0
 32
0
 70
0
  1
(<>
 13
119.9545494318717
 23
-50
 33
0
 14
121.4545494318716
 24
-20
 34
0
 50
90
 53
0
  0
DIMENSION
  8
1
  6
CONTINUOUS
 62
2
  2
*D14
  3
DMST_1
 10
143.430794156185
 20
-50
 30
0
 11
140.830794156185
 21
-58.4552974957321
 31
0
 12
0
 22
0
 32
0
 70
0
  1
(<>
 13
119.4545494318717
 23
-46
 33
0
 14
119.9545494318717
 24
-50
 34
0
 50
90
 53
0
  0
DIMENSION
  8
1
  6
CONTINUOUS
 62
2
  2
*D15
  3
DMST_1
 10
83.45454943187161
 20
-70.98098862596869
 30
0
 11
72.07023380912089
 21
-68.3809886259687
 31
0
 12
0
 22
0
 32
0
 70
0
  1
(<>
 13
87.45454943187161
 23
-48
 33
0
 14
83.45454943187161
 24
-48.5
 34
0
 53
0
  0
DIMENSION
  8
1
  6
CONTINUOUS
 62
2
  2
*D16
  3
DMST_4
 10
117.4545494318717
 20
-70.98098862596869
 30
0
 11
102.4545494318717
 21
-68.3809886259687
 31
0
 12
0
 22
0
 32
0
 70
0
 13
87.45454943187161
 23
-48
 33
0
 14
117.4545494318717
 24
-48
 34
0
 53
0
  0
DIMENSION
  8
1
  6
CONTINUOUS
 62
2
  2
*D17
  3
DMST_3
 10
-67.44545056812821
 20
-72.0651551624796
 30
0
 11
-75.54545056812825
 21
-69.4651551624796
 31
0
 12
0
 22
0
 32
0
 70
0
 13
-83.6454505681283
 23
-50
 33
0
 14
-67.44545056812821
 24
-38
 34
0
 53
0
  0
DIMENSION
  8
1
  6
CONTINUOUS
 62
2
  2
*D18
  3
DMST_5
 10
-52.42474494266911
 20
-38.00000000000001
 30
0
 11
-55.82474494266911
 21
-49.91284817199482
 31
0
 12
0
 22
0
 32
0
 70
0
  1
âË<>
 13
-67.44545056812821
 23
-30
 33
0
 14
-67.44545056812821
 24
-38
 34
0
 50
90
 53
0
  0
DIMENSION
  8
1
  6
CONTINUOUS
 62
2
  2
*D19
  3
DMST_3
 10
-67.44545056812821
 20
-59.99917762258051
 30
0
 11
-61.81661176419529
 21
-57.39917762258051
 31
0
 12
0
 22
0
 32
0
 70
0
 13
-73.44545056812821
 23
-35.5
 33
0
 14
-67.44545056812821
 24
-38
 34
0
 53
0
  0
DIMENSION
  8
1
  6
CONTINUOUS
 62
2
  2
*D20
  3
DMST_3
 10
-55.04545056812839
 20
71.99493844305101
 30
0
 11
-78.69545056812834
 21
74.59493844305101
 31
0
 12
0
 22
0
 32
0
 70
0
 13
-102.3454505681283
 23
48.5
 33
0
 14
-55.04545056812839
 24
45.19999999999999
 34
0
 53
0
  0
DIMENSION
  8
1
  6
CONTINUOUS
 62
2
  2
*D22
  3
DMST_6
 10
-74.7218237727717
 20
-34.78795395961192
 30
0
 11
-30.11704669652421
 21
-14.70095939544399
 31
0
 12
0
 22
0
 32
0
 70
3
  1
âË<>
 15
-72.16907736348469
 25
-33.21204604038812
 35
0
 40
0
 53
0
  0
INSERT
  8
0
  2
TOP
 10
0
 20
0
 30
0
  0
INSERT
  8
1
  2
*D21
 10
0
 20
0
 30
0
  0
ENDSEC
  0
EOF
