  0
SECTION
  2
HEADER
  9
$ACADVER
  1
AC1009
  9
$INSBASE
 10
0
 20
0
  9
$EXTMIN
 10
-185
 20
-104.7635252967333
  9
$EXTMAX
 10
185.1999999999999
 20
84.69999999999999
  9
$LIMMIN
 10
-185
 20
-104.7635252967333
  9
$LIMMAX
 10
185.1999999999999
 20
84.69999999999999
  9
$VIEWCTR
 10
10
 20
10
  9
$VIEWSIZE
 40
10
  9
$SNAPMODE
 70
0
  9
$SNAPUNIT
 10
1
 20
1
  9
$SNAPBASE
 10
0
 20
0
  9
$SNAPANG
 50
0
  9
$SNAPSTYLE
 70
0
  9
$SNAPISOPAIR
 70
0
  9
$GRIDMODE
 70
0
  9
$GRIDUNIT
 10
0
 20
0
  9
$ORTHOMODE
 70
0
  9
$REGENMODE
 70
1
  9
$FILLMODE
 70
1
  9
$QTEXTMODE
 70
0
  9
$DRAGMODE
 70
2
  9
$LTSCALE
 40
1
  9
$OSMODE
 70
0
  9
$ATTMODE
 70
1
  9
$TEXTSIZE
 40
3.5
  9
$TRACEWID
 40
0.5
  9
$TEXTSTYLE
  7
STANDARD
  9
$CLAYER
  8
0
  9
$CELTYPE
  6
BYLAYER
  9
$CECOLOR
 62
256
  9
$DIMSCALE
 40
1
  9
$DIMASZ
 40
0.18
  9
$DIMEXO
 40
0.0625
  9
$DIMDLI
 40
0.38
  9
$DIMRND
 40
0
  9
$DIMDLE
 40
0
  9
$DIMEXE
 40
0.18
  9
$DIMTP
 40
0
  9
$DIMTM
 40
0
  9
$DIMTXT
 40
0.18
  9
$DIMCEN
 40
0.09
  9
$DIMTSZ
 40
0
  9
$DIMTOL
 70
0
  9
$DIMLIM
 70
0
  9
$DIMTIH
 70
1
  9
$DIMTOH
 70
1
  9
$DIMSE1
 70
0
  9
$DIMSE2
 70
0
  9
$DIMTAD
 70
0
  9
$DIMZIN
 70
0
  9
$DIMBLK
  1

  9
$DIMASO
 70
1
  9
$DIMSHO
 70
1
  9
$DIMPOST
  1

  9
$DIMAPOST
  1

  9
$DIMALT
 70
0
  9
$DIMALTD
 70
2
  9
$DIMALTF
 40
25.4
  9
$DIMLFAC
 40
1
  9
$DIMTOFL
 70
0
  9
$DIMTVP
 40
0
  9
$DIMTIX
 70
0
  9
$DIMSOXD
 70
0
  9
$DIMSAH
 70
0
  9
$DIMBLK1
  1

  9
$DIMBLK2
  1

  9
$DIMSTYLE
  2
*UNNAMED
  9
$DIMCLRD
 70
0
  9
$DIMCLRE
 70
0
  9
$DIMCLRT
 70
0
  9
$DIMTFAC
 40
1
  9
$DIMGAP
 40
0.09
  9
$LUNITS
 70
2
  9
$LUPREC
 70
4
  9
$AXISMODE
 70
0
  9
$AXISUNIT
 10
0
 20
0
  9
$SKETCHINC
 40
0.1
  9
$FILLETRAD
 40
2
  9
$AUNITS
 70
0
  9
$AUPREC
 70
0
  9
$MENU
  1
ACAD
  9
$ELEVATION
 40
0
  9
$THICKNESS
 40
0
  9
$VIEWDIR
 10
0
 20
0
 30
1
  9
$LIMCHECK
 70
0
  9
$BLIPMODE
 70
1
  9
$CHAMFERA
 40
0
  9
$CHAMFERB
 40
0
  9
$FASTZOOM
 70
1
  9
$SKPOLY
 70
0
  9
$ANGBASE
 50
0
  9
$ANGDIR
 70
0
  9
$PDMODE
 70
0
  9
$PDSIZE
 40
0
  9
$PLINEWID
 40
0
  9
$COORDS
 70
2
  0
ENDSEC
  0
SECTION
  2
TABLES
  0
TABLE
  2
DIMSTYLE
 70
5
  0
DIMSTYLE
  2
DMST_1
 70
0
  3
)
  4

  5

  6

  7

 40
1
 41
3.2
 42
1
 43
7
 44
1
 45
0
 46
0
 47
0
 48
0
140
3.2
141
0
142
0
143
25.4
144
1
145
0
146
1
147
0.09
 71
0
 72
0
 73
0
 74
0
 75
0
 76
0
 77
1
 78
9
170
0
171
2
172
0
173
0
174
0
175
0
176
2
177
2
178
2
  0
DIMSTYLE
  2
DMST_2
 70
0
  3

  4

  5

  6

  7

 40
1
 41
3.2
 42
1
 43
7
 44
1
 45
0
 46
0
 47
0
 48
0
140
3.2
141
0
142
0
143
25.4
144
1
145
0
146
1
147
0.09
 71
0
 72
0
 73
0
 74
0
 75
0
 76
0
 77
1
 78
9
170
0
171
2
172
0
173
0
174
0
175
0
176
2
177
2
178
2
  0
DIMSTYLE
  2
DMST_3
 70
0
  3

  4

  5

  6

  7

 40
1
 41
3.2
 42
1
 43
7
 44
1
 45
0
 46
0
 47
0
 48
0.02
140
3.2
141
0
142
0
143
25.4
144
1
145
0
146
0.6
147
0.09
 71
1
 72
0
 73
0
 74
0
 75
0
 76
0
 77
1
 78
9
170
0
171
2
172
0
173
0
174
0
175
0
176
2
177
2
178
2
  0
DIMSTYLE
  2
DMST_4
 70
0
  3

  4

  5

  6

  7

 40
1
 41
3.2
 42
1
 43
7
 44
1
 45
0
 46
0
 47
0.3
 48
0.3
140
3.2
141
0
142
0
143
25.4
144
1
145
0
146
0.6
147
0.09
 71
1
 72
0
 73
0
 74
0
 75
0
 76
0
 77
1
 78
9
170
0
171
2
172
0
173
0
174
0
175
0
176
2
177
2
178
2
  0
DIMSTYLE
  2
DMST_5
 70
0
  3

  4

  5

  6

  7

 40
1
 41
3.2
 42
1
 43
7
 44
1
 45
0
 46
0
 47
0.5
 48
0.5
140
3.2
141
0
142
0
143
25.4
144
1
145
0
146
0.6
147
0.09
 71
1
 72
0
 73
0
 74
0
 75
0
 76
0
 77
1
 78
9
170
0
171
2
172
0
173
0
174
0
175
0
176
2
177
2
178
2
  0
ENDTAB
  0
TABLE
  2
LTYPE
 70
9
  0
LTYPE
  2
CONTINUOUS
 70
64
  3
Solid line
 72
65
 73
0
 40
0
  0
LTYPE
  2
BORDER
 70
64
  3
__ __ . __ __ .
 72
65
 73
6
 40
17.04868421052631
 49
4.871052631578946
 49
-2.435526315789473
 49
4.871052631578946
 49
-2.435526315789473
 49
0
 49
-2.435526315789473
  0
LTYPE
  2
CENTER
 70
64
  3
____ _ ____ _
 72
65
 73
4
 40
19.48421052631579
 49
12.17763157894737
 49
-2.435526315789473
 49
2.435526315789473
 49
-2.435526315789473
  0
LTYPE
  2
DASHDOT
 70
64
  3
__ . __ . __ .
 72
65
 73
4
 40
9.742105263157892
 49
4.871052631578946
 49
-2.435526315789473
 49
0
 49
-2.435526315789473
  0
LTYPE
  2
DASHED
 70
64
  3
__ __ __ __ __
 72
65
 73
2
 40
7.306578947368419
 49
4.871052631578946
 49
-2.435526315789473
  0
LTYPE
  2
DIVIDE
 70
64
  3
__ . . __ . . 
 72
65
 73
6
 40
12.17763157894737
 49
4.871052631578946
 49
-2.435526315789473
 49
0
 49
-2.435526315789473
 49
0
 49
-2.435526315789473
  0
LTYPE
  2
DOT
 70
64
  3
..............
 72
65
 73
4
 40
4.871052631578946
 49
0
 49
-2.435526315789473
 49
0
 49
-2.435526315789473
  0
LTYPE
  2
HIDDEN
 70
64
  3
_ _ _ _ _ _ _
 72
65
 73
2
 40
3.65328947368421
 49
2.435526315789473
 49
-1.217763157894737
  0
LTYPE
  2
PHANTOM
 70
64
  3
_____ _ _ _____ _ _ 
 72
65
 73
6
 40
24.35526315789473
 49
12.17763157894737
 49
-2.435526315789473
 49
2.435526315789473
 49
-2.435526315789473
 49
2.435526315789473
 49
-2.435526315789473
  0
ENDTAB
  0
TABLE
  2
LAYER
 70
4
  0
LAYER
  2
1
 70
0
 62
7
  6
CONTINUOUS
  0
LAYER
  2
CONSTRUCTION
 70
0
 62
7
  6
CONTINUOUS
  0
LAYER
  2
0
 70
0
 62
7
  6
CONTINUOUS
  0
ENDTAB
  0
TABLE
  2
STYLE
 70
4
  0
STYLE
  2
STANDARD
 70
0
 40
0
 41
1
 50
0
 71
0
 42
3.5
  3
txt
  4

  0
STYLE
  2
SIMPLEX
 70
0
 40
0
 41
1
 50
0
 71
0
 42
3.5
  3
simplex
  4

  0
STYLE
  2
COMPLEX
 70
0
 40
0
 41
1
 50
0
 71
0
 42
3.5
  3
complex
  4

  0
STYLE
  2
ITALIC
 70
0
 40
0
 41
1
 50
0
 71
0
 42
3.5
  3
italic
  4

  0
ENDTAB
  0
TABLE
  2
VIEW
 70
0
  0
ENDTAB
  0
ENDSEC
  0
SECTION
  2
BLOCKS
  0
BLOCK
  8
1
  2
*D0
 70
1
 10
0
 20
0
 30
0
  0
LINE
  8
1
 62
2
 10
73.09999999999999
 20
70.5
 30
0
 11
79.5
 21
70.5
 31
0
  0
LINE
  8
1
 62
2
 10
79.5
 20
70.5
 30
0
 11
85.19999999992797
 21
70.5
 31
0
  0
LINE
  8
1
 62
2
 10
85.19999999992797
 20
70.5
 30
0
 11
97.38251199351581
 21
70.5
 31
0
  0
LINE
  8
1
 62
2
 10
79.5
 20
39.21804153555615
 30
0
 11
79.5
 21
71.5
 31
0
  0
LINE
  8
1
 62
2
 10
85.19999999992797
 20
27.30000000000006
 30
0
 11
85.19999999992797
 21
71.5
 31
0
  0
SOLID
  8
1
 62
2
 10
79.5
 20
70.5
 30
0
 11
76.3
 21
70.084
 31
0
 12
76.3
 22
70.916
 32
0
 13
76.3
 23
70.916
 33
0
  0
SOLID
  8
1
 62
2
 10
85.19999999992797
 20
70.5
 30
0
 11
88.39999999992797
 21
70.916
 31
0
 12
88.39999999992797
 22
70.084
 32
0
 13
88.39999999992797
 23
70.084
 33
0
  0
TEXT
  8
1
 62
2
 10
89.4625119935158
 20
71.5
 30
0
 40
3.2
  1
5.7
 41
0.9
  0
TEXT
  8
1
 62
2
 10
87.38251199351581
 20
71.5
 30
0
 40
3.2
  1
(
 41
0.9
  0
TEXT
  8
1
 62
2
 10
96.9025119935158
 20
71.5
 30
0
 40
3.2
  1
)
 41
0.9
  0
ENDBLK
  8
0
  0
BLOCK
  8
1
  2
*D1
 70
1
 10
0
 20
0
 30
0
  0
LINE
  8
1
 62
2
 10
-23.5
 20
80.5
 30
0
 11
85.19999999992795
 21
80.5
 31
0
  0
LINE
  8
1
 62
2
 10
-23.5
 20
50.5058452201944
 30
0
 11
-23.5
 21
81.5
 31
0
  0
LINE
  8
1
 62
2
 10
85.19999999992795
 20
27.30000000000006
 30
0
 11
85.19999999992795
 21
81.5
 31
0
  0
SOLID
  8
1
 62
2
 10
85.19999999992795
 20
80.5
 30
0
 11
81.99999999992795
 21
80.084
 31
0
 12
81.99999999992795
 22
80.916
 32
0
 13
81.99999999992795
 23
80.916
 33
0
  0
SOLID
  8
1
 62
2
 10
-23.5
 20
80.5
 30
0
 11
-20.3
 21
80.916
 31
0
 12
-20.3
 22
80.084
 32
0
 13
-20.3
 23
80.084
 33
0
  0
TEXT
  8
1
 62
2
 10
29.88999999996398
 20
81.5
 30
0
 40
3.2
  1
L
 41
0.9
  0
ENDBLK
  8
0
  0
BLOCK
  8
1
  2
*D2
 70
1
 10
0
 20
0
 30
0
  0
LINE
  8
1
 62
2
 10
-23.5
 20
70.5
 30
0
 11
20.5
 21
70.5
 31
0
  0
LINE
  8
1
 62
2
 10
20.5
 20
50.99999999999994
 30
0
 11
20.5
 21
71.5
 31
0
  0
LINE
  8
1
 62
2
 10
-23.5
 20
50.5058452201944
 30
0
 11
-23.5
 21
71.5
 31
0
  0
SOLID
  8
1
 62
2
 10
-23.5
 20
70.5
 30
0
 11
-20.3
 21
70.916
 31
0
 12
-20.3
 22
70.084
 32
0
 13
-20.3
 23
70.084
 33
0
  0
SOLID
  8
1
 62
2
 10
20.5
 20
70.5
 30
0
 11
17.3
 21
70.084
 31
0
 12
17.3
 22
70.916
 32
0
 13
17.3
 23
70.916
 33
0
  0
TEXT
  8
1
 62
2
 10
-3.900000000000001
 20
71.5
 30
0
 40
3.2
  1
44
 41
0.9
  0
ENDBLK
  8
0
  0
BLOCK
  8
1
  2
*D3
 70
1
 10
0
 20
0
 30
0
  0
LINE
  8
1
 62
2
 10
-75.49999999999999
 20
34.00024539811398
 30
0
 11
-75.49999999999999
 21
55.3550360303569
 31
0
  0
LINE
  8
1
 62
2
 10
-75.49999999999999
 20
26
 30
0
 11
-75.49999999999999
 21
34.00024539811398
 31
0
  0
LINE
  8
1
 62
2
 10
-75.49999999999999
 20
19.6
 30
0
 11
-75.49999999999999
 21
26
 31
0
  0
LINE
  8
1
 62
2
 10
-38.11419726624099
 20
34.00024539811398
 30
0
 11
-76.49999999999999
 21
34.00024539811398
 31
0
  0
LINE
  8
1
 62
2
 10
-29.50000000000001
 20
26
 30
0
 11
-76.49999999999999
 21
26
 31
0
  0
SOLID
  8
1
 62
2
 10
-75.49999999999999
 20
34.00024539811398
 30
0
 11
-75.91599999999998
 21
37.20024539811398
 31
0
 12
-75.08399999999999
 22
37.20024539811398
 32
0
 13
-75.08399999999999
 23
37.20024539811398
 33
0
  0
SOLID
  8
1
 62
2
 10
-75.49999999999999
 20
26
 30
0
 11
-75.08399999999999
 21
22.8
 31
0
 12
-75.91599999999998
 22
22.8
 32
0
 13
-75.91599999999998
 23
22.8
 33
0
  0
TEXT
  8
1
 62
2
 10
-77.16485891057501
 20
45.0670360303569
 30
0
 40
3.2
  1
8
 50
90
 41
0.9
  0
TEXT
  8
1
 62
2
 10
-79.24485891057501
 20
48.5870360303569
 30
0
 40
1.92
  1
 0
 50
90
 41
0.9
  0
TEXT
  8
1
 62
2
 10
-76.364858910575
 20
48.5870360303569
 30
0
 40
1.92
  1
-0.02
 50
90
 41
0.9
  0
TEXT
  8
1
 62
2
 10
-77.16485891057501
 20
41.2270360303569
 30
0
 40
3.2
  1
%%c
 50
90
 41
0.9
  0
ENDBLK
  8
0
  0
BLOCK
  8
1
  2
*D4
 70
1
 10
0
 20
0
 30
0
  0
LINE
  8
1
 62
2
 10
-55.5
 20
80.5
 30
0
 11
-23.5
 21
80.5
 31
0
  0
LINE
  8
1
 62
2
 10
-23.5
 20
50.5058452201944
 30
0
 11
-23.5
 21
81.5
 31
0
  0
LINE
  8
1
 62
2
 10
-55.5
 20
34.00000000000001
 30
0
 11
-55.5
 21
81.5
 31
0
  0
SOLID
  8
1
 62
2
 10
-55.5
 20
80.5
 30
0
 11
-52.3
 21
80.916
 31
0
 12
-52.3
 22
80.084
 32
0
 13
-52.3
 23
80.084
 33
0
  0
SOLID
  8
1
 62
2
 10
-23.5
 20
80.5
 30
0
 11
-26.7
 21
80.084
 31
0
 12
-26.7
 22
80.916
 32
0
 13
-26.7
 23
80.916
 33
0
  0
TEXT
  8
1
 62
2
 10
-41.9
 20
81.5
 30
0
 40
3.2
  1
32
 41
0.9
  0
ENDBLK
  8
0
  0
BLOCK
  8
1
  2
*D5
 70
1
 10
0
 20
0
 30
0
  0
LINE
  8
1
 62
2
 10
-23.5
 20
70.5
 30
0
 11
-17.10000000000001
 21
70.5
 31
0
  0
LINE
  8
1
 62
2
 10
-28.50000000000002
 20
70.5
 30
0
 11
-34.90000000000002
 21
70.5
 31
0
  0
LINE
  8
1
 62
2
 10
-28.50000000000002
 20
70.5
 30
0
 11
-23.5
 21
70.5
 31
0
  0
LINE
  8
1
 62
2
 10
-23.5
 20
50.5058452201944
 30
0
 11
-23.5
 21
71.5
 31
0
  0
LINE
  8
1
 62
2
 10
-28.50000000000002
 20
39.50000000000001
 30
0
 11
-28.50000000000002
 21
71.5
 31
0
  0
SOLID
  8
1
 62
2
 10
-28.50000000000002
 20
70.5
 30
0
 11
-31.70000000000002
 21
70.084
 31
0
 12
-31.70000000000002
 22
70.916
 32
0
 13
-31.70000000000002
 23
70.916
 33
0
  0
SOLID
  8
1
 62
2
 10
-23.5
 20
70.5
 30
0
 11
-20.3
 21
70.916
 31
0
 12
-20.3
 22
70.084
 32
0
 13
-20.3
 23
70.084
 33
0
  0
TEXT
  8
1
 62
2
 10
-26.96000000000001
 20
71.5
 30
0
 40
3.2
  1
5
 41
0.9
  0
ENDBLK
  8
0
  0
BLOCK
  8
1
  2
*D6
 70
1
 10
0
 20
0
 30
0
  0
LINE
  8
1
 62
2
 10
-55.5
 20
70.5
 30
0
 11
-42.5000000000002
 21
70.5
 31
0
  0
LINE
  8
1
 62
2
 10
-42.5000000000002
 20
34.00000000000001
 30
0
 11
-42.5000000000002
 21
71.5
 31
0
  0
LINE
  8
1
 62
2
 10
-55.5
 20
34.00000000000001
 30
0
 11
-55.5
 21
71.5
 31
0
  0
SOLID
  8
1
 62
2
 10
-55.5
 20
70.5
 30
0
 11
-52.3
 21
70.916
 31
0
 12
-52.3
 22
70.084
 32
0
 13
-52.3
 23
70.084
 33
0
  0
SOLID
  8
1
 62
2
 10
-42.5000000000002
 20
70.5
 30
0
 11
-45.7000000000002
 21
70.084
 31
0
 12
-45.7000000000002
 22
70.916
 32
0
 13
-45.7000000000002
 23
70.916
 33
0
  0
TEXT
  8
1
 62
2
 10
-50.9200000000001
 20
71.5
 30
0
 40
3.2
  1
13
 41
0.9
  0
ENDBLK
  8
0
  0
BLOCK
  8
1
  2
*D7
 70
1
 10
0
 20
0
 30
0
  0
LINE
  8
1
 62
2
 10
-65.5
 20
33
 30
0
 11
-65.5
 21
52.0960122046543
 31
0
  0
LINE
  8
1
 62
2
 10
-65.5
 20
26
 30
0
 11
-65.5
 21
33
 31
0
  0
LINE
  8
1
 62
2
 10
-65.5
 20
19.6
 30
0
 11
-65.5
 21
26
 31
0
  0
LINE
  8
1
 62
2
 10
-55.99999999999999
 20
33
 30
0
 11
-66.5
 21
33
 31
0
  0
LINE
  8
1
 62
2
 10
-56
 20
26
 30
0
 11
-66.5
 21
26
 31
0
  0
SOLID
  8
1
 62
2
 10
-65.5
 20
33
 30
0
 11
-65.916
 21
36.2
 31
0
 12
-65.084
 22
36.2
 32
0
 13
-65.084
 23
36.2
 33
0
  0
SOLID
  8
1
 62
2
 10
-65.5
 20
26
 30
0
 11
-65.084
 21
22.8
 31
0
 12
-65.916
 22
22.8
 32
0
 13
-65.916
 23
22.8
 33
0
  0
TEXT
  8
1
 62
2
 10
-66.5
 20
43.72801220465431
 30
0
 40
3.2
  1
7
 50
90
 41
0.9
  0
TEXT
  8
1
 62
2
 10
-67.14
 20
47.2480122046543
 30
0
 40
1.92
  1
%%p0.3
 50
90
 41
0.9
  0
ENDBLK
  8
0
  0
BLOCK
  8
1
  2
*D8
 70
1
 10
0
 20
0
 30
0
  0
LINE
  8
1
 62
2
 10
-85.5
 20
21
 30
0
 11
-85.5
 21
39
 31
0
  0
LINE
  8
1
 62
2
 10
-29.00000000000001
 20
39
 30
0
 11
-86.5
 21
39
 31
0
  0
LINE
  8
1
 62
2
 10
-29.00000000000001
 20
21
 30
0
 11
-86.5
 21
21
 31
0
  0
SOLID
  8
1
 62
2
 10
-85.5
 20
39
 30
0
 11
-85.084
 21
35.8
 31
0
 12
-85.916
 22
35.8
 32
0
 13
-85.916
 23
35.8
 33
0
  0
SOLID
  8
1
 62
2
 10
-85.5
 20
21
 30
0
 11
-85.916
 21
24.2
 31
0
 12
-85.084
 22
24.2
 32
0
 13
-85.084
 23
24.2
 33
0
  0
TEXT
  8
1
 62
2
 10
-86.5
 20
30
 30
0
 40
3.2
  1
18
 50
90
 41
0.9
  0
TEXT
  8
1
 62
2
 10
-86.5
 20
26.16
 30
0
 40
3.2
  1
%%c
 50
90
 41
0.9
  0
ENDBLK
  8
0
  0
BLOCK
  8
1
  2
*D9
 70
1
 10
0
 20
0
 30
0
  0
LINE
  8
1
 62
2
 10
-94.99999999999997
 20
-4.75
 30
0
 11
-94.99999999999997
 21
44.75
 31
0
  0
LINE
  8
1
 62
2
 10
-117.348932800608
 20
-4.75
 30
0
 11
-93.99999999999997
 21
-4.75
 31
0
  0
LINE
  8
1
 62
2
 10
-117.348932800608
 20
44.75
 30
0
 11
-93.99999999999997
 21
44.75
 31
0
  0
SOLID
  8
1
 62
2
 10
-94.99999999999997
 20
44.75
 30
0
 11
-94.58399999999998
 21
41.55
 31
0
 12
-95.41599999999997
 22
41.55
 32
0
 13
-95.41599999999997
 23
41.55
 33
0
  0
SOLID
  8
1
 62
2
 10
-94.99999999999997
 20
-4.75
 30
0
 11
-95.41599999999997
 21
-1.549999999999999
 31
0
 12
-94.58399999999998
 22
-1.549999999999999
 32
0
 13
-94.58399999999998
 23
-1.549999999999999
 33
0
  0
TEXT
  8
1
 62
2
 10
-95.99999999999997
 20
12.416
 30
0
 40
3.2
  1
49.5
 50
90
 41
0.9
  0
TEXT
  8
1
 62
2
 10
-96.63999999999997
 20
22.736
 30
0
 40
1.92
  1
%%p0.3
 50
90
 41
0.9
  0
ENDBLK
  8
0
  0
BLOCK
  8
1
  2
*D10
 70
1
 10
0
 20
0
 30
0
  0
LINE
  8
1
 62
2
 10
-180
 20
70.5
 30
0
 11
-120
 21
70.5
 31
0
  0
LINE
  8
1
 62
2
 10
-180
 20
46
 30
0
 11
-180
 21
71.5
 31
0
  0
LINE
  8
1
 62
2
 10
-120
 20
46
 30
0
 11
-120
 21
71.5
 31
0
  0
SOLID
  8
1
 62
2
 10
-180
 20
70.5
 30
0
 11
-176.8
 21
70.916
 31
0
 12
-176.8
 22
70.084
 32
0
 13
-176.8
 23
70.084
 33
0
  0
SOLID
  8
1
 62
2
 10
-120
 20
70.5
 30
0
 11
-123.2
 21
70.084
 31
0
 12
-123.2
 22
70.916
 32
0
 13
-123.2
 23
70.916
 33
0
  0
TEXT
  8
1
 62
2
 10
-149.52
 20
71.5
 30
0
 40
3.2
  1
61
 41
0.9
  0
TEXT
  8
1
 62
2
 10
-154.32
 20
71.5
 30
0
 40
3.2
  1
 
 41
0.9
  0
ENDBLK
  8
0
  0
BLOCK
  8
1
  2
*D11
 70
1
 10
0
 20
0
 30
0
  0
LINE
  8
1
 62
2
 10
110.199999999928
 20
1.400000000000492
 30
0
 11
110.199999999928
 21
38.60000000000048
 31
0
  0
LINE
  8
1
 62
2
 10
81.20000000000002
 20
1.400000000000492
 30
0
 11
111.199999999928
 21
1.400000000000492
 31
0
  0
LINE
  8
1
 62
2
 10
81.20000000000005
 20
38.60000000000048
 30
0
 11
111.199999999928
 21
38.60000000000048
 31
0
  0
SOLID
  8
1
 62
2
 10
110.199999999928
 20
38.60000000000048
 30
0
 11
110.615999999928
 21
35.40000000000048
 31
0
 12
109.783999999928
 22
35.40000000000048
 32
0
 13
109.783999999928
 23
35.40000000000048
 33
0
  0
SOLID
  8
1
 62
2
 10
110.199999999928
 20
1.400000000000492
 30
0
 11
109.783999999928
 21
4.600000000000494
 31
0
 12
110.615999999928
 22
4.600000000000494
 32
0
 13
110.615999999928
 23
4.600000000000494
 33
0
  0
TEXT
  8
1
 62
2
 10
109.199999999928
 20
17.56000000000051
 30
0
 40
3.2
  1
37.2
 50
90
 41
0.9
  0
TEXT
  8
1
 62
2
 10
109.199999999928
 20
13.72000000000051
 30
0
 40
3.2
  1
%%c
 50
90
 41
0.9
  0
ENDBLK
  8
0
  0
BLOCK
  8
1
  2
*D12
 70
1
 10
0
 20
0
 30
0
  0
LINE
  8
1
 62
2
 10
100.199999999928
 20
12.69999999999993
 30
0
 11
100.199999999928
 21
27.30000000000007
 31
0
  0
LINE
  8
1
 62
2
 10
85.19999999992797
 20
12.69999999999993
 30
0
 11
101.199999999928
 21
12.69999999999993
 31
0
  0
LINE
  8
1
 62
2
 10
85.19999999992797
 20
27.30000000000007
 30
0
 11
101.199999999928
 21
27.30000000000007
 31
0
  0
SOLID
  8
1
 62
2
 10
100.199999999928
 20
27.30000000000007
 30
0
 11
100.615999999928
 21
24.10000000000007
 31
0
 12
99.78399999992796
 22
24.10000000000007
 32
0
 13
99.78399999992796
 23
24.10000000000007
 33
0
  0
SOLID
  8
1
 62
2
 10
100.199999999928
 20
12.69999999999993
 30
0
 11
99.78399999992796
 21
15.89999999999993
 31
0
 12
100.615999999928
 22
15.89999999999993
 32
0
 13
100.615999999928
 23
15.89999999999993
 33
0
  0
TEXT
  8
1
 62
2
 10
99.19999999992795
 20
18.04
 30
0
 40
3.2
  1
14.6
 50
90
 41
0.9
  0
TEXT
  8
1
 62
2
 10
99.19999999992795
 20
14.2
 30
0
 40
3.2
  1
%%c
 50
90
 41
0.9
  0
ENDBLK
  8
0
  0
BLOCK
  8
1
  2
*D13
 70
1
 10
0
 20
0
 30
0
  0
LINE
  8
1
 62
2
 10
184.1999999999999
 20
2.999999999999968
 30
0
 11
184.1999999999999
 21
37.00000000000117
 31
0
  0
LINE
  8
1
 62
2
 10
153.5861380996319
 20
37.00000000000117
 30
0
 11
185.1999999999999
 21
37.00000000000117
 31
0
  0
LINE
  8
1
 62
2
 10
153.5861380996319
 20
2.999999999999968
 30
0
 11
185.1999999999999
 21
2.999999999999968
 31
0
  0
SOLID
  8
1
 62
2
 10
184.1999999999999
 20
37.00000000000117
 30
0
 11
184.6159999999999
 21
33.80000000000116
 31
0
 12
183.7839999999999
 22
33.80000000000116
 32
0
 13
183.7839999999999
 23
33.80000000000116
 33
0
  0
SOLID
  8
1
 62
2
 10
184.1999999999999
 20
2.999999999999968
 30
0
 11
183.7839999999999
 21
6.199999999999969
 31
0
 12
184.6159999999999
 22
6.199999999999969
 32
0
 13
184.6159999999999
 23
6.199999999999969
 33
0
  0
TEXT
  8
1
 62
2
 10
183.1999999999999
 20
17.60000000000057
 30
0
 40
3.2
  1
34
 50
90
 41
0.9
  0
TEXT
  8
1
 62
2
 10
183.1999999999999
 20
15.52000000000057
 30
0
 40
3.2
  1
(
 50
90
 41
0.9
  0
TEXT
  8
1
 62
2
 10
183.1999999999999
 20
24.00000000000057
 30
0
 40
3.2
  1
)
 50
90
 41
0.9
  0
ENDBLK
  8
0
  0
BLOCK
  8
1
  2
*D14
 70
1
 10
0
 20
0
 30
0
  0
LINE
  8
1
 62
2
 10
120.199999999928
 20
0.8000000000000114
 30
0
 11
120.199999999928
 21
39.19999999999999
 31
0
  0
LINE
  8
1
 62
2
 10
66.59999999999994
 20
0.8000000000000114
 30
0
 11
121.199999999928
 21
0.8000000000000114
 31
0
  0
LINE
  8
1
 62
2
 10
66.59999999999994
 20
39.19999999999999
 30
0
 11
121.199999999928
 21
39.19999999999999
 31
0
  0
SOLID
  8
1
 62
2
 10
120.199999999928
 20
39.19999999999999
 30
0
 11
120.615999999928
 21
35.99999999999999
 31
0
 12
119.783999999928
 22
35.99999999999999
 32
0
 13
119.783999999928
 23
35.99999999999999
 33
0
  0
SOLID
  8
1
 62
2
 10
120.199999999928
 20
0.8000000000000114
 30
0
 11
119.783999999928
 21
4.000000000000012
 31
0
 12
120.615999999928
 22
4.000000000000012
 32
0
 13
120.615999999928
 23
4.000000000000012
 33
0
  0
TEXT
  8
1
 62
2
 10
119.199999999928
 20
17.56
 30
0
 40
3.2
  1
38.4
 50
90
 41
0.9
  0
TEXT
  8
1
 62
2
 10
119.199999999928
 20
13.72
 30
0
 40
3.2
  1
%%c
 50
90
 41
0.9
  0
ENDBLK
  8
0
  0
BLOCK
  8
1
  2
*D15
 70
1
 10
0
 20
0
 30
0
  0
LINE
  8
1
 62
2
 10
-105
 20
20
 30
0
 11
-105
 21
30
 31
0
  0
LINE
  8
1
 62
2
 10
-105
 20
20
 30
0
 11
-105
 21
7.549478205121901
 31
0
  0
LINE
  8
1
 62
2
 10
-114
 20
20
 30
0
 11
-104
 21
20
 31
0
  0
LINE
  8
1
 62
2
 10
-137
 20
30
 30
0
 11
-104
 21
30
 31
0
  0
SOLID
  8
1
 62
2
 10
-105
 20
30
 30
0
 11
-104.584
 21
26.8
 31
0
 12
-105.416
 22
26.8
 32
0
 13
-105.416
 23
26.8
 33
0
  0
SOLID
  8
1
 62
2
 10
-105
 20
20
 30
0
 11
-105.416
 21
23.2
 31
0
 12
-104.584
 22
23.2
 32
0
 13
-104.584
 23
23.2
 33
0
  0
TEXT
  8
1
 62
2
 10
-106
 20
7.549478205121901
 30
0
 40
3.2
  1
10
 50
90
 41
0.9
  0
TEXT
  8
1
 62
2
 10
-106.64
 20
12.9894782051219
 30
0
 40
1.92
  1
%%p0.5
 50
90
 41
0.9
  0
ENDBLK
  8
0
  0
BLOCK
  8
1
  2
*D16
 70
1
 10
0
 20
0
 30
0
  0
LINE
  8
1
 62
2
 10
-174.75
 20
60.49999999999999
 30
0
 11
-125.25
 21
60.49999999999999
 31
0
  0
LINE
  8
1
 62
2
 10
-125.25
 20
53.2959337064361
 30
0
 11
-125.25
 21
61.49999999999999
 31
0
  0
LINE
  8
1
 62
2
 10
-174.75
 20
53.2959337064361
 30
0
 11
-174.75
 21
61.49999999999999
 31
0
  0
SOLID
  8
1
 62
2
 10
-174.75
 20
60.49999999999999
 30
0
 11
-171.55
 21
60.91599999999999
 31
0
 12
-171.55
 22
60.084
 32
0
 13
-171.55
 23
60.084
 33
0
  0
SOLID
  8
1
 62
2
 10
-125.25
 20
60.49999999999999
 30
0
 11
-128.45
 21
60.084
 31
0
 12
-128.45
 22
60.91599999999999
 32
0
 13
-128.45
 23
60.91599999999999
 33
0
  0
TEXT
  8
1
 62
2
 10
-157.584
 20
61.49999999999999
 30
0
 40
3.2
  1
49.5
 41
0.9
  0
TEXT
  8
1
 62
2
 10
-147.264
 20
62.13999999999999
 30
0
 40
1.92
  1
%%p0.3
 41
0.9
  0
ENDBLK
  8
0
  0
ENDSEC
  0
SECTION
  2
ENTITIES
  0
LINE
  8
0
 62
1
 10
10.50000000000023
 20
44.87500000000011
 30
0
 11
-40.54709836901727
 21
44.875
 31
0
  0
LINE
  8
1
 62
3
 10
-23.5
 20
48.67500000000013
 30
0
 11
-24.5
 21
48.67500000000013
 31
0
  0
LINE
  8
1
 62
3
 10
-23.5
 20
44.75000000000011
 30
0
 11
-24.5
 21
44.62500000000011
 31
0
  0
LINE
  8
1
 62
3
 10
-23.5
 20
45.12500000000011
 30
0
 11
-24.5
 21
45.00000000000011
 31
0
  0
LINE
  8
1
 62
3
 10
-24.5
 20
41.0750000000001
 30
0
 11
-23.5
 21
41.0750000000001
 31
0
  0
LINE
  8
1
 62
3
 10
-24.85907292720321
 20
40.83500000000009
 30
0
 11
-27.34092707279683
 21
40.83500000000009
 31
0
  0
LINE
  8
1
 62
3
 10
-39
 20
42.87500000000011
 30
0
 11
-39.5
 21
43.37500000000011
 31
0
  0
LINE
  8
1
 62
3
 10
-39.5
 20
46.37500000000011
 30
0
 11
-39
 21
46.87500000000011
 31
0
  0
LINE
  8
1
 62
3
 10
-39
 20
42.87500000000011
 30
0
 11
-27.69999999999993
 21
42.87500000000011
 31
0
  0
LINE
  8
1
 62
1
 10
-39.5
 20
43.37500000000011
 30
0
 11
-27.69999999999993
 21
43.37500000000011
 31
0
  0
LINE
  8
1
 62
1
 10
-39.5
 20
46.37500000000011
 30
0
 11
-27.69999999999993
 21
46.37500000000011
 31
0
  0
LINE
  8
1
 62
1
 10
-39
 20
46.87500000000011
 30
0
 11
-39
 21
42.87500000000011
 31
0
  0
LINE
  8
1
 62
3
 10
-39.5
 20
46.37500000000011
 30
0
 11
-39.5
 21
43.37500000000011
 31
0
  0
LINE
  8
1
 62
3
 10
-39
 20
46.87500000000011
 30
0
 11
-27.69999999999993
 21
46.87500000000011
 31
0
  0
LINE
  8
1
 62
3
 10
-27.69999999999993
 20
47.90500000000009
 30
0
 11
-27.69999999999993
 21
41.84500000000008
 31
0
  0
LINE
  8
1
 62
3
 10
-24.5
 20
41.84500000000008
 30
0
 11
-24.5
 21
47.90500000000009
 31
0
  0
LINE
  8
1
 62
3
 10
-24.85907292720321
 20
46.8950000000001
 30
0
 11
-27.34092707279683
 21
46.8950000000001
 31
0
  0
LINE
  8
1
 62
3
 10
-24.85907292720321
 20
42.85500000000013
 30
0
 11
-27.34092707279683
 21
42.85500000000013
 31
0
  0
LINE
  8
1
 62
3
 10
-24.85907292720321
 20
48.91500000000008
 30
0
 11
-27.34092707279683
 21
48.91500000000008
 31
0
  0
LINE
  8
1
 62
3
 10
-24.5
 20
48.67500000000013
 30
0
 11
-24.5
 21
41.0750000000001
 31
0
  0
LINE
  8
0
 62
1
 10
-40.54709836901727
 20
-4.624999999999773
 30
0
 11
10.50000000000023
 21
-4.624999999999886
 31
0
  0
LINE
  8
1
 62
3
 10
-23.5
 20
-4.749999999999886
 30
0
 11
-24.5
 21
-4.874999999999886
 31
0
  0
LINE
  8
1
 62
3
 10
-23.5
 20
-4.374999999999886
 30
0
 11
-24.5
 21
-4.499999999999886
 31
0
  0
LINE
  8
1
 62
3
 10
-24.5
 20
-8.424999999999898
 30
0
 11
-23.5
 21
-8.424999999999898
 31
0
  0
LINE
  8
1
 62
3
 10
-23.5
 20
-0.8249999999998749
 30
0
 11
-24.5
 21
-0.8249999999998749
 31
0
  0
LINE
  8
1
 62
3
 10
-39
 20
-6.624999999999886
 30
0
 11
-39.5
 21
-6.124999999999886
 31
0
  0
LINE
  8
1
 62
3
 10
-39.5
 20
-3.124999999999886
 30
0
 11
-39
 21
-2.624999999999886
 31
0
  0
LINE
  8
1
 62
3
 10
-39
 20
-6.624999999999886
 30
0
 11
-27.69999999999993
 21
-6.624999999999886
 31
0
  0
LINE
  8
1
 62
1
 10
-39.5
 20
-6.124999999999886
 30
0
 11
-27.69999999999993
 21
-6.124999999999886
 31
0
  0
LINE
  8
1
 62
1
 10
-39.5
 20
-3.124999999999886
 30
0
 11
-27.69999999999993
 21
-3.124999999999886
 31
0
  0
LINE
  8
1
 62
1
 10
-39
 20
-2.624999999999886
 30
0
 11
-39
 21
-6.624999999999886
 31
0
  0
LINE
  8
1
 62
3
 10
-39.5
 20
-3.124999999999886
 30
0
 11
-39.5
 21
-6.124999999999886
 31
0
  0
LINE
  8
1
 62
3
 10
-39
 20
-2.624999999999886
 30
0
 11
-27.69999999999993
 21
-2.624999999999886
 31
0
  0
LINE
  8
1
 62
3
 10
-27.69999999999993
 20
-1.594999999999857
 30
0
 11
-27.69999999999993
 21
-7.654999999999859
 31
0
  0
LINE
  8
1
 62
3
 10
-24.5
 20
-7.654999999999859
 30
0
 11
-24.5
 21
-1.594999999999857
 31
0
  0
LINE
  8
1
 62
3
 10
-24.85907292720321
 20
-2.604999999999905
 30
0
 11
-27.34092707279683
 21
-2.604999999999905
 31
0
  0
LINE
  8
1
 62
3
 10
-24.85907292720321
 20
-6.644999999999868
 30
0
 11
-27.34092707279683
 21
-6.644999999999868
 31
0
  0
LINE
  8
1
 62
3
 10
-24.85907292720321
 20
-8.66499999999985
 30
0
 11
-27.34092707279683
 21
-8.66499999999985
 31
0
  0
LINE
  8
1
 62
3
 10
-24.85907292720321
 20
-0.5849999999998659
 30
0
 11
-27.34092707279683
 21
-0.5849999999998659
 31
0
  0
LINE
  8
1
 62
3
 10
-24.5
 20
-0.8249999999998749
 30
0
 11
-24.5
 21
-8.424999999999898
 31
0
  0
LINE
  8
1
 62
3
 10
-178.2487426312891
 20
-6.769999999999698
 30
0
 11
-174.7499999999997
 21
-8.790000000000106
 31
0
  0
LINE
  8
1
 62
3
 10
-174.7499999999997
 20
-8.790000000000106
 30
0
 11
-171.2512573687104
 21
-6.769999999999698
 31
0
  0
LINE
  8
1
 62
3
 10
-171.2512573687106
 20
-2.729999999999706
 30
0
 11
-174.7499999999997
 21
-0.7099999999998943
 31
0
  0
LINE
  8
1
 62
3
 10
-174.7499999999997
 20
-0.7099999999998943
 30
0
 11
-178.2487426312889
 21
-2.729999999999706
 31
0
  0
LINE
  8
1
 62
3
 10
-178.2487426312889
 20
-2.729999999999706
 30
0
 11
-178.2487426312891
 21
-6.769999999999698
 31
0
  0
LINE
  8
1
 62
3
 10
-171.2512573687104
 20
-6.769999999999698
 30
0
 11
-171.2512573687106
 21
-2.729999999999706
 31
0
  0
LINE
  8
1
 62
1
 10
-173.125
 20
-4.750000000000057
 30
0
 11
-172.75
 21
-4.750000000000057
 31
0
  0
LINE
  8
1
 62
3
 10
-171.2512573687106
 20
46.77000000000029
 30
0
 11
-174.7499999999997
 21
48.79000000000011
 31
0
  0
LINE
  8
1
 62
3
 10
-174.7499999999997
 20
48.79000000000011
 30
0
 11
-178.2487426312889
 21
46.77000000000029
 31
0
  0
LINE
  8
1
 62
3
 10
-178.2487426312889
 20
46.77000000000029
 30
0
 11
-178.2487426312891
 21
42.7300000000003
 31
0
  0
LINE
  8
1
 62
3
 10
-178.2487426312891
 20
42.7300000000003
 30
0
 11
-174.7499999999997
 21
40.70999999999989
 31
0
  0
LINE
  8
1
 62
3
 10
-174.7499999999997
 20
40.70999999999989
 30
0
 11
-171.2512573687104
 21
42.7300000000003
 31
0
  0
LINE
  8
1
 62
3
 10
-171.2512573687104
 20
42.7300000000003
 30
0
 11
-171.2512573687106
 21
46.77000000000029
 31
0
  0
LINE
  8
1
 62
3
 10
-125.2499999999997
 20
48.79000000000011
 30
0
 11
-128.7487426312888
 21
46.77000000000029
 31
0
  0
LINE
  8
1
 62
3
 10
-121.7512573687106
 20
46.77000000000029
 30
0
 11
-125.2499999999997
 21
48.79000000000011
 31
0
  0
LINE
  8
1
 62
3
 10
-121.7512573687103
 20
42.7300000000003
 30
0
 11
-121.7512573687106
 21
46.77000000000029
 31
0
  0
LINE
  8
1
 62
3
 10
-125.2499999999997
 20
40.70999999999989
 30
0
 11
-121.7512573687103
 21
42.7300000000003
 31
0
  0
LINE
  8
1
 62
3
 10
-128.7487426312891
 20
42.7300000000003
 30
0
 11
-125.2499999999997
 21
40.70999999999989
 31
0
  0
LINE
  8
1
 62
3
 10
-128.7487426312888
 20
46.77000000000029
 30
0
 11
-128.7487426312891
 21
42.7300000000003
 31
0
  0
LINE
  8
1
 62
3
 10
-125.2499999999997
 20
-0.7099999999998943
 30
0
 11
-128.7487426312888
 21
-2.729999999999706
 31
0
  0
LINE
  8
1
 62
3
 10
-128.7487426312888
 20
-2.729999999999706
 30
0
 11
-128.7487426312891
 21
-6.769999999999698
 31
0
  0
LINE
  8
1
 62
3
 10
-128.7487426312891
 20
-6.769999999999698
 30
0
 11
-125.2499999999997
 21
-8.790000000000106
 31
0
  0
LINE
  8
1
 62
3
 10
-125.2499999999997
 20
-8.790000000000106
 30
0
 11
-121.7512573687103
 21
-6.769999999999698
 31
0
  0
LINE
  8
1
 62
3
 10
-121.7512573687103
 20
-6.769999999999698
 30
0
 11
-121.7512573687106
 21
-2.729999999999706
 31
0
  0
LINE
  8
1
 62
3
 10
-121.7512573687106
 20
-2.729999999999706
 30
0
 11
-125.2499999999997
 21
-0.7099999999998943
 31
0
  0
LINE
  8
1
 62
1
 10
-123.625
 20
-4.750000000000057
 30
0
 11
-123.25
 21
-4.750000000000057
 31
0
  0
LINE
  8
1
 62
3
 10
136.0655317480842
 20
7.679667434021553
 30
0
 11
135.5946559427362
 21
7.306455869545061
 31
0
  0
LINE
  8
1
 62
3
 10
134.8232361875276
 20
9.24705434867326
 30
0
 11
134.3523603821796
 21
8.873842784196711
 31
0
  0
LINE
  8
1
 62
3
 10
-37.11419726624099
 20
34.00024539811398
 30
0
 11
-28.50000000000001
 21
34.00024539811398
 31
0
  0
LINE
  8
1
 62
3
 10
-55.5
 20
33
 30
0
 11
-42.5000000000002
 21
33
 31
0
  0
LINE
  8
1
 62
1
 10
-19.2063251401869
 20
30
 30
0
 11
-58.90146535774528
 21
30
 31
0
  0
LINE
  8
1
 62
1
 10
-138
 20
30
 30
0
 11
-162
 21
30
 31
0
  0
LINE
  8
1
 62
3
 10
-28.00000000000001
 20
21
 30
0
 11
-23.00000000000001
 21
21
 31
0
  0
LINE
  8
1
 62
3
 10
-55
 20
26
 30
0
 11
-28.50000000000001
 21
26
 31
0
  0
LINE
  8
1
 62
3
 10
-55
 20
26
 30
0
 11
-55.5
 21
26.5
 31
0
  0
LINE
  8
1
 62
2
 10
-54.99999999999999
 20
33
 30
0
 11
-55
 21
26
 31
0
  0
LINE
  8
1
 62
3
 10
-55.5
 20
33
 30
0
 11
-55.5
 21
26.5
 31
0
  0
LINE
  8
1
 62
3
 10
-28.50000000000001
 20
21.5
 30
0
 11
-28.50000000000001
 21
38.5
 31
0
  0
LINE
  8
1
 62
3
 10
-23.00000000000001
 20
39
 30
0
 11
-28.00000000000001
 21
39
 31
0
  0
LINE
  8
1
 62
3
 10
18.5
 20
49.99999999999994
 30
0
 11
18.5
 21
-10
 31
0
  0
LINE
  8
1
 62
3
 10
17.5
 20
-9.5
 30
0
 11
18.5
 21
-9.5
 31
0
  0
LINE
  8
1
 62
3
 10
17.5
 20
49.5
 30
0
 11
18.5
 21
49.5
 31
0
  0
LINE
  8
1
 62
3
 10
-12.89164723857698
 20
51.595538861926
 30
0
 11
5.831168532074116
 21
51.595538861926
 31
0
  0
LINE
  8
1
 62
3
 10
-148.994117647059
 20
-3.200000000000046
 30
0
 11
-148.6000000000001
 21
-3.200000000000046
 31
0
  0
LINE
  8
1
 62
3
 10
-148.994117647059
 20
-3.800000000000011
 30
0
 11
-148.6000000000001
 21
-3.800000000000011
 31
0
  0
LINE
  8
1
 62
3
 10
-149
 20
-3.200000000000046
 30
0
 11
-148.994117647059
 21
-3.200000000000046
 31
0
  0
LINE
  8
1
 62
3
 10
-149
 20
-3.800000000000011
 30
0
 11
-148.994117647059
 21
-3.800000000000011
 31
0
  0
LINE
  8
1
 62
3
 10
-149.7
 20
-4.5
 30
0
 11
-149.7
 21
-4.899999999999977
 31
0
  0
LINE
  8
1
 62
3
 10
-150.2
 20
-2
 30
0
 11
-149.8000000000001
 21
-2
 31
0
  0
LINE
  8
1
 62
3
 10
-150.2
 20
-5
 30
0
 11
-149.8000000000001
 21
-5
 31
0
  0
LINE
  8
1
 62
3
 10
-148.5
 20
-3.300000000000011
 30
0
 11
-148.5
 21
-3.700000000000046
 31
0
  0
LINE
  8
1
 62
3
 10
-151.5
 20
-3.300000000000011
 30
0
 11
-151.5
 21
-3.700000000000046
 31
0
  0
LINE
  8
1
 62
3
 10
-151.4
 20
-3.200000000000046
 30
0
 11
-151
 21
-3.200000000000046
 31
0
  0
LINE
  8
1
 62
3
 10
-151.4
 20
-3.800000000000011
 30
0
 11
-151
 21
-3.800000000000011
 31
0
  0
LINE
  8
1
 62
3
 10
-150.3000000000001
 20
-4.899999999999977
 30
0
 11
-150.3000000000001
 21
-4.5
 31
0
  0
LINE
  8
1
 62
3
 10
-150.3000000000001
 20
-2.100000000000023
 30
0
 11
-150.3000000000001
 21
-2.5
 31
0
  0
LINE
  8
1
 62
3
 10
-149.7
 20
-2.100000000000023
 30
0
 11
-149.7
 21
-2.5
 31
0
  0
LINE
  8
1
 62
3
 10
-129.4
 20
33.19999999999999
 30
0
 11
-129.4
 21
32.7999999999999
 31
0
  0
LINE
  8
1
 62
3
 10
-130
 20
33.19999999999999
 30
0
 11
-130
 21
32.7999999999999
 31
0
  0
LINE
  8
1
 62
3
 10
-130
 20
30.40000000000003
 30
0
 11
-130
 21
30.79999999999996
 31
0
  0
LINE
  8
1
 62
3
 10
-131.1000000000001
 20
31.5
 30
0
 11
-130.7
 21
31.5
 31
0
  0
LINE
  8
1
 62
3
 10
-131.1000000000001
 20
32.10000000000002
 30
0
 11
-130.7
 21
32.10000000000002
 31
0
  0
LINE
  8
1
 62
3
 10
-131.2
 20
32
 30
0
 11
-131.2
 21
31.60000000000002
 31
0
  0
LINE
  8
1
 62
3
 10
-128.2
 20
32
 30
0
 11
-128.2
 21
31.60000000000002
 31
0
  0
LINE
  8
1
 62
3
 10
-129.9
 20
30.29999999999996
 30
0
 11
-129.5
 21
30.29999999999996
 31
0
  0
LINE
  8
1
 62
3
 10
-129.9
 20
33.2999999999999
 30
0
 11
-129.5
 21
33.2999999999999
 31
0
  0
LINE
  8
1
 62
3
 10
-129.4
 20
30.79999999999996
 30
0
 11
-129.4
 21
30.40000000000003
 31
0
  0
LINE
  8
1
 62
3
 10
-128.7
 20
31.5
 30
0
 11
-128.6941176470591
 21
31.5
 31
0
  0
LINE
  8
1
 62
3
 10
-128.7
 20
32.10000000000002
 30
0
 11
-128.6941176470591
 21
32.10000000000002
 31
0
  0
LINE
  8
1
 62
3
 10
-128.6941176470591
 20
31.5
 30
0
 11
-128.3000000000001
 21
31.5
 31
0
  0
LINE
  8
1
 62
3
 10
-128.6941176470591
 20
32.10000000000002
 30
0
 11
-128.3000000000001
 21
32.10000000000002
 31
0
  0
LINE
  8
1
 62
3
 10
-171.7
 20
32.10000000000002
 30
0
 11
-171.3058823529411
 21
32.10000000000002
 31
0
  0
LINE
  8
1
 62
3
 10
-171.7
 20
31.5
 30
0
 11
-171.3058823529411
 21
31.5
 31
0
  0
LINE
  8
1
 62
3
 10
-171.3058823529411
 20
32.10000000000002
 30
0
 11
-171.3000000000001
 21
32.10000000000002
 31
0
  0
LINE
  8
1
 62
3
 10
-171.3058823529411
 20
31.5
 30
0
 11
-171.3000000000001
 21
31.5
 31
0
  0
LINE
  8
1
 62
3
 10
-170.6000000000001
 20
30.40000000000003
 30
0
 11
-170.6000000000001
 21
30.79999999999996
 31
0
  0
LINE
  8
1
 62
3
 10
-170.5
 20
33.2999999999999
 30
0
 11
-170.1000000000001
 21
33.2999999999999
 31
0
  0
LINE
  8
1
 62
3
 10
-170.5
 20
30.29999999999996
 30
0
 11
-170.1000000000001
 21
30.29999999999996
 31
0
  0
LINE
  8
1
 62
3
 10
-171.8000000000001
 20
31.60000000000002
 30
0
 11
-171.8000000000001
 21
32
 31
0
  0
LINE
  8
1
 62
3
 10
-168.8000000000001
 20
31.60000000000002
 30
0
 11
-168.8000000000001
 21
32
 31
0
  0
LINE
  8
1
 62
3
 10
-169.3000000000001
 20
32.10000000000002
 30
0
 11
-168.9
 21
32.10000000000002
 31
0
  0
LINE
  8
1
 62
3
 10
-169.3000000000001
 20
31.5
 30
0
 11
-168.9
 21
31.5
 31
0
  0
LINE
  8
1
 62
3
 10
-170
 20
30.79999999999996
 30
0
 11
-170
 21
30.40000000000003
 31
0
  0
LINE
  8
1
 62
3
 10
-170
 20
32.7999999999999
 30
0
 11
-170
 21
33.19999999999999
 31
0
  0
LINE
  8
1
 62
3
 10
-170.6000000000001
 20
32.7999999999999
 30
0
 11
-170.6000000000001
 21
33.19999999999999
 31
0
  0
LINE
  8
1
 62
1
 10
-150
 20
0.07499999999998863
 30
0
 11
-150
 21
-7.074999999999989
 31
0
  0
LINE
  8
1
 62
1
 10
-153.575
 20
-3.5
 30
0
 11
-146.4250000000001
 21
-3.5
 31
0
  0
LINE
  8
1
 62
1
 10
-133.275
 20
31.79999999999996
 30
0
 11
-126.125
 21
31.79999999999996
 31
0
  0
LINE
  8
1
 62
1
 10
-129.7
 20
35.375
 30
0
 11
-129.7
 21
28.22500000000002
 31
0
  0
LINE
  8
1
 62
1
 10
-170.3000000000001
 20
35.375
 30
0
 11
-170.3000000000001
 21
28.22500000000002
 31
0
  0
LINE
  8
1
 62
1
 10
-173.875
 20
31.79999999999996
 30
0
 11
-166.7250000000001
 21
31.79999999999996
 31
0
  0
LINE
  8
1
 62
1
 10
-146.8500000000001
 20
-3.5
 30
0
 11
-145.556046967167
 21
-3.5
 31
0
  0
LINE
  8
1
 62
1
 10
-126.5500000000001
 20
31.79999999999996
 30
0
 11
-125.5141562143521
 21
31.79999999999996
 31
0
  0
LINE
  8
1
 62
1
 10
-167.15
 20
31.79999999999996
 30
0
 11
-166.114156214352
 21
31.79999999999996
 31
0
  0
LINE
  8
1
 62
3
 10
-120
 20
-5
 30
0
 11
-120
 21
45
 31
0
  0
LINE
  8
1
 62
3
 10
-180
 20
45
 30
0
 11
-180
 21
-5
 31
0
  0
LINE
  8
1
 62
3
 10
-125
 20
-10
 30
0
 11
-175
 21
-10
 31
0
  0
LINE
  8
1
 62
3
 10
-125
 20
50
 30
0
 11
-175
 21
50
 31
0
  0
LINE
  8
1
 62
1
 10
-150
 20
-15
 30
0
 11
-150
 21
55
 31
0
  0
LINE
  8
1
 62
1
 10
-170.3000000000001
 20
26.65286202431901
 30
0
 11
-170.3000000000001
 21
36.84173320862203
 31
0
  0
LINE
  8
1
 62
1
 10
-129.7
 20
36.84173320862203
 30
0
 11
-129.7
 21
26.65286202431901
 31
0
  0
LINE
  8
1
 62
1
 10
-174.6728080091661
 20
31.79999999999996
 30
0
 11
-167.15
 21
31.79999999999996
 31
0
  0
LINE
  8
1
 62
1
 10
-134.072808009166
 20
31.79999999999996
 30
0
 11
-126.5500000000001
 21
31.79999999999996
 31
0
  0
LINE
  8
1
 62
1
 10
-154.3728080091661
 20
-3.5
 30
0
 11
-146.8500000000001
 21
-3.5
 31
0
  0
LINE
  8
1
 62
1
 10
-185
 20
20
 30
0
 11
-115
 21
20
 31
0
  0
LINE
  8
1
 62
1
 10
-167.848932800608
 20
44.75
 30
0
 11
-181.7411404962081
 21
44.75
 31
0
  0
LINE
  8
1
 62
1
 10
-174.75
 20
38.37687810827799
 30
0
 11
-174.75
 21
52.2959337064361
 31
0
  0
LINE
  8
1
 62
1
 10
-125.25
 20
38.37687810827799
 30
0
 11
-125.25
 21
52.2959337064361
 31
0
  0
LINE
  8
1
 62
1
 10
-118.348932800608
 20
44.75
 30
0
 11
-132.2411404962081
 21
44.75
 31
0
  0
LINE
  8
1
 62
1
 10
-167.848932800608
 20
-4.75
 30
0
 11
-181.7411404962081
 21
-4.75
 31
0
  0
LINE
  8
1
 62
1
 10
-174.75
 20
-11.12312189172201
 30
0
 11
-174.75
 21
2.795933706436074
 31
0
  0
LINE
  8
1
 62
1
 10
-125.25
 20
-11.12312189172201
 30
0
 11
-125.25
 21
2.795933706436074
 31
0
  0
LINE
  8
1
 62
1
 10
-118.348932800608
 20
-4.75
 30
0
 11
-132.2411404962081
 21
-4.75
 31
0
  0
LINE
  8
1
 62
3
 10
-23.5
 20
41
 30
0
 11
-22.5
 21
41
 31
0
  0
LINE
  8
1
 62
3
 10
-23.5
 20
49.5058452201944
 30
0
 11
-23.5
 21
41
 31
0
  0
LINE
  8
1
 62
3
 10
-23.5
 20
-1
 30
0
 11
-22.5
 21
-1
 31
0
  0
LINE
  8
1
 62
3
 10
-23.5
 20
-9.505845220194374
 30
0
 11
-23.5
 21
-1
 31
0
  0
LINE
  8
1
 62
3
 10
-23.00587938443095
 20
-10.00581065183809
 30
0
 11
17.5
 21
-10.48214285714289
 31
0
  0
LINE
  8
1
 62
3
 10
-22.5
 20
-1
 30
0
 11
-22.5
 21
41
 31
0
  0
LINE
  8
1
 62
3
 10
17.5
 20
50.4821428571428
 30
0
 11
-23.00587938443095
 21
50.00581065183809
 31
0
  0
LINE
  8
1
 62
3
 10
17.5
 20
-10.48214285714289
 30
0
 11
17.5
 21
50.4821428571428
 31
0
  0
LINE
  8
1
 62
3
 10
-170.5
 20
50
 30
0
 11
-170.5
 21
45
 31
0
  0
LINE
  8
1
 62
3
 10
-175
 20
40.5
 30
0
 11
-180
 21
40.5
 31
0
  0
LINE
  8
1
 62
3
 10
-180
 20
-0.5
 30
0
 11
-175
 21
-0.5
 31
0
  0
LINE
  8
1
 62
3
 10
-170.5
 20
-5
 30
0
 11
-170.5
 21
-10
 31
0
  0
LINE
  8
1
 62
3
 10
-129.5
 20
-10
 30
0
 11
-129.5
 21
-5
 31
0
  0
LINE
  8
1
 62
3
 10
-125
 20
-0.5
 30
0
 11
-120
 21
-0.5
 31
0
  0
LINE
  8
1
 62
3
 10
-120
 20
40.5
 30
0
 11
-125
 21
40.5
 31
0
  0
LINE
  8
1
 62
3
 10
-129.5
 20
45
 30
0
 11
-129.5
 21
50
 31
0
  0
LINE
  8
1
 62
3
 10
-153.3541019662497
 20
33
 30
0
 11
-146.6458980337503
 21
33
 31
0
  0
LINE
  8
1
 62
2
 10
-88.24494479186772
 20
-63.03267296689353
 30
0
 11
-145.708826922088
 21
-63.03267296689353
 31
0
  0
LINE
  8
1
 62
2
 10
-88.24494479186772
 20
-70.03267296689353
 30
0
 11
-145.708826922088
 21
-70.03267296689353
 31
0
  0
LINE
  8
1
 62
3
 10
79.5
 20
38.21804153555615
 30
0
 11
79.5
 21
1.781958464444813
 31
0
  0
LINE
  8
1
 62
3
 10
80.20000000000005
 20
1.781958464444813
 30
0
 11
66.20000000000005
 21
1.781958464444813
 31
0
  0
LINE
  8
1
 62
3
 10
79.5
 20
10.80000000000592
 30
0
 11
80.20000000000005
 21
10.80000000000592
 31
0
  0
LINE
  8
1
 62
3
 10
80.20000000000005
 20
10.80000000000592
 30
0
 11
80.20000000000002
 21
1.400000000000489
 31
0
  0
LINE
  8
1
 62
3
 10
85.19999999992797
 20
3.249999999999886
 30
0
 11
85.19999999992797
 21
2.749999999999886
 31
0
  0
LINE
  8
1
 62
2
 10
84.69999999992797
 20
3.249999999999886
 30
0
 11
84.69999999992797
 21
2.749999999999886
 31
0
  0
LINE
  8
1
 62
3
 10
85.19999999992797
 20
2.749999999999886
 30
0
 11
80.20000000000005
 21
2.749999999999886
 31
0
  0
LINE
  8
1
 62
3
 10
80.20000000000005
 20
3.249999999999886
 30
0
 11
85.19999999992797
 21
3.249999999999886
 31
0
  0
LINE
  8
1
 62
2
 10
80.70000000000016
 20
3.249999999999886
 30
0
 11
80.70000000000016
 21
2.749999999999886
 31
0
  0
LINE
  8
1
 62
1
 10
83.19999999992797
 20
4.358805784780088
 30
0
 11
83.19999999992797
 21
1.781958464444813
 31
0
  0
LINE
  8
1
 62
3
 10
66.20000000000005
 20
38.21804153555615
 30
0
 11
80.20000000000005
 21
38.21804153555615
 31
0
  0
LINE
  8
1
 62
3
 10
66.20000000000005
 20
38.21804153555615
 30
0
 11
66.20000000000005
 21
38.60000000000048
 31
0
  0
LINE
  8
1
 62
3
 10
80.20000000000005
 20
38.60000000000048
 30
0
 11
80.20000000000005
 21
29.19999999999504
 31
0
  0
LINE
  8
1
 62
3
 10
80.20000000000005
 20
29.19999999999504
 30
0
 11
79.5
 21
29.19999999999504
 31
0
  0
LINE
  8
1
 62
3
 10
85.19999999992797
 20
37.25000000000114
 30
0
 11
85.19999999992797
 21
36.75000000000114
 31
0
  0
LINE
  8
1
 62
2
 10
84.69999999992797
 20
37.25000000000114
 30
0
 11
84.69999999992797
 21
36.75000000000114
 31
0
  0
LINE
  8
1
 62
3
 10
80.20000000000005
 20
37.25000000000114
 30
0
 11
85.19999999992797
 21
37.25000000000114
 31
0
  0
LINE
  8
1
 62
3
 10
85.19999999992797
 20
36.75000000000114
 30
0
 11
80.20000000000005
 21
36.75000000000114
 31
0
  0
LINE
  8
1
 62
2
 10
80.70000000000016
 20
37.25000000000114
 30
0
 11
80.70000000000016
 21
36.75000000000114
 31
0
  0
LINE
  8
1
 62
1
 10
83.19999999992797
 20
38.21804153555615
 30
0
 11
83.19999999992797
 21
35.64119421522088
 31
0
  0
LINE
  8
1
 62
3
 10
24
 20
1.400000000000034
 30
0
 11
25.59999999999991
 21
1.400000000000047
 31
0
  0
LINE
  8
1
 62
3
 10
85.19999999992797
 20
26.30000000000007
 30
0
 11
85.19999999992797
 21
13.69999999999993
 31
0
  0
LINE
  8
1
 62
3
 10
84.19999999992797
 20
12.69999999999993
 30
0
 11
79.5
 21
12.69999999999993
 31
0
  0
LINE
  8
1
 62
3
 10
79.5
 20
27.30000000000007
 30
0
 11
84.19999999992797
 21
27.30000000000007
 31
0
  0
LINE
  8
1
 62
3
 10
80.20000000000005
 20
38.60000000000048
 30
0
 11
65.59999999999991
 21
38.60000000000034
 31
0
  0
LINE
  8
1
 62
1
 10
161.1347943248003
 20
33.26993113937948
 30
0
 11
158.2873574488424
 21
29.87648801277175
 31
0
  0
LINE
  8
1
 62
1
 10
138.8652056751994
 20
6.73006886062268
 30
0
 11
141.7126425511573
 21
10.12351198723053
 31
0
  0
LINE
  8
1
 62
1
 10
149.9999999999996
 20
42.88000000000051
 30
0
 11
150.0000000000001
 21
-2.879999999999029
 31
0
  0
LINE
  8
1
 62
1
 10
141.7126425511577
 20
29.87648801277175
 30
0
 11
138.8652056752
 21
33.26993113937948
 31
0
  0
LINE
  8
1
 62
1
 10
158.2873574488431
 20
10.12351198723047
 30
0
 11
161.1347943248007
 21
6.73006886062268
 31
0
  0
LINE
  8
1
 62
3
 10
153.7499383193361
 20
38.2180669282231
 30
0
 11
153.7499383193361
 21
29.1999999999951
 31
0
  0
LINE
  8
1
 62
3
 10
153.7499383193361
 20
29.1999999999951
 30
0
 11
146.2499383193361
 21
29.1999999999951
 31
0
  0
LINE
  8
1
 62
3
 10
146.2499383193361
 20
29.1999999999951
 30
0
 11
146.2499383193361
 21
38.21804153555621
 31
0
  0
LINE
  8
1
 62
3
 10
151.0000000000001
 20
38.57309882599128
 30
0
 11
151.0000000000001
 21
37.25000000000119
 31
0
  0
LINE
  8
1
 62
3
 10
149.0000000000001
 20
29.1999999999951
 30
0
 11
149.0000000000001
 21
36.75000000000119
 31
0
  0
LINE
  8
1
 62
3
 10
151.7500000000001
 20
37.25000000000119
 30
0
 11
151.7500000000001
 21
36.75000000000119
 31
0
  0
LINE
  8
1
 62
3
 10
148.2500000000001
 20
36.75000000000119
 30
0
 11
148.2500000000001
 21
37.25000000000119
 31
0
  0
LINE
  8
1
 62
2
 10
148.7500000000001
 20
37.25000000000119
 30
0
 11
148.7500000000001
 21
36.75000000000119
 31
0
  0
LINE
  8
1
 62
3
 10
148.2500000000001
 20
37.25000000000119
 30
0
 11
151.7500000000001
 21
37.25000000000119
 31
0
  0
LINE
  8
1
 62
2
 10
151.2500000000001
 20
37.25000000000119
 30
0
 11
151.2500000000001
 21
36.75000000000119
 31
0
  0
LINE
  8
1
 62
3
 10
151.7500000000001
 20
36.75000000000119
 30
0
 11
148.2500000000001
 21
36.75000000000119
 31
0
  0
LINE
  8
1
 62
2
 10
154.2499383193361
 20
38.10795472387429
 30
0
 11
154.2499383193361
 21
37.07916930889445
 31
0
  0
LINE
  8
1
 62
3
 10
151.0000000000001
 20
36.75000000000119
 30
0
 11
151.0000000000001
 21
29.1999999999951
 31
0
  0
LINE
  8
1
 62
3
 10
149.0000000000001
 20
37.25000000000119
 30
0
 11
149.0000000000001
 21
38.57309882599128
 31
0
  0
LINE
  8
1
 62
2
 10
145.750061680664
 20
37.07916930889445
 30
0
 11
145.750061680664
 21
38.10795472387429
 31
0
  0
LINE
  8
1
 62
3
 10
153.749938319336
 20
10.80000000000666
 30
0
 11
153.749938319336
 21
1.781933071778667
 31
0
  0
LINE
  8
1
 62
3
 10
146.2499383193361
 20
10.80000000000666
 30
0
 11
153.749938319336
 21
10.80000000000666
 31
0
  0
LINE
  8
1
 62
3
 10
146.2499383193361
 20
1.781958464445722
 30
0
 11
146.2499383193361
 21
10.80000000000666
 31
0
  0
LINE
  8
1
 62
3
 10
151.0000000000001
 20
2.750000000000568
 30
0
 11
151.0000000000001
 21
1.426901174010482
 31
0
  0
LINE
  8
1
 62
3
 10
149.0000000000001
 20
3.250000000000568
 30
0
 11
149.0000000000001
 21
10.80000000000666
 31
0
  0
LINE
  8
1
 62
3
 10
151.7500000000001
 20
3.250000000000568
 30
0
 11
151.7500000000001
 21
2.750000000000568
 31
0
  0
LINE
  8
1
 62
3
 10
148.2500000000001
 20
2.750000000000568
 30
0
 11
148.2500000000001
 21
3.250000000000568
 31
0
  0
LINE
  8
1
 62
2
 10
148.7500000000001
 20
3.250000000000568
 30
0
 11
148.7500000000001
 21
2.750000000000568
 31
0
  0
LINE
  8
1
 62
3
 10
151.7500000000001
 20
2.750000000000568
 30
0
 11
148.2500000000001
 21
2.750000000000568
 31
0
  0
LINE
  8
1
 62
2
 10
151.2500000000001
 20
3.250000000000568
 30
0
 11
151.2500000000001
 21
2.750000000000568
 31
0
  0
LINE
  8
1
 62
3
 10
148.2500000000001
 20
3.250000000000568
 30
0
 11
151.7500000000001
 21
3.250000000000568
 31
0
  0
LINE
  8
1
 62
2
 10
154.249938319336
 20
2.920830691107369
 30
0
 11
154.249938319336
 21
1.892045276127476
 31
0
  0
LINE
  8
1
 62
3
 10
151.0000000000001
 20
10.80000000000666
 30
0
 11
151.0000000000001
 21
3.250000000000568
 31
0
  0
LINE
  8
1
 62
3
 10
149.0000000000001
 20
1.426901174010595
 30
0
 11
149.0000000000001
 21
2.750000000000568
 31
0
  0
LINE
  8
1
 62
2
 10
145.750061680664
 20
1.892045276127476
 30
0
 11
145.750061680664
 21
2.920830691107369
 31
0
  0
LINE
  8
1
 62
1
 10
127.1200000000005
 20
20.00000000000051
 30
0
 11
172.8800000000006
 21
20.00000000000051
 31
0
  0
LINE
  8
1
 62
1
 10
152.5861380996317
 20
37.00000000000119
 30
0
 11
147.3767271302735
 21
37.00000000000119
 31
0
  0
LINE
  8
1
 62
1
 10
147.3767271302734
 20
3
 30
0
 11
152.5861380996317
 21
3
 31
0
  0
LINE
  8
0
 62
1
 10
-26.61662644369403
 20
-4.749999999999893
 30
0
 11
25.5
 21
-4.75
 31
0
  0
LINE
  8
1
 62
3
 10
22
 20
3.399999999999977
 30
0
 11
22
 21
36.60000000000002
 31
0
  0
LINE
  8
1
 62
3
 10
20.5
 20
49.99999999999994
 30
0
 11
20.5
 21
-10
 31
0
  0
LINE
  8
1
 62
3
 10
21.83360848093681
 20
-1.295966478992231
 30
0
 11
20.60871557427479
 21
-1.250380530190849
 31
0
  0
LINE
  8
1
 62
3
 10
21.83360848093681
 20
-8.204033521007769
 30
0
 11
20.60871557427479
 21
-8.249619469809201
 31
0
  0
LINE
  8
0
 62
3
 10
20.5
 20
-10
 30
0
 11
18.5
 21
-10
 31
0
  0
LINE
  8
1
 62
3
 10
21
 20
1
 30
0
 11
21.5
 21
1
 31
0
  0
LINE
  8
1
 62
3
 10
22
 20
1.5
 30
0
 11
22
 21
38.49999999999994
 31
0
  0
LINE
  8
1
 62
3
 10
21.5
 20
38.99999999999994
 30
0
 11
21
 21
38.99999999999994
 31
0
  0
LINE
  8
1
 62
3
 10
21.83360848093681
 20
48.20403352100772
 30
0
 11
20.60871557427479
 21
48.24961946980915
 31
0
  0
LINE
  8
1
 62
3
 10
21.83360848093681
 20
41.29596647899223
 30
0
 11
20.60871557427479
 21
41.2503805301908
 31
0
  0
LINE
  8
0
 62
1
 10
25.5
 20
44.75
 30
0
 11
-26.61662644369404
 21
44.74999999999989
 31
0
  0
LINE
  8
0
 62
3
 10
18.5
 20
49.99999999999994
 30
0
 11
20.5
 21
49.99999999999994
 31
0
  0
LINE
  8
1
 62
1
 10
88.78800145276794
 20
20
 30
0
 11
-26.61662644369402
 21
20
 31
0
  0
LINE
  8
1
 62
2
 10
-116.901801378908
 20
-49.03267296689353
 30
0
 11
-116.901801378908
 21
-77.03267296689353
 31
0
  0
LINE
  8
1
 62
2
 10
-88.24494479186771
 20
-49.03267296689353
 30
0
 11
-88.24494479186771
 21
-77.03267296689353
 31
0
  0
LINE
  8
1
 62
2
 10
-145.708826922088
 20
-49.03267296689353
 30
0
 11
-145.708826922088
 21
-77.03267296689353
 31
0
  0
LINE
  8
1
 62
2
 10
-145.708826922088
 20
-56.03267296689353
 30
0
 11
-88.24494479186772
 21
-56.03267296689353
 31
0
  0
LINE
  8
1
 62
2
 10
-88.24494479186771
 20
-77.03267296689353
 30
0
 11
-145.708826922088
 21
-77.03267296689353
 31
0
  0
LINE
  8
1
 62
2
 10
-145.708826922088
 20
-49.03267296689353
 30
0
 11
-88.24494479186771
 21
-49.03267296689353
 31
0
  0
LINE
  8
1
 62
3
 10
66.20000000000005
 20
1.399999999999523
 30
0
 11
66.20000000000005
 21
1.781958464444813
 31
0
  0
LINE
  8
1
 62
3
 10
25.59999999999991
 20
39.19999999999999
 30
0
 11
65.59999999999991
 21
39.19999999999999
 31
0
  0
LINE
  8
1
 62
3
 10
65.59999999999991
 20
0.8000000000000114
 30
0
 11
25.59999999999991
 21
0.8000000000000114
 31
0
  0
LINE
  8
1
 62
3
 10
25.59999999999991
 20
0.8000000000000114
 30
0
 11
25.59999999999992
 21
7.679667434020985
 31
0
  0
LINE
  8
1
 62
3
 10
25.59999999999992
 20
8.873842784196199
 30
0
 11
65.59999999999991
 21
8.873842784196199
 31
0
  0
LINE
  8
1
 62
3
 10
25.59999999999992
 20
8.873842784196199
 30
0
 11
25.59999999999991
 21
39.19999999999999
 31
0
  0
LINE
  8
1
 62
3
 10
65.59999999999991
 20
7.679667434020985
 30
0
 11
25.59999999999992
 21
7.679667434020985
 31
0
  0
LINE
  8
1
 62
3
 10
25.5999999999999
 20
7.306455869544493
 30
0
 11
65.59999999999991
 21
7.306455869544493
 31
0
  0
LINE
  8
1
 62
3
 10
32
 20
29.10565662694194
 30
0
 11
32
 21
39.19999999999999
 31
0
  0
LINE
  8
1
 62
3
 10
53
 20
29.10565662694194
 30
0
 11
53
 21
39.19999999999999
 31
0
  0
LINE
  8
1
 62
3
 10
33.20000000000076
 20
27.90565662694127
 30
0
 11
51.80000000000112
 21
27.90565662694121
 31
0
  0
LINE
  8
1
 62
3
 10
65.59999999999991
 20
39.19999999999999
 30
0
 11
65.59999999999991
 21
8.873842784196199
 31
0
  0
LINE
  8
1
 62
3
 10
65.59999999999991
 20
7.679667434020985
 30
0
 11
65.59999999999991
 21
0.8000000000000114
 31
0
  0
LINE
  8
1
 62
3
 10
65.59999999999991
 20
1.400000000000371
 30
0
 11
80.20000000000002
 21
1.400000000000489
 31
0
  0
LINE
  8
1
 62
3
 10
25.59999999999991
 20
38.59999999999998
 30
0
 11
24
 21
38.59999999999997
 31
0
  0
ARC
  8
1
 62
3
 10
-26.10000000000002
 20
41.84500000000008
 30
0
 40
1.600000000000054
 50
140.8575944035868
 51
219.1424055964113
  0
ARC
  8
1
 62
3
 10
-26.10000000000002
 20
41.84500000000008
 30
0
 40
1.600000000000007
 50
320.8575944035886
 51
39.14240559641335
  0
ARC
  8
1
 62
3
 10
-21.83860939080477
 20
44.87500000000011
 30
0
 40
5.861390609195267
 50
159.8409037848019
 51
200.1590962151979
  0
ARC
  8
1
 62
3
 10
-26.10000000000002
 20
47.90500000000009
 30
0
 40
1.600000000000009
 50
140.8575944035887
 51
219.1424055964115
  0
ARC
  8
1
 62
3
 10
-30.36139060919516
 20
44.87500000000011
 30
0
 40
5.861390609195153
 50
339.8409037848017
 51
20.15909621519851
  0
ARC
  8
1
 62
3
 10
-26.10000000000002
 20
47.90500000000009
 30
0
 40
1.600000000000011
 50
320.8575944035885
 51
39.14240559641138
  0
ARC
  8
1
 62
3
 10
-21.83860939080477
 20
-4.624999999999886
 30
0
 40
5.861390609195263
 50
159.840903784802
 51
200.159096215198
  0
ARC
  8
1
 62
3
 10
-26.10000000000002
 20
-1.594999999999857
 30
0
 40
1.600000000000014
 50
140.8575944035885
 51
219.1424055964131
  0
ARC
  8
1
 62
3
 10
-26.10000000000002
 20
-7.654999999999859
 30
0
 40
1.600000000000014
 50
140.8575944035885
 51
219.1424055964115
  0
ARC
  8
1
 62
3
 10
-30.36139060919516
 20
-4.624999999999886
 30
0
 40
5.861390609195156
 50
339.8409037848016
 51
20.15909621519837
  0
ARC
  8
1
 62
3
 10
-26.10000000000002
 20
-1.594999999999857
 30
0
 40
1.600000000000047
 50
320.8575944035869
 51
39.14240559641158
  0
ARC
  8
1
 62
3
 10
-26.10000000000002
 20
-7.654999999999859
 30
0
 40
1.600000000000011
 50
320.8575944035885
 51
39.14240559641158
  0
CIRCLE
  8
1
 62
1
 10
-174.7499999999999
 20
-4.75
 30
0
 40
1.750000000000114
  0
CIRCLE
  8
1
 62
3
 10
-174.7499999999999
 20
-4.75
 30
0
 40
3.498742631289105
  0
CIRCLE
  8
1
 62
1
 10
-174.75
 20
44.75
 30
0
 40
1.75
  0
CIRCLE
  8
1
 62
3
 10
-174.75
 20
44.75
 30
0
 40
3.498742631289083
  0
CIRCLE
  8
1
 62
1
 10
-125.25
 20
44.75
 30
0
 40
1.75
  0
CIRCLE
  8
1
 62
3
 10
-125.25
 20
44.75
 30
0
 40
3.498742631289083
  0
CIRCLE
  8
1
 62
1
 10
-125.25
 20
-4.75
 30
0
 40
1.750000000000114
  0
CIRCLE
  8
1
 62
3
 10
-125.25
 20
-4.75
 30
0
 40
3.498742631289105
  0
ARC
  8
1
 62
3
 10
149.9999999999999
 20
20.00000000000119
 30
0
 40
19.19999999999946
 50
221.3855060057484
 51
215.4144939942553
  0
ARC
  8
1
 62
3
 10
-42.5000000000002
 20
47.99999999999682
 30
0
 40
14.99999999999682
 50
270
 51
291.0420805544337
  0
ARC
  8
1
 62
3
 10
-151.0029411764701
 20
-2.497058823529414
 30
0
 40
0.7029473295325507
 50
270.2397298960412
 51
359.7602701039191
  0
ARC
  8
1
 62
3
 10
-148.9970588235291
 20
-2.497058823529414
 30
0
 40
0.7029473295328076
 50
180.2397298960806
 51
270.2397298960412
  0
ARC
  8
1
 62
3
 10
-148.9970588235291
 20
-4.502941176470586
 30
0
 40
0.7029473295324934
 50
89.76027010395875
 51
179.7602701039195
  0
ARC
  8
1
 62
3
 10
-151.0029411764701
 20
-4.502941176470586
 30
0
 40
0.7029473295319265
 50
0.239729896080833
 51
89.76027010395875
  0
ARC
  8
1
 62
3
 10
-130.7029411764701
 20
30.79705882352937
 30
0
 40
0.7029473295320119
 50
0.239729896081383
 51
89.76027010395876
  0
ARC
  8
1
 62
3
 10
-128.697058823529
 20
30.79705882352937
 30
0
 40
0.702947329532549
 50
89.76027010397498
 51
179.7602701039189
  0
ARC
  8
1
 62
3
 10
-128.697058823529
 20
32.8029411764706
 30
0
 40
0.7029473295329217
 50
180.2397298960898
 51
270.239729896025
  0
ARC
  8
1
 62
3
 10
-130.7029411764701
 20
32.8029411764706
 30
0
 40
0.702947329532493
 50
270.2397298960412
 51
359.7602701039099
  0
ARC
  8
1
 62
3
 10
-169.2970588235291
 20
32.8029411764706
 30
0
 40
0.702947329532808
 50
180.2397298960898
 51
269.760270103887
  0
ARC
  8
1
 62
3
 10
-171.30294117647
 20
32.8029411764706
 30
0
 40
0.7029473295324972
 50
269.7602701038776
 51
359.7602701039099
  0
ARC
  8
1
 62
3
 10
-171.30294117647
 20
30.79705882352937
 30
0
 40
0.7029473295318129
 50
0.2397298960814509
 51
90.23972989612231
  0
ARC
  8
1
 62
3
 10
-169.2970588235291
 20
30.79705882352937
 30
0
 40
0.7029473295325535
 50
90.23972989611305
 51
179.7602701039189
  0
ARC
  8
1
 62
3
 10
-150
 20
30
 30
0
 40
4.500000000000001
 50
138.1896851042214
 51
41.81031489577859
  0
ARC
  8
1
 62
3
 10
-150
 20
30
 30
0
 40
4.500000000000001
 50
41.81031489577859
 51
138.1896851042214
  0
ARC
  8
1
 62
2
 10
-150
 20
30
 30
0
 40
4
 50
180
 51
48.59037789072904
  0
ARC
  8
1
 62
2
 10
-150
 20
30
 30
0
 40
4.000000000000006
 50
131.409622109271
 51
180
  0
ARC
  8
1
 62
1
 10
149.9999999999999
 20
20.00000000000119
 30
0
 40
15.00000000000001
 50
122.0832660772893
 51
137.7157356079402
  0
ARC
  8
1
 62
1
 10
149.9999999999999
 20
20.00000000000119
 30
0
 40
14.99999999999994
 50
42.28426439205996
 51
57.91673392271061
  0
ARC
  8
1
 62
1
 10
149.9999999999999
 20
20.00000000000119
 30
0
 40
14.99999999999998
 50
222.2842643920598
 51
237.9167339227112
  0
ARC
  8
1
 62
1
 10
149.9999999999999
 20
20.00000000000119
 30
0
 40
15.00000000000021
 50
302.0832660772889
 51
317.7157356079401
  0
ARC
  8
1
 62
3
 10
149.9999999999999
 20
20.00000000000119
 30
0
 40
18.59999999999998
 50
78.3689008969388
 51
270
  0
ARC
  8
1
 62
3
 10
149.9999999999999
 20
20.00000000000119
 30
0
 40
17.59999999999984
 50
282.3020108937132
 51
77.69798910628664
  0
ARC
  8
1
 62
3
 10
149.9999999999999
 20
20.00000000000119
 30
0
 40
18.6000000000003
 50
270
 51
78.3689008969388
  0
ARC
  8
1
 62
3
 10
149.9999999999999
 20
20.00000000000119
 30
0
 40
17.60000000000056
 50
102.302421927801
 51
257.6975780721988
  0
ARC
  8
1
 62
3
 10
15.10507042253522
 20
-4.73478246325698
 30
0
 40
8
 50
2.040035164553993
 51
21.50479479967082
  0
ARC
  8
1
 62
3
 10
15.10507042253522
 20
-4.76521753674308
 30
0
 40
7.999999999999994
 50
338.4952052003292
 51
357.9599648354464
  0
ARC
  8
1
 62
3
 10
23.97500000000007
 20
-4.75
 30
0
 40
0.9250000000000608
 50
161.0753555839493
 51
198.9246444160507
  0
ARC
  8
1
 62
3
 10
15.10507042253522
 20
44.76521753674302
 30
0
 40
8
 50
2.040035164553967
 51
21.50479479967077
  0
ARC
  8
1
 62
3
 10
15.10507042253522
 20
44.73478246325692
 30
0
 40
7.999999999999992
 50
338.4952052003292
 51
357.9599648354464
  0
ARC
  8
1
 62
3
 10
23.97500000000007
 20
44.75
 30
0
 40
0.9250000000000608
 50
161.0753555839493
 51
198.9246444160507
  0
CIRCLE
  8
1
 62
3
 10
-174.7499999999999
 20
-4.75
 30
0
 40
1.999999999999886
  0
CIRCLE
  8
1
 62
3
 10
-174.75
 20
44.75
 30
0
 40
2
  0
CIRCLE
  8
1
 62
3
 10
-125.25
 20
44.75
 30
0
 40
2
  0
CIRCLE
  8
1
 62
3
 10
-125.25
 20
-4.75
 30
0
 40
2
  0
CIRCLE
  8
1
 62
3
 10
-150
 20
30
 30
0
 40
6.75
  0
CIRCLE
  8
1
 62
3
 10
-150
 20
30
 30
0
 40
9
  0
CIRCLE
  8
1
 62
3
 10
-150
 20
-3.5
 30
0
 40
2.75
  0
CIRCLE
  8
1
 62
3
 10
-129.7
 20
31.79999999999996
 30
0
 40
2.75
  0
CIRCLE
  8
1
 62
3
 10
-170.3000000000001
 20
31.79999999999996
 30
0
 40
2.75
  0
CIRCLE
  8
1
 62
3
 10
-150
 20
-3.5
 30
0
 40
3.149999999999892
  0
CIRCLE
  8
1
 62
3
 10
-129.7
 20
31.79999999999996
 30
0
 40
3.149999999999892
  0
CIRCLE
  8
1
 62
3
 10
-170.3000000000001
 20
31.79999999999996
 30
0
 40
3.150000000000091
  0
CIRCLE
  8
1
 62
3
 10
149.9999999999999
 20
20.00000000000119
 30
0
 40
5
  0
CIRCLE
  8
1
 62
3
 10
149.9999999999999
 20
20.00000000000119
 30
0
 40
7.699999999994105
  0
CIRCLE
  8
1
 62
3
 10
140.3581858547018
 20
31.49066664678577
 30
0
 40
1.25
  0
CIRCLE
  8
1
 62
3
 10
159.641814145298
 20
31.49066664678549
 30
0
 40
1.249999999999886
  0
CIRCLE
  8
1
 62
3
 10
140.3581858547021
 20
8.509333353216164
 30
0
 40
1.250000000000313
  0
CIRCLE
  8
1
 62
3
 10
159.641814145298
 20
8.509333353216391
 30
0
 40
1.249999999999886
  0
CIRCLE
  8
1
 62
3
 10
149.9999999999999
 20
20.00000000000119
 30
0
 40
2.500000000000227
  0
ARC
  8
1
 62
3
 10
-23.00000000000001
 20
39.5
 30
0
 40
0.5
 50
270
 51
0
  0
ARC
  8
1
 62
3
 10
-23.00000000000001
 20
20.5
 30
0
 40
0.5
 50
0
 51
90
  0
ARC
  8
1
 62
3
 10
-28.00000000000001
 20
21.5
 30
0
 40
0.5
 50
180
 51
270
  0
ARC
  8
1
 62
3
 10
-28.00000000000001
 20
38.5
 30
0
 40
0.5
 50
90
 51
180
  0
ARC
  8
1
 62
3
 10
-151.4
 20
-3.300000000000011
 30
0
 40
0.09999999999996501
 50
90
 51
180
  0
ARC
  8
1
 62
3
 10
-151.4
 20
-3.700000000000046
 30
0
 40
0.09999999999999432
 50
180
 51
270
  0
ARC
  8
1
 62
3
 10
-150.2
 20
-4.899999999999977
 30
0
 40
0.100000000000108
 50
180
 51
270
  0
ARC
  8
1
 62
3
 10
-149.8000000000001
 20
-4.899999999999977
 30
0
 40
0.1000000000000227
 50
270
 51
0
  0
ARC
  8
1
 62
3
 10
-148.6000000000001
 20
-3.700000000000046
 30
0
 40
0.09999999999996501
 50
270
 51
0
  0
ARC
  8
1
 62
3
 10
-148.6000000000001
 20
-3.300000000000011
 30
0
 40
0.100000000000108
 50
0
 51
90
  0
ARC
  8
1
 62
3
 10
-149.8000000000001
 20
-2.100000000000023
 30
0
 40
0.100000000000108
 50
0
 51
90
  0
ARC
  8
1
 62
3
 10
-150.2
 20
-2.100000000000023
 30
0
 40
0.1000000000000232
 50
90
 51
180
  0
ARC
  8
1
 62
3
 10
-129.9
 20
33.19999999999999
 30
0
 40
0.09999999999990905
 50
90
 51
180
  0
ARC
  8
1
 62
3
 10
-129.5
 20
33.19999999999999
 30
0
 40
0.09999999999999432
 50
0
 51
90
  0
ARC
  8
1
 62
3
 10
-128.3000000000001
 20
32
 30
0
 40
0.100000000000108
 50
0
 51
90
  0
ARC
  8
1
 62
3
 10
-128.3000000000001
 20
31.60000000000002
 30
0
 40
0.1000000000000192
 50
270
 51
0
  0
ARC
  8
1
 62
3
 10
-129.5
 20
30.40000000000003
 30
0
 40
0.1000000000000689
 50
270
 51
0
  0
ARC
  8
1
 62
3
 10
-129.9
 20
30.40000000000003
 30
0
 40
0.09999999999999432
 50
180
 51
270
  0
ARC
  8
1
 62
3
 10
-131.1000000000001
 20
31.60000000000002
 30
0
 40
0.09999999999988063
 50
180
 51
270
  0
ARC
  8
1
 62
3
 10
-131.1000000000001
 20
32
 30
0
 40
0.1000000000000227
 50
90
 51
180
  0
ARC
  8
1
 62
3
 10
-168.9
 20
32
 30
0
 40
0.09999999999990905
 50
0
 51
90
  0
ARC
  8
1
 62
3
 10
-168.9
 20
31.60000000000002
 30
0
 40
0.1000000000000192
 50
270
 51
0
  0
ARC
  8
1
 62
3
 10
-170.1000000000001
 20
30.40000000000003
 30
0
 40
0.1000000000000689
 50
270
 51
0
  0
ARC
  8
1
 62
3
 10
-170.5
 20
30.40000000000003
 30
0
 40
0.100000000000108
 50
180
 51
270
  0
ARC
  8
1
 62
3
 10
-171.7
 20
31.60000000000002
 30
0
 40
0.100000000000108
 50
180
 51
270
  0
ARC
  8
1
 62
3
 10
-171.7
 20
32
 30
0
 40
0.1000000000000227
 50
90
 51
180
  0
ARC
  8
1
 62
3
 10
-170.5
 20
33.19999999999999
 30
0
 40
0.09999999999990905
 50
90
 51
180
  0
ARC
  8
1
 62
3
 10
-170.1000000000001
 20
33.19999999999999
 30
0
 40
0.100000000000108
 50
0
 51
90
  0
ARC
  8
1
 62
3
 10
-175
 20
-5
 30
0
 40
5
 50
180
 51
270
  0
ARC
  8
1
 62
3
 10
-125
 20
-5
 30
0
 40
5
 50
270
 51
0
  0
ARC
  8
1
 62
3
 10
-125
 20
45
 30
0
 40
5
 50
0
 51
90
  0
ARC
  8
1
 62
3
 10
-175
 20
45
 30
0
 40
5
 50
90
 51
180
  0
ARC
  8
1
 62
3
 10
-23
 20
-9.505845220194374
 30
0
 40
0.5
 50
180
 51
269.3262566450713
  0
ARC
  8
1
 62
3
 10
-23
 20
49.5058452201944
 30
0
 40
0.4999999999999456
 50
90.6737433549287
 51
180
  0
ARC
  8
1
 62
3
 10
-175
 20
45
 30
0
 40
4.5
 50
270
 51
0
  0
ARC
  8
1
 62
3
 10
-125
 20
45
 30
0
 40
4.5
 50
180
 51
270
  0
ARC
  8
1
 62
3
 10
-125
 20
-5
 30
0
 40
4.5
 50
90
 51
180
  0
ARC
  8
1
 62
3
 10
-175
 20
-5
 30
0
 40
4.5
 50
0
 51
90
  0
ARC
  8
1
 62
3
 10
84.19999999992797
 20
13.69999999999993
 30
0
 40
1
 50
270
 51
0
  0
ARC
  8
1
 62
3
 10
84.19999999992797
 20
26.30000000000007
 30
0
 40
1
 50
0
 51
90
  0
ARC
  8
1
 62
3
 10
24
 20
36.60000000000002
 30
0
 40
1.99999999999995
 50
90
 51
180
  0
ARC
  8
1
 62
3
 10
24
 20
3.399999999999977
 30
0
 40
2
 50
180
 51
270
  0
ARC
  8
1
 62
3
 10
21.80385605972294
 20
-2.095413033448441
 30
0
 40
0.7999999999999752
 50
21.50479479966982
 51
87.86864827538447
  0
ARC
  8
1
 62
3
 10
21.80385605972294
 20
-7.404586966551559
 30
0
 40
0.7999999999999964
 50
272.1313517246155
 51
338.4952052003268
  0
ARC
  8
1
 62
3
 10
20.60000000000001
 20
-8.150000000000031
 30
0
 40
0.09999999999999787
 50
180
 51
275.0000000000089
  0
ARC
  8
1
 62
3
 10
20.60000000000001
 20
-1.350000000000019
 30
0
 40
0.09999999999999672
 50
84.99999999999105
 51
180
  0
ARC
  8
1
 62
3
 10
21.5
 20
1.5
 30
0
 40
0.5
 50
270
 51
0
  0
ARC
  8
1
 62
3
 10
21
 20
0.5
 30
0
 40
0.5
 50
90
 51
180
  0
ARC
  8
1
 62
3
 10
21.5
 20
38.49999999999994
 30
0
 40
0.5
 50
0
 51
90
  0
ARC
  8
1
 62
3
 10
21
 20
39.49999999999994
 30
0
 40
0.5
 50
180
 51
270
  0
ARC
  8
1
 62
3
 10
21.80385605972294
 20
47.40458696655151
 30
0
 40
0.7999999999999908
 50
21.50479479967266
 51
87.86864827538447
  0
ARC
  8
1
 62
3
 10
21.80385605972294
 20
42.09541303344844
 30
0
 40
0.7999999999999964
 50
272.1313517246155
 51
338.4952052003274
  0
ARC
  8
1
 62
3
 10
20.60000000000001
 20
41.34999999999997
 30
0
 40
0.09999999999999787
 50
180
 51
275.0000000000089
  0
ARC
  8
1
 62
3
 10
20.60000000000001
 20
48.14999999999998
 30
0
 40
0.09999999999999672
 50
84.99999999999105
 51
180
  0
ARC
  8
1
 62
3
 10
51.80000000000112
 20
29.10565662694194
 30
0
 40
1.200000000000731
 50
270
 51
0
  0
ARC
  8
1
 62
3
 10
33.20000000000076
 20
29.10565662694194
 30
0
 40
1.200000000000763
 50
180
 51
270
  0
LINE
  8
1
 62
2
 10
-68.54206010452685
 20
-20.86410424671911
 30
0
 11
-45.69691202119179
 21
-20.86410424671911
 31
0
  0
LINE
  8
1
 62
2
 10
-45.69691202119179
 20
-20.86410424671911
 30
0
 11
-37.25404603884919
 21
-6.624999999999574
 31
0
  0
SOLID
  8
1
 62
2
 10
-38.64276891257901
 20
-9.870577057544477
 30
0
 11
-39.43546648298361
 21
-9.400558773002699
 31
0
 12
-37.25404603884919
 22
-6.624999999999574
 32
0
 13
-37.25404603884919
 23
-6.624999999999574
 33
0
  0
LINE
  8
1
 62
2
 10
-124.3156081072832
 20
-30.57593543191621
 30
0
 11
-184.7983009209484
 21
-30.57593543191621
 31
0
  0
LINE
  8
1
 62
2
 10
-184.7983009209484
 20
-30.57593543191621
 30
0
 11
-176.4993713156445
 21
-7.779999999999944
 31
0
  0
SOLID
  8
1
 62
2
 10
-177.1981849567686
 20
-10.9310542787165
 30
0
 11
-177.989926318853
 21
-10.64281842855057
 31
0
 12
-176.4993713156445
 22
-7.779999999999944
 32
0
 13
-176.4993713156445
 23
-7.779999999999944
 33
0
  0
LINE
  8
1
 62
2
 10
183.4705744347958
 20
-9.199999999999477
 30
0
 11
154.4705744347958
 21
-9.199999999999477
 31
0
  0
LINE
  8
1
 62
2
 10
154.4705744347958
 20
-9.199999999999477
 30
0
 11
151.7500000000001
 21
2.750000000000568
 31
0
  0
SOLID
  8
1
 62
2
 10
152.9762281261716
 20
-0.5603906475013725
 30
0
 11
152.0776532696884
 21
-0.7649630142208932
 31
0
 12
151.7500000000001
 22
2.750000000000568
 32
0
 13
151.7500000000001
 23
2.750000000000568
 33
0
  0
LINE
  8
1
 62
2
 10
116.5294255652045
 20
49.20000000000056
 30
0
 11
145.5294255652045
 21
49.20000000000056
 31
0
  0
LINE
  8
1
 62
2
 10
145.5294255652045
 20
49.20000000000056
 30
0
 11
148.2500000000001
 21
37.25000000000119
 31
0
  0
SOLID
  8
1
 62
2
 10
147.0237718738287
 20
40.56039064750312
 30
0
 11
147.9223467303118
 21
40.76496301422264
 31
0
 12
148.2500000000001
 22
37.25000000000119
 32
0
 13
148.2500000000001
 23
37.25000000000119
 33
0
  0
LINE
  8
1
 62
2
 10
57.86070579706471
 20
50.50000000000028
 30
0
 11
29.19760928873409
 21
50.50000000000028
 31
0
  0
LINE
  8
1
 62
2
 10
29.19760928873409
 20
50.50000000000028
 30
0
 11
40.89056563657118
 21
39.19999999999999
 31
0
  0
SOLID
  8
1
 62
2
 10
38.05355497796339
 20
41.30087890641701
 30
0
 11
38.69397124439944
 21
41.96356558322067
 31
0
 12
40.89056563657118
 22
39.19999999999999
 32
0
 13
40.89056563657118
 23
39.19999999999999
 33
0
  0
LINE
  8
1
 62
2
 10
11.88937387082001
 20
60.5
 30
0
 11
-16.52280081289496
 21
60.5
 31
0
  0
LINE
  8
1
 62
2
 10
-16.52280081289496
 20
60.5
 30
0
 11
-7.618339674821073
 21
51.595538861926
 31
0
  0
SOLID
  8
1
 62
2
 10
-10.41903671728865
 20
53.74458928776426
 30
0
 11
-9.767390100659297
 21
54.39623590439361
 31
0
 12
-7.618339674821073
 22
51.595538861926
 32
0
 13
-7.618339674821073
 23
51.595538861926
 33
0
  0
LINE
  8
1
 62
2
 10
60.42141298450818
 20
-14.19999999999999
 30
0
 11
31.33654342173804
 21
-14.19999999999999
 31
0
  0
LINE
  8
1
 62
2
 10
31.33654342173804
 20
-14.19999999999999
 30
0
 11
39.99679745958244
 21
0.8000000000000114
 31
0
  0
SOLID
  8
1
 62
2
 10
38.64584788542068
 20
-2.461480784023466
 30
0
 11
37.8477470337442
 21
-2.00069704246758
 31
0
 12
39.99679745958244
 22
0.8000000000000114
 32
0
 13
39.99679745958244
 23
0.8000000000000114
 33
0
  0
TEXT
  8
1
 62
2
 10
-69.92623318208584
 20
-19.64609817150512
 30
0
 40
3.5
  1
4-M4ü~60
 41
0.9
 72
1
 73
2
 11
-57.32623318208584
 21
-17.89609817150512
 31
0
  0
TEXT
  8
1
 62
2
 10
-177.727911586199
 20
-35.44308625420382
 30
0
 40
3.5
  1
4-M4 DEPTH 6MAX.
 41
0.9
  0
TEXT
  8
1
 62
2
 10
-181.9032334516624
 20
-29.60600568897883
 30
0
 40
3.5
  1
âéü[â^üEéfégêÛæ╠î^üiÄ%%cÆìÉÂÄYòiüj
 41
0.9
  0
TEXT
  8
1
 62
2
 10
32.162632034632
 20
-18.2450743366783
 30
0
 40
3
  1
üªDME37Jé╠é¦âoâbâNâêü[âNòt
 41
0.9
  0
TEXT
  8
1
 62
2
 10
-40.49048588734749
 20
-104.7635252967333
 30
0
 40
5
  1
DMN37üá6HFP
 41
0.9
  0
TEXT
  8
1
 62
2
 10
28.81136380934054
 20
-13.22713419913417
 30
0
 40
3.5
  1
éaé`ébéjéxénéjéd
 41
0.72
 72
1
 73
2
 11
48.97136380934054
 21
-11.47713419913417
 31
0
  0
TEXT
  8
1
 62
2
 10
-27.68523583654786
 20
61.35000000000002
 30
0
 40
3.5
  1
émé`élédü@éoéké`éséd
 41
0.72
 72
1
 73
2
 11
-2.485235836547858
 21
63.10000000000002
 31
0
  0
TEXT
  8
1
 62
2
 10
151.3335382300909
 20
-14.00333888821444
 30
0
 40
3.5
  1
üiéaéké`ébéjüj
 41
0.72
 72
1
 73
2
 11
168.9735382300909
 21
-12.25333888821444
 31
0
  0
TEXT
  8
1
 62
2
 10
145.0335382300909
 20
-8.403338888214478
 30
0
 40
3.5
  1
(-)ésédéqéléhémé`ék
 41
0.72
 72
1
 73
2
 11
168.9735382300909
 21
-6.653338888214478
 31
0
  0
TEXT
  8
1
 62
2
 10
107.0923893604996
 20
49.99666111178556
 30
0
 40
3.5
  1
(+)ésédéqéléhémé`ék
 41
0.72
 72
1
 73
2
 11
131.0323893604996
 21
51.74666111178556
 31
0
  0
TEXT
  8
1
 62
2
 10
118.4323893604996
 20
44.39666111178559
 30
0
 40
3.5
  1
üiéqédécüj
 41
0.72
 72
1
 73
2
 11
131.0323893604996
 21
46.14666111178559
 31
0
  0
TEXT
  8
1
 62
2
 10
18.03517426508118
 20
51.35000000000031
 30
0
 40
3.5
  1
émé`élédü@éoéké`éséd
 41
0.72
 72
1
 73
2
 11
43.23517426508118
 21
53.10000000000031
 31
0
  0
TEXT
  8
1
 62
2
 10
-113.9133730853878
 20
-62.18267296689351
 30
0
 40
3.5
  1
éXéWüDéV
 41
0.8100000000000001
 72
1
 73
2
 11
-102.5733730853878
 21
-60.43267296689351
 31
0
  0
TEXT
  8
1
 62
2
 10
-149.72011861547
 20
-62.18267296689351
 30
0
 40
3.5
  1
écéléméRéVéa
 41
0.8100000000000001
 72
1
 73
2
 11
-132.71011861547
 21
-60.43267296689351
 31
0
  0
TEXT
  8
1
 62
2
 10
-116.7483730853878
 20
-69.18267296689351
 30
0
 40
3.5
  1
éPéOéRüDéV
 41
0.8100000000000001
 72
1
 73
2
 11
-102.5733730853878
 21
-67.43267296689351
 31
0
  0
TEXT
  8
1
 62
2
 10
-149.72011861547
 20
-69.18267296689351
 30
0
 40
3.5
  1
écéléméRéVéj
 41
0.8100000000000001
 72
1
 73
2
 11
-132.71011861547
 21
-67.43267296689351
 31
0
  0
TEXT
  8
1
 62
2
 10
-116.7483730853878
 20
-76.18267296689351
 30
0
 40
3.5
  1
éPéOéWüDéV
 41
0.8100000000000001
 72
1
 73
2
 11
-102.5733730853878
 21
-74.43267296689351
 31
0
  0
TEXT
  8
1
 62
2
 10
-105.4083730853878
 20
-55.18267296689351
 30
0
 40
3.5
  1
ék
 41
0.8100000000000001
 72
1
 73
2
 11
-102.5733730853878
 21
-53.43267296689351
 31
0
  0
TEXT
  8
1
 62
2
 10
-149.72011861547
 20
-76.18267296689351
 30
0
 40
3.5
  1
écéléméRéVéi
 41
0.8100000000000001
 72
1
 73
2
 11
-132.71011861547
 21
-74.43267296689351
 31
0
  0
DIMENSION
  8
1
  6
CONTINUOUS
 62
2
  2
*D0
  3
DMST_1
 10
85.19999999992797
 20
70.5
 30
0
 11
92.38251199351581
 21
73.09999999999999
 31
0
 12
0
 22
0
 32
0
 70
0
  1
(<>
 13
79.5
 23
38.21804153555615
 33
0
 14
85.19999999992797
 24
26.30000000000007
 34
0
 53
0
  0
DIMENSION
  8
1
  6
CONTINUOUS
 62
2
  2
*D1
  3
DMST_2
 10
-23.5
 20
80.5
 30
0
 11
30.84999999996398
 21
83.09999999999999
 31
0
 12
0
 22
0
 32
0
 70
0
  1
L
 13
85.19999999992797
 23
26.30000000000007
 33
0
 14
-23.5
 24
49.5058452201944
 34
0
 53
0
  0
DIMENSION
  8
1
  6
CONTINUOUS
 62
2
  2
*D2
  3
DMST_2
 10
20.5
 20
70.5
 30
0
 11
-1.500000000000001
 21
73.09999999999999
 31
0
 12
0
 22
0
 32
0
 70
0
 13
-23.5
 23
49.5058452201944
 33
0
 14
20.5
 24
49.99999999999994
 34
0
 53
0
  0
DIMENSION
  8
1
  6
CONTINUOUS
 62
2
  2
*D3
  3
DMST_3
 10
-75.49999999999999
 20
34.00024539811398
 30
0
 11
-78.764858910575
 21
48.2910360303569
 31
0
 12
0
 22
0
 32
0
 70
0
  1
%%c<>
 13
-28.50000000000001
 23
26
 33
0
 14
-37.11419726624099
 24
34.00024539811398
 34
0
 50
90
 53
0
  0
DIMENSION
  8
1
  6
CONTINUOUS
 62
2
  2
*D4
  3
DMST_2
 10
-23.5
 20
80.5
 30
0
 11
-39.5
 21
83.09999999999999
 31
0
 12
0
 22
0
 32
0
 70
0
 13
-55.5
 23
33
 33
0
 14
-23.5
 24
49.5058452201944
 34
0
 53
0
  0
DIMENSION
  8
1
  6
CONTINUOUS
 62
2
  2
*D5
  3
DMST_2
 10
-23.5
 20
70.5
 30
0
 11
-26.00000000000001
 21
73.09999999999999
 31
0
 12
0
 22
0
 32
0
 70
0
 13
-28.50000000000001
 23
38.5
 33
0
 14
-23.5
 24
49.5058452201944
 34
0
 53
0
  0
DIMENSION
  8
1
  6
CONTINUOUS
 62
2
  2
*D6
  3
DMST_2
 10
-42.5000000000002
 20
70.5
 30
0
 11
-49.0000000000001
 21
73.09999999999999
 31
0
 12
0
 22
0
 32
0
 70
0
 13
-55.5
 23
33
 33
0
 14
-42.5000000000002
 24
33
 34
0
 53
0
  0
DIMENSION
  8
1
  6
CONTINUOUS
 62
2
  2
*D7
  3
DMST_4
 10
-65.5
 20
33
 30
0
 11
-68.09999999999999
 21
47.9120122046543
 31
0
 12
0
 22
0
 32
0
 70
0
 13
-55
 23
26
 33
0
 14
-54.99999999999999
 24
33
 34
0
 50
90
 53
0
  0
DIMENSION
  8
1
  6
CONTINUOUS
 62
2
  2
*D8
  3
DMST_2
 10
-85.5
 20
39
 30
0
 11
-88.09999999999999
 21
30
 31
0
 12
0
 22
0
 32
0
 70
0
  1
%%c<>
 13
-28.00000000000001
 23
21
 33
0
 14
-28.00000000000001
 24
39
 34
0
 50
90
 53
0
  0
DIMENSION
  8
1
  6
CONTINUOUS
 62
2
  2
*D9
  3
DMST_4
 10
-94.99999999999997
 20
-4.75
 30
0
 11
-97.59999999999997
 21
20
 31
0
 12
0
 22
0
 32
0
 70
0
 13
-118.348932800608
 23
44.75
 33
0
 14
-118.348932800608
 24
-4.75
 34
0
 50
90
 53
0
  0
DIMENSION
  8
1
  6
CONTINUOUS
 62
2
  2
*D10
  3
DMST_2
 10
-180
 20
70.5
 30
0
 11
-150
 21
73.09999999999999
 31
0
 12
0
 22
0
 32
0
 70
0
  1
61
 13
-120
 23
45
 33
0
 14
-180
 24
45
 34
0
 53
0
  0
DIMENSION
  8
1
  6
CONTINUOUS
 62
2
  2
*D11
  3
DMST_2
 10
110.199999999928
 20
38.60000000000048
 30
0
 11
107.599999999928
 21
20.00000000000051
 31
0
 12
0
 22
0
 32
0
 70
0
  1
%%c<>
 13
80.20000000000002
 23
1.400000000000489
 33
0
 14
80.20000000000005
 24
38.60000000000048
 34
0
 50
90
 53
0
  0
DIMENSION
  8
1
  6
CONTINUOUS
 62
2
  2
*D12
  3
DMST_2
 10
100.199999999928
 20
12.69999999999993
 30
0
 11
97.59999999992796
 21
20
 31
0
 12
0
 22
0
 32
0
 70
0
  1
%%c<>
 13
84.19999999992797
 23
27.30000000000007
 33
0
 14
84.19999999992797
 24
12.69999999999993
 34
0
 50
90
 53
0
  0
DIMENSION
  8
1
  6
CONTINUOUS
 62
2
  2
*D13
  3
DMST_1
 10
184.1999999999999
 20
37.00000000000117
 30
0
 11
181.5999999999999
 21
20.00000000000057
 31
0
 12
0
 22
0
 32
0
 70
0
  1
(<>
 13
152.5861380996317
 23
3
 33
0
 14
152.5861380996317
 24
37.00000000000119
 34
0
 50
90
 53
0
  0
DIMENSION
  8
1
  6
CONTINUOUS
 62
2
  2
*D14
  3
DMST_2
 10
120.199999999928
 20
0.8000000000000114
 30
0
 11
117.599999999928
 21
20
 31
0
 12
0
 22
0
 32
0
 70
0
  1
%%c<>
 13
65.59999999999991
 23
39.19999999999999
 33
0
 14
65.59999999999991
 24
0.8000000000000114
 34
0
 50
90
 53
0
  0
DIMENSION
  8
1
  6
CONTINUOUS
 62
2
  2
*D15
  3
DMST_5
 10
-105
 20
20
 30
0
 11
-107.6
 21
12.6934782051219
 31
0
 12
0
 22
0
 32
0
 70
0
 13
-138
 23
30
 33
0
 14
-115
 24
20
 34
0
 50
90
 53
0
  0
DIMENSION
  8
1
  6
CONTINUOUS
 62
2
  2
*D16
  3
DMST_4
 10
-174.75
 20
60.49999999999999
 30
0
 11
-150
 21
63.09999999999999
 31
0
 12
0
 22
0
 32
0
 70
0
 13
-125.25
 23
52.2959337064361
 33
0
 14
-174.75
 24
52.2959337064361
 34
0
 53
0
  0
ENDSEC
  0
EOF
